osu file format v14

[General]
AudioFilename: audio.mp3
AudioLeadIn: 0
PreviewTime: 12845
Countdown: 0
SampleSet: Soft
StackLeniency: 0.7
Mode: 3
LetterboxInBreaks: 0
SpecialStyle: 0
WidescreenStoryboard: 1

[Editor]
DistanceSpacing: 1
BeatDivisor: 4
GridSize: 16
TimelineZoom: 2.1

[Metadata]
Title:perfect feat. oaf1 & dreamcache
TitleUnicode:perfect feat. oaf1 & dreamcache
Artist:capoxxo
ArtistUnicode:capoxxo
Creator:AchsanLovers
Version:EZ
Source:
Tags:oaafyy Sherly ft. dxsh hyperpop techno hip hop rap english pop electronic dance music edm
BeatmapID:3641336
BeatmapSetID:1777995

[Difficulty]
HPDrainRate:6
CircleSize:4
OverallDifficulty:6
ApproachRate:5
SliderMultiplier:1.4
SliderTickRate:1

[Events]
//Background and Video events
0,0,"bg.jpg",0,0
Video,1010,"BGA.mp4"
//Break Periods
//Storyboard Layer 0 (Background)
//Storyboard Layer 1 (Fail)
//Storyboard Layer 2 (Pass)
//Storyboard Layer 3 (Foreground)
//Storyboard Layer 4 (Overlay)
//Storyboard Sound Samples

[TimingPoints]
1010,372.774999223385,4,2,1,50,1,0

[HitObjects]
64,192,1010,5,0,0:0:0:50:kick.wav
64,192,1382,1,0,0:0:0:50:kick.wav
64,192,1755,1,0,0:0:0:50:kick.wav
448,192,2128,1,0,0:0:0:50:kick.wav
192,192,2501,1,0,0:0:0:50:kick.wav
192,192,2873,1,0,0:0:0:50:kick.wav
192,192,3246,1,0,0:0:0:50:kick.wav
320,192,3619,1,0,0:0:0:50:kick.wav
64,192,3992,1,0,0:0:0:50:kick.wav
448,192,4364,1,0,0:0:0:50:kick.wav
448,192,4737,1,0,0:0:0:50:kick.wav
192,192,5110,1,0,0:0:0:50:kick.wav
320,192,5483,1,0,0:0:0:50:kick.wav
320,192,5856,1,0,0:0:0:50:kick.wav
320,192,6228,1,0,0:0:0:50:kick.wav
192,192,6601,1,0,0:0:0:50:kick.wav
64,192,6974,1,0,0:0:0:50:kick.wav
64,192,7347,1,0,0:0:0:50:kick.wav
64,192,7719,1,0,0:0:0:50:kick.wav
448,192,8092,1,0,0:0:0:50:kick.wav
192,192,8465,1,0,0:0:0:50:kick.wav
192,192,8838,1,0,0:0:0:50:kick.wav
192,192,9211,1,0,0:0:0:50:kick.wav
320,192,9583,1,0,0:0:0:50:kick.wav
64,192,9956,1,0,0:0:0:50:kick.wav
448,192,10329,1,0,0:0:0:50:kick.wav
448,192,10702,1,0,0:0:0:50:kick.wav
192,192,11074,1,0,0:0:0:50:kick.wav
320,192,11447,1,0,0:0:0:0:
320,192,11820,1,0,0:0:0:0:
320,192,12193,1,0,0:0:0:0:
192,192,12566,1,0,0:0:0:60:clap long.wav
448,192,12566,1,0,0:0:0:0:
64,192,12938,1,0,0:0:0:50:pistol.wav
320,192,12938,1,0,0:0:0:0:
448,192,13311,1,0,0:0:0:50:clap.wav
192,192,13684,1,0,0:0:0:50:kick.wav
320,192,14057,1,0,0:0:0:50:clap.wav
64,192,14429,1,0,0:0:0:50:kick.wav
448,192,14802,1,0,0:0:0:50:clap.wav
192,192,15175,1,0,0:0:0:50:kick.wav
320,192,15548,1,0,0:0:0:50:clap.wav
64,192,15920,1,0,0:0:0:50:kick.wav
192,192,16293,1,0,0:0:0:50:clap.wav
448,192,16666,1,0,0:0:0:50:kick.wav
64,192,17039,1,0,0:0:0:50:clap.wav
320,192,17412,1,0,0:0:0:50:kick.wav
192,192,17784,1,0,0:0:0:50:clap.wav
64,192,18157,1,0,0:0:0:50:kick.wav
448,192,18530,1,0,0:0:0:50:clap.wav
320,192,18716,1,0,0:0:0:60:clap long.wav
64,192,18903,1,0,0:0:0:50:kick.wav
192,192,19275,1,0,0:0:0:50:clap.wav
448,192,19648,1,0,0:0:0:50:kick.wav
320,192,20021,1,0,0:0:0:50:clap.wav
64,192,20394,1,0,0:0:0:50:kick.wav
192,192,20767,1,0,0:0:0:50:clap.wav
320,192,21139,1,0,0:0:0:50:kick.wav
448,192,21512,1,0,0:0:0:50:clap.wav
192,192,21885,1,0,0:0:0:50:kick.wav
320,192,22258,1,0,0:0:0:50:clap.wav
64,192,22630,1,0,0:0:0:50:kick.wav
448,192,23003,1,0,0:0:0:50:clap.wav
64,192,23376,1,0,0:0:0:50:kick.wav
320,192,23749,1,0,0:0:0:50:clap.wav
192,192,24122,1,0,0:0:0:50:kick.wav
448,192,24494,1,0,0:0:0:50:clap.wav
192,192,24867,1,0,0:0:0:50:pistol.wav
320,192,24867,1,0,0:0:0:0:
64,192,25240,1,0,0:0:0:50:clap.wav
320,192,25613,1,0,0:0:0:50:kick.wav
192,192,25985,1,0,0:0:0:50:clap.wav
448,192,26358,1,0,0:0:0:50:kick.wav
192,192,26731,1,0,0:0:0:50:clap.wav
320,192,27104,1,0,0:0:0:50:kick.wav
64,192,27477,1,0,0:0:0:50:clap.wav
448,192,27849,1,0,0:0:0:50:kick.wav
320,192,28222,1,0,0:0:0:50:clap.wav
192,192,28595,1,0,0:0:0:50:kick.wav
64,192,28968,1,0,0:0:0:50:clap.wav
320,192,29340,1,0,0:0:0:50:kick.wav
448,192,29713,1,0,0:0:0:50:clap.wav
192,192,30086,1,0,0:0:0:50:kick.wav
320,192,30459,1,0,0:0:0:50:clap.wav
192,192,30645,1,0,0:0:0:60:clap long.wav
64,192,30831,1,0,0:0:0:50:kick.wav
320,192,31204,1,0,0:0:0:50:clap.wav
448,192,31577,1,0,0:0:0:50:kick.wav
64,192,31950,1,0,0:0:0:50:clap.wav
320,192,32323,1,0,0:0:0:50:kick.wav
192,192,32695,1,0,0:0:0:50:clap.wav
64,192,33068,1,0,0:0:0:50:kick.wav
448,192,33441,1,0,0:0:0:50:clap.wav
192,192,33814,1,0,0:0:0:50:kick.wav
448,192,34186,1,0,0:0:0:50:clap.wav
64,192,34559,1,0,0:0:0:50:kick.wav
320,192,34932,1,0,0:0:0:50:clap.wav
192,192,35305,1,0,0:0:0:50:kick.wav
448,192,35678,1,0,0:0:0:50:clap.wav
192,192,36050,1,0,0:0:0:50:kick.wav
320,192,36423,1,0,0:0:0:50:clap.wav
64,192,36796,1,0,0:0:0:50:pistol.wav
448,192,36796,1,0,0:0:0:0:
192,192,37169,1,0,0:0:0:50:clap.wav
320,192,37541,1,0,0:0:0:50:kick.wav
64,192,37914,1,0,0:0:0:50:clap.wav
448,192,38287,1,0,0:0:0:50:kick.wav
192,192,38660,1,0,0:0:0:50:clap.wav
320,192,39033,1,0,0:0:0:50:kick.wav
64,192,39405,1,0,0:0:0:50:clap.wav
448,192,39778,1,0,0:0:0:50:kick.wav
320,192,40151,1,0,0:0:0:50:clap.wav
64,192,40524,1,0,0:0:0:50:kick.wav
192,192,40896,1,0,0:0:0:50:clap.wav
320,192,41269,1,0,0:0:0:50:kick.wav
448,192,41642,1,0,0:0:0:50:clap.wav
192,192,42015,1,0,0:0:0:50:kick.wav
320,192,42388,1,0,0:0:0:50:clap.wav
64,192,42760,1,0,0:0:0:50:kick.wav
192,192,43133,1,0,0:0:0:50:clap.wav
448,192,43506,1,0,0:0:0:50:kick.wav
320,192,43879,1,0,0:0:0:50:clap.wav
64,192,44251,1,0,0:0:0:50:kick.wav
448,192,44624,1,0,0:0:0:50:clap.wav
192,192,44997,1,0,0:0:0:50:kick.wav
320,192,45370,1,0,0:0:0:50:clap.wav
448,192,45742,1,0,0:0:0:50:kick.wav
192,192,46115,1,0,0:0:0:50:clap.wav
448,192,46488,1,0,0:0:0:50:kick.wav
64,192,46861,1,0,0:0:0:50:clap.wav
320,192,47234,1,0,0:0:0:50:kick.wav
192,192,47606,1,0,0:0:0:50:clap.wav
320,192,47979,1,0,0:0:0:50:kick.wav
192,192,48352,1,0,0:0:0:50:clap.wav
64,192,48725,1,0,0:0:0:50:pistol.wav
448,192,48725,1,0,0:0:0:0:
192,192,49097,1,0,0:0:0:50:kick.wav
448,192,49470,1,0,0:0:0:50:kick.wav
64,192,49843,1,0,0:0:0:50:kick.wav
320,192,50216,1,0,0:0:0:50:kick.wav
64,192,50589,1,0,0:0:0:50:kick.wav
448,192,50961,1,0,0:0:0:50:kick.wav
64,192,51334,1,0,0:0:0:50:kick.wav
320,192,51707,1,0,0:0:0:50:kick.wav
192,192,52080,1,0,0:0:0:50:kick.wav
320,192,52825,1,0,0:0:0:50:kick.wav
448,192,53198,1,0,0:0:0:50:kick.wav
64,192,53571,1,0,0:0:0:50:kick.wav
192,192,53944,1,0,0:0:0:50:kick.wav
320,192,54316,1,0,0:0:0:50:kick.wav
64,192,54689,1,0,0:0:0:50:kick.wav
448,192,55435,1,0,0:0:0:50:kick.wav
320,192,55807,1,0,0:0:0:50:kick.wav
64,192,56180,1,0,0:0:0:50:kick.wav
320,192,56553,1,0,0:0:0:50:kick.wav
192,192,56926,1,0,0:0:0:50:kick.wav
448,192,57299,1,0,0:0:0:50:kick.wav
64,192,57671,1,0,0:0:0:50:kick.wav
448,192,58417,1,0,0:0:0:50:kick.wav
64,192,59162,1,0,0:0:0:0:
192,192,60281,1,0,0:0:0:60:clap long.wav
448,192,60281,1,0,0:0:0:0:
64,192,60653,1,0,0:0:0:50:kick.wav
320,192,60653,1,0,0:0:0:0:
448,192,61026,1,0,0:0:0:50:clap.wav
192,192,61399,1,0,0:0:0:50:kick.wav
320,192,61772,1,0,0:0:0:50:clap.wav
64,192,62145,1,0,0:0:0:50:kick.wav
448,192,62517,1,0,0:0:0:50:clap.wav
192,192,62890,1,0,0:0:0:50:kick.wav
320,192,63263,1,0,0:0:0:50:clap.wav
64,192,63636,1,0,0:0:0:50:kick.wav
192,192,64008,1,0,0:0:0:50:clap.wav
448,192,64381,1,0,0:0:0:50:kick.wav
64,192,64754,1,0,0:0:0:50:clap.wav
320,192,65127,1,0,0:0:0:50:kick.wav
192,192,65500,1,0,0:0:0:50:clap.wav
64,192,65872,1,0,0:0:0:50:kick.wav
448,192,66245,1,0,0:0:0:50:clap.wav
320,192,66432,1,0,0:0:0:60:clap long.wav
64,192,66618,1,0,0:0:0:50:kick.wav
192,192,66991,1,0,0:0:0:50:clap.wav
320,192,67363,1,0,0:0:0:50:kick.wav
448,192,67736,1,0,0:0:0:50:clap.wav
64,192,68109,1,0,0:0:0:50:kick.wav
192,192,68482,1,0,0:0:0:50:clap.wav
320,192,68855,1,0,0:0:0:50:kick.wav
448,192,69227,1,0,0:0:0:50:clap.wav
192,192,69600,1,0,0:0:0:50:kick.wav
320,192,69973,1,0,0:0:0:50:clap.wav
64,192,70346,1,0,0:0:0:50:kick.wav
448,192,70718,1,0,0:0:0:50:clap.wav
64,192,71091,1,0,0:0:0:50:kick.wav
320,192,71464,1,0,0:0:0:50:clap.wav
192,192,71837,1,0,0:0:0:50:kick.wav
320,192,72210,1,0,0:0:0:60:clap long.wav
448,192,72210,1,0,0:0:0:0:
64,192,72582,1,0,0:0:0:50:pistol.wav
192,192,72582,1,0,0:0:0:0:
448,192,72955,1,0,0:0:0:50:clap.wav
320,192,73328,1,0,0:0:0:50:kick.wav
192,192,73701,1,0,0:0:0:50:clap.wav
64,192,74073,1,0,0:0:0:50:kick.wav
448,192,74446,1,0,0:0:0:50:clap.wav
320,192,74819,1,0,0:0:0:50:kick.wav
64,192,75192,1,0,0:0:0:50:clap.wav
448,192,75564,1,0,0:0:0:50:kick.wav
64,192,75937,1,0,0:0:0:50:clap.wav
320,192,76310,1,0,0:0:0:50:kick.wav
192,192,76683,1,0,0:0:0:50:clap.wav
320,192,77056,1,0,0:0:0:50:kick.wav
448,192,77428,1,0,0:0:0:50:clap.wav
192,192,77801,1,0,0:0:0:50:kick.wav
320,192,78174,1,0,0:0:0:50:clap.wav
192,192,78360,1,0,0:0:0:60:clap long.wav
64,192,78547,1,0,0:0:0:50:kick.wav
320,192,78919,1,0,0:0:0:50:clap.wav
448,192,79292,1,0,0:0:0:50:kick.wav
64,192,79665,1,0,0:0:0:50:clap.wav
320,192,80038,1,0,0:0:0:50:kick.wav
192,192,80411,1,0,0:0:0:50:clap.wav
64,192,80783,1,0,0:0:0:50:kick.wav
448,192,81156,1,0,0:0:0:50:clap.wav
192,192,81529,1,0,0:0:0:50:kick.wav
448,192,81902,1,0,0:0:0:50:clap.wav
64,192,82274,1,0,0:0:0:50:kick.wav
320,192,82647,1,0,0:0:0:50:clap.wav
192,192,83020,1,0,0:0:0:50:kick.wav
448,192,83393,1,0,0:0:0:50:clap.wav
192,192,83766,1,0,0:0:0:50:kick.wav
320,192,84138,1,0,0:0:0:50:clap.wav
64,192,84511,1,0,0:0:0:50:pistol.wav
448,192,84511,1,0,0:0:0:0:
192,192,84884,1,0,0:0:0:50:clap.wav
320,192,85257,1,0,0:0:0:50:kick.wav
64,192,85629,1,0,0:0:0:50:clap.wav
320,192,86002,1,0,0:0:0:50:kick.wav
192,192,86375,1,0,0:0:0:50:clap.wav
448,192,86748,1,0,0:0:0:50:kick.wav
64,192,87121,1,0,0:0:0:50:clap.wav
320,192,87493,1,0,0:0:0:50:kick.wav
448,192,87866,1,0,0:0:0:50:clap.wav
192,192,88239,1,0,0:0:0:50:kick.wav
64,192,88612,1,0,0:0:0:50:clap.wav
320,192,88984,1,0,0:0:0:50:kick.wav
192,192,89357,1,0,0:0:0:50:clap.wav
448,192,89730,1,0,0:0:0:50:kick.wav
64,192,90103,1,0,0:0:0:50:clap.wav
320,192,90475,1,0,0:0:0:50:kick.wav
64,192,90848,1,0,0:0:0:50:clap.wav
320,192,91221,1,0,0:0:0:50:kick.wav
64,192,91594,1,0,0:0:0:50:clap.wav
448,192,91967,1,0,0:0:0:50:kick.wav
192,192,92339,1,0,0:0:0:50:clap.wav
448,192,92712,1,0,0:0:0:50:kick.wav
192,192,93085,1,0,0:0:0:50:clap.wav
320,192,93458,1,0,0:0:0:50:kick.wav
64,192,93830,1,0,0:0:0:50:clap.wav
448,192,94203,1,0,0:0:0:50:kick.wav
192,192,94576,1,0,0:0:0:50:clap.wav
320,192,94949,1,0,0:0:0:50:kick.wav
64,192,95322,1,0,0:0:0:50:clap.wav
448,192,95694,1,0,0:0:0:50:kick.wav
192,192,96067,1,0,0:0:0:50:clap.wav
64,192,96440,1,0,0:0:0:50:pistol.wav
320,192,96440,1,0,0:0:0:0:
448,192,96813,1,0,0:0:0:50:kick.wav
192,192,97185,1,0,0:0:0:50:kick.wav
320,192,97558,1,0,0:0:0:50:kick.wav
64,192,97931,1,0,0:0:0:50:kick.wav
192,192,98304,1,0,0:0:0:50:kick.wav
320,192,98677,1,0,0:0:0:50:kick.wav
448,192,99049,1,0,0:0:0:50:kick.wav
192,192,99422,1,0,0:0:0:50:kick.wav
320,192,99795,1,0,0:0:0:50:kick.wav
64,192,100168,1,0,0:0:0:50:kick.wav
448,192,100540,1,0,0:0:0:50:kick.wav
64,192,100913,1,0,0:0:0:50:kick.wav
320,192,101286,1,0,0:0:0:50:kick.wav
192,192,101659,1,0,0:0:0:50:kick.wav
448,192,102032,1,0,0:0:0:50:kick.wav
64,192,102404,1,0,0:0:0:50:kick.wav
320,192,102777,1,0,0:0:0:50:kick.wav
192,192,103150,1,0,0:0:0:50:kick.wav
320,192,103523,1,0,0:0:0:50:kick.wav
64,192,103895,1,0,0:0:0:50:kick.wav
448,192,104268,1,0,0:0:0:50:kick.wav
320,192,104641,1,0,0:0:0:50:kick.wav
192,192,105014,1,0,0:0:0:50:kick.wav
448,192,105386,1,0,0:0:0:50:kick.wav
64,192,105759,1,0,0:0:0:50:kick.wav
320,192,106132,1,0,0:0:0:50:kick.wav
192,192,106505,1,0,0:0:0:50:kick.wav
448,192,106878,1,0,0:0:0:0:
192,192,108369,1,0,0:0:0:50:pistol.wav
448,192,108369,1,0,0:0:0:0:
64,192,108741,1,0,0:0:0:50:clap.wav
320,192,109114,1,0,0:0:0:50:kick.wav
192,192,109487,1,0,0:0:0:50:clap.wav
448,192,109860,1,0,0:0:0:50:kick.wav
64,192,110233,1,0,0:0:0:50:clap.wav
320,192,110605,1,0,0:0:0:50:kick.wav
192,192,110978,1,0,0:0:0:50:clap.wav
448,192,111351,1,0,0:0:0:50:kick.wav
320,192,111724,1,0,0:0:0:50:clap.wav
64,192,112096,1,0,0:0:0:50:kick.wav
448,192,112469,1,0,0:0:0:50:clap.wav
192,192,112842,1,0,0:0:0:50:kick.wav
320,192,113215,1,0,0:0:0:50:clap.wav
64,192,113588,1,0,0:0:0:50:kick.wav
448,192,113960,1,0,0:0:0:50:clap.wav
320,192,114147,1,0,0:0:0:60:clap long.wav
64,192,114333,1,0,0:0:0:50:kick.wav
448,192,114706,1,0,0:0:0:50:clap.wav
192,192,115079,1,0,0:0:0:50:kick.wav
320,192,115451,1,0,0:0:0:50:clap.wav
448,192,115824,1,0,0:0:0:50:kick.wav
64,192,116197,1,0,0:0:0:50:clap.wav
192,192,116570,1,0,0:0:0:50:kick.wav
320,192,116943,1,0,0:0:0:50:clap.wav
448,192,117315,1,0,0:0:0:50:kick.wav
192,192,117688,1,0,0:0:0:50:clap.wav
448,192,118061,1,0,0:0:0:50:kick.wav
64,192,118434,1,0,0:0:0:50:clap.wav
320,192,118806,1,0,0:0:0:50:kick.wav
192,192,119179,1,0,0:0:0:50:clap.wav
64,192,119552,1,0,0:0:0:50:kick.wav
448,192,119925,1,0,0:0:0:50:clap.wav
192,192,120297,1,0,0:0:0:50:pistol.wav
320,192,120297,1,0,0:0:0:0:
64,192,120670,1,0,0:0:0:50:clap.wav
320,192,121043,1,0,0:0:0:50:kick.wav
192,192,121416,1,0,0:0:0:50:clap.wav
448,192,121789,1,0,0:0:0:50:kick.wav
64,192,122161,1,0,0:0:0:50:clap.wav
192,192,122534,1,0,0:0:0:50:kick.wav
448,192,122907,1,0,0:0:0:50:clap.wav
64,192,123280,1,0,0:0:0:50:kick.wav
192,192,123652,1,0,0:0:0:50:clap.wav
320,192,124025,1,0,0:0:0:50:kick.wav
448,192,124398,1,0,0:0:0:50:clap.wav
192,192,124771,1,0,0:0:0:50:kick.wav
64,192,125144,1,0,0:0:0:50:clap.wav
320,192,125516,1,0,0:0:0:50:kick.wav
192,192,125889,1,0,0:0:0:50:clap.wav
320,192,126076,1,0,0:0:0:60:clap long.wav
448,192,126262,1,0,0:0:0:50:kick.wav
192,192,126635,1,0,0:0:0:50:clap.wav
64,192,127007,1,0,0:0:0:50:kick.wav
448,192,127380,1,0,0:0:0:50:clap.wav
192,192,127753,1,0,0:0:0:50:kick.wav
320,192,128126,1,0,0:0:0:50:clap.wav
448,192,128499,1,0,0:0:0:50:kick.wav
64,192,128871,1,0,0:0:0:50:clap.wav
320,192,129244,1,0,0:0:0:50:kick.wav
64,192,129617,1,0,0:0:0:50:clap.wav
448,192,129990,1,0,0:0:0:50:kick.wav
192,192,130362,1,0,0:0:0:50:clap.wav
320,192,130735,1,0,0:0:0:50:kick.wav
64,192,131108,1,0,0:0:0:50:clap.wav
320,192,131481,1,0,0:0:0:50:kick.wav
192,192,131854,1,0,0:0:0:50:clap.wav
64,192,132226,1,0,0:0:0:50:pistol.wav
448,192,132226,1,0,0:0:0:0:
