osu file format v14

[General]
AudioFilename: audio.mp3
AudioLeadIn: 0
PreviewTime: 48761
Countdown: 0
SampleSet: Normal
StackLeniency: 0.3
Mode: 0
LetterboxInBreaks: 0
WidescreenStoryboard: 1

[Editor]
DistanceSpacing: 1.1
BeatDivisor: 4
GridSize: 4
TimelineZoom: 1.2

[Metadata]
Title:Koigahara no Kassen
TitleUnicode:恋ヶ原之合戦
Artist:capitaro
ArtistUnicode:かぴたろう
Creator:Zero__wind
Version:Normal
Source:
Tags:Vocaloid 未来和歌集 初音ミク Hatsune Miku Nardoxyribonucleic
BeatmapID:1287624
BeatmapSetID:466053

[Difficulty]
HPDrainRate:3.5
CircleSize:3
OverallDifficulty:4
ApproachRate:5
SliderMultiplier:0.9
SliderTickRate:1

[Events]
//Background and Video events
0,0,"bg.jpg",0,0
//Break Periods
2,75432,79032
2,156396,161442
//Storyboard Layer 0 (Background)
//Storyboard Layer 1 (Fail)
//Storyboard Layer 2 (Pass)
//Storyboard Layer 3 (Foreground)
//Storyboard Sound Samples

[TimingPoints]
-2840,361.44578313253,4,1,1,70,1,0
14328,-100,4,1,1,50,0,0
46497,-100,4,1,1,60,0,0
49208,-100,4,1,1,70,0,1
59147,-100,4,1,1,60,0,0
60774,-100,4,1,1,70,0,1
63666,-100,4,1,1,70,0,0
75051,-100,4,1,1,50,0,0
107220,-100,4,1,1,60,0,0
109931,-100,4,1,1,70,0,1
119870,-100,4,1,1,60,0,0
144629,-100,4,1,1,70,0,0
156196,-100,4,1,1,60,0,0
162702,361.44578313253,4,1,1,70,1,1
172641,-100,4,1,1,60,0,0
174268,-100,4,1,1,70,0,1
180051,-100,4,1,1,70,0,0

[Colours]
Combo1 : 146,222,146
Combo2 : 237,127,155
Combo3 : 129,184,252
Combo4 : 242,140,242

[HitObjects]
348,56,2220,6,0,P|380:124|352:184,1,135,2|0,0:2|0:0,0:0:0:0:
324,212,2943,2,0,L|220:200,1,90,4|8,2:0|0:0,0:0:0:0:
136,196,3666,2,0,L|32:208,1,90,0|8,0:0|0:0,0:0:0:0:
24,304,4388,2,0,P|64:324|116:312,1,90,2|8,0:2|0:0,0:0:0:0:
152,300,4931,1,0,0:0:0:0:
200,296,5111,2,0,L|299:307,1,90,2|8,0:2|0:0,0:0:0:0:
375,358,5834,6,0,P|388:315|384:270,1,90,4|8,0:2|0:0,0:0:0:0:
303,211,6557,2,0,P|294:168|303:124,1,90,0|8,0:0|0:0,0:0:0:0:
390,68,7280,2,0,L|480:72,1,90,2|8,0:2|0:0,0:0:0:0:
503,118,7822,1,0,0:0:0:0:
480,164,8003,2,0,L|378:168,1,90,2|8,0:2|0:0,0:0:0:0:
303,124,8726,6,0,P|251:105|207:113,1,90,4|8,0:2|0:0,0:0:0:0:
192,204,9449,2,0,P|244:223|288:215,1,90,0|8,0:0|0:0,0:0:0:0:
372,248,10172,2,0,L|356:348,1,90,2|8,0:2|0:0,0:0:0:0:
320,368,10714,1,0,0:0:0:0:
272,380,10894,2,0,L|172:364,1,90,2|8,0:2|0:0,0:0:0:0:
144,276,11617,6,0,P|136:229|162:189,1,90,4|8,0:2|0:0,0:0:0:0:
240,141,12340,2,0,P|282:156|304:194,1,90,0|8,0:0|0:0,0:0:0:0:
307,293,13063,2,0,L|262:304,1,45,4|2,0:2|0:0,0:0:0:0:
216,312,13425,1,4,0:2:0:0:
145,236,13786,2,0,L|190:224,1,45,12|2,0:2|0:0,0:0:0:0:
237,217,14148,1,12,0:2:0:0:
331,183,14509,6,0,P|389:215|408:279,1,135,4|0,0:2|1:0,0:0:0:0:
401,329,15232,1,0,0:2:0:0:
312,368,15593,1,0,0:0:0:0:
224,320,15955,2,0,L|88:300,1,135,2|0,0:2|0:0,0:0:0:0:
40,288,16678,1,0,0:0:0:0:
16,192,17039,1,0,0:0:0:0:
64,104,17400,6,0,P|148:104|188:136,1,135,2|0,0:2|0:0,0:0:0:0:
221,168,18123,1,0,0:0:0:0:
312,212,18485,1,0,0:0:0:0:
403,176,18846,2,0,P|410:154|412:132,1,45,2|0,0:2|0:0,0:0:0:0:
409,82,19208,2,0,P|402:56|392:35,2,45,0|0|0,0:0|0:0|0:0,0:0:0:0:
328,136,19931,1,0,0:0:0:0:
236,104,20292,6,0,L|92:120,1,135,4|0,0:2|0:0,0:0:0:0:
52,128,21015,1,0,0:0:0:0:
20,220,21376,1,0,0:0:0:0:
84,296,21738,2,0,L|228:280,1,135,2|0,0:2|0:0,0:0:0:0:
268,272,22461,1,0,0:0:0:0:
300,180,22822,1,0,0:0:0:0:
320,84,23184,6,0,P|368:32|432:24,1,135,2|0,0:2|0:0,0:0:0:0:
476,40,23906,1,0,0:0:0:0:
512,132,24268,1,0,0:0:0:0:
488,228,24629,2,0,L|476:284,1,45,0|0,0:0|0:0,0:0:0:0:
472,320,24991,2,0,L|484:376,2,45,0|0|4,0:0|0:0|0:2,0:0:0:0:
384,272,25714,2,0,L|332:264,1,45,4|8,0:3|0:0,0:0:0:0:
292,260,26075,6,0,L|200:260,1,90,6|8,0:2|0:0,0:0:0:0:
152,264,26617,2,0,L|100:272,1,45,0|0,0:0|0:0,0:0:0:0:
24,324,27159,1,8,0:0:0:0:
20,224,27521,2,0,P|24:160|48:132,1,90,0|8,0:0|0:0,0:0:0:0:
84,124,28063,2,0,L|136:132,1,45,0|0,0:0|0:0,0:0:0:0:
224,156,28605,1,8,0:0:0:0:
300,96,28967,6,0,P|344:76|392:80,1,90,2|8,0:2|0:0,0:0:0:0:
428,104,29509,2,0,L|472:140,1,45,0|0,0:0|0:0,0:0:0:0:
492,228,30051,1,8,0:0:0:0:
432,308,30413,2,0,P|404:312|384:308,1,45,0|0,0:0|0:0,0:0:0:0:
348,280,30774,2,0,P|325:275|303:278,2,45,8|0|0,0:0|0:0|0:0,0:0:0:0:
320,376,31497,1,8,0:0:0:0:
236,324,31858,6,0,P|222:281|232:238,1,90,6|8,0:2|0:0,0:0:0:0:
258,198,32400,2,0,P|279:188|306:187,1,45,0|0,0:0|0:0,0:0:0:0:
400,208,32943,1,8,0:0:0:0:
492,172,33304,2,0,P|505:129|495:86,1,90,0|8,0:0|0:0,0:0:0:0:
469,46,33846,2,0,P|448:36|421:34,1,45,0|0,0:0|0:0,0:0:0:0:
328,55,34389,1,8,0:0:0:0:
232,68,34750,6,0,L|136:52,1,90,2|8,0:2|0:0,0:0:0:0:
96,44,35292,2,0,P|69:48|52:58,1,45,0|0,0:0|0:0,0:0:0:0:
0,140,35834,1,8,0:0:0:0:
53,223,36196,2,0,P|73:233|95:236,1,45,2|0,0:2|0:0,0:0:0:0:
144,223,36557,2,0,P|166:226|186:236,2,45,8|0|12,0:0|0:0|0:2,0:0:0:0:
136,323,37280,1,4,0:3:0:0:
236,331,37641,6,0,L|376:315,1,135,4|0,0:2|0:0,0:0:0:0:
420,304,38364,1,2,0:2:0:0:
472,220,38726,1,10,0:2:0:0:
472,220,38906,2,0,P|440:184|396:168,2,90,0|2|0,0:0|0:2|0:0,0:0:0:0:
488,268,39810,1,2,0:2:0:0:
448,360,40172,1,8,0:0:0:0:
352,380,40533,6,0,P|284:368|254:311,1,135,4|0,0:2|0:0,0:0:0:0:
248,264,41256,1,2,0:2:0:0:
284,172,41617,1,10,0:2:0:0:
284,172,41798,2,0,L|388:184,2,90,0|2|0,0:0|0:2|0:0,0:0:0:0:
236,172,42702,1,2,0:2:0:0:
156,112,43063,1,8,0:0:0:0:
56,108,43425,6,0,P|4:152|4:220,1,135,4|0,0:2|0:0,0:0:0:0:
24,260,44147,1,2,0:2:0:0:
120,292,44509,1,2,0:2:0:0:
120,292,44690,2,0,L|224:276,1,90,0|2,0:0|0:2,0:0:0:0:
260,276,45232,2,0,L|304:292,2,45,2|0|2,0:2|0:0|0:2,0:0:0:0:
228,184,45955,2,0,L|232:137,2,45,4|8|0,0:2|0:0|0:0,0:0:0:0:
180,200,46497,6,0,L|128:192,1,45,12|12,0:2|0:2,0:0:0:0:
100,288,47039,2,0,L|144:294,1,45,12|12,0:2|0:2,0:0:0:0:
244,292,47581,2,0,P|304:276|340:292,1,90,12|0,0:2|0:0,0:0:0:0:
372,308,48123,2,0,L|376:352,2,45,2|2|4,0:2|0:2|0:2,0:0:0:0:
376,208,48846,2,0,L|380:164,1,45,0|0,0:0|0:0,0:0:0:0:
388,116,49208,6,0,P|424:92|476:100,1,90,4|2,0:2|0:2,0:0:0:0:
512,120,49750,2,0,P|525:160|504:209,1,90,2|0,0:0|0:0,0:0:0:0:
484,244,50292,1,2,0:2:0:0:
388,268,50653,2,0,L|344:260,1,45,2|0,0:2|0:0,0:0:0:0:
296,248,51015,2,0,L|252:256,2,45,2|2|0,0:2|0:0|0:0,0:0:0:0:
348,164,51738,2,0,P|357:133|352:105,1,45,2|2,0:2|0:0,0:0:0:0:
332,76,52099,6,0,L|244:60,1,90,4|2,0:2|0:2,0:0:0:0:
196,56,52641,2,0,L|108:72,1,90,2|0,0:0|0:0,0:0:0:0:
28,132,53364,2,0,P|61:160|105:171,1,90,2|2,0:0|0:2,0:0:0:0:
156,164,53906,2,0,L|148:212,1,45,2|8,0:2|0:0,0:0:0:0:
144,260,54268,1,4,0:2:0:0:
236,296,54629,2,0,L|284:288,1,45,2|8,0:2|0:0,0:0:0:0:
320,260,54991,6,0,P|340:208|328:168,1,90,4|2,0:2|0:2,0:0:0:0:
316,128,55533,2,0,P|270:95|229:96,1,90,2|0,0:0|0:0,0:0:0:0:
188,100,56075,1,2,0:2:0:0:
136,184,56437,2,0,L|128:232,1,45,2|0,0:2|0:0,0:0:0:0:
131,277,56798,2,0,L|123:325,2,45,2|2|2,0:2|0:0|0:2,0:0:0:0:
32,260,57521,2,0,L|24:215,1,45,4|2,0:2|0:0,0:0:0:0:
24,168,57882,6,0,P|37:125|76:100,1,90,4|8,0:2|0:0,0:0:0:0:
124,96,58425,2,0,L|228:108,1,90,2|2,0:0|0:2,0:0:0:0:
260,120,58967,1,8,0:0:0:0:
260,120,59147,1,12,0:2:0:0:
260,120,60774,6,0,B|240:184|240:184|264:264,2,135,12|12|12,0:2|0:2|0:2,0:0:0:0:
296,88,62039,1,12,0:2:0:0:
344,76,62220,2,0,B|409:90|409:90|466:151,2,135,12|12|4,0:2|0:2|0:2,0:0:0:0:
296,88,63485,1,10,0:2:0:0:
260,120,63666,6,0,P|213:126|173:104,1,90,4|8,0:2|0:0,0:0:0:0:
140,200,64388,2,0,L|120:292,1,90,0|8,0:0|0:0,0:0:0:0:
220,260,65111,2,0,P|260:279|303:270,1,90,2|8,0:2|0:0,0:0:0:0:
336,231,65653,1,0,0:0:0:0:
356,184,65834,2,0,L|364:92,1,90,2|8,0:2|0:0,0:0:0:0:
464,72,66557,6,0,L|456:164,1,90,4|8,0:2|0:0,0:0:0:0:
440,260,67280,2,0,L|369:319,1,90,0|8,0:0|0:0,0:0:0:0:
290,375,68003,2,0,L|197:367,1,90,2|8,0:2|0:0,0:0:0:0:
164,332,68545,1,0,0:0:0:0:
140,288,68726,2,0,P|128:240|144:204,1,90,2|8,0:2|0:0,0:0:0:0:
232,152,69449,6,0,P|244:104|228:68,1,90,4|8,0:2|0:0,0:0:0:0:
140,24,70172,2,0,L|48:32,1,90,0|8,0:0|0:0,0:0:0:0:
0,120,70894,2,0,L|92:128,1,90,2|8,0:2|0:0,0:0:0:0:
136,148,71437,1,0,0:0:0:0:
169,185,71617,2,0,P|177:228|161:271,1,90,2|8,0:2|0:0,0:0:0:0:
89,337,72340,6,0,L|0:330,1,90,4|8,0:2|0:0,0:0:0:0:
0,228,73063,2,0,L|89:220,1,90,0|8,0:0|0:0,0:0:0:0:
188,228,73786,2,0,P|214:235|244:232,1,45,4|2,0:2|0:0,0:0:0:0:
280,220,74147,1,12,0:2:0:0:
280,120,74509,2,0,P|254:113|224:116,1,45,12|2,0:2|0:0,0:0:0:0:
188,128,74870,1,12,0:2:0:0:
103,178,75232,1,4,0:2:0:0:
308,224,80292,6,0,B|296:260|296:260|300:308,2,67.5,4|4|2,0:2|0:2|0:2,0:0:0:0:
328,180,81015,6,0,P|356:108|332:56,1,135,4|2,0:2|0:2,0:0:0:0:
296,24,81738,2,0,L|204:32,1,90,2|2,0:2|0:2,0:0:0:0:
116,76,82461,2,0,P|88:148|112:200,1,135,2|2,0:2|0:2,0:0:0:0:
148,232,83184,2,0,L|240:224,1,90,2|2,0:2|0:2,0:0:0:0:
328,180,83906,6,0,P|412:168|460:204,1,135,2|2,0:2|0:2,0:0:0:0:
476,236,84629,2,0,L|460:328,1,90,2|2,0:2|0:2,0:0:0:0:
372,372,85352,2,0,L|328:364,1,45,2|0,0:2|0:0,0:0:0:0:
280,356,85714,2,0,L|236:364,2,45,0|2|4,0:0|0:2|0:2,0:0:0:0:
328,268,86437,2,0,L|335:223,1,45,4|8,0:3|0:0,0:0:0:0:
340,176,86798,6,0,P|316:128|280:112,1,90,4|8,0:2|0:0,0:0:0:0:
236,112,87340,2,0,L|192:120,1,45,2|2,0:2|0:2,0:0:0:0:
95,142,87882,1,10,0:2:0:0:
92,240,88244,2,0,L|180:256,1,90,2|8,0:2|0:0,0:0:0:0:
228,248,88786,2,0,P|244:216|244:200,1,45,2|2,0:2|0:2,0:0:0:0:
236,112,89328,1,10,0:2:0:0:
168,40,89690,6,0,L|76:40,1,90,2|8,0:2|0:0,0:0:0:0:
28,52,90232,2,0,P|17:86|20:102,1,45,2|2,0:2|0:2,0:0:0:0:
28,192,90774,1,10,0:2:0:0:
124,216,91135,2,0,P|150:218|172:212,1,45,2|2,0:2|0:2,0:0:0:0:
207,184,91497,2,0,P|230:181|252:186,2,45,8|2|4,0:0|0:2|0:2,0:0:0:0:
224,280,92220,1,12,0:2:0:0:
320,251,92581,6,0,P|342:213|344:168,1,90,4|8,0:2|0:0,0:0:0:0:
344,120,93123,2,0,L|320:64,1,45,2|2,0:2|0:2,0:0:0:0:
244,20,93666,1,10,0:2:0:0:
160,72,94027,2,0,P|112:80|76:56,1,90,2|8,0:2|0:0,0:0:0:0:
36,36,94569,2,0,L|20:88,1,45,2|2,0:2|0:2,0:0:0:0:
0,172,95111,1,10,0:2:0:0:
40,264,95473,6,0,P|92:280|124:264,1,90,2|8,0:2|0:0,0:0:0:0:
148,224,96015,2,0,L|192:224,1,45,2|2,0:2|0:2,0:0:0:0:
292,204,96557,1,10,0:2:0:0:
388,220,96919,2,0,P|417:237|428:252,1,45,2|2,0:2|0:2,0:0:0:0:
447,287,97280,2,0,P|452:308|450:330,2,45,8|2|4,0:0|0:2|0:2,0:0:0:0:
356,320,98003,1,4,0:3:0:0:
260,340,98364,6,0,L|116:332,1,135,4|0,0:2|0:0,0:0:0:0:
76,324,99087,1,2,0:2:0:0:
24,240,99449,1,10,0:2:0:0:
24,240,99629,2,0,P|12:192|24:152,2,90,0|2|0,0:0|0:2|0:0,0:0:0:0:
44,284,100533,1,2,0:2:0:0:
132,240,100894,1,8,0:0:0:0:
192,320,101256,6,0,P|264:324|312:268,1,135,4|0,0:2|0:0,0:0:0:0:
316,236,101979,1,2,0:2:0:0:
268,152,102340,1,10,0:2:0:0:
268,152,102521,2,0,L|164:160,2,90,0|2|0,0:0|0:2|0:0,0:0:0:0:
308,124,103425,1,2,0:2:0:0:
396,84,103786,1,8,0:0:0:0:
488,116,104147,6,0,P|524:180|508:240,1,135,4|0,0:2|0:0,0:0:0:0:
484,280,104870,1,2,0:2:0:0:
388,304,105232,1,10,0:2:0:0:
388,304,105413,2,0,P|336:280|288:288,1,90,0|2,0:0|0:2,0:0:0:0:
260,308,105955,2,0,L|248:356,2,45,2|0|2,0:2|0:0|0:2,0:0:0:0:
208,224,106678,2,0,L|220:176,2,45,4|8|0,0:2|0:0|0:0,0:0:0:0:
176,264,107220,6,0,L|136:288,1,45,12|12,0:2|0:2,0:0:0:0:
87,201,107762,2,0,L|127:177,1,45,12|12,0:2|0:2,0:0:0:0:
224,152,108304,2,0,P|276:160|308:188,1,90,12|0,0:2|0:0,0:0:0:0:
340,220,108846,2,0,P|340:248|332:268,2,45,2|2|4,0:2|0:2|0:2,0:0:0:0:
372,128,109569,2,0,P|372:100|380:80,1,45,0|8,0:0|0:0,0:0:0:0:
416,52,109931,6,0,L|312:40,1,90,4|2,0:2|0:2,0:0:0:0:
276,36,110473,2,0,L|172:48,1,90,2|0,0:0|0:0,0:0:0:0:
136,56,111015,1,2,0:2:0:0:
96,148,111376,2,0,P|92:184|98:204,1,45,2|0,0:2|0:0,0:0:0:0:
112,240,111738,2,0,P|148:243|168:237,2,45,2|2|0,0:2|0:0|0:0,0:0:0:0:
68,328,112461,2,0,P|45:330|23:326,1,45,2|2,0:2|0:0,0:0:0:0:
0,284,112822,6,0,P|-8:236|8:196,1,90,4|2,0:2|0:2,0:0:0:0:
40,160,113364,2,0,P|88:148|132:160,1,90,2|0,0:0|0:0,0:0:0:0:
208,216,114087,2,0,L|300:204,1,90,2|2,0:0|0:2,0:0:0:0:
332,168,114629,2,0,L|344:120,1,45,2|8,0:2|0:0,0:0:0:0:
364,80,114991,1,4,0:2:0:0:
456,116,115352,2,0,L|468:164,1,45,2|8,0:2|0:0,0:0:0:0:
464,208,115714,6,0,P|432:248|392:256,1,90,4|2,0:2|0:2,0:0:0:0:
348,256,116256,2,0,L|252:236,1,90,2|0,0:0|0:0,0:0:0:0:
212,220,116798,1,2,0:2:0:0:
116,244,117159,2,0,L|92:288,1,45,2|0,0:2|0:0,0:0:0:0:
60,316,117521,2,0,L|36:360,2,45,2|2|2,0:2|0:0|0:2,0:0:0:0:
148,364,118244,2,0,L|192:360,1,45,4|2,0:2|0:0,0:0:0:0:
240,352,118605,6,0,L|337:360,1,90,4|8,0:2|0:0,0:0:0:0:
380,352,119147,2,0,P|400:312|392:268,1,90,2|2,0:0|0:2,0:0:0:0:
368,228,119690,1,8,0:0:0:0:
368,228,119870,1,12,0:2:0:0:
224,260,120413,2,0,P|172:256|132:224,2,90,2|2|2,0:2|0:2|0:2,0:0:0:0:
283,184,121497,6,0,P|334:138|404:140,1,135,4|8,0:2|0:0,0:0:0:0:
484,184,122400,1,8,0:3:0:0:
512,280,122762,2,0,P|512:344|496:372,2,90,2|2|8,0:2|0:2|0:0,0:0:0:0:
480,240,123666,2,0,P|438:223|394:228,1,90,2|2,0:2|0:2,0:0:0:0:
316,288,124388,6,0,P|248:308|188:268,1,135,4|8,0:2|0:0,0:0:0:0:
144,192,125292,1,8,0:3:0:0:
216,124,125653,2,0,P|260:136|312:128,2,90,2|2|0,0:2|0:2|0:0,0:0:0:0:
179,91,126557,2,0,P|136:82|94:98,1,90,2|2,0:2|0:2,0:0:0:0:
20,164,127280,6,0,P|-14:226|5:286,1,135,4|8,0:2|0:0,0:0:0:0:
92,332,128184,1,8,0:3:0:0:
176,280,128545,2,0,P|216:256|260:264,2,90,2|2|8,0:2|0:2|0:0,0:0:0:0:
176,328,129449,2,0,P|216:352|260:344,1,90,2|2,0:2|0:2,0:0:0:0:
348,304,130172,6,0,P|376:248|348:184,1,135,4|8,0:2|0:0,0:0:0:0:
276,120,131075,1,8,0:3:0:0:
180,144,131437,1,0,0:0:0:0:
180,144,131617,2,0,L|76:132,1,90,2|8,0:2|0:0,0:0:0:0:
12,76,132340,1,4,0:2:0:0:
88,12,132702,1,4,0:2:0:0:
184,24,133063,6,0,L|273:34,1,90,4|0,0:2|0:0,0:0:0:0:
368,12,133786,2,0,L|457:22,1,90,0|0,0:0|0:0,0:0:0:0:
500,44,134328,2,0,P|520:92|504:132,1,90,2|2,0:2|0:2,0:0:0:0:
440,196,135051,1,0,0:0:0:0:
440,196,135232,2,0,L|350:185,1,90,2|2,0:2|0:2,0:0:0:0:
252,208,135955,6,0,P|232:256|248:296,1,90,4|0,0:2|0:0,0:0:0:0:
312,360,136678,2,0,P|360:380|400:364,1,90,0|0,0:0|0:0,0:0:0:0:
420,328,137220,2,0,L|510:317,1,90,2|2,0:2|0:2,0:0:0:0:
512,216,137943,1,0,0:0:0:0:
512,216,138123,2,0,L|422:205,1,90,2|2,0:2|0:2,0:0:0:0:
324,204,138846,6,0,P|291:244|288:284,1,90,4|0,0:2|0:0,0:0:0:0:
236,364,139569,2,0,P|193:334|153:335,1,90,0|0,0:0|0:0,0:0:0:0:
108,344,140111,2,0,P|63:341|28:314,1,90,2|2,0:2|0:2,0:0:0:0:
8,216,140834,1,0,0:0:0:0:
8,216,141015,2,0,L|20:116,1,90,2|2,0:2|0:2,0:0:0:0:
116,108,141738,6,0,L|105:197,1,90,4|0,0:2|0:0,0:0:0:0:
196,236,142461,2,0,L|208:136,1,90,4|0,0:2|0:0,0:0:0:0:
304,128,143184,1,4,0:2:0:0:
291,226,143545,1,2,0:2:0:0:
264,320,143906,2,0,B|236:339|236:339|203:344,2,67.5,4|10|0,0:2|0:2|0:0,0:0:0:0:
312,320,144629,6,0,P|376:340|432:308,1,135,4|10,0:2|0:2,0:0:0:0:
452,262,145352,2,0,P|460:214|440:178,1,90,0|2,0:0|0:2,0:0:0:0:
361,116,146075,2,0,L|209:124,1,135,2|10,0:2|0:2,0:0:0:0:
180,144,146798,1,0,0:0:0:0:
160,240,147159,1,2,0:2:0:0:
151,339,147521,6,0,P|93:314|60:254,1,135,4|2,0:2|0:2,0:0:0:0:
60,204,148244,2,0,L|80:108,1,90,4|2,0:2|0:2,0:0:0:0:
144,40,148967,1,4,0:2:0:0:
240,60,149328,1,4,0:2:0:0:
336,80,149690,1,4,0:2:0:0:
432,100,150051,2,0,L|472:136,1,45,2|10,0:2|0:2,0:0:0:0:
484,176,150413,6,0,P|464:220|420:236,1,90,4|0,0:2|0:0,0:0:0:0:
336,204,151135,2,0,P|307:164|316:118,1,90,2|0,0:2|0:0,0:0:0:0:
385,61,151858,2,0,P|433:56|468:86,2,90,2|2|2,0:2|0:2|0:2,0:0:0:0:
292,24,152943,2,0,L|240:30,1,45,4|10,0:2|0:2,0:0:0:0:
206,56,153304,6,0,L|186:144,1,90,4|8,0:2|0:0,0:0:0:0:
186,240,154027,2,0,L|206:328,1,90,2|10,0:2|0:2,0:0:0:0:
306,328,154750,2,0,L|326:240,1,90,4|10,0:2|0:2,0:0:0:0:
325,144,155473,2,0,L|279:149,1,45,4|8,0:2|0:3,0:0:0:0:
230,147,155834,2,0,L|186:143,1,45,8|8,0:3|0:0,0:0:0:0:
136,136,156196,1,2,0:2:0:0:
256,192,162702,6,0,L|160:184,1,90,4|2,0:2|0:2,0:0:0:0:
136,148,163244,2,0,P|120:100|140:60,1,90,2|0,0:0|0:0,0:0:0:0:
172,32,163786,1,2,0:2:0:0:
272,28,164147,2,0,L|316:31,1,45,2|0,0:2|0:0,0:0:0:0:
368,32,164509,2,0,L|412:28,2,45,2|2|0,0:2|0:0|0:0,0:0:0:0:
328,120,165232,2,0,L|320:168,1,45,2|2,0:2|0:0,0:0:0:0:
324,212,165593,6,0,P|352:236|404:240,1,90,4|2,0:2|0:2,0:0:0:0:
452,236,166135,2,0,P|476:264|480:316,1,90,2|0,0:0|0:0,0:0:0:0:
400,372,166858,2,0,L|296:360,1,90,2|2,0:0|0:2,0:0:0:0:
272,332,167400,2,0,P|264:304|264:284,1,45,2|8,0:2|0:0,0:0:0:0:
272,240,167762,1,4,0:2:0:0:
316,152,168123,2,0,P|314:129|307:108,1,45,4|8,0:2|0:0,0:0:0:0:
276,72,168485,6,0,L|172:60,1,90,4|8,0:2|0:0,0:0:0:0:
136,68,169027,2,0,P|88:100|80:144,1,90,2|0,0:0|0:0,0:0:0:0:
72,176,169569,1,8,0:0:0:0:
108,268,169930,2,0,P|130:266|151:259,1,45,2|0,0:2|0:0,0:0:0:0:
192,228,170292,2,0,P|196:205|195:183,2,45,8|2|2,0:0|0:0|0:2,0:0:0:0:
196,328,171015,2,0,P|197:350|204:371,1,45,12|12,0:2|0:2,0:0:0:0:
252,376,171376,6,0,L|360:364,1,90,4|8,0:2|0:0,0:0:0:0:
368,324,171918,2,0,L|284:256,1,90,2|0,0:0|0:0,0:0:0:0:
256,240,172461,1,8,0:0:0:0:
256,240,172641,1,12,0:2:0:0:
196,104,173183,2,0,P|188:56|208:16,2,90,2|2|2,0:2|0:2|0:2,0:0:0:0:
212,216,174268,6,0,B|148:236|148:236|68:212,2,135,12|12|12,0:2|0:2|0:2,0:0:0:0:
256,192,175533,1,12,0:2:0:0:
298,218,175714,2,0,B|348:263|348:263|367:344,2,135,12|12|12,0:2|0:2|0:2,0:0:0:0:
256,192,176979,1,2,0:2:0:0:
257,141,177159,6,0,B|271:76|271:76|332:19,2,135,12|12|12,0:2|0:2|0:2,0:0:0:0:
256,192,178424,1,12,0:2:0:0:
212,216,178605,2,0,B|148:236|148:236|68:212,1,135,12|2,0:2|0:2,0:0:0:0:
81,167,179328,1,4,0:2:0:0:
168,116,179689,2,0,L|210:99,1,45,0|8,0:0|0:0,0:0:0:0:
260,95,180051,6,0,P|292:139|284:191,1,90,4|8,0:2|0:0,0:0:0:0:
296,272,180774,2,0,P|335:309|388:307,1,90,0|8,0:0|0:0,0:0:0:0:
468,316,181497,2,0,L|500:232,1,90,2|8,0:2|0:0,0:0:0:0:
508,184,182039,1,0,0:0:0:0:
500,136,182220,2,0,L|468:52,1,90,2|8,0:2|0:0,0:0:0:0:
380,4,182942,6,0,P|328:16|308:48,1,90,4|8,0:2|0:0,0:0:0:0:
248,124,183665,2,0,P|194:125|167:100,1,90,0|8,0:0|0:0,0:0:0:0:
76,72,184388,2,0,P|34:111|30:147,1,90,2|8,0:2|0:0,0:0:0:0:
24,192,184930,1,0,0:0:0:0:
30,241,185111,2,0,P|41:284|76:312,1,90,2|8,0:2|0:0,0:0:0:0:
172,340,185834,6,0,L|276:328,1,90,4|8,0:2|0:0,0:0:0:0:
256,232,186557,2,0,L|166:242,1,90,0|8,0:0|0:0,0:0:0:0:
136,148,187280,2,0,P|167:116|216:116,1,90,2|8,0:2|0:0,0:0:0:0:
256,136,187822,1,0,0:0:0:0:
301,113,188003,2,0,P|345:116|376:148,1,90,2|8,0:2|0:0,0:0:0:0:
352,244,188726,6,0,L|329:286,1,45,12|12,0:2|0:2,0:0:0:0:
181,283,189448,2,0,L|160:244,1,45,12|12,0:2|0:2,0:0:0:0:
160,95,190171,6,0,L|180:56,1,45,4|2,0:2|0:0,0:0:0:0:
205,10,190533,1,4,0:2:0:0:
307,10,190894,2,0,L|327:48,1,45,12|2,0:2|0:0,0:0:0:0:
352,94,191256,1,4,0:2:0:0:
