osu file format v14

[General]
AudioFilename: audio.mp3
AudioLeadIn: 0
PreviewTime: 48761
Countdown: 0
SampleSet: Normal
StackLeniency: 0.3
Mode: 1
LetterboxInBreaks: 0
WidescreenStoryboard: 0

[Editor]
DistanceSpacing: 1
BeatDivisor: 4
GridSize: 32
TimelineZoom: 1.6

[Metadata]
Title:Koigahara no Kassen
TitleUnicode:恋ヶ原之合戦
Artist:capitaro
ArtistUnicode:かぴたろう
Creator:Zero__wind
Version:Muzukashii
Source:
Tags:Vocaloid 未来和歌集 初音ミク Hatsune Miku Nardoxyribonucleic
BeatmapID:1004835
BeatmapSetID:466053

[Difficulty]
HPDrainRate:4
CircleSize:2
OverallDifficulty:5
ApproachRate:8
SliderMultiplier:1.4
SliderTickRate:1

[Events]
//Background and Video events
0,0,"bg.jpg",0,110
//Break Periods
//Storyboard Layer 0 (Background)
//Storyboard Layer 1 (Fail)
//Storyboard Layer 2 (Pass)
//Storyboard Layer 3 (Foreground)
//Storyboard Sound Samples

[TimingPoints]
-2840,361.44578313253,4,1,1,70,1,0
14328,-125,4,1,1,50,0,0
25714,-100,4,1,1,50,0,0
37280,-125,4,1,1,50,0,0
46497,-100,4,1,1,60,0,0
49208,-100,4,1,1,70,0,1
59147,-100,4,1,1,60,0,0
59690,-125,4,1,1,60,0,0
60774,-100,4,1,1,70,0,0
75051,-125,4,1,1,50,0,0
86437,-100,4,1,1,50,0,0
98003,-125,4,1,1,50,0,0
107220,-100,4,1,1,60,0,0
109931,-100,4,1,1,70,0,1
119870,-100,4,1,1,60,0,0
120413,-125,4,1,1,60,0,0
132882,-111.111111111111,4,1,1,60,0,0
144629,-100,4,1,1,70,0,0
156557,-125,4,1,1,50,0,0
162702,361.44578313253,4,1,1,70,1,1
172641,-100,4,1,1,60,0,0
173183,-125,4,1,1,60,0,0
174268,-100,4,1,1,70,0,0

[Colours]
Combo1 : 146,222,146
Combo2 : 237,127,155
Combo3 : 129,184,252
Combo4 : 242,140,242

[HitObjects]
320,128,2220,5,2,0:0:0:0:
192,256,2400,1,0,0:0:0:0:
192,256,2491,1,0,0:0:0:0:
192,256,2581,1,0,0:0:0:0:
320,128,2761,1,2,0:0:0:0:
192,128,2943,1,6,0:0:0:0:
192,256,3304,1,0,0:0:0:0:
320,128,3485,1,2,0:0:0:0:
192,256,3666,1,0,0:0:0:0:
320,128,4027,1,2,0:0:0:0:
192,256,4208,1,0,0:0:0:0:
192,256,4388,1,0,0:0:0:0:
320,128,4569,1,2,0:0:0:0:
320,128,4659,1,2,0:0:0:0:
320,128,4750,1,2,0:0:0:0:
192,256,4931,1,0,0:0:0:0:
320,128,5111,1,2,0:0:0:0:
192,256,5473,1,0,0:0:0:0:
320,128,5653,1,2,0:0:0:0:
320,256,5834,1,4,0:0:0:0:
320,128,6196,1,2,0:0:0:0:
320,128,6376,1,2,0:0:0:0:
192,256,6557,1,0,0:0:0:0:
320,128,6919,1,2,0:0:0:0:
192,256,7099,1,0,0:0:0:0:
320,128,7280,1,2,0:0:0:0:
320,128,7461,1,2,0:0:0:0:
320,128,7551,1,2,0:0:0:0:
320,128,7641,1,2,0:0:0:0:
192,256,7822,1,0,0:0:0:0:
320,128,8003,1,2,0:0:0:0:
192,256,8364,1,0,0:0:0:0:
320,128,8545,1,2,0:0:0:0:
192,128,8726,1,6,0:0:0:0:
192,256,9087,1,0,0:0:0:0:
320,128,9268,1,2,0:0:0:0:
192,256,9449,1,0,0:0:0:0:
320,128,9810,1,2,0:0:0:0:
192,256,9991,1,0,0:0:0:0:
192,256,10172,1,0,0:0:0:0:
320,128,10352,1,2,0:0:0:0:
320,128,10443,1,2,0:0:0:0:
320,128,10533,1,2,0:0:0:0:
192,256,10714,1,0,0:0:0:0:
320,128,10894,1,2,0:0:0:0:
192,256,11256,1,0,0:0:0:0:
320,128,11437,1,2,0:0:0:0:
320,256,11617,1,4,0:0:0:0:
320,128,11979,1,2,0:0:0:0:
320,128,12159,1,2,0:0:0:0:
192,256,12340,1,0,0:0:0:0:
320,128,12702,1,2,0:0:0:0:
192,256,12882,1,0,0:0:0:0:
320,128,13063,1,2,0:0:0:0:
320,128,13244,1,2,0:0:0:0:
320,128,13334,1,2,0:0:0:0:
320,128,13424,1,2,0:0:0:0:
192,256,13605,1,0,0:0:0:0:
320,128,13786,1,2,0:0:0:0:
192,256,13967,1,0,0:0:0:0:
320,128,14147,1,2,0:0:0:0:
320,256,14509,1,4,0:0:0:0:
192,256,15051,1,0,1:0:0:0:
320,128,15232,1,2,0:0:0:0:
192,256,15593,1,0,0:0:0:0:
320,128,15774,1,2,0:0:0:0:
192,256,15955,1,0,0:0:0:0:
192,256,16497,1,0,0:0:0:0:
320,128,16678,1,2,0:0:0:0:
320,128,17039,1,2,0:0:0:0:
192,256,17220,1,0,0:0:0:0:
192,256,17400,1,0,0:0:0:0:
320,128,17943,1,2,0:0:0:0:
320,128,18123,1,2,0:0:0:0:
320,128,18485,1,2,0:0:0:0:
320,128,18846,1,2,0:0:0:0:
192,256,19027,1,0,0:0:0:0:
320,128,19208,1,2,0:0:0:0:
192,256,19389,1,0,0:0:0:0:
320,128,19569,1,2,0:0:0:0:
192,256,19931,1,0,0:0:0:0:
320,256,20292,1,4,0:0:0:0:
192,256,20834,1,0,0:0:0:0:
320,128,21015,1,2,0:0:0:0:
320,128,21376,1,2,0:0:0:0:
192,256,21557,1,0,0:0:0:0:
192,256,21738,1,0,0:0:0:0:
320,128,22280,1,2,0:0:0:0:
320,128,22461,1,2,0:0:0:0:
192,256,22822,1,0,0:0:0:0:
192,256,23003,1,0,0:0:0:0:
320,128,23184,1,2,0:0:0:0:
192,256,23726,1,0,0:0:0:0:
320,128,23906,1,2,0:0:0:0:
320,128,24268,1,2,0:0:0:0:
192,256,24629,1,0,0:0:0:0:
320,128,24810,1,2,0:0:0:0:
192,256,24991,1,0,0:0:0:0:
320,128,25172,1,2,0:0:0:0:
320,128,25352,1,2,0:0:0:0:
320,256,25714,1,4,0:0:0:0:
320,128,25894,1,2,0:0:0:0:
320,128,26075,1,2,0:0:0:0:
320,128,26256,1,2,0:0:0:0:
192,256,26617,1,0,0:0:0:0:
192,256,26798,1,0,0:0:0:0:
192,256,26979,1,0,0:0:0:0:
320,128,27159,1,2,0:0:0:0:
192,256,27521,1,0,0:0:0:0:
192,256,27702,1,0,0:0:0:0:
320,128,27882,1,2,0:0:0:0:
192,256,28063,1,0,0:0:0:0:
192,256,28244,1,0,0:0:0:0:
320,128,28605,1,2,0:0:0:0:
192,256,28786,1,0,0:0:0:0:
320,128,28967,1,2,0:0:0:0:
320,128,29147,1,2,0:0:0:0:
192,256,29509,1,0,0:0:0:0:
192,256,29690,1,0,0:0:0:0:
192,256,29870,1,0,0:0:0:0:
320,128,30051,1,2,0:0:0:0:
192,256,30413,1,0,0:0:0:0:
192,256,30593,1,0,0:0:0:0:
320,128,30774,1,2,0:0:0:0:
320,128,30954,1,2,0:0:0:0:
192,256,31135,1,0,0:0:0:0:
320,128,31497,1,2,0:0:0:0:
192,256,31678,1,0,0:0:0:0:
320,128,31858,1,2,0:0:0:0:
320,128,32039,1,2,0:0:0:0:
192,256,32400,1,0,0:0:0:0:
192,256,32581,1,0,0:0:0:0:
192,256,32762,1,0,0:0:0:0:
320,128,32943,1,2,0:0:0:0:
192,256,33304,1,0,0:0:0:0:
192,256,33485,1,0,0:0:0:0:
320,128,33665,1,2,0:0:0:0:
192,256,33846,1,0,0:0:0:0:
320,128,34027,1,2,0:0:0:0:
320,128,34388,1,2,0:0:0:0:
192,256,34569,1,0,0:0:0:0:
320,128,34750,1,2,0:0:0:0:
320,128,34930,1,2,0:0:0:0:
320,128,35111,1,2,0:0:0:0:
192,256,35292,1,0,0:0:0:0:
192,256,35473,1,0,0:0:0:0:
320,128,35834,1,2,0:0:0:0:
192,256,36196,1,0,0:0:0:0:
320,128,36376,1,2,0:0:0:0:
320,128,36557,1,2,0:0:0:0:
192,256,36737,1,0,0:0:0:0:
192,128,36918,1,6,0:0:0:0:
192,256,37280,1,0,0:0:0:0:
320,128,37461,1,2,0:0:0:0:
320,128,37551,1,2,0:0:0:0:
320,128,37641,1,2,0:0:0:0:
192,256,38184,1,0,0:0:0:0:
192,256,38364,1,0,0:0:0:0:
320,128,38726,1,2,0:0:0:0:
192,256,38907,1,0,0:0:0:0:
192,256,39268,1,0,0:0:0:0:
320,128,39449,1,2,0:0:0:0:
192,256,39630,1,0,0:0:0:0:
192,256,39810,1,0,0:0:0:0:
320,128,40172,1,2,0:0:0:0:
192,256,40352,1,0,0:0:0:0:
192,256,40443,1,0,0:0:0:0:
192,256,40533,1,0,0:0:0:0:
192,256,41075,1,0,0:0:0:0:
320,128,41256,1,2,0:0:0:0:
320,128,41617,1,10,0:2:0:0:
192,256,41798,1,0,0:0:0:0:
192,256,42159,1,0,0:0:0:0:
320,128,42340,1,2,0:0:0:0:
320,128,42521,1,2,0:0:0:0:
320,128,42702,1,2,0:0:0:0:
320,128,43063,1,8,0:0:0:0:
192,256,43244,1,0,0:0:0:0:
192,128,43424,1,6,0:2:0:0:
192,256,43967,1,0,0:0:0:0:
320,128,44147,1,2,0:0:0:0:
320,128,44509,1,2,0:0:0:0:
192,256,44690,1,0,0:0:0:0:
192,256,45051,1,0,0:0:0:0:
320,128,45232,1,2,0:0:0:0:
192,256,45413,1,0,0:0:0:0:
192,256,45593,1,0,0:0:0:0:
320,128,45955,1,2,0:0:0:0:
192,256,46135,1,0,0:0:0:0:
192,128,46497,1,6,0:0:0:0:
192,128,46678,1,6,0:0:0:0:
192,128,47039,1,6,0:0:0:0:
192,128,47220,1,6,0:0:0:0:
192,128,47581,1,6,0:0:0:0:
192,256,47943,1,0,0:0:0:0:
320,128,48123,1,2,0:0:0:0:
320,128,48304,1,2,0:0:0:0:
192,256,48485,1,0,0:0:0:0:
320,128,48666,1,2,0:0:0:0:
320,128,48756,1,2,0:0:0:0:
320,128,48846,1,2,0:0:0:0:
192,256,49027,1,0,0:0:0:0:
192,128,49208,1,6,0:0:0:0:
192,256,49569,1,0,0:0:0:0:
320,128,49750,1,2,0:0:0:0:
320,128,50111,1,2,0:0:0:0:
192,256,50292,1,0,0:0:0:0:
320,128,50473,1,2,0:0:0:0:
192,256,50653,1,0,0:0:0:0:
192,256,50834,1,0,0:0:0:0:
320,128,51015,1,2,0:0:0:0:
320,128,51196,1,2,0:0:0:0:
192,256,51376,1,0,0:0:0:0:
192,256,51738,1,0,0:0:0:0:
320,128,51919,1,2,0:0:0:0:
320,256,52099,1,4,0:0:0:0:
320,128,52461,1,2,0:0:0:0:
320,128,52641,1,2,0:0:0:0:
192,256,52822,1,0,0:0:0:0:
192,256,53184,1,0,0:0:0:0:
320,128,53364,1,2,0:0:0:0:
320,128,53545,1,2,0:0:0:0:
192,256,53726,1,0,0:0:0:0:
192,256,53816,1,0,0:0:0:0:
192,256,53906,1,0,0:0:0:0:
320,128,54087,1,2,0:0:0:0:
192,256,54268,1,0,0:0:0:0:
320,128,54629,1,2,0:0:0:0:
320,128,54810,1,2,0:0:0:0:
320,256,54991,1,4,0:0:0:0:
192,256,55352,1,0,0:0:0:0:
320,128,55533,1,2,0:0:0:0:
320,128,55894,1,2,0:0:0:0:
320,128,56075,1,2,0:0:0:0:
192,256,56256,1,0,0:0:0:0:
320,128,56437,1,2,0:0:0:0:
192,256,56617,1,0,0:0:0:0:
320,128,56798,1,2,0:0:0:0:
320,128,56979,1,2,0:0:0:0:
320,128,57159,1,2,0:0:0:0:
320,128,57521,1,2,0:0:0:0:
192,256,57702,1,0,0:0:0:0:
192,128,57882,1,6,0:0:0:0:
320,128,58244,1,2,0:0:0:0:
192,256,58425,1,0,0:0:0:0:
192,256,58786,1,0,0:0:0:0:
320,128,58967,1,2,0:0:0:0:
320,128,59147,1,2,0:0:0:0:
320,128,59690,1,2,0:0:0:0:
320,128,60051,1,2,0:0:0:0:
320,128,60413,1,2,0:0:0:0:
192,256,60593,1,0,0:0:0:0:
320,128,60774,1,2,0:0:0:0:
192,256,61045,1,0,0:2:0:0:
320,128,61316,1,2,0:0:0:0:
192,256,61587,1,0,0:2:0:0:
320,128,61858,1,2,0:0:0:0:
320,128,62039,1,2,0:0:0:0:
320,128,62220,1,2,0:0:0:0:
320,128,62491,1,2,0:0:0:0:
320,128,62762,1,2,0:0:0:0:
320,128,63033,1,2,0:0:0:0:
192,256,63304,1,0,0:0:0:0:
320,128,63485,1,2,0:0:0:0:
192,128,63666,1,6,0:0:0:0:
320,128,64027,1,2,0:0:0:0:
192,256,64208,1,0,0:0:0:0:
192,256,64388,1,0,0:0:0:0:
320,128,64750,1,2,0:0:0:0:
192,256,64931,1,0,0:0:0:0:
192,256,65111,1,0,0:0:0:0:
320,128,65292,1,2,0:0:0:0:
320,128,65382,1,2,0:0:0:0:
320,128,65473,1,2,0:0:0:0:
192,256,65653,1,0,0:0:0:0:
192,256,65834,1,0,0:0:0:0:
320,128,66196,1,2,0:0:0:0:
192,256,66376,1,0,0:0:0:0:
320,256,66557,1,4,0:0:0:0:
192,256,66918,1,0,0:0:0:0:
320,128,67099,1,2,0:0:0:0:
192,256,67279,1,0,0:0:0:0:
320,128,67641,1,2,0:0:0:0:
192,256,67822,1,0,0:0:0:0:
320,128,68003,1,2,0:0:0:0:
320,128,68184,1,2,0:0:0:0:
320,128,68274,1,2,0:0:0:0:
320,128,68364,1,2,0:0:0:0:
192,256,68545,1,0,0:0:0:0:
320,128,68726,1,2,0:0:0:0:
192,256,69087,1,0,0:0:0:0:
320,128,69268,1,2,0:0:0:0:
192,128,69449,1,6,0:0:0:0:
320,128,69810,1,2,0:0:0:0:
192,256,69991,1,0,0:0:0:0:
192,256,70171,1,0,0:0:0:0:
320,128,70533,1,2,0:0:0:0:
192,256,70714,1,0,0:0:0:0:
192,256,70894,1,0,0:0:0:0:
320,128,71075,1,2,0:0:0:0:
320,128,71165,1,2,0:0:0:0:
320,128,71256,1,2,0:0:0:0:
192,256,71436,1,0,0:0:0:0:
192,256,71617,1,0,0:0:0:0:
320,128,71979,1,2,0:0:0:0:
192,256,72159,1,0,0:0:0:0:
320,256,72340,1,4,0:0:0:0:
192,256,72701,1,0,0:0:0:0:
320,128,72882,1,2,0:0:0:0:
192,256,73062,1,0,0:0:0:0:
320,128,73425,1,2,0:0:0:0:
192,256,73605,1,0,0:0:0:0:
320,128,73786,1,2,0:0:0:0:
320,128,73967,1,2,0:0:0:0:
320,128,74057,1,2,0:0:0:0:
320,128,74147,1,2,0:0:0:0:
192,256,74328,1,0,0:0:0:0:
320,128,74509,1,2,0:0:0:0:
192,256,74690,1,0,0:0:0:0:
320,128,74870,1,2,0:0:0:0:
320,256,75232,1,4,0:0:0:0:
192,256,75774,1,0,0:0:0:0:
192,256,75955,1,0,0:0:0:0:
320,128,76316,1,2,0:0:0:0:
192,256,76497,1,0,0:0:0:0:
192,256,76678,1,0,0:0:0:0:
192,256,77220,1,0,0:0:0:0:
320,128,77400,1,2,0:0:0:0:
320,128,77762,1,2,0:0:0:0:
192,256,77943,1,0,0:0:0:0:
320,128,78123,1,2,0:0:0:0:
320,128,78846,1,2,0:0:0:0:
320,128,79208,1,2,0:0:0:0:
192,256,79388,1,0,0:0:0:0:
192,256,79569,1,0,0:0:0:0:
192,256,79931,1,0,0:0:0:0:
192,256,80111,1,0,0:0:0:0:
320,128,80292,1,2,0:0:0:0:
320,128,80563,1,2,0:0:0:0:
320,128,80834,1,2,0:0:0:0:
320,256,81015,1,4,0:0:0:0:
192,256,81286,1,0,0:0:0:0:
320,128,81557,1,2,0:0:0:0:
320,128,81738,1,2,0:0:0:0:
320,128,82099,1,2,0:0:0:0:
192,256,82280,1,0,0:0:0:0:
192,256,82461,1,0,0:0:0:0:
192,256,82732,1,0,0:0:0:0:
320,128,83003,1,2,0:0:0:0:
320,128,83184,1,2,0:0:0:0:
320,128,83545,1,2,0:0:0:0:
192,256,83726,1,0,0:0:0:0:
320,128,83906,1,2,0:0:0:0:
192,256,84178,1,0,0:0:0:0:
192,256,84449,1,0,0:0:0:0:
320,128,84629,1,2,0:0:0:0:
320,128,84991,1,2,0:0:0:0:
320,128,85352,1,2,0:0:0:0:
192,256,85533,1,0,0:0:0:0:
320,128,85714,1,2,0:0:0:0:
192,256,85894,1,0,0:0:0:0:
320,128,86075,1,2,0:0:0:0:
192,256,86437,1,0,0:0:0:0:
320,128,86617,1,2,0:0:0:0:
320,128,86708,1,2,0:0:0:0:
320,128,86798,1,2,0:0:0:0:
320,128,87159,1,2,0:0:0:0:
192,256,87340,1,0,0:0:0:0:
192,256,87521,1,0,0:0:0:0:
320,128,87882,1,2,0:0:0:0:
192,256,88063,1,0,0:0:0:0:
192,256,88244,1,0,0:0:0:0:
320,128,88605,1,2,0:0:0:0:
192,256,88786,1,0,0:0:0:0:
192,256,88967,1,0,0:0:0:0:
320,128,89328,1,2,0:0:0:0:
192,256,89509,1,0,0:0:0:0:
320,128,89690,1,2,0:0:0:0:
320,128,90051,1,2,0:0:0:0:
192,256,90232,1,0,0:0:0:0:
320,128,90413,1,2,0:0:0:0:
320,128,90774,1,2,0:0:0:0:
192,256,90955,1,0,0:0:0:0:
192,256,91135,1,0,0:0:0:0:
320,128,91316,1,2,0:0:0:0:
320,128,91497,1,2,0:0:0:0:
192,256,91678,1,0,0:0:0:0:
192,256,91858,1,0,0:0:0:0:
192,128,92220,1,6,0:0:0:0:
320,256,92581,1,4,0:0:0:0:
320,128,92943,1,2,0:0:0:0:
320,128,93123,1,2,0:0:0:0:
320,128,93304,1,2,0:0:0:0:
320,128,93666,1,2,0:0:0:0:
192,256,93846,1,2,0:0:0:0:
192,256,94027,1,0,0:0:0:0:
320,128,94388,1,2,0:0:0:0:
320,128,94569,1,2,0:0:0:0:
192,256,94750,1,0,0:0:0:0:
320,128,95111,1,2,0:0:0:0:
192,256,95292,1,0,0:0:0:0:
320,128,95473,1,2,0:0:0:0:
320,128,95834,1,2,0:0:0:0:
192,256,96015,1,0,0:0:0:0:
192,256,96196,1,0,0:0:0:0:
320,128,96557,1,2,0:0:0:0:
192,256,96738,1,0,0:0:0:0:
192,256,96919,1,0,0:0:0:0:
320,128,97099,1,2,0:0:0:0:
320,128,97280,1,2,0:0:0:0:
192,256,97461,1,0,0:0:0:0:
192,128,97641,1,6,0:0:0:0:
192,256,98003,1,0,0:0:0:0:
320,128,98184,1,2,0:0:0:0:
320,128,98274,1,2,0:0:0:0:
320,128,98364,1,2,0:0:0:0:
192,256,98906,1,0,0:0:0:0:
320,128,99087,1,2,0:0:0:0:
320,128,99449,1,2,0:0:0:0:
192,256,99629,1,0,0:0:0:0:
192,256,99991,1,0,0:0:0:0:
320,128,100172,1,2,0:0:0:0:
192,256,100352,1,0,0:0:0:0:
320,128,100533,1,2,0:0:0:0:
320,128,100894,1,2,0:0:0:0:
192,256,101075,1,0,0:0:0:0:
192,256,101166,1,0,0:0:0:0:
192,256,101256,1,0,0:0:0:0:
192,256,101798,1,0,0:0:0:0:
320,128,101979,1,2,0:0:0:0:
320,128,102340,1,2,0:0:0:0:
320,128,102521,1,2,0:0:0:0:
192,256,102882,1,0,0:0:0:0:
320,128,103063,1,2,0:0:0:0:
320,128,103244,1,2,0:0:0:0:
192,256,103425,1,0,0:0:0:0:
320,128,103786,1,2,0:0:0:0:
192,256,103967,1,0,0:0:0:0:
192,128,104147,1,6,0:0:0:0:
192,256,104690,1,0,0:0:0:0:
320,128,104870,1,2,0:0:0:0:
320,128,105232,1,2,0:0:0:0:
192,256,105413,1,0,0:0:0:0:
192,256,105774,1,0,0:0:0:0:
320,128,105955,1,2,0:0:0:0:
192,256,106136,1,0,0:0:0:0:
192,256,106316,1,0,0:0:0:0:
320,128,106678,1,2,0:0:0:0:
192,256,106858,1,0,0:0:0:0:
192,128,107220,1,6,0:0:0:0:
192,128,107401,1,6,0:0:0:0:
192,128,107762,1,6,0:0:0:0:
192,128,107943,1,6,0:0:0:0:
192,128,108304,1,6,0:0:0:0:
192,256,108666,1,0,0:0:0:0:
320,128,108846,1,2,0:0:0:0:
192,256,109027,1,0,0:0:0:0:
192,256,109208,1,0,0:0:0:0:
320,128,109389,1,2,0:0:0:0:
320,128,109479,1,2,0:0:0:0:
320,128,109569,1,2,0:0:0:0:
320,128,109750,1,2,0:0:0:0:
320,256,109931,1,4,0:0:0:0:
192,256,110292,1,0,0:0:0:0:
320,128,110473,1,2,0:0:0:0:
192,256,110834,1,0,0:0:0:0:
320,128,111015,1,2,0:0:0:0:
192,256,111196,1,0,0:0:0:0:
192,256,111376,1,0,0:0:0:0:
192,256,111557,1,0,0:0:0:0:
320,128,111738,1,2,0:0:0:0:
320,128,111919,1,2,0:0:0:0:
192,256,112099,1,0,0:0:0:0:
320,128,112461,1,2,0:0:0:0:
192,256,112641,1,0,0:0:0:0:
192,128,112822,1,6,0:0:0:0:
192,256,113184,1,0,0:0:0:0:
320,128,113364,1,2,0:0:0:0:
192,256,113545,1,0,0:0:0:0:
192,256,113906,1,0,0:0:0:0:
320,128,114087,1,2,0:0:0:0:
320,128,114268,1,2,0:0:0:0:
192,256,114449,1,0,0:0:0:0:
192,256,114539,1,0,0:0:0:0:
192,256,114629,1,0,0:0:0:0:
320,128,114810,1,2,0:0:0:0:
320,128,114991,1,2,0:0:0:0:
192,256,115352,1,0,0:2:0:0:
320,128,115533,1,2,0:0:0:0:
320,256,115714,1,4,0:0:0:0:
192,256,116075,1,0,0:0:0:0:
320,128,116256,1,2,0:0:0:0:
192,256,116617,1,0,0:0:0:0:
192,256,116798,1,0,0:0:0:0:
320,128,116979,1,2,0:0:0:0:
192,256,117159,1,0,0:0:0:0:
192,256,117340,1,0,0:0:0:0:
192,256,117521,1,0,0:0:0:0:
320,128,117702,1,2,0:0:0:0:
320,128,117882,1,2,0:0:0:0:
192,256,118244,1,0,0:0:0:0:
320,128,118425,1,2,0:0:0:0:
320,256,118605,1,4,0:0:0:0:
320,128,118967,1,2,0:0:0:0:
320,128,119147,1,2,0:0:0:0:
192,256,119509,1,0,0:0:0:0:
320,128,119690,1,2,0:0:0:0:
320,128,119870,1,2,0:0:0:0:
192,256,120413,1,0,0:0:0:0:
320,128,120774,1,2,0:0:0:0:
320,128,121135,1,2,0:0:0:0:
320,256,121497,1,4,0:0:0:0:
192,256,121858,1,0,0:0:0:0:
320,128,122039,1,2,0:0:0:0:
192,256,122400,1,0,0:0:0:0:
320,128,122762,1,2,0:0:0:0:
320,128,123123,1,2,0:0:0:0:
320,128,123485,1,2,0:0:0:0:
320,128,123666,1,2,0:0:0:0:
320,128,124027,1,2,0:0:0:0:
192,256,124208,1,0,0:0:0:0:
192,256,124298,1,0,0:0:0:0:
192,256,124388,1,0,0:0:0:0:
192,256,124750,1,0,0:0:0:0:
320,128,124931,1,2,0:0:0:0:
192,256,125292,1,0,0:0:0:0:
320,128,125653,1,2,0:0:0:0:
320,128,126014,1,2,0:0:0:0:
192,256,126376,1,0,0:0:0:0:
320,128,126557,1,2,0:0:0:0:
192,256,126919,1,2,0:0:0:0:
320,256,127280,1,4,0:0:0:0:
192,256,127641,1,0,0:0:0:0:
320,128,127822,1,2,0:0:0:0:
192,256,128184,1,0,0:0:0:0:
320,128,128545,1,2,0:0:0:0:
320,128,128906,1,2,0:0:0:0:
192,256,129268,1,0,0:0:0:0:
320,128,129449,1,2,0:0:0:0:
192,256,129810,1,0,0:0:0:0:
320,128,129991,1,2,0:0:0:0:
320,128,130081,1,2,0:0:0:0:
320,128,130172,1,2,0:0:0:0:
192,256,130533,1,0,0:0:0:0:
320,128,130714,1,2,0:0:0:0:
192,256,131075,1,0,0:0:0:0:
192,256,131437,1,0,0:0:0:0:
192,256,131617,1,0,0:0:0:0:
320,128,131979,1,2,0:0:0:0:
192,256,132159,1,0,0:0:0:0:
192,128,132340,1,6,0:0:0:0:
320,256,132702,1,4,0:0:0:0:
192,256,133063,1,0,0:0:0:0:
192,256,133334,1,0,0:0:0:0:
192,256,133425,1,0,0:0:0:0:
320,128,133605,1,2,0:0:0:0:
192,256,133786,1,0,0:0:0:0:
192,256,134057,1,0,0:0:0:0:
192,256,134147,1,0,0:0:0:0:
320,128,134328,1,2,0:0:0:0:
320,128,134690,1,2,0:0:0:0:
320,128,135051,1,2,0:0:0:0:
320,128,135232,1,2,0:0:0:0:
320,128,135593,1,2,0:0:0:0:
192,256,135955,1,0,0:0:0:0:
192,256,136226,1,0,0:0:0:0:
192,256,136316,1,0,0:0:0:0:
192,256,136497,1,0,0:0:0:0:
320,128,136678,1,0,0:0:0:0:
192,256,136949,1,0,0:0:0:0:
192,256,137039,1,0,0:0:0:0:
320,128,137220,1,2,0:0:0:0:
320,128,137581,1,2,0:0:0:0:
192,256,137943,1,0,0:0:0:0:
320,128,138123,1,2,0:0:0:0:
192,256,138485,1,0,0:0:0:0:
320,128,138666,1,2,0:0:0:0:
320,256,138846,1,4,0:0:0:0:
192,256,139117,1,0,0:0:0:0:
192,256,139208,1,0,0:0:0:0:
320,128,139388,1,2,0:0:0:0:
192,256,139569,1,0,0:0:0:0:
192,256,139840,1,0,0:0:0:0:
192,256,139931,1,0,0:0:0:0:
320,128,140111,1,2,0:0:0:0:
320,128,140473,1,2,0:0:0:0:
192,256,140834,1,0,0:0:0:0:
320,128,141015,1,2,0:0:0:0:
192,256,141376,1,0,0:0:0:0:
320,128,141557,1,2,0:0:0:0:
320,128,141647,1,2,0:0:0:0:
320,128,141738,1,2,0:0:0:0:
192,256,142099,1,0,0:0:0:0:
320,128,142280,1,2,0:0:0:0:
192,256,142461,1,0,0:0:0:0:
192,256,142822,1,0,0:0:0:0:
320,128,143003,1,2,0:0:0:0:
192,128,143184,1,6,0:0:0:0:
192,256,143545,1,0,0:0:0:0:
192,256,143726,1,0,0:0:0:0:
192,256,143816,1,0,0:0:0:0:
192,256,143906,1,0,0:0:0:0:
192,128,144178,1,6,0:0:0:0:
192,256,144449,1,0,0:0:0:0:
320,256,144629,1,4,0:0:0:0:
320,128,144900,1,2,0:0:0:0:
320,128,144991,1,2,0:0:0:0:
320,128,145172,1,2,0:0:0:0:
192,256,145352,1,0,0:0:0:0:
320,128,145714,1,2,0:0:0:0:
192,256,145894,1,0,0:0:0:0:
192,256,146075,1,0,0:0:0:0:
192,256,146346,1,0,0:0:0:0:
192,256,146437,1,0,0:0:0:0:
320,128,146617,1,2,0:0:0:0:
192,256,146798,1,0,0:0:0:0:
320,128,147159,1,2,0:0:0:0:
320,128,147340,1,2,0:0:0:0:
320,256,147521,1,4,0:0:0:0:
320,128,147792,1,2,0:0:0:0:
320,128,147882,1,2,0:0:0:0:
320,128,148063,1,2,0:0:0:0:
320,256,148244,1,4,0:0:0:0:
192,256,148605,1,0,0:0:0:0:
320,128,148786,1,2,0:0:0:0:
192,256,148967,1,0,0:0:0:0:
320,128,149147,1,2,0:0:0:0:
320,128,149238,1,2,0:0:0:0:
320,128,149328,1,2,0:0:0:0:
320,128,149509,1,2,0:0:0:0:
320,128,149599,1,2,0:0:0:0:
320,128,149690,1,2,0:0:0:0:
192,256,150051,1,0,0:0:0:0:
320,128,150232,1,2,0:0:0:0:
192,256,150413,1,0,0:0:0:0:
192,256,150684,1,0,0:0:0:0:
192,256,150774,1,0,0:0:0:0:
320,128,150955,1,2,0:0:0:0:
320,128,151135,1,2,0:0:0:0:
320,128,151406,1,2,0:0:0:0:
320,128,151497,1,2,0:0:0:0:
192,256,151678,1,0,0:0:0:0:
320,128,151858,1,2,0:0:0:0:
192,256,152039,1,0,0:0:0:0:
320,128,152220,1,2,0:0:0:0:
320,128,152400,1,2,0:0:0:0:
192,256,152581,1,0,0:0:0:0:
192,256,152943,1,0,0:0:0:0:
192,128,153123,1,6,0:0:0:0:
320,256,153304,1,4,0:0:0:0:
320,128,153575,1,2,0:0:0:0:
320,128,153666,1,2,0:0:0:0:
192,256,153846,1,0,0:0:0:0:
192,256,154027,1,0,0:0:0:0:
320,128,154388,1,2,0:0:0:0:
192,256,154569,1,0,0:0:0:0:
320,256,154750,1,4,0:0:0:0:
320,128,155111,1,2,0:0:0:0:
192,256,155292,1,0,0:0:0:0:
320,128,155473,1,2,0:0:0:0:
192,256,155653,1,0,0:0:0:0:
192,256,155744,1,0,0:0:0:0:
192,256,155834,1,0,0:0:0:0:
320,128,156015,1,2,0:0:0:0:
192,128,156196,1,6,0:0:0:0:
192,256,156557,1,0,0:0:0:0:
320,128,156738,1,2,0:0:0:0:
320,128,157099,1,2,0:0:0:0:
320,128,157280,1,2,0:0:0:0:
192,256,157461,1,0,0:0:0:0:
320,128,157641,1,2,0:0:0:0:
192,256,158003,1,0,0:0:0:0:
320,128,158184,1,2,0:0:0:0:
192,256,158364,1,0,0:0:0:0:
320,128,158726,1,2,0:0:0:0:
192,256,158906,1,0,0:0:0:0:
192,256,159087,1,0,0:0:0:0:
192,256,159449,1,0,0:0:0:0:
320,128,159629,1,2,0:0:0:0:
192,256,159991,1,0,0:0:0:0:
320,128,160352,1,2,0:0:0:0:
320,128,162340,1,2,0:0:0:0:
320,128,162521,1,2,0:0:0:0:
192,128,162702,1,6,0:0:0:0:
192,256,163063,1,0,0:0:0:0:
320,128,163244,1,2,0:0:0:0:
192,256,163605,1,0,0:0:0:0:
192,256,163786,1,0,0:0:0:0:
320,128,163967,1,2,0:0:0:0:
192,256,164147,1,0,0:0:0:0:
192,256,164328,1,0,0:0:0:0:
320,128,164509,1,2,0:0:0:0:
320,128,164690,1,2,0:0:0:0:
192,256,164870,1,0,0:0:0:0:
192,256,165232,1,0,0:0:0:0:
320,128,165413,1,2,0:0:0:0:
320,256,165593,1,4,0:0:0:0:
192,256,165955,1,0,0:0:0:0:
320,128,166135,1,2,0:0:0:0:
192,128,166316,1,6,0:0:0:0:
192,256,166678,1,0,0:0:0:0:
320,128,166858,1,2,0:0:0:0:
320,128,167039,1,2,0:0:0:0:
192,256,167220,1,0,0:0:0:0:
192,256,167310,1,0,0:0:0:0:
192,256,167400,1,0,0:0:0:0:
320,128,167581,1,2,0:0:0:0:
192,256,167762,1,0,0:0:0:0:
320,128,168123,1,2,0:0:0:0:
320,128,168304,1,2,0:0:0:0:
320,256,168485,1,4,0:0:0:0:
192,256,168846,1,0,0:0:0:0:
320,128,169027,1,2,0:0:0:0:
192,256,169388,1,0,0:0:0:0:
320,128,169569,1,2,0:0:0:0:
192,256,169750,1,0,0:0:0:0:
320,128,169931,1,2,0:0:0:0:
192,256,170111,1,0,0:0:0:0:
320,128,170292,1,2,0:0:0:0:
320,128,170473,1,2,0:0:0:0:
192,256,170653,1,0,0:0:0:0:
320,128,171015,1,2,0:0:0:0:
192,256,171196,1,0,0:0:0:0:
192,128,171376,1,6,0:0:0:0:
320,128,171738,1,2,0:0:0:0:
192,256,171919,1,0,0:0:0:0:
320,256,172099,1,4,0:0:0:0:
192,256,172280,1,0,0:0:0:0:
320,128,172461,1,2,0:0:0:0:
320,128,172641,1,2,0:0:0:0:
192,256,173183,1,0,0:0:0:0:
320,128,173545,1,2,0:0:0:0:
320,128,173906,1,2,0:0:0:0:
320,128,174268,1,2,0:0:0:0:
192,256,174539,1,0,0:2:0:0:
320,128,174810,1,2,0:0:0:0:
192,256,175081,1,0,0:2:0:0:
320,128,175352,1,2,0:0:0:0:
192,256,175533,1,0,0:0:0:0:
320,128,175714,1,2,0:0:0:0:
192,256,175985,1,0,0:2:0:0:
320,128,176256,1,2,0:0:0:0:
192,256,176527,1,0,0:2:0:0:
192,256,176798,1,0,0:0:0:0:
320,128,176979,1,2,0:0:0:0:
320,128,177159,1,2,0:0:0:0:
320,128,177430,1,2,0:0:0:0:
320,128,177702,1,2,0:0:0:0:
320,128,177973,1,2,0:0:0:0:
320,128,178244,1,2,0:0:0:0:
192,256,178424,1,0,0:0:0:0:
320,128,178605,1,2,0:0:0:0:
192,256,178876,1,0,0:0:0:0:
320,128,179147,1,2,0:0:0:0:
320,128,179328,1,2,0:0:0:0:
192,256,179689,1,0,0:0:0:0:
320,128,179870,1,2,0:0:0:0:
192,128,180051,1,6,0:0:0:0:
192,256,180412,1,0,0:0:0:0:
320,128,180593,1,2,0:0:0:0:
192,256,180774,1,0,0:0:0:0:
320,128,181135,1,2,0:0:0:0:
192,256,181316,1,0,0:0:0:0:
192,256,181496,1,0,0:0:0:0:
320,128,181677,1,2,0:0:0:0:
320,128,181767,1,2,0:0:0:0:
320,128,181858,1,2,0:0:0:0:
192,256,182039,1,0,0:0:0:0:
320,128,182219,1,2,0:0:0:0:
192,256,182581,1,0,0:0:0:0:
320,128,182761,1,2,0:0:0:0:
320,256,182942,1,4,0:0:0:0:
320,128,183304,1,2,0:0:0:0:
320,128,183484,1,2,0:0:0:0:
192,256,183665,1,0,0:0:0:0:
320,128,184027,1,2,0:0:0:0:
192,256,184207,1,0,0:0:0:0:
320,128,184388,1,2,0:0:0:0:
320,128,184569,1,2,0:0:0:0:
320,128,184659,1,2,0:0:0:0:
320,128,184749,1,2,0:0:0:0:
192,256,184930,1,0,0:0:0:0:
320,128,185111,1,2,0:0:0:0:
192,256,185472,1,0,0:0:0:0:
320,128,185653,1,2,0:0:0:0:
192,128,185834,1,6,0:0:0:0:
192,256,186195,1,0,0:0:0:0:
320,128,186376,1,2,0:0:0:0:
192,256,186557,1,0,0:0:0:0:
320,128,186918,1,2,0:0:0:0:
192,256,187099,1,0,0:0:0:0:
192,256,187280,1,0,0:0:0:0:
320,128,187460,1,2,0:0:0:0:
320,128,187551,1,2,0:0:0:0:
320,128,187641,1,2,0:0:0:0:
192,256,187822,1,0,0:0:0:0:
320,128,188002,1,2,0:0:0:0:
192,256,188364,1,0,0:0:0:0:
320,128,188545,1,2,0:0:0:0:
320,256,188725,1,4,0:0:0:0:
320,256,188906,1,4,0:0:0:0:
320,256,189448,1,4,0:0:0:0:
320,256,189629,1,4,0:0:0:0:
320,256,190171,1,4,0:0:0:0:
320,128,190352,1,2,0:0:0:0:
320,128,190442,1,2,0:0:0:0:
320,128,190532,1,2,0:0:0:0:
192,256,190713,1,0,0:0:0:0:
320,128,190894,1,2,0:0:0:0:
192,256,191075,1,0,0:0:0:0:
192,128,191256,1,6,0:0:0:0:
