osu file format v14

[General]
AudioFilename: audio.mp3
AudioLeadIn: 0
PreviewTime: 48761
Countdown: 0
SampleSet: Normal
StackLeniency: 0.3
Mode: 0
LetterboxInBreaks: 0
WidescreenStoryboard: 1

[Editor]
DistanceSpacing: 1.3
BeatDivisor: 4
GridSize: 4
TimelineZoom: 1.2

[Metadata]
Title:Koigahara no Kassen
TitleUnicode:恋ヶ原之合戦
Artist:capitaro
ArtistUnicode:かぴたろう
Creator:Zero__wind
Version:Hard
Source:
Tags:Vocaloid 未来和歌集 初音ミク Hatsune Miku Nardoxyribonucleic
BeatmapID:1163722
BeatmapSetID:466053

[Difficulty]
HPDrainRate:5
CircleSize:3.7
OverallDifficulty:6
ApproachRate:7
SliderMultiplier:1.3
SliderTickRate:1

[Events]
//Background and Video events
0,0,"bg.jpg",0,0
//Break Periods
2,75432,79392
2,156396,161440
//Storyboard Layer 0 (Background)
//Storyboard Layer 1 (Fail)
//Storyboard Layer 2 (Pass)
//Storyboard Layer 3 (Foreground)
//Storyboard Sound Samples

[TimingPoints]
-2840,361.44578313253,4,1,1,70,1,0
14328,-100,4,1,1,50,0,0
37641,-125,4,1,1,50,0,0
46497,-100,4,1,1,60,0,0
49208,-100,4,1,1,70,0,1
59147,-125,4,1,1,60,0,0
60774,-100,4,1,1,70,0,1
63666,-100,4,1,1,70,0,0
75051,-125,4,1,1,50,0,0
86798,-100,4,1,1,50,0,0
98364,-125,4,1,1,50,0,0
107220,-100,4,1,1,60,0,0
109931,-100,4,1,1,70,0,1
119870,-125,4,1,1,60,0,0
144629,-100,4,1,1,70,0,0
156196,-100,4,1,1,60,0,0
162340,-125,4,1,1,50,0,0
162702,361.44578313253,4,1,1,70,1,1
172641,-125,4,1,1,60,0,0
174268,-100,4,1,1,70,0,1
180051,-100,4,1,1,70,0,0

[Colours]
Combo1 : 146,222,146
Combo2 : 237,127,155
Combo3 : 129,184,252
Combo4 : 242,140,242

[HitObjects]
120,92,2220,6,0,L|128:124,6,32.5,2|0|0|0|0|0|8,0:2|0:0|0:0|0:0|0:0|0:0|0:0,0:0:0:0:
220,52,2943,6,0,L|332:60,1,97.5,4|2,2:0|0:0,0:0:0:0:
348,64,3304,1,8,0:0:0:0:
428,40,3485,1,2,0:0:0:0:
500,84,3666,2,0,P|516:144|500:180,1,97.5,0|2,0:0|0:2,0:0:0:0:
488,192,4027,2,0,P|452:204|412:192,1,65,8|0,0:0|0:0,0:0:0:0:
348,164,4388,5,2,0:2:0:0:
264,160,4569,2,0,L|228:164,2,32.5,2|0|8,0:0|0:0|0:0,0:0:0:0:
304,236,4931,1,0,0:0:0:0:
224,264,5111,2,0,L|116:252,1,97.5,2|0,0:2|0:0,0:0:0:0:
108,242,5473,1,8,0:0:0:0:
52,308,5653,1,2,0:0:0:0:
104,220,5834,6,0,P|120:164|96:112,1,97.5,4|2,0:2|0:0,0:0:0:0:
88,120,6196,2,0,P|115:127|156:116,1,65,8|2,0:0|0:0,0:0:0:0:
212,60,6557,2,0,P|260:48|304:68,1,97.5,0|2,0:0|0:2,0:0:0:0:
312,88,6919,2,0,L|308:156,1,65,8|0,0:0|0:0,0:0:0:0:
296,236,7280,5,2,0:2:0:0:
373,204,7461,1,2,0:0:0:0:
377,208,7551,1,0,0:0:0:0:
381,212,7641,2,0,L|452:216,1,65,8|0,0:0|0:0,0:0:0:0:
512,160,8003,1,2,0:2:0:0:
464,316,8364,1,8,0:0:0:0:
392,360,8545,1,2,0:0:0:0:
307,364,8726,6,0,P|260:354|224:322,1,97.5,4|2,0:2|0:0,0:0:0:0:
214,302,9087,1,8,0:0:0:0:
212,216,9268,1,2,0:0:0:0:
248,140,9449,2,0,P|293:123|340:133,1,97.5,0|2,0:0|0:2,0:0:0:0:
357,148,9810,2,0,P|359:184|340:221,1,65,8|0,0:0|0:0,0:0:0:0:
297,280,10172,5,2,0:2:0:0:
214,302,10352,2,0,L|170:298,2,32.5,2|0|8,0:0|0:0|0:0,0:0:0:0:
276,364,10714,1,0,0:0:0:0:
359,342,10894,2,0,L|464:332,1,97.5,2|0,0:2|0:0,0:0:0:0:
476,324,11256,2,0,P|492:292|488:260,1,65,8|2,0:0|0:0,0:0:0:0:
468,136,11617,6,0,P|420:116|376:128,1,97.5,4|2,0:2|0:0,0:0:0:0:
361,143,11979,2,0,P|326:154|294:144,1,65,8|2,0:0|0:0,0:0:0:0:
216,128,12340,2,0,P|228:184|208:216,1,97.5,0|2,0:0|0:2,0:0:0:0:
192,232,12702,2,0,P|157:243|125:233,1,65,8|0,0:0|0:0,0:0:0:0:
56,192,13063,5,4,0:2:0:0:
56,108,13244,1,2,0:0:0:0:
56,108,13334,1,8,0:0:0:0:
56,108,13425,2,0,L|64:28,1,65,4|8,0:2|0:0,0:0:0:0:
140,80,13786,1,12,0:2:0:0:
220,56,13967,2,0,L|268:40,2,32.5,2|0|12,0:0|0:0|0:2,0:0:0:0:
201,138,14328,5,0,1:0:0:0:
201,138,14509,2,0,P|261:156|317:126,1,130,4|0,0:2|0:0,0:0:0:0:
360,52,15051,1,0,1:0:0:0:
360,52,15232,2,0,L|500:68,1,130,0|0,0:2|0:0,0:0:0:0:
504,240,15955,6,0,P|448:270|387:252,1,130,2|0,0:2|0:0,0:0:0:0:
312,292,16497,1,0,0:0:0:0:
312,292,16678,1,0,0:0:0:0:
317,125,17039,1,0,0:0:0:0:
167,203,17400,6,0,P|112:172|50:187,1,130,2|0,0:2|0:0,0:0:0:0:
100,256,17943,1,0,0:0:0:0:
100,256,18123,2,0,L|120:108,1,130,0|0,0:0|0:0,0:0:0:0:
268,52,18846,6,0,L|340:40,2,65,2|0|0,0:2|0:0|0:0,0:0:0:0:
192,88,19388,1,0,0:0:0:0:
192,88,19569,1,0,0:0:0:0:
256,244,19931,2,0,L|252:320,1,65,0|0,0:0|0:0,0:0:0:0:
192,368,20292,6,0,L|44:356,1,130,4|0,0:2|0:0,0:0:0:0:
40,276,20834,1,0,0:0:0:0:
40,276,21015,2,0,P|92:236|156:236,1,130,0|0,0:0|0:0,0:0:0:0:
316,284,21738,6,0,P|379:282|430:243,1,130,2|0,0:2|0:0,0:0:0:0:
448,160,22280,1,0,0:0:0:0:
448,160,22461,1,0,0:0:0:0:
372,8,22822,1,0,0:0:0:0:
204,40,23184,6,0,L|184:180,1,130,2|0,0:2|0:0,0:0:0:0:
196,252,23726,1,0,0:0:0:0:
196,252,23906,2,0,P|264:264|320:232,1,130
196,356,24629,6,0,L|128:344,1,65,0|0,0:0|0:0,0:0:0:0:
48,360,24991,2,0,L|59:295,1,65,0|0,0:0|0:0,0:0:0:0:
128,216,25352,1,4,0:2:0:0:
284,292,25714,1,4,0:3:0:0:
364,264,25894,1,8,0:0:0:0:
364,264,25985,1,8,0:0:0:0:
364,264,26075,6,0,L|432:268,2,65,6|2|8,0:2|0:2|0:0,0:0:0:0:
332,184,26617,1,0,0:0:0:0:
319,99,26798,2,0,P|322:67|340:41,1,65,0|0,0:0|0:0,0:0:0:0:
406,96,27159,1,8,0:0:0:0:
244,140,27521,6,0,L|168:128,2,65,0|0|8,0:0|0:0|0:0,0:0:0:0:
304,200,28063,1,0,0:0:0:0:
324,284,28244,2,0,P|318:323|304:344,1,65
216,368,28605,1,8,0:0:0:0:
92,264,28967,6,0,L|168:268,2,65,2|2|8,0:2|0:2|0:0,0:0:0:0:
19,311,29509,1,0,0:0:0:0:
16,224,29690,2,0,L|24:152,1,65,0|0,0:0|0:0,0:0:0:0:
36,76,30051,1,8,0:0:0:0:
204,100,30413,6,0,P|240:108|276:100,1,65
324,40,30774,2,0,P|360:32|396:40,1,65,8|0,0:0|0:0,0:0:0:0:
444,100,31135,1,0,0:0:0:0:
416,272,31497,1,8,0:0:0:0:
344,316,31678,1,2,0:2:0:0:
264,284,31858,6,0,L|180:284,2,65,6|2|8,0:2|0:2|0:0,0:0:0:0:
336,240,32400,1,0,0:0:0:0:
264,196,32581,2,0,L|180:196,1,65,0|0,0:0|0:0,0:0:0:0:
128,240,32943,1,8,0:0:0:0:
240,364,33304,6,0,P|272:376|308:372,2,65,0|0|8,0:0|0:0|0:0,0:0:0:0:
156,366,33846,1,0,0:0:0:0:
196,292,34027,2,0,P|208:260|204:224,1,65,0|0,0:0|0:0,0:0:0:0:
168,156,34388,1,8,0:0:0:0:
336,168,34750,6,0,P|368:166|396:150,2,65,2|2|8,0:2|0:2|0:0,0:0:0:0:
344,84,35292,1,0,0:0:0:0:
428,73,35473,2,0,P|455:89|474:115,1,65,0|0,0:0|0:0,0:0:0:0:
464,200,35834,1,8,0:0:0:0:
384,360,36196,6,0,L|320:368,1,65,2|0,0:2|0:0,0:0:0:0:
234,368,36557,2,0,L|170:360,1,65,8|0,0:0|0:0,0:0:0:0:
92,288,36919,1,12,0:2:0:0:
212,120,37280,1,4,0:3:0:0:
284,168,37461,1,8,0:0:0:0:
284,168,37551,1,8,0:0:0:0:
284,168,37641,6,0,P|357:183|424:132,1,156,4|0,0:2|0:0,0:0:0:0:
432,56,38364,1,2,0:2:0:0:
432,56,38726,5,10,0:2:0:0:
348,60,38906,2,0,P|268:48|236:40,1,104,0|2,0:0|0:2,0:0:0:0:
164,12,39449,2,0,P|124:20|104:32,1,52,2|0,0:2|0:0,0:0:0:0:
40,68,39810,1,2,0:2:0:0:
68,232,40172,2,0,P|108:232|124:224,1,52,8|0,0:0|0:0,0:0:0:0:
183,155,40533,6,0,P|214:225|185:296,1,156,4|0,0:2|0:0,0:0:0:0:
120,348,41256,1,2,0:2:0:0:
120,348,41617,5,10,0:2:0:0:
200,380,41798,2,0,P|252:377|312:360,1,104,0|2,0:0|0:2,0:0:0:0:
376,324,42340,2,0,P|416:324|432:332,1,52,2|0,0:2|0:0,0:0:0:0:
492,380,42702,1,2,0:2:0:0:
472,216,43063,2,0,L|476:160,1,52,8|0,0:0|0:0,0:0:0:0:
511,75,43425,6,0,P|440:85|388:28,1,156,4|0,0:2|0:0,0:0:0:0:
468,4,44147,1,2,0:2:0:0:
468,4,44509,5,2,0:2:0:0:
512,75,44690,2,0,P|500:155|484:191,1,104,0|2,0:0|0:2,0:0:0:0:
428,228,45232,2,0,P|400:236|376:232,1,52,2|0,0:2|0:0,0:0:0:0:
304,192,45593,1,2,0:2:0:0:
152,264,45955,1,4,0:2:0:0:
152,348,46135,2,0,L|168:372,2,26,8|8|0,0:0|0:0|0:0,0:0:0:0:
80,306,46497,5,12,0:2:0:0:
80,306,46678,1,12,0:2:0:0:
232,228,47039,1,12,0:2:0:0:
232,228,47220,1,12,0:2:0:0:
80,138,47581,6,0,P|124:84|184:76,1,130,12|0,0:2|0:0,0:0:0:0:
266,65,48123,2,0,L|336:72,1,65,2|2,0:2|0:2,0:0:0:0:
412,96,48485,2,0,L|440:112,3,32.5,4|2|10|8,0:2|0:2|0:2|0:0,0:0:0:0:
456,128,48846,1,0,0:0:0:0:
468,212,49027,1,0,0:0:0:0:
416,280,49208,6,0,P|352:292|308:268,1,97.5,4|8,0:2|0:0,0:0:0:0:
312,260,49569,1,2,0:2:0:0:
264,168,49750,2,0,P|200:164|148:204,1,130,2|0,0:0|0:0,0:0:0:0:
112,280,50292,2,0,L|112:356,1,65,2|2,0:2|0:0,0:0:0:0:
8,360,50653,6,0,L|8:284,1,65,2|0,0:2|0:0,0:0:0:0:
16,208,51015,1,2,0:2:0:0:
64,136,51196,1,2,0:0:0:0:
140,172,51376,2,0,L|244:168,1,97.5,0|8,0:0|0:0,0:0:0:0:
260,172,51738,2,0,P|272:204|264:232,1,65,2|2,0:2|0:0,0:0:0:0:
216,93,52099,6,0,P|263:84|309:98,1,97.5,4|8,0:2|0:0,0:0:0:0:
328,112,52461,1,2,0:2:0:0:
364,192,52641,2,0,L|348:336,1,130,2|0,0:0|0:0,0:0:0:0:
280,372,53184,1,2,0:2:0:0:
224,284,53364,6,0,P|166:256|105:274,1,130,2|2,0:0|0:2,0:0:0:0:
100,360,53906,2,0,P|132:356|159:340,1,65,2|8,0:2|0:0,0:0:0:0:
212,192,54268,1,4,0:2:0:0:
212,192,54629,2,0,L|144:172,1,65,2|8,0:2|0:0,0:0:0:0:
56,120,54991,6,0,P|44:60|76:20,1,97.5,4|8,0:2|0:0,0:0:0:0:
84,24,55352,1,2,0:2:0:0:
180,64,55533,2,0,P|248:72|304:28,1,130,2|0,0:0|0:0,0:0:0:0:
376,4,56075,2,0,P|416:8|436:24,1,65,2|2,0:2|0:0,0:0:0:0:
460,120,56437,6,0,L|448:188,1,65,2|0,0:2|0:0,0:0:0:0:
420,264,56798,1,2,0:2:0:0:
336,284,56979,1,2,0:0:0:0:
256,252,57159,2,0,P|200:232|148:248,1,97.5,2|8,0:2|0:0,0:0:0:0:
144,252,57521,1,4,0:2:0:0:
71,295,57702,1,2,0:0:0:0:
71,210,57882,6,0,L|80:80,1,130,4|8,0:2|0:0,0:0:0:0:
184,24,58425,2,0,L|175:154,1,130,2|2,0:0|0:2,0:0:0:0:
164,239,58967,1,8,0:0:0:0:
256,205,59147,1,12,0:2:0:0:
256,205,59690,6,0,P|303:224|352:210,2,104,2|2|2,0:2|0:2|0:2,0:0:0:0:
244,36,60774,5,12,0:2:0:0:
308,144,61045,1,0,0:2:0:0:
352,24,61316,1,12,0:2:0:0:
416,132,61587,1,0,0:2:0:0:
460,12,61858,5,12,0:2:0:0:
460,12,62039,1,12,0:2:0:0:
460,12,62220,5,12,0:2:0:0:
304,76,62491,1,2,0:2:0:0:
480,124,62762,1,12,0:2:0:0:
324,188,63033,1,2,0:2:0:0:
500,236,63304,2,0,L|496:272,3,32.5,4|0|10|8,0:2|0:0|0:2|0:0,0:0:0:0:
488,292,63666,6,0,P|436:316|388:300,1,97.5,4|2,0:2|0:0,0:0:0:0:
376,304,64027,2,0,L|304:312,1,65,8|2,0:0|0:0,0:0:0:0:
248,372,64388,2,0,L|140:360,1,97.5,0|2,0:0|0:2,0:0:0:0:
128,352,64750,2,0,P|110:319|115:289,1,65,8|0,0:0|0:0,0:0:0:0:
144,212,65111,5,2,0:2:0:0:
224,240,65292,2,0,L|258:243,2,32.5,2|0|8,0:0|0:0|0:0,0:0:0:0:
208,156,65653,1,0,0:0:0:0:
292,160,65834,2,0,P|328:191|344:236,1,97.5,2|0,0:2|0:0,0:0:0:0:
344,260,66196,1,8,0:0:0:0:
304,336,66376,1,2,0:0:0:0:
228,376,66557,6,0,P|176:376|136:340,1,97.5,4|2,0:2|0:0,0:0:0:0:
132,328,66919,2,0,L|136:264,1,65,8|2,0:0|0:0,0:0:0:0:
220,240,67280,2,0,L|226:142,1,97.5,0|2,0:0|0:2,0:0:0:0:
220,120,67641,2,0,P|193:102|160:100,1,65,8|0,0:0|0:0,0:0:0:0:
76,116,68003,5,2,0:2:0:0:
104,32,68184,1,2,0:0:0:0:
104,32,68274,1,0,0:0:0:0:
104,32,68364,2,0,L|168:12,1,65,8|0,0:0|0:0,0:0:0:0:
252,16,68726,1,2,0:2:0:0:
332,164,69087,1,8,0:0:0:0:
416,188,69268,1,2,0:0:0:0:
496,156,69449,6,0,P|512:104|496:60,1,97.5,4|2,0:2|0:0,0:0:0:0:
480,52,69810,2,0,L|412:32,1,65,8|2,0:0|0:0,0:0:0:0:
328,32,70172,2,0,L|226:62,1,97.5,0|2,0:0|0:2,0:0:0:0:
212,68,70533,2,0,P|200:108|208:140,1,65,8|0,0:0|0:0,0:0:0:0:
240,208,70894,5,2,0:2:0:0:
324,212,71075,2,0,L|368:208,2,32.5,2|0|8,0:0|0:0|0:0,0:0:0:0:
277,284,71437,1,0,0:0:0:0:
361,288,71617,2,0,L|466:278,1,97.5,2|0,0:2|0:0,0:0:0:0:
472,260,71979,1,8,0:0:0:0:
492,176,72159,1,2,0:0:0:0:
472,92,72340,6,0,P|408:76|372:92,1,97.5,4|2,0:2|0:0,0:0:0:0:
356,96,72702,2,0,P|344:128|348:160,1,65,8|2,0:0|0:0,0:0:0:0:
396,232,73063,2,0,P|408:284|388:320,1,97.5,0|2,0:0|0:2,0:0:0:0:
368,336,73425,2,0,P|331:347|286:333,1,65,8|0,0:0|0:0,0:0:0:0:
232,296,73786,5,4,0:2:0:0:
148,292,73967,1,2,0:0:0:0:
148,292,74057,1,0,0:0:0:0:
148,292,74147,2,0,L|80:304,1,65,12|0,0:2|0:0,0:0:0:0:
8,264,74509,1,12,0:2:0:0:
12,348,74690,2,0,L|16:380,2,32.5,2|0|12,0:0|0:0|0:2,0:0:0:0:
83,303,75051,1,0,0:0:0:0:
79,219,75232,1,4,0:2:0:0:
196,136,80292,6,0,B|184:88|184:88|196:56,2,78,4|4|2,0:2|0:2|0:2,0:0:0:0:
268,196,81015,6,0,L|364:192,2,78,4|0|2,0:2|0:0|0:2,0:0:0:0:
196,240,81738,2,0,P|176:292|184:328,1,78,2|0,0:2|0:0,0:0:0:0:
188,328,82099,2,0,P|219:332|248:320,1,52,2|0,0:2|0:0,0:0:0:0:
324,324,82461,6,0,B|372:344|372:344|384:376,2,78,2|0|2,0:2|0:0|0:2,0:0:0:0:
308,240,83184,2,0,P|308:204|332:168,1,78,2|0,0:2|0:0,0:0:0:0:
344,160,83545,2,0,L|400:164,1,52,2|0,0:2|0:0,0:0:0:0:
476,132,83906,6,0,B|488:80|488:80|480:52,2,78,2|0|2,0:2|0:0|0:2,0:0:0:0:
404,84,84629,2,0,L|326:78,1,78,2|0,0:2|0:0,0:0:0:0:
308,76,84991,2,0,P|281:83|262:97,1,52,2|0,0:2|0:0,0:0:0:0:
216,168,85352,6,0,P|220:193|216:219,1,52,2|0,0:2|0:0,0:0:0:0:
136,247,85714,2,0,P|131:221|135:195,1,52,0|2,0:0|0:2,0:0:0:0:
176,92,86075,1,4,0:2:0:0:
200,300,86437,1,4,0:3:0:0:
132,344,86617,1,8,0:0:0:0:
132,344,86708,1,8,0:0:0:0:
132,344,86798,6,0,L|32:336,1,97.5,4|0,0:2|0:0,0:0:0:0:
20,320,87159,2,0,P|8:284|16:252,1,65,8|2,0:0|0:2,0:0:0:0:
76,196,87521,2,0,L|176:188,1,97.5,2|0,0:2|0:0,0:0:0:0:
188,172,87882,2,0,P|200:136|192:104,1,65,10|0,0:2|0:0,0:0:0:0:
280,56,88244,6,0,P|296:104|296:160,1,97.5,2|0,0:2|0:0,0:0:0:0:
292,172,88605,1,8,0:0:0:0:
240,236,88786,1,2,0:2:0:0:
173,188,88967,2,0,P|121:180|73:208,1,97.5,2|0,0:2|0:0,0:0:0:0:
72,220,89328,2,0,L|60:292,1,65,10|0,0:2|0:0,0:0:0:0:
140,352,89690,6,0,P|204:368|236:356,1,97.5,2|0,0:2|0:0,0:0:0:0:
244,340,90051,2,0,P|280:328|312:332,1,65,8|2,0:0|0:2,0:0:0:0:
380,379,90413,2,0,P|396:334|385:288,1,97.5,2|0,0:2|0:0,0:0:0:0:
376,268,90774,2,0,P|408:265|437:252,1,65,10|0,0:2|0:0,0:0:0:0:
496,188,91135,6,0,L|504:120,1,65,2|2,0:2|0:2,0:0:0:0:
396,120,91497,2,0,L|388:184,1,65,8|2,0:0|0:2,0:0:0:0:
437,252,91858,1,4,0:2:0:0:
468,16,92220,1,12,0:2:0:0:
232,64,92581,6,0,L|332:72,1,97.5,4|0,0:2|0:0,0:0:0:0:
352,72,92943,1,8,0:0:0:0:
424,120,93123,1,2,0:2:0:0:
460,200,93304,2,0,P|464:252|440:288,1,97.5,2|0,0:2|0:0,0:0:0:0:
420,300,93666,2,0,P|388:300|356:284,1,65,10|0,0:2|0:0,0:0:0:0:
260,320,94027,6,0,P|212:300|156:312,1,97.5,2|0,0:2|0:0,0:0:0:0:
148,316,94388,2,0,L|152:240,1,65,8|2,0:0|0:2,0:0:0:0:
148,164,94750,2,0,P|212:180|248:164,1,97.5,2|0,0:2|0:0,0:0:0:0:
256,152,95111,2,0,L|252:76,1,65,10|0,0:2|0:0,0:0:0:0:
176,20,95473,6,0,P|129:8|84:25,1,97.5,2|0,0:2|0:0,0:0:0:0:
64,36,95834,1,8,0:0:0:0:
36,120,96015,1,2,0:2:0:0:
88,192,96196,2,0,L|192:184,1,97.5,2|0,0:2|0:0,0:0:0:0:
208,176,96557,2,0,P|232:148|236:120,1,65,10|0,0:2|0:0,0:0:0:0:
256,20,96919,6,0,P|288:12|320:20,1,65,2|2,0:2|0:2,0:0:0:0:
439,80,97280,2,0,P|408:87|377:80,1,65,8|2,0:0|0:2,0:0:0:0:
500,20,97641,1,4,0:2:0:0:
432,220,98003,1,4,0:3:0:0:
352,188,98184,1,8,0:0:0:0:
352,188,98274,1,8,0:0:0:0:
352,188,98364,6,0,P|276:192|240:264,1,156,4|0,0:2|0:0,0:0:0:0:
232,340,99087,1,2,0:2:0:0:
232,340,99449,5,10,0:2:0:0:
316,352,99629,2,0,P|372:344|420:328,1,104,0|2,0:0|0:2,0:0:0:0:
468,260,100172,2,0,P|480:232|484:204,1,52,2|0,0:2|0:0,0:0:0:0:
480,128,100533,1,2,0:2:0:0:
332,204,100894,2,0,P|296:200|276:192,1,52,8|0,0:0|0:0,0:0:0:0:
187,155,101256,6,0,P|202:230|157:291,1,156,4|0,0:2|0:0,0:0:0:0:
80,320,101979,1,2,0:2:0:0:
80,320,102340,5,10,0:2:0:0:
26,255,102521,2,0,P|66:231|121:211,1,104,0|2,0:0|0:2,0:0:0:0:
204,220,103063,2,0,P|232:228|260:224,1,52,2|0,0:2|0:0,0:0:0:0:
316,168,103425,1,2,0:2:0:0:
232,24,103786,2,0,P|207:16|181:18,1,52,8|0,0:0|0:0,0:0:0:0:
88,28,104147,6,0,P|36:84|64:160,1,156,4|0,0:2|0:0,0:0:0:0:
119,211,104870,1,2,0:2:0:0:
119,211,105232,5,10,0:2:0:0:
200,180,105413,2,0,P|252:172|304:180,1,104,0|2,0:0|0:2,0:0:0:0:
380,216,105955,2,0,P|392:252|392:276,1,52,2|0,0:2|0:0,0:0:0:0:
368,348,106316,1,2,0:2:0:0:
492,228,106678,1,4,0:2:0:0:
512,144,106858,2,0,L|508:112,2,26,8|8|0,0:0|0:0|0:0,0:0:0:0:
424,132,107220,5,12,0:2:0:0:
424,132,107400,1,12,0:2:0:0:
316,264,107762,1,12,0:2:0:0:
316,264,107942,1,12,0:2:0:0:
388,56,108304,6,0,P|312:56|276:96,1,130,12|0,0:2|0:0,0:0:0:0:
208,148,108846,2,0,L|144:136,1,65,2|2,0:2|0:2,0:0:0:0:
76,192,109208,2,0,L|68:236,3,32.5,4|2|2|8,0:2|0:2|0:2|0:0,0:0:0:0:
68,248,109569,1,0,0:0:0:0:
132,308,109750,1,8,0:0:0:0:
220,304,109931,6,0,P|252:264|252:216,1,97.5,4|8,0:2|0:0,0:0:0:0:
240,200,110292,1,2,0:2:0:0:
164,124,110473,2,0,P|164:52|224:16,1,130,2|0,0:0|0:0,0:0:0:0:
292,20,111015,2,0,L|356:32,1,65,2|2,0:2|0:0,0:0:0:0:
436,104,111376,6,0,L|372:116,1,65,2|0,0:2|0:0,0:0:0:0:
284,124,111738,1,2,0:2:0:0:
212,172,111919,1,2,0:0:0:0:
212,172,112009,1,0,0:0:0:0:
212,172,112099,2,0,P|184:240|204:288,1,130,0|2,0:0|0:2,0:0:0:0:
276,336,112641,1,2,0:0:0:0:
356,296,112822,6,0,L|484:304,1,97.5,4|8,0:2|0:0,0:0:0:0:
476,304,113184,1,2,0:2:0:0:
439,224,113364,2,0,P|430:161|469:111,1,130,2|0,0:0|0:0,0:0:0:0:
512,184,113906,1,2,0:2:0:0:
475,304,114087,6,0,P|412:310|362:266,1,130,2|2,0:0|0:2,0:0:0:0:
275,287,114629,2,0,P|274:254|286:225,1,65,2|8,0:2|0:0,0:0:0:0:
356,116,114991,1,4,0:2:0:0:
356,116,115352,2,0,L|280:104,1,65,2|8,0:2|0:0,0:0:0:0:
208,44,115714,6,0,P|188:88|192:136,1,97.5,4|8,0:2|0:0,0:0:0:0:
201,157,116075,1,2,0:2:0:0:
285,226,116256,2,0,P|348:208|408:232,1,130,2|0,0:0|0:0,0:0:0:0:
468,292,116798,2,0,P|476:323|468:354,1,65,2|2,0:2|0:0,0:0:0:0:
366,324,117159,6,0,L|294:320,1,65,2|0,0:2|0:0,0:0:0:0:
216,328,117521,1,2,0:2:0:0:
140,368,117702,1,2,0:0:0:0:
140,368,117792,1,0,0:0:0:0:
140,368,117882,2,0,P|133:306|180:250,1,130,2|4,0:2|0:2,0:0:0:0:
248,212,118425,1,2,0:0:0:0:
336,216,118605,6,0,L|472:204,1,130,4|8,0:2|0:0,0:0:0:0:
380,104,119147,2,0,L|244:92,1,130,2|2,0:0|0:2,0:0:0:0:
164,88,119690,1,8,0:0:0:0:
203,176,119870,1,12,0:2:0:0:
203,176,120413,6,0,P|175:183|146:181,1,52,2|8,0:2|0:3,0:0:0:0:
68,79,120774,2,0,P|73:50|90:27,1,52,2|8,0:2|0:3,0:0:0:0:
221,9,121135,2,0,P|241:27|254:53,1,52,2|4,0:2|0:3,0:0:0:0:
292,160,121497,6,0,P|286:211|254:251,1,104,4|0,0:2|0:0,0:0:0:0:
160,260,122039,2,0,L|56:248,1,104,8|8,0:0|0:3,0:0:0:0:
212,352,122762,2,0,L|264:346,1,52,2|0,0:2|0:0,0:0:0:0:
344,316,123123,2,0,P|372:264|360:204,1,104,2|8,0:2|0:0,0:0:0:0:
324,148,123666,2,0,L|271:142,1,52,2|8,0:2|0:3,0:0:0:0:
192,160,124027,1,2,0:2:0:0:
367,220,124388,6,0,L|471:208,1,104,4|0,0:2|0:0,0:0:0:0:
512,136,124931,2,0,P|512:72|476:36,1,104,8|8,0:0|0:3,0:0:0:0:
320,32,125653,2,0,P|292:32|264:20,1,52,2|0,0:2|0:0,0:0:0:0:
240,104,126015,2,0,P|252:164|232:204,1,104,2|0,0:2|0:0,0:0:0:0:
165,249,126557,2,0,P|153:277|154:301,1,52,2|8,0:2|0:3,0:0:0:0:
181,381,126919,1,2,0:2:0:0:
234,200,127280,6,0,P|193:170|142:166,1,104,4|0,0:2|0:0,0:0:0:0:
73,217,127822,2,0,L|57:325,1,104,8|8,0:0|0:3,0:0:0:0:
0,140,128545,2,0,L|7:88,1,52,2|0,0:2|0:0,0:0:0:0:
56,20,128906,2,0,P|108:8|152:32,1,104,2|8,0:2|0:0,0:0:0:0:
188,108,129449,2,0,L|180:159,1,52,2|8,0:2|0:3,0:0:0:0:
112,208,129810,1,2,0:2:0:0:
150,30,130172,6,0,L|278:38,1,104,4|0,0:2|0:0,0:0:0:0:
336,56,130714,2,0,P|359:101|355:154,1,104,8|8,0:0|0:3,0:0:0:0:
248,288,131437,1,0,0:0:0:0:
168,264,131617,1,2,0:2:0:0:
268,120,131979,1,8,0:0:0:0:
88,240,132340,1,4,0:2:0:0:
208,67,132702,1,4,0:2:0:0:
247,288,133063,6,0,P|220:332|173:347,1,104,4|0,0:2|0:0,0:0:0:0:
168,264,133605,1,2,0:2:0:0:
228,207,133786,2,0,P|280:209|316:242,1,104,0|0,0:0|0:0,0:0:0:0:
368,308,134328,2,0,L|360:360,1,52,2|0,0:2|0:0,0:0:0:0:
440,268,134690,2,0,L|424:164,1,104,2|0,0:2|0:0,0:0:0:0:
408,84,135232,1,2,0:2:0:0:
256,140,135593,2,0,P|216:144|184:120,1,78,2|8,0:2|0:0,0:0:0:0:
180,104,135955,6,0,L|164:208,1,104,4|0,0:2|0:0,0:0:0:0:
152,288,136497,1,2,0:2:0:0:
80,248,136678,2,0,L|96:144,1,104,0|0,0:0|0:0,0:0:0:0:
108,63,137220,2,0,P|124:43|145:29,1,52,2|0,0:2|0:0,0:0:0:0:
232,28,137581,2,0,P|264:67|270:120,1,104,2|0,0:2|0:0,0:0:0:0:
248,200,138123,1,2,0:2:0:0:
388,108,138485,2,0,P|440:96|476:108,1,78,2|8,0:2|0:0,0:0:0:0:
476,116,138846,6,0,P|492:172|472:212,1,104,4|0,0:2|0:0,0:0:0:0:
416,272,139388,1,2,0:2:0:0:
340,304,139569,2,0,P|283:289|258:252,1,104,0|0,0:0|0:0,0:0:0:0:
260,167,140111,2,0,P|288:151|316:151,1,52,2|4,0:2|0:2,0:0:0:0:
184,208,140473,2,0,P|128:212|88:176,1,104,2|0,0:2|0:0,0:0:0:0:
84,100,141015,1,2,0:2:0:0:
24,256,141376,2,0,L|24:352,1,78,2|8,0:2|0:0,0:0:0:0:
32,352,141738,6,0,P|72:368|124:352,1,78,4|8,0:2|0:0,0:0:0:0:
116,348,142099,2,0,L|176:344,1,52,0|4,0:0|0:2,0:0:0:0:
264,344,142461,2,0,L|354:350,1,78,4|8,0:2|0:0,0:0:0:0:
360,348,142822,2,0,P|385:343|405:326,1,52,0|4,0:0|0:2,0:0:0:0:
432,208,143184,5,4,0:2:0:0:
264,184,143545,2,0,L|212:187,1,52,2|0,0:2|0:0,0:0:0:0:
136,220,143906,2,0,B|120:260|120:260|128:300,2,78,4|10|0,0:2|0:2|0:0,0:0:0:0:
160,100,144629,6,0,L|258:93,1,97.5,4|8,0:2|0:0,0:0:0:0:
280,96,144991,1,0,0:0:0:0:
344,152,145172,1,10,0:2:0:0:
344,236,145352,2,0,P|308:272|264:272,1,97.5,0|8,0:0|0:0,0:0:0:0:
244,260,145714,2,0,L|175:264,1,65,2|8,0:2|0:0,0:0:0:0:
244,360,146075,6,0,L|146:367,1,97.5,2|8,0:2|0:0,0:0:0:0:
124,360,146437,1,0,0:0:0:0:
92,280,146617,1,10,0:2:0:0:
84,192,146798,2,0,P|96:140|128:112,1,97.5,0|8,0:0|0:0,0:0:0:0:
152,104,147159,2,0,P|184:108|212:128,1,65,2|8,0:2|0:0,0:0:0:0:
276,228,147521,6,0,L|268:336,1,97.5,4|8,0:2|0:0,0:0:0:0:
268,348,147882,1,0,0:0:0:0:
352,336,148063,1,2,0:2:0:0:
416,236,148244,2,0,L|424:128,1,97.5,4|8,0:2|0:0,0:0:0:0:
424,116,148605,1,2,0:2:0:0:
340,128,148786,1,8,0:0:0:0:
256,140,148967,5,4,0:2:0:0:
176,116,149147,2,0,L|144:104,2,32.5,2|0|4,0:2|0:0|0:2,0:0:0:0:
136,192,149509,2,0,L|104:180,2,32.5,2|0|4,0:2|0:0|0:2,0:0:0:0:
181,265,149870,1,2,0:2:0:0:
96,268,150051,2,0,L|64:256,3,32.5,2|8|10|8,0:2|0:0|0:2|0:0,0:0:0:0:
48,240,150413,6,0,P|28:214|22:182,1,65,4|0,0:2|0:0,0:0:0:0:
27,160,150684,1,10,0:2:0:0:
35,139,150774,2,0,P|55:113|85:101,1,65,0|10,0:0|0:2,0:0:0:0:
168,126,151135,2,0,P|185:152|187:185,1,65,2|0,0:2|0:0,0:0:0:0:
181,207,151406,1,10,0:2:0:0:
172,227,151497,2,0,P|149:250|118:259,1,65,0|10,0:0|0:2,0:0:0:0:
35,138,151858,6,0,P|54:113|84:101,1,65,2|0,0:2|0:0,0:0:0:0:
177,141,152220,2,0,P|189:169|184:201,1,65,2|8,0:2|0:0,0:0:0:0:
160,300,152581,2,0,L|40:292,1,97.5,2|8,0:2|0:0,0:0:0:0:
40,284,152943,1,4,0:2:0:0:
12,204,153123,1,10,0:2:0:0:
20,116,153304,6,0,P|52:76|96:72,1,97.5,4|2,0:2|0:2,0:0:0:0:
120,72,153666,1,8,0:0:0:0:
196,112,153846,1,2,0:2:0:0:
264,164,154027,2,0,P|311:182|351:164,1,97.5,2|0,0:2|0:0,0:0:0:0:
370,152,154389,1,10,0:2:0:0:
418,79,154569,1,0,0:0:0:0:
480,16,154750,6,0,P|504:57|501:104,1,97.5,4|2,0:2|0:2,0:0:0:0:
491,127,155111,2,0,P|471:153|442:164,1,65,10|0,0:2|0:0,0:0:0:0:
356,140,155473,2,0,L|324:148,3,32.5,4|2|8|8,0:2|0:2|0:3|0:3,0:0:0:0:
300,152,155834,1,8,0:3:0:0:
252,224,156015,1,8,0:0:0:0:
196,136,156196,1,2,0:2:0:0:
252,224,162340,5,2,0:2:0:0:
252,224,162521,1,2,0:2:0:0:
268,136,162702,2,0,L|160:140,1,97.5,4|8,0:2|0:0,0:0:0:0:
152,124,163063,1,2,0:2:0:0:
236,43,163244,2,0,P|299:38|347:79,1,130,2|0,0:0|0:0,0:0:0:0:
364,164,163786,2,0,L|348:232,1,65,2|2,0:2|0:0,0:0:0:0:
256,292,164147,6,0,L|240:224,1,65,2|0,0:2|0:0,0:0:0:0:
232,144,164509,1,2,0:2:0:0:
280,72,164689,1,2,0:0:0:0:
280,72,164780,1,0,0:0:0:0:
280,72,164870,2,0,P|348:80|400:48,1,130,0|2,0:0|0:2,0:0:0:0:
472,8,165412,1,2,0:0:0:0:
472,92,165593,6,0,L|460:220,1,97.5,4|8,0:2|0:0,0:0:0:0:
460,212,165955,1,2,0:2:0:0:
436,296,166135,2,0,P|368:312|312:280,1,130,2|0,0:0|0:0,0:0:0:0:
272,212,166677,1,2,0:2:0:0:
216,144,166858,6,0,L|80:152,1,130,2|2,0:0|0:2,0:0:0:0:
88,256,167400,2,0,L|152:259,1,65,2|8,0:2|0:0,0:0:0:0:
272,212,167762,1,4,0:2:0:0:
272,212,168123,2,0,L|266:276,1,65,4|8,0:2|0:0,0:0:0:0:
372,184,168485,6,0,L|361:68,1,97.5,4|0,0:2|0:0,0:0:0:0:
360,64,168846,1,8,0:0:0:0:
264,16,169027,2,0,P|196:24|160:80,1,130,2|0,0:0|0:0,0:0:0:0:
176,156,169569,2,0,P|209:170|244:164,1,65,8|0,0:0|0:0,0:0:0:0:
184,268,169930,6,0,P|151:265|122:278,1,65,2|0,0:2|0:0,0:0:0:0:
70,350,170292,1,8,0:0:0:0:
36,268,170473,1,2,0:0:0:0:
36,268,170563,1,0,0:0:0:0:
36,268,170653,2,0,L|44:124,1,130,2|12,0:2|0:2,0:0:0:0:
84,40,171195,1,12,0:2:0:0:
180,88,171376,6,0,L|316:80,1,130,4|8,0:2|0:0,0:0:0:0:
264,204,171918,2,0,L|134:211,1,130,2|0,0:0|0:0,0:0:0:0:
61,167,172461,1,8,0:0:0:0:
96,76,172641,1,12,0:2:0:0:
96,76,173183,6,0,P|148:84|188:56,2,104,2|2|2,0:2|0:2|0:2,0:0:0:0:
292,8,174268,5,12,0:2:0:0:
408,60,174539,1,0,0:2:0:0:
264,116,174810,1,12,0:2:0:0:
380,168,175081,1,0,0:2:0:0:
236,224,175352,5,12,0:2:0:0:
236,224,175533,1,12,0:2:0:0:
236,224,175714,5,12,0:2:0:0:
204,348,175985,1,2,0:2:0:0:
132,208,176256,1,12,0:2:0:0:
100,332,176527,1,2,0:2:0:0:
28,192,176798,5,12,0:2:0:0:
28,192,176979,1,2,0:2:0:0:
28,192,177159,5,12,0:2:0:0:
119,67,177430,1,12,0:2:0:0:
119,222,177702,1,12,0:2:0:0:
28,96,177973,1,12,0:2:0:0:
174,144,178244,5,12,0:2:0:0:
174,144,178424,1,12,0:2:0:0:
174,144,178605,5,4,0:2:0:0:
291,44,178876,1,2,0:2:0:0:
318,195,179147,1,2,0:2:0:0:
318,195,179328,1,4,0:2:0:0:
448,304,179689,2,0,L|480:296,3,32.5,0|0|8|8,0:0|0:0|0:0|0:0,0:0:0:0:
500,284,180051,6,0,P|520:232|492:176,1,97.5,4|2,0:2|0:0,0:0:0:0:
492,176,180412,2,0,L|428:160,1,65,8|2,0:0|0:0,0:0:0:0:
344,144,180774,2,0,L|248:168,1,97.5,0|2,0:0|0:2,0:0:0:0:
228,176,181135,2,0,P|217:215|228:240,1,65,8|0,0:0|0:0,0:0:0:0:
264,316,181497,5,2,0:2:0:0:
346,287,181677,2,0,L|380:296,2,32.5,2|0|8,0:0|0:0|0:0,0:0:0:0:
308,208,182039,1,0,0:0:0:0:
292,120,182220,2,0,P|316:64|352:48,1,97.5,2|0,0:2|0:0,0:0:0:0:
368,48,182581,1,8,0:0:0:0:
448,80,182762,1,2,0:0:0:0:
480,160,182942,6,0,P|480:224|460:256,1,97.5,4|2,0:2|0:0,0:0:0:0:
444,264,183304,2,0,P|407:268|380:258,1,65,8|2,0:0|0:0,0:0:0:0:
308,208,183665,2,0,P|260:192|212:212,1,97.5,0|2,0:0|0:2,0:0:0:0:
196,220,184027,2,0,P|192:268|212:304,1,65,8|0,0:0|0:0,0:0:0:0:
264,336,184388,5,2,0:2:0:0:
184,368,184569,1,2,0:0:0:0:
184,368,184659,1,0,0:0:0:0:
184,368,184750,2,0,L|96:360,1,65,8|0,0:0|0:0,0:0:0:0:
36,348,185111,1,2,0:2:0:0:
56,180,185473,1,8,0:0:0:0:
144,188,185653,1,2,0:0:0:0:
224,152,185834,6,0,P|256:108|252:64,1,97.5,4|2,0:2|0:0,0:0:0:0:
240,48,186195,2,0,L|176:36,1,65,8|2,0:0|0:0,0:0:0:0:
96,72,186557,2,0,P|64:116|68:160,1,97.5,0|2,0:0|0:2,0:0:0:0:
80,176,186918,2,0,L|144:188,1,65,8|0,0:0|0:0,0:0:0:0:
216,240,187280,5,2,0:2:0:0:
297,205,187461,2,0,L|340:208,2,32.5,2|0|8,0:0|0:0|0:0,0:0:0:0:
224,152,187822,1,0,0:0:0:0:
296,104,188003,2,0,L|399:111,1,97.5,2|0,0:2|0:0,0:0:0:0:
416,116,188364,2,0,L|476:148,1,65,8|2,0:0|0:0,0:0:0:0:
508,244,188726,5,12,0:2:0:0:
460,336,188906,1,12,0:2:0:0:
208,284,189448,1,12,0:2:0:0:
256,192,189628,1,12,0:2:0:0:
52,48,190171,5,4,0:2:0:0:
4,140,190351,1,2,0:0:0:0:
4,140,190442,1,8,0:0:0:0:
4,140,190533,2,0,P|34:150|68:150,1,65,4|8,0:2|0:0,0:0:0:0:
140,104,190894,1,12,0:2:0:0:
184,179,191075,1,2,0:0:0:0:
216,64,191256,1,4,0:2:0:0:
