osu file format v14

[General]
AudioFilename: audio.mp3
AudioLeadIn: 0
PreviewTime: 48761
Countdown: 0
SampleSet: Normal
StackLeniency: 0.3
Mode: 1
LetterboxInBreaks: 0
WidescreenStoryboard: 0

[Editor]
Bookmarks: 18304,24087,26979,115714,168033,168485
DistanceSpacing: 1
BeatDivisor: 4
GridSize: 32
TimelineZoom: 1.9

[Metadata]
Title:Koigahara no Kassen
TitleUnicode:恋ヶ原之合戦
Artist:capitaro
ArtistUnicode:かぴたろう
Creator:Zero__wind
Version:Oni
Source:
Tags:Vocaloid 未来和歌集 初音ミク Hatsune Miku Nardoxyribonucleic
BeatmapID:1001596
BeatmapSetID:466053

[Difficulty]
HPDrainRate:5
CircleSize:2
OverallDifficulty:6
ApproachRate:9
SliderMultiplier:1.4
SliderTickRate:1

[Events]
//Background and Video events
0,0,"bg.jpg",0,110
//Break Periods
//Storyboard Layer 0 (Background)
//Storyboard Layer 1 (Fail)
//Storyboard Layer 2 (Pass)
//Storyboard Layer 3 (Foreground)
//Storyboard Sound Samples

[TimingPoints]
-2840,361.44578313253,4,1,1,70,1,0
14328,-125,4,1,1,50,0,0
25714,-100,4,1,1,50,0,0
37280,-125,4,1,1,50,0,0
46497,-100,4,1,1,60,0,0
49208,-100,4,1,1,70,0,1
59147,-100,4,1,1,60,0,0
59690,-125,4,1,1,60,0,0
60774,-100,4,1,1,70,0,0
75051,-125,4,1,1,50,0,0
86437,-100,4,1,1,50,0,0
98003,-125,4,1,1,50,0,0
107220,-100,4,1,1,60,0,0
109931,-100,4,1,1,70,0,1
119870,-100,4,1,1,60,0,0
120413,-125,4,1,1,60,0,0
132882,-111.111111111111,4,1,1,60,0,0
144629,-100,4,1,1,70,0,0
156557,-125,4,1,1,50,0,0
162702,361.44578313253,4,1,1,70,1,1
162702,-86.9565217391304,4,1,1,70,0,1
172641,-86.9565217391304,4,1,1,60,0,0
173183,-125,4,1,1,60,0,0
174268,-86.9565217391304,4,1,1,70,0,0
179689,-100,4,1,1,70,0,0

[Colours]
Combo1 : 146,222,146
Combo2 : 237,127,155
Combo3 : 129,184,252
Combo4 : 242,140,242

[HitObjects]
320,128,2220,5,2,0:0:0:0:
192,256,2310,1,0,0:0:0:0:
192,256,2400,1,0,0:0:0:0:
192,256,2491,1,0,0:0:0:0:
320,128,2581,1,2,0:0:0:0:
192,256,2671,1,0,0:0:0:0:
320,128,2761,1,2,0:0:0:0:
192,128,2943,1,6,0:0:0:0:
320,128,3214,1,2,0:0:0:0:
192,256,3304,1,0,0:0:0:0:
320,128,3485,1,2,0:0:0:0:
192,256,3666,1,0,0:0:0:0:
192,256,3937,1,0,0:0:0:0:
320,128,4027,1,2,0:0:0:0:
192,256,4208,1,0,0:0:0:0:
192,256,4388,1,0,0:0:0:0:
320,128,4569,1,2,0:0:0:0:
192,256,4659,1,0,0:0:0:0:
320,128,4750,1,2,0:0:0:0:
192,256,4931,1,0,0:0:0:0:
192,256,5111,1,0,0:0:0:0:
320,128,5202,1,2,0:0:0:0:
192,256,5382,1,0,0:0:0:0:
320,128,5473,1,2,0:0:0:0:
320,128,5653,1,2,0:0:0:0:
320,256,5834,1,4,0:0:0:0:
320,128,6105,1,2,0:0:0:0:
192,256,6196,1,0,0:0:0:0:
320,128,6376,1,2,0:0:0:0:
192,256,6557,1,0,0:0:0:0:
192,256,6828,1,0,0:0:0:0:
320,128,6919,1,2,0:0:0:0:
192,256,7099,1,0,0:0:0:0:
320,128,7280,1,2,0:0:0:0:
320,128,7461,1,2,0:0:0:0:
320,128,7551,1,2,0:0:0:0:
320,128,7641,1,2,0:0:0:0:
192,256,7822,1,0,0:0:0:0:
320,128,8003,1,2,0:0:0:0:
320,128,8093,1,2,0:0:0:0:
192,256,8274,1,0,0:0:0:0:
320,128,8364,1,2,0:0:0:0:
320,128,8545,1,2,0:0:0:0:
192,128,8726,1,6,0:0:0:0:
320,128,8997,1,2,0:0:0:0:
320,128,9087,1,2,0:0:0:0:
320,128,9268,1,2,0:0:0:0:
192,256,9449,1,0,0:0:0:0:
192,256,9719,1,0,0:0:0:0:
320,128,9810,1,2,0:0:0:0:
192,256,9991,1,0,0:0:0:0:
192,256,10172,1,0,0:0:0:0:
320,128,10352,1,2,0:0:0:0:
192,256,10443,1,0,0:0:0:0:
320,128,10533,1,2,0:0:0:0:
192,256,10714,1,0,0:0:0:0:
320,128,10894,1,2,0:0:0:0:
320,128,10984,1,2,0:0:0:0:
192,256,11166,1,0,0:0:0:0:
320,128,11256,1,2,0:0:0:0:
192,256,11437,1,0,0:0:0:0:
320,256,11617,1,4,0:0:0:0:
192,256,11888,1,0,0:0:0:0:
320,128,11979,1,2,0:0:0:0:
320,128,12159,1,2,0:0:0:0:
192,256,12340,1,0,0:0:0:0:
192,256,12611,1,0,0:0:0:0:
320,128,12702,1,2,0:0:0:0:
192,256,12882,1,0,0:0:0:0:
320,128,13063,1,2,0:0:0:0:
320,128,13244,1,2,0:0:0:0:
320,128,13334,1,2,0:0:0:0:
320,128,13424,1,2,0:0:0:0:
192,256,13605,1,0,0:0:0:0:
192,128,13786,1,6,0:0:0:0:
192,256,13967,1,0,0:0:0:0:
192,128,14147,1,6,0:0:0:0:
320,256,14509,1,4,0:0:0:0:
192,256,14870,1,0,0:0:0:0:
192,256,15051,1,0,1:0:0:0:
320,128,15232,1,2,0:0:0:0:
192,256,15593,1,0,0:0:0:0:
320,128,15774,1,2,0:0:0:0:
320,128,15864,1,2,0:0:0:0:
192,256,15955,1,0,0:0:0:0:
192,256,16316,1,0,0:0:0:0:
192,256,16497,1,0,0:0:0:0:
320,128,16678,1,2,0:0:0:0:
320,128,17039,1,2,0:0:0:0:
192,256,17220,1,0,0:0:0:0:
192,256,17310,1,0,0:0:0:0:
320,128,17400,1,2,0:0:0:0:
192,256,17762,1,0,0:0:0:0:
320,128,17943,1,2,0:0:0:0:
320,128,18123,1,2,0:0:0:0:
192,256,18304,1,0,0:0:0:0:
320,128,18485,1,2,0:0:0:0:
192,256,18666,1,0,0:0:0:0:
192,256,18756,1,0,0:0:0:0:
320,128,18846,1,2,0:0:0:0:
192,256,19027,1,0,0:0:0:0:
320,128,19208,1,2,0:0:0:0:
192,256,19389,1,0,0:0:0:0:
320,128,19569,1,2,0:0:0:0:
192,256,19931,1,0,0:0:0:0:
192,256,20111,1,0,0:0:0:0:
192,256,20202,1,0,0:0:0:0:
320,128,20292,1,2,0:0:0:0:
320,128,20653,1,2,0:0:0:0:
192,256,20834,1,0,0:0:0:0:
320,128,21015,1,2,0:0:0:0:
320,128,21376,1,2,0:0:0:0:
192,256,21557,1,0,0:0:0:0:
192,256,21647,1,0,0:0:0:0:
192,256,21738,1,0,0:0:0:0:
192,256,22099,1,0,0:0:0:0:
320,128,22280,1,2,0:0:0:0:
320,128,22461,1,2,0:0:0:0:
192,256,22822,1,0,0:0:0:0:
192,256,23003,1,0,0:0:0:0:
192,256,23093,1,0,0:0:0:0:
320,128,23184,1,2,0:0:0:0:
192,256,23545,1,0,0:0:0:0:
192,256,23726,1,0,0:0:0:0:
320,128,23906,1,2,0:0:0:0:
192,256,24087,1,0,0:0:0:0:
320,128,24268,1,2,0:0:0:0:
192,256,24449,1,0,0:0:0:0:
192,256,24539,1,0,0:0:0:0:
192,256,24629,1,0,0:0:0:0:
320,128,24810,1,2,0:0:0:0:
192,256,24991,1,0,0:0:0:0:
320,128,25172,1,2,0:0:0:0:
320,128,25352,1,2,0:0:0:0:
320,256,25714,1,4,0:0:0:0:
320,128,25894,1,2,0:0:0:0:
320,128,25985,1,2,0:0:0:0:
320,128,26075,1,2,0:0:0:0:
320,128,26256,1,2,0:0:0:0:
192,256,26437,1,0,0:0:0:0:
192,256,26617,1,0,0:0:0:0:
320,128,26798,1,2,0:0:0:0:
192,256,26979,1,0,0:0:0:0:
320,128,27159,1,2,0:0:0:0:
192,256,27340,1,0,0:0:0:0:
192,256,27431,1,0,0:0:0:0:
192,256,27521,1,0,0:0:0:0:
192,256,27702,1,0,0:0:0:0:
320,128,27882,1,2,0:0:0:0:
192,256,28063,1,0,0:0:0:0:
192,256,28244,1,0,0:0:0:0:
320,128,28605,1,2,0:0:0:0:
192,256,28786,1,0,0:0:0:0:
320,128,28967,1,2,0:0:0:0:
320,128,29147,1,2,0:0:0:0:
320,128,29328,1,2,0:0:0:0:
192,256,29509,1,0,0:0:0:0:
192,256,29690,1,0,0:0:0:0:
192,256,29870,1,0,0:0:0:0:
320,128,30051,1,2,0:0:0:0:
192,256,30232,1,0,0:0:0:0:
320,128,30322,1,2,0:0:0:0:
192,256,30413,1,0,0:0:0:0:
192,256,30593,1,0,0:0:0:0:
320,128,30774,1,2,0:0:0:0:
192,256,30954,1,0,0:0:0:0:
192,256,31135,1,0,0:0:0:0:
320,128,31497,1,2,0:0:0:0:
192,256,31678,1,0,0:0:0:0:
192,128,31858,1,6,0:0:0:0:
320,128,32039,1,2,0:0:0:0:
192,256,32220,1,0,0:0:0:0:
192,256,32400,1,0,0:0:0:0:
192,256,32581,1,0,0:0:0:0:
320,128,32943,1,2,0:0:0:0:
320,128,33123,1,2,0:0:0:0:
320,128,33214,1,2,0:0:0:0:
192,256,33304,1,0,0:0:0:0:
192,256,33485,1,0,0:0:0:0:
320,128,33665,1,2,0:0:0:0:
192,256,33846,1,0,0:0:0:0:
320,128,34027,1,2,0:0:0:0:
320,128,34388,1,2,0:0:0:0:
192,256,34569,1,0,0:0:0:0:
320,128,34750,1,2,0:0:0:0:
320,128,34930,1,2,0:0:0:0:
320,128,35111,1,2,0:0:0:0:
192,256,35292,1,0,0:0:0:0:
320,128,35473,1,2,0:0:0:0:
320,128,35834,1,2,0:0:0:0:
192,256,36015,1,0,0:0:0:0:
320,128,36105,1,2,0:0:0:0:
192,256,36196,1,0,0:0:0:0:
320,128,36376,1,2,0:0:0:0:
320,128,36557,1,2,0:0:0:0:
192,256,36737,1,0,0:0:0:0:
192,128,36918,1,6,0:0:0:0:
192,256,37280,1,0,0:0:0:0:
320,128,37461,1,2,0:0:0:0:
320,128,37551,1,2,0:0:0:0:
192,256,37641,1,0,0:0:0:0:
192,256,38003,1,0,0:0:0:0:
192,256,38184,1,0,0:0:0:0:
320,128,38364,1,2,0:0:0:0:
320,128,38726,1,2,0:0:0:0:
192,256,38907,1,0,0:0:0:0:
192,256,39268,1,0,0:0:0:0:
320,128,39449,1,2,0:0:0:0:
192,256,39630,1,0,0:0:0:0:
320,128,39810,1,2,0:0:0:0:
320,128,40172,1,2,0:0:0:0:
192,256,40352,1,0,0:0:0:0:
192,256,40443,1,0,0:0:0:0:
192,256,40533,1,0,0:0:0:0:
320,128,40894,1,2,0:0:0:0:
192,256,41075,1,0,0:0:0:0:
320,128,41256,1,2,0:0:0:0:
320,128,41617,1,10,0:2:0:0:
320,128,41798,1,2,0:0:0:0:
192,256,42159,1,0,0:0:0:0:
320,128,42340,1,2,0:0:0:0:
320,128,42521,1,2,0:0:0:0:
192,256,42702,1,0,0:0:0:0:
320,128,43063,1,8,0:0:0:0:
192,256,43244,1,0,0:0:0:0:
192,256,43334,1,0,0:0:0:0:
320,128,43424,1,2,0:0:0:0:
192,256,43786,1,0,0:0:0:0:
192,256,43967,1,0,0:0:0:0:
320,128,44147,1,2,0:0:0:0:
320,128,44509,1,2,0:0:0:0:
192,256,44690,1,0,0:0:0:0:
192,256,45051,1,0,0:0:0:0:
320,128,45232,1,2,0:0:0:0:
192,256,45413,1,0,0:0:0:0:
192,256,45593,1,0,0:0:0:0:
192,128,45955,1,6,0:0:0:0:
320,128,46135,1,2,0:0:0:0:
320,128,46226,1,2,0:0:0:0:
192,256,46316,1,0,0:0:0:0:
192,128,46497,1,6,0:0:0:0:
192,128,46678,1,6,0:0:0:0:
192,256,46858,1,0,0:0:0:0:
192,128,47039,1,6,0:0:0:0:
192,128,47220,1,6,0:0:0:0:
192,256,47400,1,0,0:0:0:0:
192,128,47581,1,6,0:0:0:0:
192,256,47943,1,0,0:0:0:0:
320,128,48123,1,2,0:0:0:0:
320,128,48304,1,2,0:0:0:0:
192,256,48485,1,0,0:0:0:0:
320,128,48575,1,2,0:0:0:0:
320,128,48666,1,2,0:0:0:0:
320,128,48756,1,2,0:0:0:0:
192,256,48846,1,0,0:0:0:0:
192,256,49027,1,0,0:0:0:0:
192,128,49208,1,6,0:0:0:0:
320,128,49479,1,2,0:0:0:0:
192,256,49569,1,0,0:0:0:0:
320,128,49750,1,2,0:0:0:0:
192,256,49931,1,0,0:0:0:0:
192,256,50111,1,0,0:0:0:0:
320,128,50202,1,2,0:0:0:0:
320,128,50292,1,2,0:0:0:0:
320,128,50473,1,2,0:0:0:0:
192,256,50653,1,0,0:0:0:0:
192,256,50834,1,0,0:0:0:0:
320,128,50925,1,2,0:0:0:0:
192,256,51015,1,0,0:0:0:0:
320,128,51196,1,2,0:0:0:0:
320,128,51286,1,2,0:0:0:0:
192,256,51376,1,0,0:0:0:0:
320,128,51647,1,2,0:0:0:0:
192,256,51738,1,0,0:0:0:0:
320,128,51919,1,2,0:0:0:0:
320,256,52099,1,4,0:0:0:0:
320,128,52370,1,2,0:0:0:0:
192,256,52461,1,0,0:0:0:0:
192,256,52641,1,0,0:0:0:0:
192,128,52822,1,6,0:0:0:0:
192,256,53003,1,0,0:0:0:0:
320,128,53093,1,2,0:0:0:0:
192,256,53184,1,0,0:0:0:0:
320,128,53364,1,2,0:0:0:0:
320,128,53545,1,2,0:0:0:0:
320,128,53635,1,2,0:0:0:0:
192,256,53726,1,0,0:0:0:0:
192,256,53816,1,0,0:0:0:0:
192,256,53906,1,0,0:0:0:0:
320,128,54087,1,2,0:0:0:0:
320,256,54268,1,4,0:0:0:0:
192,256,54539,1,0,0:0:0:0:
320,128,54629,1,2,0:0:0:0:
320,128,54810,1,2,0:0:0:0:
320,128,54900,1,2,0:0:0:0:
320,256,54991,1,4,0:0:0:0:
320,128,55262,1,2,0:0:0:0:
192,256,55352,1,0,0:0:0:0:
320,128,55533,1,2,0:0:0:0:
320,128,55714,1,2,0:0:0:0:
192,256,55894,1,0,0:0:0:0:
320,128,55985,1,2,0:0:0:0:
320,128,56075,1,2,0:0:0:0:
192,256,56256,1,0,0:0:0:0:
320,128,56437,1,2,0:0:0:0:
192,256,56617,1,0,0:0:0:0:
320,128,56708,1,2,0:0:0:0:
192,256,56798,1,0,0:0:0:0:
320,128,56979,1,2,0:0:0:0:
192,256,57069,1,0,0:0:0:0:
320,128,57159,1,2,0:0:0:0:
192,256,57431,1,0,0:0:0:0:
320,128,57521,1,2,0:0:0:0:
192,256,57702,1,0,0:0:0:0:
192,128,57882,1,6,0:0:0:0:
192,256,58153,1,0,0:0:0:0:
320,128,58244,1,2,0:0:0:0:
192,256,58425,1,0,0:0:0:0:
320,256,58605,1,4,0:0:0:0:
192,256,58786,1,0,0:0:0:0:
192,256,58876,1,0,0:0:0:0:
320,128,58967,1,2,0:0:0:0:
192,128,59147,1,6,0:0:0:0:
320,128,59690,1,2,0:0:0:0:
320,128,60051,1,2,0:0:0:0:
320,128,60413,1,2,0:0:0:0:
192,256,60593,1,0,0:0:0:0:
320,128,60774,1,2,0:0:0:0:
320,128,60864,1,2,0:0:0:0:
192,256,61045,1,0,0:2:0:0:
192,256,61135,1,0,0:2:0:0:
320,128,61316,1,2,0:0:0:0:
320,128,61406,1,2,0:0:0:0:
192,256,61587,1,0,0:2:0:0:
192,256,61677,1,0,0:2:0:0:
192,128,61858,1,6,0:0:0:0:
192,128,62039,1,6,0:0:0:0:
320,128,62220,1,2,0:0:0:0:
320,128,62310,1,2,0:0:0:0:
320,128,62491,1,2,0:0:0:0:
320,128,62581,1,2,0:0:0:0:
320,128,62762,1,2,0:0:0:0:
320,128,62852,1,2,0:0:0:0:
320,128,63033,1,2,0:0:0:0:
320,128,63123,1,2,0:0:0:0:
192,256,63304,1,0,0:0:0:0:
192,256,63394,1,0,0:0:0:0:
320,128,63485,1,2,0:0:0:0:
320,128,63575,1,2,0:0:0:0:
320,128,63666,1,2,0:0:0:0:
320,128,63937,1,2,0:0:0:0:
320,128,64027,1,2,0:0:0:0:
192,256,64208,1,0,0:0:0:0:
192,256,64388,1,0,0:0:0:0:
192,256,64659,1,0,0:0:0:0:
320,128,64750,1,2,0:0:0:0:
192,256,64931,1,0,0:0:0:0:
192,256,65111,1,0,0:0:0:0:
320,128,65292,1,2,0:0:0:0:
192,256,65382,1,0,0:0:0:0:
320,128,65473,1,2,0:0:0:0:
192,256,65653,1,0,0:0:0:0:
320,128,65834,1,2,0:0:0:0:
320,128,65925,1,2,0:0:0:0:
192,256,66105,1,0,0:0:0:0:
320,128,66196,1,2,0:0:0:0:
320,128,66376,1,2,0:0:0:0:
192,128,66557,1,6,0:0:0:0:
320,128,66828,1,2,0:0:0:0:
320,128,66919,1,2,0:0:0:0:
192,256,67099,1,0,0:0:0:0:
192,256,67280,1,0,0:0:0:0:
320,128,67551,1,2,0:0:0:0:
320,128,67641,1,2,0:0:0:0:
192,256,67822,1,0,0:0:0:0:
320,128,68003,1,2,0:0:0:0:
320,128,68184,1,2,0:0:0:0:
192,256,68274,1,0,0:0:0:0:
320,128,68364,1,2,0:0:0:0:
192,256,68545,1,0,0:0:0:0:
320,128,68726,1,2,0:0:0:0:
320,128,68816,1,2,0:0:0:0:
192,256,68997,1,0,0:0:0:0:
320,128,69087,1,2,0:0:0:0:
320,128,69268,1,2,0:0:0:0:
320,256,69449,1,4,0:0:0:0:
320,128,69720,1,2,0:0:0:0:
192,256,69810,1,0,0:0:0:0:
320,128,69991,1,2,0:0:0:0:
192,256,70172,1,0,0:0:0:0:
192,256,70443,1,0,0:0:0:0:
320,128,70533,1,2,0:0:0:0:
192,256,70714,1,0,0:0:0:0:
320,128,70894,1,2,0:0:0:0:
192,256,71075,1,0,0:0:0:0:
192,256,71166,1,0,0:0:0:0:
320,128,71256,1,2,0:0:0:0:
192,256,71437,1,0,0:0:0:0:
320,128,71617,1,2,0:0:0:0:
320,128,71708,1,2,0:0:0:0:
320,128,71888,1,2,0:0:0:0:
320,128,71979,1,2,0:0:0:0:
192,256,72159,1,0,0:0:0:0:
192,128,72340,1,6,0:0:0:0:
320,128,72611,1,2,0:0:0:0:
192,256,72702,1,0,0:0:0:0:
320,128,72882,1,2,0:0:0:0:
192,256,73063,1,0,0:0:0:0:
192,256,73334,1,0,0:0:0:0:
320,128,73425,1,2,0:0:0:0:
192,256,73605,1,0,0:0:0:0:
320,128,73786,1,2,0:0:0:0:
320,128,73967,1,2,0:0:0:0:
192,256,74057,1,0,0:0:0:0:
320,128,74147,1,2,0:0:0:0:
192,256,74328,1,0,0:0:0:0:
192,128,74509,1,6,0:0:0:0:
192,256,74690,1,0,0:0:0:0:
192,256,74780,1,0,0:2:0:0:
320,128,74870,1,2,0:0:0:0:
320,256,75232,1,4,0:0:0:0:
192,256,75503,1,0,0:0:0:0:
192,256,75774,1,0,0:0:0:0:
192,256,75955,1,0,0:0:0:0:
192,256,76226,1,0,0:0:0:0:
320,128,76316,1,2,0:0:0:0:
192,256,76497,1,0,0:0:0:0:
192,256,76678,1,0,0:0:0:0:
192,256,76949,1,0,0:0:0:0:
192,256,77220,1,0,0:0:0:0:
320,128,77400,1,2,0:0:0:0:
192,256,77672,1,0,0:0:0:0:
320,128,77762,1,2,0:0:0:0:
192,256,77943,1,0,0:0:0:0:
320,128,78123,1,2,0:0:0:0:
320,128,78394,1,2,0:0:0:0:
192,256,78666,1,0,0:0:0:0:
320,128,78846,1,2,0:0:0:0:
192,256,79117,1,0,0:0:0:0:
320,128,79208,1,2,0:0:0:0:
192,256,79388,1,0,0:0:0:0:
192,256,79569,1,0,0:0:0:0:
192,256,79840,1,0,0:0:0:0:
192,256,79931,1,0,0:0:0:0:
192,256,80111,1,0,0:0:0:0:
320,128,80292,1,2,0:0:0:0:
320,128,80563,1,2,0:0:0:0:
192,128,80834,1,6,0:0:0:0:
320,256,81015,1,4,0:0:0:0:
192,256,81286,1,0,0:0:0:0:
320,128,81557,1,2,0:0:0:0:
320,128,81738,1,2,0:0:0:0:
192,256,82009,1,0,0:0:0:0:
320,128,82099,1,2,0:0:0:0:
192,256,82280,1,0,0:0:0:0:
192,256,82461,1,0,0:0:0:0:
192,256,82732,1,0,0:0:0:0:
320,128,83003,1,2,0:0:0:0:
320,128,83184,1,2,0:0:0:0:
192,256,83455,1,0,0:0:0:0:
320,128,83545,1,2,0:0:0:0:
192,256,83726,1,0,0:0:0:0:
320,128,83906,1,2,0:0:0:0:
192,256,84178,1,0,0:0:0:0:
192,256,84449,1,0,0:0:0:0:
320,128,84629,1,2,0:0:0:0:
192,256,84900,1,0,0:0:0:0:
320,128,84991,1,2,0:0:0:0:
192,256,85172,1,0,0:0:0:0:
320,128,85352,1,2,0:0:0:0:
192,256,85533,1,0,0:0:0:0:
192,256,85623,1,0,0:0:0:0:
320,128,85714,1,2,0:0:0:0:
192,256,85894,1,0,0:0:0:0:
320,128,86075,1,2,0:0:0:0:
192,256,86437,1,0,0:0:0:0:
320,128,86617,1,2,0:0:0:0:
320,128,86708,1,2,0:0:0:0:
192,256,86798,1,0,0:0:0:0:
192,256,87069,1,0,0:0:0:0:
320,128,87159,1,2,0:0:0:0:
192,256,87340,1,0,0:0:0:0:
320,128,87521,1,2,0:0:0:0:
192,256,87792,1,0,0:0:0:0:
320,128,87882,1,2,0:0:0:0:
192,256,88063,1,0,0:0:0:0:
192,256,88244,1,0,0:0:0:0:
192,256,88515,1,0,0:0:0:0:
320,128,88605,1,2,0:0:0:0:
192,256,88786,1,0,0:0:0:0:
192,256,88967,1,0,0:0:0:0:
192,256,89238,1,0,0:0:0:0:
320,128,89328,1,2,0:0:0:0:
192,256,89509,1,0,0:0:0:0:
320,128,89690,1,2,0:0:0:0:
320,128,89961,1,2,0:0:0:0:
320,128,90051,1,2,0:0:0:0:
192,256,90232,1,0,0:0:0:0:
320,128,90413,1,2,0:0:0:0:
320,128,90684,1,2,0:0:0:0:
320,128,90774,1,2,0:0:0:0:
192,256,90955,1,0,0:0:0:0:
192,256,91135,1,0,0:0:0:0:
320,128,91316,1,2,0:0:0:0:
192,256,91406,1,0,0:0:0:0:
320,128,91497,1,2,0:0:0:0:
192,256,91678,1,0,0:0:0:0:
192,256,91858,1,0,0:0:0:0:
192,128,92220,1,6,0:0:0:0:
320,256,92581,1,4,0:0:0:0:
192,256,92852,1,0,0:0:0:0:
320,128,92943,1,2,0:0:0:0:
320,128,93123,1,2,0:0:0:0:
320,128,93304,1,2,0:0:0:0:
192,256,93575,1,0,0:0:0:0:
320,128,93666,1,2,0:0:0:0:
192,256,93846,1,2,0:0:0:0:
192,256,94027,1,0,0:0:0:0:
192,256,94298,1,0,0:0:0:0:
320,128,94388,1,2,0:0:0:0:
320,128,94569,1,2,0:0:0:0:
320,128,94750,1,2,0:0:0:0:
192,256,95021,1,0,0:0:0:0:
320,128,95111,1,2,0:0:0:0:
192,256,95292,1,0,0:0:0:0:
320,128,95473,1,2,0:0:0:0:
320,128,95744,1,2,0:0:0:0:
320,128,95834,1,2,0:0:0:0:
192,256,96015,1,0,0:0:0:0:
192,256,96196,1,0,0:0:0:0:
320,128,96467,1,2,0:0:0:0:
320,128,96557,1,2,0:0:0:0:
192,256,96738,1,0,0:0:0:0:
192,256,96919,1,0,0:0:0:0:
320,128,97099,1,2,0:0:0:0:
192,256,97189,1,0,0:0:0:0:
320,128,97280,1,2,0:0:0:0:
192,256,97461,1,0,0:0:0:0:
192,128,97641,1,6,0:0:0:0:
192,256,98003,1,0,0:0:0:0:
320,128,98184,1,2,0:0:0:0:
320,128,98274,1,2,0:0:0:0:
192,256,98364,1,0,0:0:0:0:
320,128,98726,1,2,0:0:0:0:
192,256,98906,1,0,0:0:0:0:
320,128,99087,1,2,0:0:0:0:
320,128,99449,1,2,0:0:0:0:
192,256,99629,1,0,0:0:0:0:
192,256,99991,1,0,0:0:0:0:
320,128,100172,1,2,0:0:0:0:
192,256,100352,1,0,0:0:0:0:
320,128,100533,1,2,0:0:0:0:
320,128,100894,1,2,0:0:0:0:
192,256,101075,1,0,0:0:0:0:
192,256,101166,1,0,0:0:0:0:
192,256,101256,1,0,0:0:0:0:
320,128,101617,1,2,0:0:0:0:
192,256,101798,1,0,0:0:0:0:
320,128,101979,1,2,0:0:0:0:
320,128,102340,1,2,0:0:0:0:
320,128,102521,1,2,0:0:0:0:
192,256,102882,1,0,0:0:0:0:
320,128,103063,1,2,0:0:0:0:
320,128,103244,1,2,0:0:0:0:
192,256,103425,1,0,0:0:0:0:
320,128,103786,1,2,0:0:0:0:
192,256,103967,1,0,0:0:0:0:
192,256,104057,1,0,0:0:0:0:
320,128,104147,1,2,0:0:0:0:
192,256,104509,1,0,0:0:0:0:
192,256,104690,1,0,0:0:0:0:
320,128,104870,1,2,0:0:0:0:
320,128,105232,1,2,0:0:0:0:
192,256,105413,1,0,0:0:0:0:
192,256,105774,1,0,0:0:0:0:
320,128,105955,1,2,0:0:0:0:
192,256,106136,1,0,0:0:0:0:
192,256,106316,1,0,0:0:0:0:
192,128,106678,1,6,0:0:0:0:
320,128,106858,1,2,0:0:0:0:
320,128,106949,1,2,0:0:0:0:
192,256,107039,1,0,0:0:0:0:
192,128,107220,1,6,0:0:0:0:
192,128,107401,1,6,0:0:0:0:
192,256,107581,1,0,0:0:0:0:
192,128,107762,1,6,0:0:0:0:
192,128,107943,1,6,0:0:0:0:
192,256,108123,1,0,0:0:0:0:
192,128,108304,1,6,0:0:0:0:
320,128,108666,1,2,0:0:0:0:
320,128,108846,1,2,0:0:0:0:
192,256,109027,1,0,0:0:0:0:
192,256,109208,1,0,0:0:0:0:
320,128,109298,1,2,0:0:0:0:
320,128,109389,1,2,0:0:0:0:
320,128,109479,1,2,0:0:0:0:
192,256,109569,1,0,0:0:0:0:
320,128,109750,1,2,0:0:0:0:
320,256,109931,1,4,0:0:0:0:
320,128,110202,1,2,0:0:0:0:
192,256,110292,1,0,0:0:0:0:
320,128,110473,1,2,0:0:0:0:
192,256,110653,1,0,0:0:0:0:
192,256,110834,1,0,0:0:0:0:
320,128,110925,1,2,0:0:0:0:
320,128,111015,1,2,0:0:0:0:
192,256,111196,1,0,0:0:0:0:
192,256,111376,1,0,0:0:0:0:
192,256,111557,1,0,0:0:0:0:
320,128,111647,1,2,0:0:0:0:
320,128,111738,1,2,0:0:0:0:
320,128,111919,1,2,0:0:0:0:
192,256,112009,1,0,0:0:0:0:
192,256,112099,1,0,0:0:0:0:
320,128,112370,1,2,0:0:0:0:
320,128,112461,1,2,0:0:0:0:
192,256,112641,1,0,0:0:0:0:
192,128,112822,1,6,0:0:0:0:
320,128,113093,1,2,0:0:0:0:
192,256,113184,1,0,0:0:0:0:
320,128,113364,1,2,0:0:0:0:
320,256,113545,1,4,0:0:0:0:
320,128,113816,1,2,0:0:0:0:
192,256,113906,1,0,0:0:0:0:
320,128,114087,1,2,0:0:0:0:
320,128,114268,1,2,0:0:0:0:
320,128,114358,1,2,0:0:0:0:
192,256,114449,1,0,0:0:0:0:
192,256,114539,1,0,0:0:0:0:
320,128,114629,1,2,0:0:0:0:
192,256,114720,1,0,0:0:0:0:
320,128,114810,1,2,0:0:0:0:
192,128,114991,1,6,0:0:0:0:
192,256,115352,1,0,0:2:0:0:
192,256,115443,1,0,0:0:0:0:
320,128,115533,1,2,0:0:0:0:
320,128,115623,1,2,0:0:0:0:
320,256,115714,1,4,0:0:0:0:
320,128,115985,1,2,0:0:0:0:
192,256,116075,1,0,0:0:0:0:
320,128,116256,1,2,0:0:0:0:
192,256,116437,1,0,0:0:0:0:
192,256,116617,1,0,0:0:0:0:
320,128,116708,1,2,0:0:0:0:
192,256,116798,1,0,0:0:0:0:
320,128,116979,1,2,0:0:0:0:
192,256,117159,1,0,0:0:0:0:
192,256,117340,1,0,0:0:0:0:
320,128,117431,1,2,0:0:0:0:
192,256,117521,1,0,0:0:0:0:
320,128,117702,1,2,0:0:0:0:
192,256,117792,1,0,0:0:0:0:
320,128,117882,1,2,0:0:0:0:
320,128,118153,1,2,0:0:0:0:
192,256,118244,1,0,0:0:0:0:
320,128,118425,1,2,0:0:0:0:
320,256,118605,1,4,0:0:0:0:
192,256,118876,1,0,0:0:0:0:
320,128,118967,1,2,0:0:0:0:
320,128,119147,1,2,0:0:0:0:
320,256,119328,1,4,0:0:0:0:
192,256,119509,1,0,0:0:0:0:
192,256,119599,1,0,0:0:0:0:
320,128,119690,1,2,0:0:0:0:
192,128,119870,1,6,0:0:0:0:
320,128,120413,1,2,0:0:0:0:
192,256,120593,1,0,0:0:0:0:
320,128,120774,1,2,0:0:0:0:
192,256,120955,1,0,0:0:0:0:
320,128,121135,1,2,0:0:0:0:
192,256,121316,1,0,0:0:0:0:
320,256,121497,1,4,0:0:0:0:
192,256,121858,1,0,0:0:0:0:
320,128,122039,1,2,0:0:0:0:
192,256,122400,1,0,0:0:0:0:
320,128,122762,1,2,0:0:0:0:
192,256,122943,1,0,0:0:0:0:
320,128,123123,1,2,0:0:0:0:
192,256,123304,1,0,0:0:0:0:
320,128,123485,1,2,0:0:0:0:
320,128,123666,1,2,0:0:0:0:
192,256,123846,1,0,0:0:0:0:
192,256,124208,1,0,0:0:0:0:
192,256,124298,1,0,0:0:0:0:
192,256,124388,1,0,0:0:0:0:
192,256,124750,1,0,0:0:0:0:
320,128,124931,1,2,0:0:0:0:
192,256,125292,1,0,0:0:0:0:
320,128,125653,1,2,0:0:0:0:
192,256,125834,1,0,0:0:0:0:
320,128,126014,1,2,0:0:0:0:
192,256,126195,1,0,0:0:0:0:
320,128,126376,1,2,0:0:0:0:
320,128,126557,1,2,0:0:0:0:
192,256,126737,1,0,0:0:0:0:
192,256,127099,1,0,0:0:0:0:
320,256,127280,1,4,0:0:0:0:
192,256,127641,1,0,0:0:0:0:
320,128,127822,1,2,0:0:0:0:
192,256,128184,1,0,0:0:0:0:
320,128,128545,1,2,0:0:0:0:
192,256,128726,1,0,0:0:0:0:
320,128,128906,1,2,0:0:0:0:
192,256,129087,1,0,0:0:0:0:
320,128,129268,1,2,0:0:0:0:
320,128,129449,1,2,0:0:0:0:
192,256,129629,1,0,0:0:0:0:
320,128,129991,1,2,0:0:0:0:
320,128,130081,1,2,0:0:0:0:
320,128,130172,1,2,0:0:0:0:
192,256,130533,1,0,0:0:0:0:
320,128,130714,1,2,0:0:0:0:
192,256,131075,1,0,0:0:0:0:
192,256,131437,1,0,0:0:0:0:
192,256,131617,1,0,0:0:0:0:
320,128,131979,1,2,0:0:0:0:
192,256,132159,1,0,0:0:0:0:
320,256,132340,1,4,0:0:0:0:
192,128,132702,1,6,0:0:0:0:
320,256,133063,1,4,0:0:0:0:
192,256,133244,1,0,0:0:0:0:
320,128,133334,1,2,0:0:0:0:
192,256,133425,1,0,0:0:0:0:
320,128,133605,1,2,0:0:0:0:
192,256,133786,1,0,0:0:0:0:
192,256,133967,1,0,0:0:0:0:
320,128,134057,1,2,0:0:0:0:
192,256,134147,1,0,0:0:0:0:
320,128,134328,1,2,0:0:0:0:
192,256,134509,1,0,0:0:0:0:
320,128,134690,1,2,0:0:0:0:
320,128,134780,1,2,0:0:0:0:
192,256,134870,1,0,0:0:0:0:
320,128,135051,1,2,0:0:0:0:
320,128,135232,1,2,0:0:0:0:
192,256,135413,1,0,0:0:0:0:
192,256,135503,1,0,0:0:0:0:
192,256,135593,1,0,0:0:0:0:
192,256,135774,1,0,0:0:0:0:
320,128,135864,1,2,0:0:0:0:
192,256,135955,1,0,0:0:0:0:
192,256,136135,1,0,0:0:0:0:
320,128,136226,1,2,0:0:0:0:
192,256,136316,1,0,0:0:0:0:
320,128,136497,1,2,0:0:0:0:
192,256,136678,1,0,0:0:0:0:
320,128,136858,1,2,0:0:0:0:
320,128,136949,1,2,0:0:0:0:
192,256,137039,1,0,0:0:0:0:
192,256,137220,1,0,0:0:0:0:
192,256,137400,1,0,0:0:0:0:
192,256,137581,1,0,0:0:0:0:
320,128,137672,1,2,0:0:0:0:
192,256,137762,1,0,0:0:0:0:
192,256,137943,1,0,0:0:0:0:
320,128,138123,1,2,0:0:0:0:
320,128,138304,1,2,0:0:0:0:
320,128,138394,1,2,0:0:0:0:
192,256,138485,1,0,0:0:0:0:
320,128,138666,1,2,0:0:0:0:
320,128,138756,1,2,0:0:0:0:
192,256,138846,1,0,0:0:0:0:
192,256,139027,1,0,0:0:0:0:
320,128,139117,1,2,0:0:0:0:
192,256,139208,1,0,0:0:0:0:
320,128,139388,1,2,0:0:0:0:
192,256,139569,1,0,0:0:0:0:
192,256,139750,1,0,0:0:0:0:
320,128,139840,1,2,0:0:0:0:
192,256,139931,1,0,0:0:0:0:
192,256,140111,1,0,0:0:0:0:
320,128,140202,1,2,0:0:0:0:
320,128,140292,1,2,0:0:0:0:
192,256,140473,1,0,0:0:0:0:
320,128,140563,1,2,0:0:0:0:
192,256,140653,1,0,0:0:0:0:
192,256,140834,1,0,0:0:0:0:
320,128,141015,1,2,0:0:0:0:
320,128,141196,1,2,0:0:0:0:
320,128,141286,1,2,0:0:0:0:
192,256,141376,1,0,0:0:0:0:
192,256,141557,1,0,0:0:0:0:
320,128,141647,1,2,0:0:0:0:
192,256,141738,1,0,0:0:0:0:
320,128,142009,1,2,0:0:0:0:
192,256,142099,1,0,0:0:0:0:
192,128,142280,1,6,0:0:0:0:
320,256,142461,1,4,0:0:0:0:
320,128,142732,1,2,0:0:0:0:
192,256,142822,1,0,0:0:0:0:
320,128,143003,1,2,0:0:0:0:
192,128,143184,1,6,0:0:0:0:
192,256,143364,1,0,0:0:0:0:
192,256,143545,1,0,0:0:0:0:
320,128,143635,1,2,0:0:0:0:
192,256,143726,1,0,0:0:0:0:
192,256,143816,1,0,0:0:0:0:
192,256,143906,1,0,0:0:0:0:
192,128,144178,1,6,0:0:0:0:
192,256,144449,1,0,0:0:0:0:
320,256,144629,1,4,0:0:0:0:
320,128,144900,1,2,0:0:0:0:
192,256,144991,1,0,0:0:0:0:
320,128,145172,1,2,0:0:0:0:
192,256,145352,1,0,0:0:0:0:
192,256,145533,1,0,0:0:0:0:
320,128,145623,1,2,0:0:0:0:
192,256,145714,1,0,0:0:0:0:
320,128,145894,1,2,0:0:0:0:
192,256,146075,1,0,0:0:0:0:
320,128,146346,1,2,0:0:0:0:
192,256,146437,1,0,0:0:0:0:
320,128,146617,1,2,0:0:0:0:
192,256,146798,1,0,0:0:0:0:
320,128,146979,1,2,0:0:0:0:
320,128,147069,1,2,0:0:0:0:
320,128,147159,1,2,0:0:0:0:
320,128,147340,1,2,0:0:0:0:
320,256,147521,1,4,0:0:0:0:
320,128,147792,1,2,0:0:0:0:
192,256,147882,1,0,0:0:0:0:
320,128,148063,1,2,0:0:0:0:
320,256,148244,1,4,0:0:0:0:
320,128,148515,1,2,0:0:0:0:
192,256,148605,1,0,0:0:0:0:
320,128,148786,1,2,0:0:0:0:
192,256,148967,1,0,0:0:0:0:
320,128,149147,1,2,0:0:0:0:
192,256,149238,1,0,0:0:0:0:
320,128,149328,1,2,0:0:0:0:
320,128,149509,1,2,0:0:0:0:
192,256,149599,1,0,0:0:0:0:
320,128,149690,1,2,0:0:0:0:
192,256,149870,1,0,0:2:0:0:
320,128,149961,1,2,0:0:0:0:
192,256,150051,1,0,0:0:0:0:
320,128,150141,1,2,0:0:0:0:
320,128,150232,1,2,0:0:0:0:
320,128,150322,1,2,0:0:0:0:
192,256,150413,1,0,0:0:0:0:
192,256,150593,1,0,0:0:0:0:
320,128,150684,1,2,0:0:0:0:
192,256,150774,1,0,0:0:0:0:
320,128,150955,1,2,0:0:0:0:
320,128,151135,1,2,0:0:0:0:
192,256,151316,1,0,0:0:0:0:
320,128,151406,1,2,0:0:0:0:
192,256,151497,1,0,0:0:0:0:
320,128,151677,1,2,0:0:0:0:
320,128,151858,1,2,0:0:0:0:
320,128,152039,1,2,0:0:0:0:
320,128,152129,1,2,0:0:0:0:
192,256,152220,1,0,0:0:0:0:
320,128,152400,1,2,0:0:0:0:
192,256,152581,1,0,0:0:0:0:
320,128,152852,1,2,0:0:0:0:
192,256,152943,1,0,0:0:0:0:
192,128,153123,1,6,0:0:0:0:
320,256,153304,1,4,0:0:0:0:
192,256,153575,1,0,0:0:0:0:
320,128,153666,1,2,0:0:0:0:
320,128,153846,1,2,0:0:0:0:
192,256,154027,1,0,0:0:0:0:
192,256,154298,1,0,0:0:0:0:
320,128,154388,1,2,0:0:0:0:
192,256,154569,1,0,0:0:0:0:
320,256,154750,1,4,0:0:0:0:
320,128,155021,1,2,0:0:0:0:
320,128,155111,1,2,0:0:0:0:
192,256,155292,1,0,0:0:0:0:
192,256,155382,1,0,0:0:0:0:
320,128,155473,1,2,0:0:0:0:
320,128,155563,1,2,0:0:0:0:
192,256,155653,1,0,0:0:0:0:
192,256,155744,1,0,0:0:0:0:
192,256,155834,1,0,0:0:0:0:
320,128,156015,1,2,0:0:0:0:
320,128,156105,1,2,0:0:0:0:
320,128,156196,1,2,0:0:0:0:
192,256,156557,1,0,0:0:0:0:
320,128,156738,1,2,0:0:0:0:
320,128,157099,1,2,0:0:0:0:
320,128,157280,1,2,0:0:0:0:
192,256,157461,1,0,0:0:0:0:
320,128,157641,1,2,0:0:0:0:
192,256,158003,1,0,0:0:0:0:
320,128,158184,1,2,0:0:0:0:
192,256,158364,1,0,0:0:0:0:
192,256,158726,1,0,0:0:0:0:
192,256,158906,1,0,0:0:0:0:
320,128,159087,1,2,0:0:0:0:
192,256,159449,1,0,0:0:0:0:
320,128,159629,1,2,0:0:0:0:
192,256,159991,1,0,0:0:0:0:
320,128,160352,1,2,0:0:0:0:
320,128,162340,1,2,0:0:0:0:
320,128,162521,1,2,0:0:0:0:
192,128,162702,1,6,0:0:0:0:
320,128,162973,1,2,0:0:0:0:
192,256,163063,1,0,0:0:0:0:
320,128,163244,1,2,0:0:0:0:
192,256,163425,1,0,0:0:0:0:
192,256,163605,1,0,0:0:0:0:
320,128,163696,1,2,0:0:0:0:
192,256,163786,1,0,0:0:0:0:
320,128,163967,1,2,0:0:0:0:
192,256,164147,1,0,0:0:0:0:
192,256,164328,1,0,0:0:0:0:
320,128,164419,1,2,0:0:0:0:
192,256,164509,1,0,0:0:0:0:
320,128,164690,1,2,0:0:0:0:
320,128,164780,1,2,0:0:0:0:
192,256,164870,1,0,0:0:0:0:
320,128,165141,1,2,0:0:0:0:
192,256,165232,1,0,0:0:0:0:
320,128,165413,1,2,0:0:0:0:
320,256,165593,1,4,0:0:0:0:
320,128,165864,1,2,0:0:0:0:
192,256,165955,1,0,0:0:0:0:
320,128,166135,1,2,0:0:0:0:
192,128,166316,1,6,0:0:0:0:
192,256,166497,1,0,0:0:0:0:
320,128,166587,1,2,0:0:0:0:
192,256,166678,1,0,0:0:0:0:
320,128,166858,1,2,0:0:0:0:
320,128,167039,1,2,0:0:0:0:
320,128,167129,1,2,0:0:0:0:
192,256,167220,1,0,0:0:0:0:
192,256,167310,1,0,0:0:0:0:
192,256,167400,1,0,0:0:0:0:
320,128,167581,1,2,0:0:0:0:
320,256,167762,1,4,0:0:0:0:
192,256,168033,1,0,0:0:0:0:
320,128,168123,1,2,0:0:0:0:
320,128,168304,1,2,0:0:0:0:
320,128,168394,1,2,0:0:0:0:
320,256,168485,1,4,0:0:0:0:
320,128,168756,1,2,0:0:0:0:
192,256,168846,1,0,0:0:0:0:
320,128,169027,1,2,0:0:0:0:
320,128,169208,1,2,0:0:0:0:
192,256,169388,1,0,0:0:0:0:
320,128,169479,1,2,0:0:0:0:
320,128,169569,1,2,0:0:0:0:
192,256,169750,1,0,0:0:0:0:
320,128,169931,1,2,0:0:0:0:
192,256,170111,1,0,0:0:0:0:
192,256,170202,1,0,0:0:0:0:
320,128,170292,1,2,0:0:0:0:
320,128,170473,1,2,0:0:0:0:
320,128,170563,1,2,0:0:0:0:
192,256,170653,1,0,0:0:0:0:
320,128,170744,1,2,0:0:0:0:
192,256,170925,1,0,0:0:0:0:
320,128,171015,1,2,0:0:0:0:
192,256,171196,1,0,0:0:0:0:
192,128,171376,1,6,0:0:0:0:
192,256,171647,1,0,0:0:0:0:
320,128,171738,1,2,0:0:0:0:
192,256,171919,1,0,0:0:0:0:
320,256,172099,1,4,0:0:0:0:
192,256,172280,1,0,0:0:0:0:
192,256,172370,1,0,0:0:0:0:
320,128,172461,1,2,0:0:0:0:
192,128,172641,1,6,0:0:0:0:
192,256,173183,1,0,0:0:0:0:
320,128,173545,1,2,0:0:0:0:
320,128,173906,1,2,0:0:0:0:
320,128,174268,1,2,0:0:0:0:
320,128,174358,1,2,0:0:0:0:
192,256,174539,1,0,0:2:0:0:
192,256,174629,1,0,0:2:0:0:
320,128,174810,1,2,0:0:0:0:
320,128,174900,1,2,0:0:0:0:
192,256,175081,1,0,0:2:0:0:
192,256,175171,1,0,0:2:0:0:
192,128,175352,1,6,0:0:0:0:
320,256,175533,1,4,0:0:0:0:
320,128,175714,1,2,0:0:0:0:
320,128,175804,1,2,0:0:0:0:
192,256,175985,1,0,0:2:0:0:
192,256,176075,1,0,0:2:0:0:
320,128,176256,1,2,0:0:0:0:
320,128,176346,1,2,0:0:0:0:
192,256,176527,1,0,0:2:0:0:
192,256,176617,1,0,0:2:0:0:
320,256,176798,1,4,0:0:0:0:
320,128,176979,1,2,0:0:0:0:
320,128,177159,1,2,0:0:0:0:
320,128,177249,1,2,0:0:0:0:
320,128,177430,1,2,0:0:0:0:
320,128,177520,1,2,0:0:0:0:
320,128,177702,1,2,0:0:0:0:
320,128,177792,1,2,0:0:0:0:
320,128,177973,1,2,0:0:0:0:
320,128,178063,1,2,0:0:0:0:
192,128,178244,1,6,0:0:0:0:
320,256,178424,1,4,0:0:0:0:
320,128,178605,1,2,0:0:0:0:
320,128,178695,1,2,0:0:0:0:
192,256,178876,1,0,0:0:0:0:
192,256,178967,1,0,0:0:0:0:
320,128,179147,1,2,0:0:0:0:
192,128,179328,1,6,0:0:0:0:
192,256,179689,1,0,0:0:0:0:
192,256,179780,1,0,0:0:0:0:
320,128,179870,1,2,0:0:0:0:
192,256,179961,1,0,0:0:0:0:
320,128,180051,1,2,0:0:0:0:
320,128,180322,1,2,0:0:0:0:
192,256,180412,1,0,0:0:0:0:
320,128,180593,1,2,0:0:0:0:
192,256,180774,1,0,0:0:0:0:
192,256,181045,1,0,0:0:0:0:
320,128,181135,1,2,0:0:0:0:
192,256,181316,1,0,0:0:0:0:
192,256,181496,1,0,0:0:0:0:
320,128,181677,1,2,0:0:0:0:
192,256,181767,1,0,0:0:0:0:
320,128,181858,1,2,0:0:0:0:
192,256,182039,1,0,0:0:0:0:
192,256,182219,1,0,0:0:0:0:
320,128,182310,1,2,0:0:0:0:
192,256,182490,1,0,0:0:0:0:
320,128,182581,1,2,0:0:0:0:
320,128,182761,1,2,0:0:0:0:
320,256,182942,1,4,0:0:0:0:
320,128,183213,1,2,0:0:0:0:
192,256,183304,1,0,0:0:0:0:
320,128,183484,1,2,0:0:0:0:
192,256,183665,1,0,0:0:0:0:
192,256,183936,1,0,0:0:0:0:
320,128,184027,1,2,0:0:0:0:
192,256,184207,1,0,0:0:0:0:
320,128,184388,1,2,0:0:0:0:
320,128,184569,1,2,0:0:0:0:
320,128,184659,1,2,0:0:0:0:
320,128,184749,1,2,0:0:0:0:
192,256,184930,1,0,0:0:0:0:
320,128,185111,1,2,0:0:0:0:
320,128,185201,1,2,0:0:0:0:
192,256,185382,1,0,0:0:0:0:
320,128,185472,1,2,0:0:0:0:
320,128,185653,1,2,0:0:0:0:
192,128,185834,1,6,0:0:0:0:
320,128,186105,1,2,0:0:0:0:
320,128,186195,1,2,0:0:0:0:
320,128,186376,1,2,0:0:0:0:
192,256,186557,1,0,0:0:0:0:
192,256,186827,1,0,0:0:0:0:
320,128,186918,1,2,0:0:0:0:
192,256,187099,1,0,0:0:0:0:
192,256,187280,1,0,0:0:0:0:
320,128,187460,1,2,0:0:0:0:
192,256,187551,1,0,0:0:0:0:
320,128,187641,1,2,0:0:0:0:
192,256,187822,1,0,0:0:0:0:
320,128,188002,1,2,0:0:0:0:
320,128,188092,1,2,0:0:0:0:
192,256,188274,1,0,0:0:0:0:
320,128,188364,1,2,0:0:0:0:
192,256,188545,1,0,0:0:0:0:
320,128,188726,1,2,0:0:0:0:
320,128,188906,1,2,0:0:0:0:
320,128,188997,1,2,0:0:0:0:
192,256,189087,1,0,0:0:0:0:
320,128,189268,1,2,0:0:0:0:
320,128,189448,1,2,0:0:0:0:
320,128,189628,1,2,0:0:0:0:
192,256,189720,1,0,0:0:0:0:
192,256,189809,1,0,0:0:0:0:
192,256,189991,1,0,0:0:0:0:
192,128,190171,1,6,0:0:0:0:
320,128,190352,1,2,0:0:0:0:
320,128,190442,1,2,0:0:0:0:
192,256,190533,1,0,0:0:0:0:
192,256,190714,1,0,0:0:0:0:
192,128,190894,1,6,0:0:0:0:
192,256,191075,1,0,0:0:0:0:
192,128,191256,1,6,0:0:0:0:
