osu file format v14

[General]
AudioFilename: audio.mp3
AudioLeadIn: 0
PreviewTime: 197117
Countdown: 0
SampleSet: Soft
StackLeniency: 0.2
Mode: 0
LetterboxInBreaks: 0
WidescreenStoryboard: 0

[Editor]
DistanceSpacing: 1.4
BeatDivisor: 4
GridSize: 8
TimelineZoom: 1.3

[Metadata]
Title:Sora o Te ni Shita Tabibito
TitleUnicode:天を手にした旅人
Artist:canoue
ArtistUnicode:canoue
Creator:Mochi-
Version:petal
Source:
Tags:霜月はるか shimotsuki haruka canoueII ~最果ての塔~ Saihate no Tou MANYO 日山 尚 Hiyama Nao canoue chronicle fantasy カノエ folk japanese pop Lasse -_ex_- - ex - j-pop jpop j pop shimotsukin mochia
BeatmapID:4471031
BeatmapSetID:2126844

[Difficulty]
HPDrainRate:6
CircleSize:4.4
OverallDifficulty:8
ApproachRate:9
SliderMultiplier:1.6
SliderTickRate:1

[Events]
//Background and Video events
0,0,"bg (1).jpg",0,0
//Break Periods
2,197662,205138
//Storyboard Layer 0 (Background)
//Storyboard Layer 1 (Fail)
//Storyboard Layer 2 (Pass)
//Storyboard Layer 3 (Foreground)
//Storyboard Layer 4 (Overlay)
//Storyboard Sound Samples

[TimingPoints]
911,344.827586206897,3,2,1,54,1,0
911,-166.666666666667,3,2,1,54,0,0
2635,-125,3,2,1,54,0,0
2979,-166.666666666667,3,2,1,54,0,0
4014,-142.857142857143,3,2,1,54,0,0
4876,-142.857142857143,3,2,1,50,0,0
5048,-142.857142857143,3,2,1,54,0,0
6428,-142.857142857143,3,2,1,50,0,0
6600,-142.857142857143,3,2,1,52,0,0
6773,-142.857142857143,3,2,1,54,0,0
7117,-125,3,2,1,54,0,0
8497,-125,3,2,1,50,0,0
8669,-125,3,2,1,48,0,0
8755,-125,3,2,1,47,0,0
8842,-125,3,2,1,46,0,0
9186,-125,3,2,1,55,0,0
10566,-125,3,2,1,54,0,0
10738,-125,3,2,1,53,0,0
10911,-125,3,2,1,52,0,0
11083,-125,3,2,1,50,0,0
11255,-111.111111111111,3,2,1,55,0,0
11945,-125,3,2,1,55,0,0
12290,-117.647058823529,3,2,1,55,0,0
12635,-117.647058823529,3,2,1,50,0,0
13324,-111.111111111111,3,2,1,55,0,0
14359,-100,3,2,1,55,0,0
14704,-100,3,2,1,53,0,0
15048,-100,3,2,1,52,0,0
15221,-100,3,2,1,50,0,0
15393,-100,3,2,1,56,0,0
15738,-100,3,2,1,50,0,0
15911,-100,3,2,1,55,0,0
16255,-100,3,2,1,52,0,0
16428,-100,3,2,1,56,0,0
16600,-100,3,2,1,50,0,0
16773,-100,3,2,1,54,0,0
16945,-100,3,2,1,48,0,0
17117,-100,3,2,1,52,0,0
17290,-100,3,2,1,46,0,0
17462,-100,3,2,1,55,0,0
17979,-111.111111111111,3,2,1,55,0,0
19876,-111.111111111111,3,2,1,52,0,0
20048,-111.111111111111,3,2,1,54,0,0
20221,-111.111111111111,3,2,1,52,0,0
20393,-111.111111111111,3,2,1,50,0,0
20566,-111.111111111111,3,2,1,55,0,0
20911,-111.111111111111,3,2,1,52,0,0
21255,-111.111111111111,3,2,1,50,0,0
21428,-111.111111111111,3,2,1,52,0,0
21600,-125,3,2,1,55,0,0
21945,-125,3,2,1,52,0,0
22117,-125,3,2,1,54,0,0
22290,-125,3,2,1,52,0,0
22462,-125,3,2,1,50,0,0
22635,-111.111111111111,3,2,1,55,0,0
22893,-111.111111111111,3,2,1,5,0,0
22979,-111.111111111111,3,2,1,55,0,0
23238,-111.111111111111,3,2,1,5,0,0
23324,-111.111111111111,3,2,1,55,0,0
23497,-111.111111111111,3,2,1,50,0,0
23583,-111.111111111111,3,2,1,5,0,0
23669,-111.111111111111,3,2,1,55,0,0
24014,-111.111111111111,3,2,1,50,0,0
24186,-111.111111111111,3,2,1,52,0,0
24704,-111.111111111111,3,2,1,55,0,0
24962,-111.111111111111,3,2,1,5,0,0
25048,-111.111111111111,3,2,1,55,0,0
25307,-111.111111111111,3,2,1,5,0,0
25393,-111.111111111111,3,2,1,55,0,0
25652,-111.111111111111,3,2,1,5,0,0
25738,-111.111111111111,3,2,1,55,0,0
26083,-111.111111111111,3,2,1,50,0,0
26255,-111.111111111111,3,2,1,52,0,0
26773,-100,3,2,1,55,0,0
27031,-100,3,2,1,5,0,0
27117,-100,3,2,1,55,0,0
27290,-100,3,2,1,50,0,0
27376,-100,3,2,1,5,0,0
27462,-100,3,2,1,55,0,0
27721,-100,3,2,1,5,0,0
27807,-100,3,2,1,55,0,0
28152,-100,3,2,1,54,0,0
28497,-90.9090909090909,3,2,1,54,0,0
28842,-90.9090909090909,3,2,1,52,0,0
29186,-90.9090909090909,3,2,1,50,0,0
29273,-90.9090909090909,3,2,1,5,0,0
29704,-90.9090909090909,3,2,1,30,0,0
29876,-111.111111111111,3,2,1,40,0,0
34014,-100,3,2,1,40,0,0
45393,-100,3,2,1,42,0,0
45566,-100,3,2,1,46,0,0
45738,-100,3,2,1,42,0,0
46083,-100,3,2,1,40,0,0
46428,-125,3,2,1,50,0,0
47462,-100,3,2,1,50,0,0
48152,-100,3,2,1,46,0,0
48497,-100,3,2,1,50,0,0
49704,-100,3,2,1,48,0,0
49876,-100,3,2,1,46,0,0
50048,-100,3,2,1,44,0,0
50221,-100,3,2,1,48,0,0
50393,-100,3,2,1,46,0,0
50566,-100,3,2,1,50,0,0
51600,-111.111111111111,3,2,1,50,0,0
52635,-125,3,2,1,50,0,0
52979,-111.111111111111,3,2,1,50,0,0
53842,-111.111111111111,3,2,1,48,0,0
54014,-111.111111111111,3,2,1,50,0,0
54186,-111.111111111111,3,2,1,48,0,0
54359,-111.111111111111,3,2,1,46,0,0
54531,-111.111111111111,3,2,1,44,0,0
54704,-111.111111111111,3,2,1,50,0,0
56773,-100,3,2,1,52,0,0
56945,-100,3,2,1,44,0,0
57117,-100,3,2,1,52,0,0
57290,-100,3,2,1,44,0,0
57462,-100,3,2,1,52,0,0
57635,-100,3,2,1,44,0,0
57807,-100,3,2,1,52,0,0
58152,-100,3,2,1,48,0,0
58497,-100,3,2,1,52,0,0
58842,-111.111111111111,3,2,1,54,0,0
59186,-111.111111111111,3,2,1,50,0,0
59359,-111.111111111111,3,2,1,52,0,0
59704,-111.111111111111,3,2,1,48,0,0
59876,-111.111111111111,3,2,1,54,0,0
60048,-111.111111111111,3,2,1,50,0,0
60221,-111.111111111111,3,2,1,52,0,0
60393,-111.111111111111,3,2,1,54,0,0
60566,-111.111111111111,3,2,1,56,0,0
60738,-111.111111111111,3,2,1,58,0,0
60911,-200,3,2,1,54,0,0
61945,-200,3,2,1,50,0,0
62721,-200,3,2,1,25,0,0
62807,-200,3,2,1,54,0,0
62893,-200,3,2,1,30,0,0
62979,-83.3333333333333,3,2,1,65,0,1
63238,-83.3333333333333,3,2,1,30,0,1
63324,-71.4285714285714,3,2,1,60,0,1
64014,-83.3333333333333,3,2,1,60,0,1
65307,-83.3333333333333,3,2,1,5,0,1
65393,-83.3333333333333,3,2,1,60,0,1
69186,-71.4285714285714,3,2,1,60,0,1
70221,-83.3333333333333,3,2,1,60,0,1
70479,-83.3333333333333,3,2,1,50,0,1
70566,-83.3333333333333,3,2,1,60,0,1
70824,-83.3333333333333,3,2,1,30,0,1
70911,-83.3333333333333,3,2,2,60,0,1
71083,-83.3333333333333,3,2,1,60,0,1
71255,-83.3333333333333,3,2,1,65,0,1
71514,-83.3333333333333,3,2,1,30,0,1
71600,-83.3333333333333,3,2,1,60,0,1
75652,-83.3333333333333,3,2,1,30,0,1
75738,-83.3333333333333,3,2,1,60,0,1
79186,-83.3333333333333,3,2,2,60,0,1
79359,-83.3333333333333,3,2,1,60,0,1
79531,-83.3333333333333,3,2,1,65,0,1
79790,-83.3333333333333,3,2,1,30,0,1
79876,-83.3333333333333,3,2,1,60,0,1
87462,-83.3333333333333,3,2,2,60,0,1
87635,-83.3333333333333,3,2,1,60,0,1
87807,-83.3333333333333,3,2,1,65,0,1
88066,-83.3333333333333,3,2,1,30,0,1
88152,-83.3333333333333,3,2,1,60,0,1
91945,-83.3333333333333,3,2,1,62,0,1
92204,-83.3333333333333,3,2,1,30,0,1
92290,-83.3333333333333,3,2,1,60,0,1
92979,-83.3333333333333,3,2,2,64,0,1
93238,-83.3333333333333,3,2,1,30,0,1
93324,-83.3333333333333,3,2,1,62,0,1
93497,-83.3333333333333,3,2,1,56,0,1
93669,-83.3333333333333,3,2,1,62,0,1
93842,-83.3333333333333,3,2,1,56,0,1
94014,-83.3333333333333,3,2,1,64,0,1
95048,-83.3333333333333,3,2,1,65,0,1
95221,-83.3333333333333,3,2,1,55,0,1
95393,-83.3333333333333,3,2,1,60,0,1
95566,-83.3333333333333,3,2,1,50,0,1
95738,-83.3333333333333,3,2,1,55,0,1
95911,-83.3333333333333,3,2,1,45,0,1
96083,-125,3,2,1,54,0,0
102117,-125,3,2,1,50,0,0
102290,-125,3,2,1,54,0,0
103669,-125,3,2,1,50,0,0
103928,-125,3,2,1,51,0,0
104014,-125,3,2,1,52,0,0
104186,-125,3,2,1,50,0,0
104359,-111.111111111111,3,2,1,54,0,0
106083,-125,3,2,1,52,0,0
106255,-125,3,2,1,50,0,0
106428,-125,3,2,1,54,0,0
106773,-125,3,2,1,52,0,0
106945,-125,3,2,1,54,0,0
107117,-125,3,2,1,52,0,0
107290,-125,3,2,1,54,0,0
107462,-125,3,2,1,50,0,0
107635,-125,3,2,1,52,0,0
107807,-125,3,2,1,54,0,0
107979,-125,3,2,1,52,0,0
108152,-125,3,2,1,50,0,0
108324,-125,3,2,1,48,0,0
108497,-125,3,2,1,54,0,0
109186,-125,3,2,1,52,0,0
109359,-125,3,2,1,50,0,0
109531,-125,3,2,1,54,0,0
109876,-125,3,2,1,50,0,0
110048,-125,3,2,1,54,0,0
110221,-125,3,2,1,52,0,0
110393,-125,3,2,1,50,0,0
110911,-125,3,2,1,54,0,0
111083,-125,3,2,1,50,0,0
111255,-125,3,2,1,54,0,0
111428,-125,3,2,1,50,0,0
111600,-125,3,2,1,52,0,0
111945,-125,3,2,1,50,0,0
112031,-125,3,2,1,5,0,0
112462,-125,3,2,1,30,0,0
112635,-111.111111111111,3,2,1,40,0,0
114962,-111.111111111111,3,2,1,5,0,0
115048,-111.111111111111,3,2,1,40,0,0
116342,-111.111111111111,3,2,1,5,0,0
116428,-111.111111111111,3,2,1,40,0,0
120221,-105.263157894737,3,2,1,38,0,0
120566,-105.263157894737,3,2,1,36,0,0
120911,-105.263157894737,3,2,1,40,0,0
125048,-105.263157894737,3,2,1,42,0,0
125221,-105.263157894737,3,2,1,38,0,0
125393,-105.263157894737,3,2,1,42,0,0
125738,-105.263157894737,3,2,1,40,0,0
127290,-105.263157894737,3,2,1,38,0,0
127462,-105.263157894737,3,2,1,40,0,0
127635,-105.263157894737,3,2,1,38,0,0
127807,-105.263157894737,3,2,1,40,0,0
127979,-105.263157894737,3,2,1,38,0,0
128152,-105.263157894737,3,2,1,42,0,0
128497,-105.263157894737,3,2,1,44,0,0
128669,-105.263157894737,3,2,1,42,0,0
128842,-105.263157894737,3,2,2,40,0,0
129014,-105.263157894737,3,2,1,40,0,0
129186,-105.263157894737,3,2,1,50,0,0
130566,-105.263157894737,3,2,1,46,0,0
130738,-105.263157894737,3,2,1,48,0,0
130911,-105.263157894737,3,2,1,50,0,0
131083,-105.263157894737,3,2,1,46,0,0
131255,-105.263157894737,3,2,1,50,0,0
132462,-105.263157894737,3,2,1,48,0,0
132635,-105.263157894737,3,2,1,46,0,0
132807,-105.263157894737,3,2,1,44,0,0
132979,-105.263157894737,3,2,1,48,0,0
133152,-105.263157894737,3,2,1,46,0,0
133324,-105.263157894737,3,2,1,50,0,0
134704,-105.263157894737,3,2,1,46,0,0
134876,-105.263157894737,3,2,1,48,0,0
135221,-105.263157894737,3,2,1,46,0,0
135393,-105.263157894737,3,2,1,50,0,0
135566,-105.263157894737,3,2,1,46,0,0
135738,-105.263157894737,3,2,1,48,0,0
135911,-105.263157894737,3,2,1,50,0,0
136945,-105.263157894737,3,2,1,48,0,0
137117,-105.263157894737,3,2,1,50,0,0
137290,-105.263157894737,3,2,1,48,0,0
137462,-105.263157894737,3,2,1,50,0,0
139359,-105.263157894737,3,2,1,48,0,0
139531,-83.3333333333333,3,2,1,52,0,0
139704,-83.3333333333333,3,2,1,44,0,0
139876,-83.3333333333333,3,2,1,52,0,0
140048,-83.3333333333333,3,2,1,44,0,0
140221,-83.3333333333333,3,2,1,52,0,0
140393,-83.3333333333333,3,2,1,44,0,0
140566,-83.3333333333333,3,2,1,52,0,0
140911,-83.3333333333333,3,2,1,50,0,0
141169,-83.3333333333333,3,2,1,51,0,0
141255,-83.3333333333333,3,2,2,52,0,0
141428,-83.3333333333333,3,2,1,48,0,0
141600,-83.3333333333333,3,2,1,54,0,0
141945,-83.3333333333333,3,2,1,50,0,0
142117,-83.3333333333333,3,2,1,52,0,0
142462,-83.3333333333333,3,2,1,50,0,0
142635,-83.3333333333333,3,2,1,52,0,0
142979,-83.3333333333333,3,2,1,48,0,0
143209,-83.3333333333333,3,2,1,50,0,0
143324,-83.3333333333333,3,2,1,49,0,0
143439,-83.3333333333333,3,2,1,48,0,0
143554,-83.3333333333333,3,2,1,47,0,0
143669,-111.111111111111,3,2,1,46,0,0
144704,-83.3333333333333,3,2,1,48,0,0
145048,-83.3333333333333,3,2,1,50,0,0
145393,-83.3333333333333,3,2,1,52,0,0
145738,-83.3333333333333,3,2,1,65,0,1
145997,-83.3333333333333,3,2,1,30,0,1
146083,-83.3333333333333,3,2,1,60,0,1
151945,-71.4285714285714,3,2,1,60,0,1
152979,-83.3333333333333,3,2,1,60,0,1
153152,-83.3333333333333,3,2,1,50,0,1
153238,-83.3333333333333,3,2,1,54,0,1
153319,-83.3333333333333,3,2,1,54,0,1
153324,-83.3333333333333,3,2,1,60,0,1
153583,-83.3333333333333,3,2,1,30,0,1
153669,-83.3333333333333,3,2,2,60,0,1
153842,-83.3333333333333,3,2,1,60,0,1
154014,-83.3333333333333,3,2,1,65,0,1
154273,-83.3333333333333,3,2,1,30,0,1
154359,-83.3333333333333,3,2,1,60,0,1
157807,-125,3,2,1,60,0,1
158066,-90.9090909090909,3,2,1,5,0,1
158152,-66.6666666666667,3,2,1,60,0,1
158411,-83.3333333333333,3,2,1,30,0,1
158497,-83.3333333333333,3,2,1,60,0,1
161428,-83.3333333333333,3,2,1,59,0,1
161514,-83.3333333333333,3,2,1,58,0,1
161600,-83.3333333333333,3,2,1,57,0,1
161686,-83.3333333333333,3,2,1,56,0,1
161773,-83.3333333333333,3,2,1,55,0,1
161945,-83.3333333333333,3,2,2,60,0,1
162117,-83.3333333333333,3,2,1,60,0,1
162290,-83.3333333333333,3,2,1,65,0,1
162548,-83.3333333333333,3,2,1,30,0,1
162635,-83.3333333333333,3,2,1,60,0,1
166255,-83.3333333333333,3,2,1,58,0,1
166428,-83.3333333333333,3,2,1,60,0,1
169704,-83.3333333333333,3,2,1,59,0,1
169790,-83.3333333333333,3,2,1,58,0,1
169876,-83.3333333333333,3,2,1,57,0,1
169962,-83.3333333333333,3,2,1,56,0,1
170048,-83.3333333333333,3,2,1,55,0,1
170135,-83.3333333333333,3,2,1,54,0,1
170221,-83.3333333333333,3,2,2,60,0,1
170393,-83.3333333333333,3,2,1,60,0,1
170566,-83.3333333333333,3,2,1,65,0,1
170824,-83.3333333333333,3,2,1,30,0,1
170911,-83.3333333333333,3,2,1,60,0,1
174962,-83.3333333333333,3,2,1,30,0,1
175048,-83.3333333333333,3,2,1,60,0,1
175566,-83.3333333333333,3,2,1,58,0,1
175738,-83.3333333333333,3,2,1,62,0,1
175997,-83.3333333333333,3,2,1,30,0,1
176083,-83.3333333333333,3,2,1,62,0,1
176600,-83.3333333333333,3,2,1,60,0,1
176773,-83.3333333333333,3,2,1,64,0,1
177117,-83.3333333333333,3,2,1,60,0,1
177290,-83.3333333333333,3,2,1,62,0,1
177807,-83.3333333333333,3,2,1,64,0,1
177979,-83.3333333333333,3,2,1,62,0,1
178152,-83.3333333333333,3,2,1,60,0,1
178324,-83.3333333333333,3,2,1,58,0,1
178497,-83.3333333333333,3,2,2,54,0,1
178669,-83.3333333333333,3,2,2,48,0,1
178842,-100,3,2,1,58,0,0
180048,-100,3,2,1,54,0,0
180221,-100,3,2,1,58,0,0
180393,-100,3,2,1,54,0,0
180566,-100,3,2,1,58,0,0
180738,-100,3,2,1,54,0,0
180911,-100,3,2,1,58,0,0
181255,-100,3,2,1,54,0,0
181428,-100,3,2,1,56,0,0
181514,-100,3,2,1,56,0,0
181600,-100,3,2,1,56,0,0
181773,-100,3,2,1,54,0,0
181945,-100,3,2,1,56,0,0
182635,-100,3,2,2,56,0,0
182979,-90.9090909090909,3,2,1,58,0,0
184186,-100,3,2,1,54,0,0
184273,-100,3,2,1,56,0,0
184359,-100,3,2,1,58,0,0
184531,-100,3,2,1,54,0,0
184617,-100,3,2,1,56,0,0
184704,-100,3,2,1,58,0,0
184876,-100,3,2,1,56,0,0
185048,-100,3,2,1,58,0,0
185738,-100,3,2,1,54,0,0
185911,-100,3,2,1,56,0,0
186083,-100,3,2,1,58,0,0
186255,-100,3,2,1,56,0,0
186428,-100,3,2,1,54,0,0
186600,-100,3,2,1,52,0,0
186773,-100,3,2,2,50,0,0
186945,-100,3,2,1,48,0,0
187117,-76.9230769230769,3,2,1,58,0,0
187462,-100,3,2,1,54,0,0
187635,-100,3,2,1,56,0,0
188152,-90.9090909090909,3,2,1,58,0,0
188497,-100,3,2,1,54,0,0
188669,-100,3,2,1,56,0,0
188842,-100,3,2,1,55,0,0
189014,-100,3,2,1,54,0,0
189186,-100,3,2,1,58,0,0
189531,-100,3,2,1,54,0,0
189704,-100,3,2,1,56,0,0
189876,-90.9090909090909,3,2,1,52,0,0
190048,-100,3,2,1,54,0,0
190221,-100,3,2,1,56,0,0
190566,-100,3,2,1,52,0,0
190738,-100,3,2,1,54,0,0
190911,-100,3,2,1,56,0,0
191083,-100,3,2,1,58,0,0
191255,-100,3,2,1,60,0,0
191600,-100,3,2,1,56,0,0
191773,-100,3,2,1,58,0,0
191945,-100,3,2,1,54,0,0
192290,-100,3,2,1,58,0,0
192979,-100,3,2,1,56,0,0
193152,-100,3,2,1,54,0,0
193238,-100,3,2,1,56,0,0
193324,-100,3,2,1,58,0,0
193583,-100,3,2,1,5,0,0
193669,-100,3,2,1,60,0,0
194100,-100,3,2,1,5,0,0
194186,-100,3,2,1,60,0,0
194359,-83.3333333333333,3,2,1,60,0,0
194704,-83.3333333333333,3,2,1,56,0,0
194876,-83.3333333333333,3,2,1,58,0,0
195048,-83.3333333333333,3,2,1,56,0,0
195221,-83.3333333333333,3,2,1,54,0,0
195393,-83.3333333333333,3,2,1,60,0,0
195652,-83.3333333333333,3,2,1,26,0,0
195738,-83.3333333333333,3,2,1,56,0,0
195911,-83.3333333333333,3,2,1,58,0,0
196083,-83.3333333333333,3,2,1,60,0,0
196255,-83.3333333333333,3,2,1,62,0,0
196428,-83.3333333333333,3,2,1,60,0,0
196600,-83.3333333333333,3,2,1,50,0,0
196773,-100,3,2,1,56,0,0
197117,-83.3333333333333,3,2,1,38,0,0
197462,-83.3333333333333,3,2,99,40,0,0
205738,-83.3333333333333,3,2,1,30,0,0
205824,-83.3333333333333,3,2,1,5,0,0
206255,-83.3333333333333,3,2,1,20,0,0
206428,-83.3333333333333,3,2,1,28,0,0
206600,-83.3333333333333,3,2,1,26,0,0
206773,-83.3333333333333,3,2,1,30,0,0
206945,-83.3333333333333,3,2,1,5,0,0
207462,-83.3333333333333,3,2,1,22,0,0
207807,-83.3333333333333,3,2,1,24,0,0
208842,-83.3333333333333,3,2,1,28,0,0
209186,-83.3333333333333,3,2,1,24,0,0
209876,-83.3333333333333,3,2,1,30,0,0
210221,-83.3333333333333,3,2,1,24,0,0
210911,-83.3333333333333,3,2,1,28,0,0
211945,-166.666666666667,3,2,1,32,0,0
212117,-83.3333333333333,3,2,1,5,0,0
212807,-83.3333333333333,3,2,1,30,0,0
212979,-83.3333333333333,3,2,1,48,0,0
213152,-83.3333333333333,3,2,1,44,0,0
213238,-83.3333333333333,3,2,1,46,0,0
213324,-83.3333333333333,3,2,2,48,0,0
213669,-83.3333333333333,3,2,1,44,0,0
214014,-83.3333333333333,3,2,1,68,0,1
214273,-83.3333333333333,3,2,1,30,0,1
214359,-83.3333333333333,3,2,1,62,0,1
221514,-83.3333333333333,3,2,1,30,0,1
221600,-83.3333333333333,3,2,1,62,0,1
221859,-83.3333333333333,3,2,1,30,0,1
221945,-83.3333333333333,3,2,2,62,0,1
222117,-83.3333333333333,3,2,1,62,0,1
222290,-83.3333333333333,3,2,1,68,0,1
222548,-83.3333333333333,3,2,1,30,0,1
222634,-83.3333333333333,3,2,1,62,0,1
226428,-83.3333333333333,3,2,1,64,0,1
226686,-83.3333333333333,3,2,1,30,0,1
226773,-83.3333333333333,3,2,1,62,0,1
227462,-83.3333333333333,3,2,1,65,0,1
228497,-83.3333333333333,3,2,1,67,0,1
228669,-83.3333333333333,3,2,1,65,0,1
228842,-83.3333333333333,3,2,1,62,0,1
229014,-83.3333333333333,3,2,1,65,0,1
229531,-83.3333333333333,3,2,1,67,0,1
229704,-83.3333333333333,3,2,1,65,0,1
229876,-83.3333333333333,3,2,1,62,0,1
230048,-83.3333333333333,3,2,1,60,0,1
230221,-83.3333333333333,3,2,1,57,0,1
230393,-83.3333333333333,3,2,1,54,0,1
230566,-83.3333333333333,3,2,1,58,0,0
231945,-83.3333333333333,3,2,1,50,0,0
232060,-83.3333333333333,3,2,1,52,0,0
232175,-83.3333333333333,3,2,1,54,0,0
232290,-83.3333333333333,3,2,1,56,0,0
232462,-83.3333333333333,3,2,1,54,0,0
232635,-83.3333333333333,3,2,1,58,0,0
234014,-83.3333333333333,3,2,1,50,0,0
234186,-83.3333333333333,3,2,1,52,0,0
234359,-83.3333333333333,3,2,1,54,0,0
234531,-83.3333333333333,3,2,1,56,0,0
234704,-83.3333333333333,3,2,1,58,0,0
235566,-83.3333333333333,3,2,1,54,0,0
235652,-83.3333333333333,3,2,1,56,0,0
235738,-83.3333333333333,3,2,1,58,0,0
236083,-83.3333333333333,3,2,1,52,0,0
236255,-83.3333333333333,3,2,1,54,0,0
236342,-83.3333333333333,3,2,1,56,0,0
236428,-83.3333333333333,3,2,1,58,0,0
236600,-83.3333333333333,3,2,1,50,0,0
236773,-83.3333333333333,3,2,1,58,0,0
237117,-83.3333333333333,3,2,1,54,0,0
237290,-83.3333333333333,3,2,1,58,0,0
237462,-83.3333333333333,3,2,1,56,0,0
237635,-83.3333333333333,3,2,1,54,0,0
237807,-83.3333333333333,3,2,1,58,0,0
237979,-83.3333333333333,3,2,1,54,0,0
238066,-83.3333333333333,3,2,1,56,0,0
238152,-83.3333333333333,3,2,1,58,0,0
238324,-83.3333333333333,3,2,1,54,0,0
238411,-83.3333333333333,3,2,1,56,0,0
238497,-83.3333333333333,3,2,1,58,0,0
238669,-83.3333333333333,3,2,1,50,0,0
238842,-83.3333333333333,3,2,1,58,0,0
240221,-83.3333333333333,3,2,1,52,0,0
240393,-83.3333333333333,3,2,1,54,0,0
240479,-83.3333333333333,3,2,1,56,0,0
240566,-83.3333333333333,3,2,1,58,0,0
240738,-83.3333333333333,3,2,1,52,0,0
240911,-83.3333333333333,3,2,1,58,0,0
241773,-83.3333333333333,3,2,1,56,0,0
241945,-83.3333333333333,3,2,1,58,0,0
242290,-83.3333333333333,3,2,1,56,0,0
242462,-83.3333333333333,3,2,1,54,0,0
242635,-83.3333333333333,3,2,1,52,0,0
242807,-83.3333333333333,3,2,1,50,0,0
242979,-83.3333333333333,3,2,1,58,0,0
244359,-83.3333333333333,3,2,1,52,0,0
244531,-83.3333333333333,3,2,1,56,0,0
244704,-83.3333333333333,3,2,1,54,0,0
244876,-83.3333333333333,3,2,1,50,0,0
245048,-83.3333333333333,3,2,1,58,0,0
246083,-200,3,2,1,62,0,0
246169,-200,3,2,1,5,0,0
246428,-200,3,2,1,60,0,0
246514,-200,3,2,1,5,0,0
246773,-83.3333333333333,3,2,1,52,0,0
246945,-83.3333333333333,3,2,1,50,0,0
247117,-83.3333333333333,3,2,1,48,0,0
247204,-83.3333333333333,3,2,1,5,0,0
252290,-83.3333333333333,3,2,99,8,0,0

[Colours]
Combo1 : 0,193,97
Combo2 : 190,243,217
Combo3 : 72,164,255

[HitObjects]
463,309,911,6,0,P|412:325|370:296,1,95.9999970703126,12|0,0:0|0:0,0:0:0:0:
469,258,1428,2,0,P|485:309|455:351,1,95.9999970703126,10|0,0:0|0:0,0:0:0:0:
345,336,1945,2,0,P|318:340|286:363,2,47.9999985351563,2|8|10,0:0|0:0|0:1,0:0:0:0:
256,363,2635,2,0,P|270:338|267:298,1,64,6|0,0:3|0:0,0:0:0:0:
155,222,2979,6,0,P|138:273|164:306,1,95.9999970703126,14|0,0:1|0:0,0:0:0:0:
203,216,3496,2,0,P|151:199|108:229,1,95.9999970703126,10|8,0:1|0:1,0:0:0:0:
294,275,4014,6,0,L|406:257,2,111.999996582031,10|2|8,0:0|0:0|0:0,0:0:0:0:
358,229,4876,1,8,0:1:0:0:
475,308,5048,6,0,P|485:264|447:188,1,111.999996582031,14|0,0:1|0:0,0:0:0:0:
358,229,5566,2,0,P|331:191|331:167,1,55.9999982910157,10|0,0:1|0:0,0:0:0:0:
385,94,5911,1,0,0:0:0:0:
358,229,6083,2,0,P|298:224|246:256,1,111.999996582031,10|2,0:1|0:0,0:0:0:0:
119,210,6600,1,8,0:3:0:0:
119,210,6773,2,0,P|152:210|183:235,1,55.9999982910157,10|0,0:0|0:0,0:0:0:0:
214,378,7117,6,0,B|271:325|253:265|253:265|242:299|272:355,1,192,14|10,0:1|0:1,0:0:0:0:
355,316,7807,1,0,0:0:0:0:
449,260,7979,1,0,0:0:0:0:
447,373,8152,6,0,P|411:366|385:345,1,64,10|0,0:0|0:0,0:0:0:0:
423,243,8497,2,0,P|458:249|487:270,1,64,10|8,0:1|0:3,0:0:0:0:
447,373,8842,2,0,P|453:337|474:312,1,64,14|0,0:1|0:0,0:0:0:0:
291,373,9186,6,0,P|243:373|189:305,1,128,14|0,0:1|0:0,0:0:0:0:
328,265,9704,2,0,P|337:309|287:374,1,128,10|8,0:1|0:1,0:0:0:0:
266,217,10221,2,0,P|302:187|344:188,1,64,10|0,0:0|0:0,0:0:0:0:
290,372,10566,2,0,P|244:358|220:323,1,64,2|8,0:0|0:3,0:0:0:0:
143,291,10911,1,6,0:3:0:0:
266,217,11083,1,8,0:1:0:0:
143,372,11255,6,0,P|96:356|75:248,1,143.999995605469,14|0,0:1|0:0,0:0:0:0:
143,291,11773,1,10,0:1:0:0:
108,149,11945,2,0,P|137:178|136:218,1,64,0|8,0:0|0:0,0:0:0:0:
17,83,12290,6,0,P|41:111|110:99,1,102.000001945496,10|0,0:1|0:0,0:0:0:0:
144,28,12635,1,10,0:0:0:0:
101,106,12807,1,8,0:0:0:0:
242,41,12979,1,10,0:0:0:0:
249,62,13152,1,8,0:0:0:0:
212,181,13324,6,0,P|273:129|341:159,1,143.999995605469,14|0,0:1|0:0,0:0:0:0:
378,258,13842,2,0,P|386:224|469:171,1,107.999996704102,10|0,0:1|0:0,0:0:0:0:
465,172,14186,1,8,0:1:0:0:
490,14,14359,6,0,L|476:98,1,80,10|0,0:0|0:0,0:0:0:0:
479,297,14704,2,0,L|494:215,1,80,10|0,0:0|0:0,0:0:0:0:
400,121,15048,1,10,0:2:0:0:
329,166,15221,1,8,0:1:0:0:
429,259,15393,6,0,P|474:243|498:181,1,80,14|0,0:1|0:0,0:0:0:0:
313,342,15738,1,0,0:0:0:0:
457,347,15911,2,0,P|397:333|313:389,1,160,10|8,0:1|0:1,0:0:0:0:
457,347,16428,6,0,P|456:297|437:259,1,80,10|8,0:0|0:1,0:0:0:0:
346,246,16773,1,10,0:3:0:0:
409,169,16945,1,8,0:1:0:0:
492,201,17117,1,4,0:3:0:0:
489,210,17290,1,8,0:1:0:0:
337,381,17462,6,0,P|327:326|405:251,1,160,14|0,0:1|0:0,0:0:0:0:
509,336,17979,6,0,P|475:306|458:271,1,71.9999978027344,10|0,0:1|0:0,0:0:0:0:
489,210,18324,1,8,0:1:0:0:
509,336,18497,2,0,P|469:298|461:220,1,107.999996704102,10|0,0:0|0:0,0:0:0:0:
489,210,18842,2,0,L|506:66,2,143.999995605469,2|2|10,0:0|0:0|0:1,0:0:0:0:
388,294,19876,2,0,B|334:272|317:305|298:341|242:316,1,143.999995605469,0|8,0:0|0:0,0:0:0:0:
128,260,20393,1,8,0:1:0:0:
204,166,20566,6,0,P|257:192|268:244,1,107.999996704102,10|0,0:0|0:0,0:0:0:0:
268,255,20911,2,0,P|270:212|302:191,1,71.9999978027344,2|0,0:0|0:0,0:0:0:0:
379,172,21255,1,0,0:0:0:0:
100,38,21600,6,0,P|44:29|25:108,2,128,10|2|8,0:1|0:0|0:1,0:0:0:0:
102,127,22635,6,0,P|46:121|8:53,1,107.999996704102,10|0,0:0|0:0,0:0:0:0:
151,66,22979,2,0,P|183:111|173:165,1,107.999996704102,2|0,0:0|0:0,0:0:0:0:
27,197,23324,2,0,P|49:146|98:127,1,107.999996704102,2|0,0:0|0:0,0:0:0:0:
263,149,23669,6,0,P|326:120|315:56,2,143.999995605469,10|2|8,0:1|0:0|0:1,0:0:0:0:
263,149,24704,6,0,P|219:159|180:229,1,107.999996704102,10|0,0:0|0:0,0:0:0:0:
342,170,25048,2,0,P|337:115|299:77,1,107.999996704102,2|0,0:0|0:0,0:0:0:0:
263,233,25393,2,0,P|327:199|344:150,1,107.999996704102,8|0,0:1|0:0,0:0:0:0:
474,266,25738,6,0,L|306:248,1,143.999995605469,14|2,0:1|0:0,0:0:0:0:
238,354,26255,1,8,0:0:0:0:
131,203,26428,1,8,0:1:0:0:
165,281,26773,6,0,P|221:275|271:206,1,120,10|0,0:0|0:0,0:0:0:0:
131,203,27117,2,0,P|88:243|81:302,1,120,2|0,0:0|0:0,0:0:0:0:
263,231,27462,2,0,P|269:172|234:125,1,120,10|0,0:1|0:0,0:0:0:0:
42,42,27807,5,10,0:1:0:0:
42,42,28152,5,8,0:0:0:0:
128,67,28324,1,8,0:0:0:0:
216,35,28497,2,0,L|346:52,1,132.00000402832,8|0,0:3|0:0,0:0:0:0:
373,57,28842,5,10,0:1:0:0:
473,347,29186,1,14,0:1:0:0:
473,347,29876,6,0,P|420:360|344:305,1,143.999995605469,10|2,0:1|3:2,0:0:0:0:
426,202,30566,2,0,P|438:236|421:275,1,71.9999978027344,0|0,3:0|3:0,0:0:0:0:
220,325,30911,6,0,P|282:291|353:297,1,143.999995605469,10|8,0:1|0:1,0:0:0:0:
311,182,31428,1,2,0:0:0:0:
353,297,31600,2,0,L|337:188,1,107.999996704102,2|0,3:2|3:0,0:0:0:0:
311,182,31945,6,0,P|255:162|231:81,1,143.999995605469,10|8,3:1|0:1,0:0:0:0:
229,86,32635,5,0,3:0:0:0:
157,44,32807,1,0,3:0:0:0:
78,68,32979,2,0,P|65:101|78:138,1,71.9999978027344,10|0,0:1|3:0,0:0:0:0:
130,207,33324,2,0,P|88:156|1:136,1,143.999995605469,10|0,0:1|3:0,0:0:0:0:
15,134,33842,1,0,3:0:0:0:
78,250,34014,6,0,L|238:232,1,160,10|10,0:1|3:1,0:0:0:0:
480,222,34704,2,0,P|460:263|411:292,1,80,0|0,3:0|3:0,0:0:0:0:
346,302,35048,2,0,P|423:298|475:357,1,160,10|8,0:1|0:1,0:0:0:0:
474,356,35566,1,2,0:0:0:0:
317,377,35738,2,0,P|270:335|272:287,1,80,2|0,3:0|3:0,0:0:0:0:
123,233,36083,6,0,P|82:218|40:196,1,80,10|0,0:1|0:0,0:0:0:0:
204,225,36428,2,0,P|238:196|278:171,1,80,10|0,3:1|0:0,0:0:0:0:
171,304,36773,2,0,P|179:347|181:394,1,80,2|0,3:2|3:0,0:0:0:0:
40,355,37117,2,0,P|121:340|190:401,2,160,10|8|0,3:1|0:1|3:0,0:0:0:0:
127,68,38152,6,0,P|46:79|43:3,1,160,10|10,3:1|3:1,0:0:0:0:
197,29,38842,2,0,P|206:80|183:123,1,80,0|0,3:0|3:0,0:0:0:0:
143,199,39186,2,0,P|179:149|279:148,1,160,10|8,0:1|0:1,0:0:0:0:
273,223,39704,1,2,0:0:0:0:
146,287,39876,2,0,P|105:272|63:250,1,80,2|0,3:2|3:0,0:0:0:0:
273,223,40221,6,0,P|288:264|310:306,1,80,10|0,3:1|0:0,0:0:0:0:
177,320,40566,2,0,P|134:312|87:310,1,80,10|0,3:1|0:0,0:0:0:0:
320,266,40911,2,0,P|342:299|368:329,1,80,0|0,3:0|3:0,0:0:0:0:
368,329,41255,6,0,P|438:326|491:231,2,160,10|2|2,0:1|3:0|3:0,0:0:0:0:
270,368,42290,6,0,P|271:289|193:300,1,160,10|10,3:1|3:1,0:0:0:0:
205,286,42980,2,0,P|164:279|130:256,1,80,0|0,3:0|3:0,0:0:0:0:
311,186,43324,2,0,P|286:247|194:284,1,160,10|8,3:1|3:1,0:0:0:0:
114,176,43842,1,2,0:0:0:0:
114,176,44014,2,0,P|99:135|77:93,1,80,2|0,3:0|3:0,0:0:0:0:
193,84,44359,6,0,P|208:43|230:1,1,80,10|0,3:1|0:0,0:0:0:0:
103,189,44704,2,0,P|88:148|66:106,1,80,8|0,3:1|3:0,0:0:0:0:
181,306,45048,2,0,P|196:265|218:223,1,80,10|0,0:1|0:0,0:0:0:0:
212,232,45393,6,0,P|210:314|279:350,2,160,10|10|10,0:1|0:1|0:1,0:0:0:0:
478,102,46428,6,0,P|418:25|392:37,1,128,14|0,0:1|0:0,0:0:0:0:
435,129,46945,2,0,P|459:149|490:149,1,64,10|0,0:1|0:0,0:0:0:0:
409,27,47290,1,8,0:1:0:0:
397,220,47462,2,0,P|357:186|355:76,2,160,10|0|2,0:0|0:1|0:0,0:0:0:0:
502,268,48497,6,0,L|336:243,1,160,10|0,0:1|0:0,0:0:0:0:
231,344,49014,2,0,L|333:329,1,80,10|0,0:1|0:0,0:0:0:0:
422,344,49359,1,8,0:1:0:0:
502,268,49531,5,10,0:0:0:0:
455,179,49704,1,2,0:0:0:0:
353,179,49876,2,0,L|340:86,1,80,8|8,0:1|0:1,0:0:0:0:
332,20,50221,5,10,0:3:0:0:
353,179,50393,1,8,0:1:0:0:
353,179,50566,2,0,P|295:240|231:202,1,160,14|0,0:1|0:0,0:0:0:0:
193,128,51083,2,0,P|170:139|158:47,1,160,10|8,0:1|0:1,0:0:0:0:
141,171,51600,6,0,L|-5:199,2,143.999995605469,10|0|10,0:0|0:0|0:1,0:0:0:0:
96,272,52462,1,0,0:0:0:0:
274,347,52635,6,0,P|296:315|294:268,1,64,10|0,0:1|0:0,0:0:0:0:
197,297,52979,2,0,L|424:257,1,215.999993408203,2|8,0:0|0:0,0:0:0:0:
285,251,53669,2,0,L|300:162,1,71.9999978027344,10|0,0:1|0:0,0:0:0:0:
409,259,54014,5,10,0:1:0:0:
485,332,54186,1,8,0:0:0:0:
506,212,54359,1,8,0:0:0:0:
506,203,54531,1,8,0:1:0:0:
319,43,54704,6,0,P|324:83|426:156,1,143.999995605469,14|0,0:1|0:0,0:0:0:0:
489,84,55221,2,0,P|456:70|421:70,1,71.9999978027344,10|0,0:1|0:0,0:0:0:0:
319,43,55566,1,8,0:1:0:0:
402,155,55738,6,0,P|403:129|385:65,1,71.9999978027344,10|0,0:0|0:0,0:0:0:0:
307,181,56083,2,0,P|306:207|324:263,1,71.9999978027344,2|0,0:0|0:0,0:0:0:0:
419,333,56428,5,10,0:1:0:0:
432,358,56600,1,8,0:0:0:0:
302,315,56773,6,0,P|303:279|318:237,1,80,10|0,0:1|0:0,0:0:0:0:
492,238,57117,2,0,P|464:210|429:193,1,80,2|8,0:0|0:1,0:0:0:0:
460,10,57462,2,0,P|428:26|399:63,1,80,2|8,0:0|0:1,0:0:0:0:
187,120,57807,2,0,P|222:118|270:133,1,80,10|0,0:0|0:0,0:0:0:0:
362,160,58152,1,2,0:1:0:0:
362,160,58497,5,10,0:0:0:0:
335,67,58669,1,8,0:0:0:0:
445,216,58842,2,0,L|302:192,1,143.999995605469,10|0,0:1|0:0,0:0:0:0:
457,314,59359,2,0,L|483:155,1,143.999995605469,10|8,0:1|0:2,0:0:0:0:
320,128,59876,6,0,P|299:159|320:212,1,71.9999978027344,10|8,0:1|0:1,0:0:0:0:
385,250,60221,1,8,0:0:0:0:
436,138,60393,1,8,0:0:0:0:
288,273,60566,1,8,0:0:0:0:
436,138,60738,1,8,0:0:0:0:
473,329,60911,5,10,0:1:0:0:
473,329,61945,5,8,0:0:0:0:
363,288,62290,1,8,0:0:0:0:
473,329,62635,5,10,0:1:0:0:
363,288,62807,1,10,0:0:0:0:
253,338,62979,6,0,P|176:354|106:319,1,143.999995605469,14|0,0:1|0:0,0:0:0:0:
109,260,63324,2,0,P|95:310|30:327,1,111.999996582031,8|0,0:0|0:0,0:0:0:0:
33,66,63669,1,10,0:0:0:0:
166,170,63842,1,0,0:0:0:0:
349,107,64014,6,0,B|316:182|424:208|396:284,1,191.999994140625,10|8,0:1|0:0,0:0:0:0:
396,282,64531,1,8,0:1:0:0:
455,129,64704,5,10,0:2:0:0:
455,129,64876,1,0,0:0:0:0:
472,308,65048,6,0,L|314:340,1,143.999995605469,10|0,0:1|0:0,0:0:0:0:
249,320,65393,2,0,L|343:301,1,95.9999970703126,10|0,0:0|0:0,0:0:0:0:
79,372,65738,2,0,P|27:333|45:284,1,95.9999970703126,10|0,0:0|0:0,0:0:0:0:
28,308,66083,2,0,P|121:277|181:349,2,191.999994140625,10|8|8,0:1|0:0|0:0,0:0:0:0:
240,241,67117,6,0,P|304:178|288:69,1,191.999994140625,10|8,0:1|0:0,0:0:0:0:
296,82,67635,1,10,0:1:0:0:
482,30,67807,1,10,0:0:0:0:
482,30,67893,1,0,0:0:0:0:
482,30,67979,1,8,0:1:0:0:
336,162,68152,6,0,P|302:126|300:68,1,95.9999970703126,10|0,0:1|0:0,0:0:0:0:
487,109,68497,2,0,P|468:154|416:180,1,95.9999970703126,10|0,0:0|0:0,0:0:0:0:
243,197,68842,2,0,P|296:186|356:213,1,95.9999970703126,10|0,0:0|0:0,0:0:0:0:
275,376,69186,6,0,P|206:304|271:183,2,223.999993164063,10|8|8,0:1|0:0|0:0,0:0:0:0:
378,183,70048,1,8,0:0:0:0:
378,183,70135,1,8,0:0:0:0:
378,183,70221,2,0,P|275:210|218:179,1,143.999995605469,10|8,0:1|0:1,0:0:0:0:
243,198,70566,2,0,P|214:228|207:294,1,95.9999970703126,14|0,0:0|0:0,0:0:0:0:
425,361,70911,5,14,0:0:0:0:
304,311,71083,1,2,0:0:0:0:
164,353,71255,2,0,P|90:353|33:296,1,143.999995605469,14|0,0:1|0:0,0:0:0:0:
50,285,71600,2,0,L|41:184,1,95.9999970703126,8|0,0:0|0:0,0:0:0:0:
166,331,71945,5,10,0:0:0:0:
41,189,72117,1,2,0:0:0:0:
139,42,72290,2,0,B|223:20|224:129|333:103,1,191.999994140625,10|8,0:1|0:0,0:0:0:0:
311,106,72807,1,8,0:1:0:0:
162,124,72979,2,0,P|143:172|131:220,1,95.9999970703126,10|0,0:0|0:0,0:0:0:0:
317,363,73324,6,0,P|322:307|240:286,1,143.999995605469,10|0,0:1|0:0,0:0:0:0:
136,292,73669,2,0,P|184:273|232:261,1,95.9999970703126,10|0,0:0|0:0,0:0:0:0:
389,226,74013,1,10,0:0:0:0:
389,226,74186,1,0,0:0:0:0:
241,33,74359,6,0,P|177:91|184:147,1,143.999995605469,10|8,0:1|0:1,0:0:0:0:
186,163,74704,2,0,P|163:110|180:62,1,95.9999970703126,8|8,0:0|0:1,0:0:0:0:
403,37,75048,1,10,0:0:0:0:
403,37,75393,6,0,L|415:152,1,95.9999970703126,10|0,0:1|0:0,0:0:0:0:
243,177,75738,2,0,B|172:156|155:245|51:209,1,191.999994140625,10|8,0:0|0:0,0:0:0:0:
225,277,76255,5,0,0:0:0:0:
225,277,76341,1,0,0:0:0:0:
225,277,76428,2,0,P|324:226|311:114,2,191.999994140625,10|10|10,0:1|0:0|0:0,0:0:0:0:
243,177,77290,1,0,0:0:0:0:
352,357,77462,5,10,3:1:0:0:
358,377,77635,1,0,3:1:0:0:
195,307,77807,5,10,3:2:0:0:
186,324,77979,1,0,3:1:0:0:
325,195,78152,5,10,3:2:0:0:
331,211,78325,1,0,3:0:0:0:
204,47,78497,5,10,0:1:0:0:
399,26,78669,1,8,0:0:0:0:
399,26,78755,1,8,0:0:0:0:
399,26,78842,2,0,L|530:47,1,95.9999970703126,8|8,0:0|0:1,0:0:0:0:
503,264,79186,5,14,0:1:0:0:
403,245,79359,1,2,0:0:0:0:
320,304,79531,6,0,P|246:293|190:375,1,143.999995605469,14|0,0:1|0:0,0:0:0:0:
185,344,79876,2,0,P|167:301|126:276,1,95.9999970703126,8|8,0:0|0:1,0:0:0:0:
143,25,80221,5,10,0:0:0:0:
190,183,80393,1,2,0:0:0:0:
31,282,80566,2,0,P|79:205|172:206,1,191.999994140625,10|8,0:1|0:0,0:0:0:0:
24,194,81083,1,8,0:1:0:0:
166,343,81255,2,0,L|292:310,1,95.9999970703126,10|0,0:0|0:0,0:0:0:0:
377,91,81600,6,0,L|407:192,1,95.9999970703126,10|0,0:1|0:0,0:0:0:0:
271,248,81945,1,10,0:0:0:0:
271,248,82117,1,8,0:1:0:0:
439,349,82290,2,0,L|465:256,1,95.9999970703126,10|0,0:0|0:0,0:0:0:0:
441,68,82635,6,0,P|335:43|345:128,2,191.999994140625,10|8|8,0:1|0:0|0:0,0:0:0:0:
498,127,83497,1,8,0:1:0:0:
338,252,83669,2,0,P|307:190|206:115,1,191.999994140625,14|8,0:1|0:0,0:0:0:0:
170,37,84186,1,10,0:1:0:0:
34,214,84359,1,10,0:0:0:0:
34,214,84445,1,8,0:0:0:0:
34,214,84531,1,8,0:1:0:0:
212,117,84704,6,0,P|203:71|170:37,1,95.9999970703126,10|0,0:1|0:0,0:0:0:0:
87,79,85048,2,0,P|95:125|128:159,1,95.9999970703126,10|0,0:0|0:0,0:0:0:0:
320,202,85393,2,0,P|286:234|277:281,1,95.9999970703126,10|0,0:0|0:0,0:0:0:0:
54,370,85738,2,0,P|50:299|128:348,2,191.999994140625,10|8|8,0:1|0:0|0:0,0:0:0:0:
106,202,86600,5,8,0:0:0:0:
106,202,86687,1,8,0:0:0:0:
106,202,86773,2,0,P|93:260|155:349,1,143.999995605469,10|8,0:1|0:2,0:0:0:0:
148,342,87117,2,0,P|179:320|199:232,1,95.9999970703126,14|0,0:1|0:0,0:0:0:0:
236,94,87463,5,14,0:1:0:0:
360,60,87635,1,2,0:0:0:0:
461,143,87807,6,0,P|418:196|352:182,1,143.999995605469,14|0,0:1|0:0,0:0:0:0:
319,181,88152,2,0,P|369:233|354:292,1,95.9999970703126,8|0,0:0|0:0,0:0:0:0:
175,79,88497,1,10,0:0:0:0:
331,260,88669,1,0,0:0:0:0:
511,109,88842,6,0,P|431:66|372:144,1,191.999994140625,10|8,0:1|0:0,0:0:0:0:
372,130,89359,1,8,0:1:0:0:
456,287,89531,2,0,P|461:246|451:165,1,95.9999970703126,10|0,0:0|0:0,0:0:0:0:
429,270,89876,5,10,0:1:0:0:
368,199,90049,1,0,0:0:0:0:
327,331,90221,5,10,0:0:0:0:
307,144,90394,1,8,0:1:0:0:
206,322,90566,5,10,0:0:0:0:
280,69,90738,1,0,0:0:0:0:
34,204,90911,6,0,B|127:236|144:147|215:168,1,191.999994140625,14|8,0:1|0:0,0:0:0:0:
210,345,91600,6,0,L|193:248,1,95.9999970703126,10|0,0:0|0:0,0:0:0:0:
75,131,91945,2,0,L|58:37,1,95.9999970703126,14|0,0:1|0:0,0:0:0:0:
216,169,92290,6,0,B|145:148|128:237|35:205,1,191.999994140625,10|8,0:0|0:0,0:0:0:0:
205,69,92807,5,8,0:1:0:0:
205,69,92893,1,0,0:0:0:0:
205,69,92980,2,0,P|302:131|291:232,2,191.999994140625,14|10|10,0:1|0:0|0:0,0:0:0:0:
215,168,93842,1,8,0:1:0:0:
463,49,94014,5,10,0:1:0:0:
397,271,94187,1,8,0:0:0:0:
476,337,94359,1,8,0:2:0:0:
285,269,94531,1,8,0:1:0:0:
330,118,94704,1,8,0:2:0:0:
330,118,94876,1,8,0:2:0:0:
47,215,95049,5,10,0:1:0:0:
274,364,95221,1,8,0:1:0:0:
274,364,95307,1,8,0:1:0:0:
274,364,95393,1,10,0:0:0:0:
204,279,95566,1,8,0:1:0:0:
411,159,95738,5,10,0:3:0:0:
451,327,95911,1,4,0:3:0:0:
274,364,96083,6,0,L|137:350,1,128,14|0,0:1|0:0,0:0:0:0:
278,364,96600,2,0,P|265:325|300:237,1,128,2|8,0:0|0:1,0:0:0:0:
291,245,97117,2,0,P|258:270|214:261,1,64,10|0,0:0|0:0,0:0:0:0:
322,168,97462,2,0,P|317:126|347:93,1,64,2|0,0:0|0:0,0:0:0:0:
379,233,97807,2,0,P|417:249|431:292,1,64,2|0,0:0|0:0,0:0:0:0:
278,364,98152,2,0,P|202:354|138:371,1,128,10|0,0:1|0:0,0:0:0:0:
192,289,98842,5,2,0:0:0:0:
152,364,99014,1,8,0:1:0:0:
73,348,99186,2,0,P|33:298|56:214,2,128,10|2|2,0:0|0:0|0:0,0:0:0:0:
192,289,100048,1,0,0:0:0:0:
192,289,100221,6,0,P|256:299|320:304,1,128,14|0,0:1|0:0,0:0:0:0:
422,294,100738,2,0,P|432:230|437:166,1,128,2|8,0:0|0:1,0:0:0:0:
345,188,101255,2,0,L|281:164,1,64,10|0,0:0|0:0,0:0:0:0:
370,110,101600,2,0,L|339:50,1,64,2|0,0:0|0:0,0:0:0:0:
445,81,101945,2,0,L|461:16,1,64,2|8,0:0|0:1,0:0:0:0:
460,18,102290,6,0,P|409:49|410:125,1,128,10|0,0:1|0:0,0:0:0:0:
320,64,102807,2,0,P|287:68|244:49,1,64,10|0,0:0|0:0,0:0:0:0:
196,7,103152,1,8,0:1:0:0:
174,145,103324,2,0,P|119:125|101:180,2,128,10|8|8,0:0|0:1|0:0,0:0:0:0:
101,180,104359,6,0,P|151:217|229:202,1,143.999995605469,14|0,0:1|0:0,0:0:0:0:
277,316,104876,2,0,P|284:255|228:203,1,143.999995605469,10|8,0:0|0:1,0:0:0:0:
226,202,105393,2,0,P|220:167|235:135,1,71.9999978027344,10|0,0:0|0:0,0:0:0:0:
334,143,105738,2,0,P|340:178|325:210,1,71.9999978027344,0|2,0:0|0:0,0:0:0:0:
272,281,106083,1,8,0:0:0:0:
272,281,106255,1,8,0:1:0:0:
330,381,106428,6,0,L|184:356,1,128,10|0,0:1|0:0,0:0:0:0:
50,368,106945,2,0,B|32:337|32:337|43:303|91:246,1,128,2|8,0:0|0:0,0:0:0:0:
203,359,107462,2,0,P|165:348|113:339,1,64,2|10,0:0|0:1,0:0:0:0:
80,259,107807,2,0,P|91:221|100:169,1,64,8|10,0:0|0:1,0:0:0:0:
275,197,108152,2,0,P|281:228|290:258,1,64,4|6,0:3|0:3,0:0:0:0:
184,208,108497,6,0,P|191:161|175:68,1,128,14|0,0:1|0:0,0:0:0:0:
100,10,109014,2,0,P|73:18|44:47,1,64,10|2,0:1|0:0,0:0:0:0:
47,41,109359,1,8,0:1:0:0:
179,81,109531,2,0,L|319:48,1,128,10|0,0:0|0:0,0:0:0:0:
204,159,110048,1,8,0:0:0:0:
204,159,110221,2,0,L|282:139,1,64,10|8,0:0|0:1,0:0:0:0:
424,111,110566,6,0,P|434:64|368:-6,2,128,10|2|10,0:1|0:0|0:0,0:0:0:0:
424,111,111600,5,10,0:1:0:0:
311,349,111945,1,14,0:1:0:0:
311,349,112635,6,0,P|243:328|175:347,1,143.999995605469,10|10,3:1|3:1,0:0:0:0:
312,350,113325,1,0,3:0:0:0:
387,316,113497,1,0,3:0:0:0:
273,225,113669,2,0,P|263:272|320:353,1,143.999995605469,10|8,0:1|3:1,0:0:0:0:
430,318,114187,1,2,0:0:0:0:
430,318,114359,2,0,L|441:267,3,35.9999989013672,2|0|0|0,3:0|3:0|3:0|3:0,0:0:0:0:
464,253,114704,6,0,L|484:377,1,107.999996704102,10|0,3:1|0:0,0:0:0:0:
430,318,115048,2,0,L|361:340,1,71.9999978027344,8|0,3:1|0:0,0:0:0:0:
283,289,115394,5,0,3:0:0:0:
260,283,115566,1,0,3:0:0:0:
389,250,115738,2,0,L|407:164,1,71.9999978027344,10|0,0:1|3:0,0:0:0:0:
414,55,116083,2,0,P|446:17|492:40,1,107.999996704102,10|0,3:1|0:0,0:0:0:0:
501,58,116428,1,0,3:0:0:0:
450,143,116600,1,0,3:0:0:0:
353,144,116773,6,0,P|312:86|326:18,1,143.999995605469,10|10,3:1|3:1,0:0:0:0:
353,144,117462,1,0,3:0:0:0:
329,229,117635,1,0,3:0:0:0:
248,265,117807,6,0,L|107:241,1,143.999995605469,10|8,0:1|3:1,0:0:0:0:
68,173,118324,1,2,0:0:0:0:
49,304,118497,2,0,L|11:297,3,35.9999989013672,2|0|0|0,3:0|3:0|3:0|3:0,0:0:0:0:
78,310,118842,6,0,L|95:409,1,71.9999978027344,10|0,3:1|0:0,0:0:0:0:
231,263,119186,2,0,L|243:192,1,71.9999978027344,10|0,3:1|0:0,0:0:0:0:
376,302,119531,2,0,L|388:372,1,71.9999978027344,2|0,3:0|3:0,0:0:0:0:
388,372,119876,6,0,P|454:347|451:254,2,143.999995605469,10|8|10,3:1|3:1|2:1,0:0:0:0:
76,348,120911,6,0,B|36:325|36:325|31:267|77:202,1,151.999995941162,10|10,3:1|3:1,0:0:0:0:
32,151,121600,1,0,3:0:0:0:
121,155,121773,1,0,3:0:0:0:
198,109,121945,2,0,L|227:258,1,151.999995941162,10|8,0:1|3:1,0:0:0:0:
227,258,122462,1,2,0:0:0:0:
198,109,122635,6,0,L|190:69,3,37.9999989852906,2|0|0|0,3:0|3:0|3:0|0:0,0:0:0:0:
152,18,122979,6,0,P|202:42|258:34,1,113.999996955872,10|0,3:1|0:0,0:0:0:0:
292,12,123324,2,0,L|281:116,1,75.9999979705811,10|0,3:1|0:0,0:0:0:0:
274,182,123670,5,0,3:0:0:0:
272,206,123842,1,0,3:0:0:0:
255,365,124014,2,0,P|192:344|118:366,1,113.999996955872,10|0,0:1|0:0,0:0:0:0:
119,347,124359,6,0,P|174:333|217:334,1,75.9999979705811,10|0,3:1|0:0,0:0:0:0:
299,370,124704,2,0,P|336:366|372:355,1,75.9999979705811,0|0,3:0|3:0,0:0:0:0:
501,293,125048,5,10,3:1:0:0:
441,143,125393,2,0,L|448:94,3,37.9999989852906,10|0|0|0,3:1|0:0|0:0|0:0,0:0:0:0:
419,240,125738,2,0,L|404:154,1,75.9999979705811,0|0,3:0|3:0,0:0:0:0:
501,293,126083,2,0,L|342:268,1,151.999995941162,10|8,0:1|3:1,0:0:0:0:
302,193,126600,1,2,0:0:0:0:
256,322,126773,2,0,P|285:348|327:354,1,75.9999979705811,2|0,3:0|3:0,0:0:0:0:
302,193,127117,6,0,P|264:205|230:215,1,75.9999979705811,10|0,0:1|3:0,0:0:0:0:
124,378,127462,2,0,P|135:339|144:303,1,75.9999979705811,10|0,3:1|0:0,0:0:0:0:
115,183,127807,2,0,P|87:155|58:126,1,75.9999979705811,10|0,3:1|0:0,0:0:0:0:
161,231,128152,6,0,L|0:246,2,151.999995941162,10|10|14,0:1|0:1|0:1,0:0:0:0:
507,348,129186,6,0,P|437:362|371:291,1,151.999995941162,14|0,0:1|0:0,0:0:0:0:
457,266,129704,2,0,P|458:228|446:193,1,75.9999979705811,10|0,0:1|0:0,0:0:0:0:
445,192,130048,1,8,0:1:0:0:
342,87,130220,2,0,P|419:92|473:41,2,151.999995941162,10|0|2,0:0|0:0|0:0,0:0:0:0:
322,9,131083,1,8,0:1:0:0:
322,9,131255,6,0,L|299:166,1,151.999995941162,10|0,0:1|0:0,0:0:0:0:
151,165,131773,2,0,L|139:76,1,75.9999979705811,10|0,0:1|0:0,0:0:0:0:
141,90,132117,1,8,0:1:0:0:
63,187,132289,5,10,0:0:0:0:
24,270,132462,1,2,0:0:0:0:
66,349,132634,2,0,L|141:339,1,75.9999979705811,8|8,0:1|0:1,0:0:0:0:
220,364,132979,5,10,0:3:0:0:
288,191,133151,1,8,0:1:0:0:
288,191,133324,6,0,P|262:261|312:321,1,151.999995941162,14|0,0:1|0:0,0:0:0:0:
438,287,133842,2,0,P|367:309|311:382,1,151.999995941162,10|8,0:1|0:1,0:0:0:0:
288,191,134358,2,0,L|264:40,2,151.999995941162,10|0|2,0:0|0:0|0:1,0:0:0:0:
274,359,135220,1,8,0:0:0:0:
274,359,135393,6,0,P|296:327|295:276,1,75.9999979705811,14|0,0:1|0:0,0:0:0:0:
414,245,135738,2,0,L|185:294,1,227.999993911743,2|8,0:0|0:1,0:0:0:0:
191,292,136428,2,0,L|208:196,1,75.9999979705811,10|0,0:0|0:0,0:0:0:0:
190,123,136772,5,10,0:1:0:0:
204,217,136944,1,2,0:0:0:0:
145,296,137117,1,10,0:0:0:0:
123,305,137289,1,8,0:1:0:0:
0,152,137462,6,0,P|37:141|129:224,1,151.999995941162,14|0,0:1|0:0,3:0:0:0:
124,199,137979,1,10,0:1:0:0:
15,312,138152,2,0,P|16:280|31:239,1,75.9999979705811,0|8,0:0|0:1,0:0:0:0:
230,233,138497,6,0,P|268:220|310:173,1,75.9999979705811,10|0,0:0|0:0,0:0:0:0:
235,68,138842,2,0,L|230:144,1,75.9999979705811,2|0,0:0|0:0,0:0:0:0:
331,17,139186,5,2,0:0:0:0:
331,17,139359,1,8,0:0:0:0:
145,32,139531,6,0,P|123:74|119:121,1,95.9999970703126,10|0,0:1|0:0,0:0:0:0:
325,180,139876,2,0,P|324:144|295:85,1,95.9999970703126,2|8,0:0|0:1,0:0:0:0:
49,156,140221,6,0,P|83:188|129:202,1,95.9999970703126,2|8,0:0|0:1,0:0:0:0:
389,116,140565,2,0,P|346:94|299:90,1,95.9999970703126,14|0,0:1|0:0,0:0:0:0:
299,89,140910,1,2,0:1:0:0:
359,318,141255,5,14,0:0:0:0:
444,252,141427,1,0,0:0:0:0:
464,363,141600,6,0,P|499:297|428:204,1,191.999994140625,14|0,0:1|0:0,0:0:0:0:
163,338,142117,2,0,B|90:379|6:353|6:353|60:323,1,191.999994140625,10|0,0:1|0:0,0:0:0:0:
224,262,142635,2,0,P|256:306|254:352,1,95.9999970703126,10|0,0:0|0:0,0:0:0:0:
189,372,142979,6,0,L|122:363,2,63.9999980468751,8|0|8,0:1|0:0|0:0,0:0:0:0:
312,247,143324,2,0,L|379:238,2,63.9999980468751,8|8|8,0:0|0:0|0:0,0:0:0:0:
184,123,143669,2,0,L|230:283,2,143.999995605469,10|0|0,0:1|0:0|0:0,0:0:0:0:
135,187,144704,1,8,0:0:0:0:
247,188,145049,1,10,0:0:0:0:
304,285,145393,5,10,0:0:0:0:
247,188,145566,1,8,0:0:0:0:
135,187,145738,6,0,B|86:232|86:232|74:276|106:310,1,143.999995605469,14|0,0:1|0:0,0:0:0:0:
116,331,146083,2,0,P|155:319|227:320,1,95.9999970703126,8|0,0:0|0:0,0:0:0:0:
449,308,146428,1,10,0:0:0:0:
336,172,146600,1,2,0:0:0:0:
416,41,146773,6,0,P|469:62|449:156,1,143.999995605469,10|0,0:1|0:0,0:0:0:0:
454,167,147117,2,0,P|387:155|343:166,1,95.9999970703126,8|8,0:0|0:1,0:0:0:0:
146,153,147462,2,0,P|134:110|116:54,1,95.9999970703126,10|0,0:0|0:0,0:0:0:0:
290,0,147807,6,0,P|272:57|253:143,1,143.999995605469,10|0,0:1|0:0,0:0:0:0:
219,233,148152,2,0,P|219:185|233:124,1,95.9999970703126,8|8,0:0|0:1,0:0:0:0:
290,0,148497,2,0,P|303:46|308:93,1,95.9999970703126,10|0,0:0|0:0,0:0:0:0:
478,253,148842,2,0,B|432:271|389:222|403:210|360:165|312:177,1,191.999994140625,10|8,0:1|0:0,0:0:0:0:
300,353,149359,1,8,0:1:0:0:
300,353,149531,2,0,P|305:293|331:243,1,95.9999970703126,8|0,0:0|0:0,0:0:0:0:
470,342,149876,6,0,P|389:346|269:389,1,191.999994140625,10|8,0:1|0:0,0:0:0:0:
284,380,150393,1,10,0:1:0:0:
92,326,150566,1,10,0:0:0:0:
92,326,150652,1,0,0:0:0:0:
92,326,150738,1,8,0:1:0:0:
223,206,150911,6,0,P|276:211|294:293,1,143.999995605469,10|8,0:1|0:1,0:0:0:0:
231,359,151255,2,0,L|121:343,1,95.9999970703126,10|8,0:0|0:1,0:0:0:0:
51,215,151600,2,0,P|53:167|78:128,1,95.9999970703126,10|0,0:0|0:0,0:0:0:0:
296,18,151945,6,0,B|281:111|401:120|373:233,2,223.999993164063,10|8|8,0:1|0:0|0:0,0:0:0:0:
472,14,152807,1,8,0:0:0:0:
472,14,152893,1,8,0:0:0:0:
472,14,152979,2,0,P|428:24|373:45,1,95.9999970703126,10|8,0:1|0:3,0:0:0:0:
186,163,153324,2,0,P|230:173|285:194,1,95.9999970703126,14|0,0:0|0:0,0:0:0:0:
339,122,153669,5,14,0:1:0:0:
186,163,153842,1,2,0:0:0:0:
92,46,154014,2,0,P|135:31|208:116,1,143.999995605469,14|0,0:1|0:0,0:0:0:0:
214,114,154359,2,0,L|206:229,1,95.9999970703126,10|8,0:0|0:1,0:0:0:0:
80,298,154704,5,10,0:0:0:0:
176,134,154876,1,2,0:0:0:0:
41,14,155048,2,0,P|6:92|106:147,1,191.999994140625,10|8,0:1|0:0,0:0:0:0:
214,99,155566,1,8,0:1:0:0:
214,99,155652,1,2,0:0:0:0:
214,99,155738,2,0,P|164:79|92:83,1,95.9999970703126,10|8,0:0|0:0,0:0:0:0:
123,247,156083,2,0,P|153:211|159:164,1,95.9999970703126,10|0,0:1|0:0,0:0:0:0:
24,357,156428,6,0,P|19:301|104:274,1,143.999995605469,10|0,0:0|0:0,0:0:0:0:
206,350,156773,2,0,P|246:342|312:291,1,95.9999970703126,8|0,0:0|0:0,0:0:0:0:
477,92,157117,1,10,0:1:0:0:
477,92,157462,2,0,P|456:135|445:182,1,95.9999970703126,8|8,0:0|0:1,0:0:0:0:
278,98,157807,6,0,P|250:128|288:143,1,96,10|0,0:0|0:0,0:0:0:0:
347,0,158152,6,0,B|321:223,1,180.000006866455,10|0,0:1|0:0,0:0:0:0:
314,273,158497,2,0,L|301:372,1,95.9999970703126,10|0,0:0|0:0,0:0:0:0:
301,368,158842,1,8,0:0:0:0:
125,350,159014,5,0,0:0:0:0:
125,350,159100,1,0,0:0:0:0:
125,350,159187,2,0,P|37:340|17:234,2,191.999994140625,10|10|10,0:1|0:0|0:0,0:0:0:0:
217,305,160049,1,0,0:0:0:0:
101,135,160221,5,10,3:1:0:0:
82,112,160394,1,0,3:0:0:0:
231,77,160566,5,8,3:2:0:0:
240,60,160738,1,0,3:0:0:0:
336,193,160911,5,8,3:2:0:0:
317,170,161084,1,0,3:0:0:0:
466,135,161256,5,10,0:1:0:0:
420,308,161428,1,8,0:0:0:0:
420,308,161514,1,8,0:0:0:0:
420,308,161601,2,0,L|310:284,1,95.9999970703126,8|4,0:3|0:3,0:0:0:0:
125,101,161945,5,14,0:1:0:0:
232,182,162118,1,2,0:0:0:0:
362,164,162290,6,0,P|436:153|492:235,1,143.999995605469,14|0,0:1|0:0,0:0:0:0:
499,218,162635,2,0,L|489:113,1,95.9999970703126,8|8,0:0|0:1,0:0:0:0:
403,243,162980,5,10,0:0:0:0:
223,180,163152,1,2,0:0:0:0:
72,296,163324,2,0,P|125:337|242:316,1,191.999994140625,10|8,0:1|0:0,0:0:0:0:
242,317,163842,1,8,0:1:0:0:
64,348,164014,2,0,P|35:309|40:255,1,95.9999970703126,10|0,0:0|0:0,0:0:0:0:
88,6,164359,6,0,P|134:59|111:114,1,95.9999970703126,10|0,0:1|0:0,0:0:0:0:
111,191,164704,1,10,0:0:0:0:
111,191,164876,1,8,0:1:0:0:
167,361,165048,2,0,P|213:353|241:316,1,95.9999970703126,10|0,0:2|0:0,0:0:0:0:
394,157,165393,6,0,P|302:141|305:226,2,191.999994140625,10|8|8,0:1|0:0|0:0,0:0:0:0:
296,216,166255,1,8,0:0:0:0:
492,299,166428,2,0,P|430:268|395:153,1,191.999994140625,10|8,0:1|0:0,0:0:0:0:
394,157,166945,1,10,0:1:0:0:
484,37,167117,1,10,0:0:0:0:
484,37,167204,1,10,0:1:0:0:
484,37,167290,1,10,0:1:0:0:
394,157,167463,6,0,P|348:149|314:116,1,95.9999970703126,10|8,0:1|0:0,0:0:0:0:
183,10,167807,2,0,P|137:19|103:52,1,95.9999970703126,2|8,0:1|0:1,0:0:0:0:
162,169,168152,2,0,P|208:160|242:127,1,95.9999970703126,10|8,0:0|0:1,0:0:0:0:
27,16,168497,2,0,P|23:87|101:38,2,191.999994140625,10|8|8,0:1|0:0|0:0,0:0:0:0:
264,123,169359,5,8,0:0:0:0:
264,123,169445,1,8,0:0:0:0:
264,123,169532,2,0,P|208:121|105:188,1,143.999995605469,10|8,0:1|0:0,0:0:0:0:
115,145,169876,2,0,P|56:128|0:149,1,95.9999970703126,8|4,0:3|0:3,0:0:0:0:
201,303,170222,5,14,0:1:0:0:
344,356,170394,1,2,0:0:0:0:
447,244,170566,2,0,P|404:191|338:205,1,143.999995605469,14|0,0:1|0:0,0:0:0:0:
305,201,170911,2,0,P|355:149|340:90,1,95.9999970703126,10|8,0:0|0:1,0:0:0:0:
172,295,171256,5,10,0:0:0:0:
339,138,171428,1,2,0:0:0:0:
512,275,171601,2,0,P|432:318|373:240,1,191.999994140625,10|8,0:1|0:0,0:0:0:0:
373,254,172118,1,8,0:1:0:0:
457,97,172290,2,0,P|462:138|452:219,1,95.9999970703126,10|0,0:0|0:0,0:0:0:0:
379,73,172635,5,10,0:1:0:0:
359,155,172808,1,0,0:0:0:0:
287,22,172980,5,10,0:0:0:0:
309,216,173153,1,0,0:0:0:0:
206,49,173325,5,10,0:0:0:0:
297,290,173497,1,0,0:0:0:0:
131,154,173670,6,0,P|61:148|13:198,1,143.999995605469,10|8,0:1|0:1,0:0:0:0:
13,198,174014,2,0,P|30:140|30:98,1,95.9999970703126,8|8,0:0|0:1,0:0:0:0:
26,326,174359,2,0,P|67:299|125:297,1,95.9999970703126,10|0,0:0|0:0,0:0:0:0:
260,273,174704,6,0,P|262:225|239:184,1,95.9999970703126,6|0,0:0|0:0,0:0:0:0:
113,294,175048,2,0,B|177:283|207:380|287:353,1,191.999994140625,10|8,0:0|0:0,0:0:0:0:
428,366,175566,5,8,0:2:0:0:
428,366,175652,1,8,0:2:0:0:
428,366,175739,2,0,P|432:278|467:170,2,191.999994140625,10|10|10,0:1|0:0|0:0,0:0:0:0:
342,289,176601,1,8,0:0:0:0:
42,156,176773,5,10,0:1:0:0:
137,96,176945,1,2,0:0:0:0:
173,289,177118,1,8,0:0:0:0:
141,373,177290,1,10,0:1:0:0:
342,289,177463,1,8,0:1:0:0:
342,289,177635,1,8,0:0:0:0:
420,42,177808,5,10,0:0:0:0:
263,89,177980,1,8,0:3:0:0:
263,89,178066,1,0,0:0:0:0:
263,89,178152,1,10,0:1:0:0:
245,236,178325,1,4,0:3:0:0:
512,166,178497,5,14,0:1:0:0:
409,288,178670,1,0,0:0:0:0:
225,266,178842,6,0,P|148:270|71:333,1,160,14|0,0:1|0:0,0:0:0:0:
82,316,179359,2,0,P|159:312|236:249,1,160,10|8,0:1|0:1,0:0:0:0:
372,197,179876,6,0,P|440:194|473:224,1,80,10|0,0:0|0:0,0:0:0:0:
307,255,180221,2,0,P|288:192|303:152,1,80,8|0,0:1|0:0,0:0:0:0:
397,111,180566,1,8,0:0:0:0:
397,111,180738,1,0,0:0:0:0:
512,276,180911,6,0,P|452:323|417:245,1,160,10|0,0:1|0:0,0:0:0:0:
321,367,181428,2,0,L|314:327,1,40,10|2,0:1|0:0,0:0:0:0:
221,318,181600,2,0,L|340:332,1,120,2|0,0:0|0:0,0:0:0:0:
340,332,181945,1,10,0:1:0:0:
409,270,182117,1,8,0:1:0:0:
417,177,182290,2,0,P|377:183|347:208,1,80,10|8,0:0|0:1,0:0:0:0:
221,318,182635,1,14,0:1:0:0:
221,318,182979,6,0,B|188:286|188:286|183:216|232:157,1,176.000005371094,14|0,0:1|0:0,0:0:0:0:
121,32,183497,2,0,P|47:28|30:141,1,176.000005371094,10|8,0:1|0:1,0:0:0:0:
13,112,184014,1,10,0:1:0:0:
155,156,184186,5,8,0:0:0:0:
155,156,184273,1,8,0:0:0:0:
155,156,184359,1,8,0:1:0:0:
70,228,184531,6,0,L|75:271,1,40,10|10,0:1|0:1,0:0:0:0:
123,276,184704,2,0,P|83:304|71:366,1,80,10|0,0:1|0:0,0:0:0:0:
314,357,185048,6,0,P|303:279|217:233,1,160,14|8,0:1|0:1,0:0:0:0:
346,358,185566,2,0,L|449:324,1,80,8|8,0:0|0:1,0:0:0:0:
469,260,185911,1,8,0:0:0:0:
361,120,186083,5,10,0:1:0:0:
432,265,186255,1,8,0:0:0:0:
484,172,186428,2,0,L|390:194,1,80,10|8,0:1|0:3,0:0:0:0:
346,270,186686,1,0,0:0:0:0:
346,270,186773,2,0,P|381:336|443:355,1,120,14|0,0:1|0:0,0:0:0:0:
491,314,187117,6,0,P|446:317|251:386,1,207.999990478516,14|0,0:1|0:0,0:0:0:0:
150,312,187635,2,0,P|89:301|45:329,1,80,10|2,0:1|0:1,0:0:0:0:
30,241,187979,1,8,0:1:0:0:
209,383,188152,6,0,B|252:348|252:348|256:290|214:242,1,132.00000402832,10|0,0:0|0:0,0:0:0:0:
247,254,188497,2,0,L|257:164,1,80,8|2,0:1|0:0,0:0:0:0:
206,96,188842,1,8,0:0:0:0:
206,96,189014,1,8,0:1:0:0:
389,239,189186,6,0,P|448:232|485:142,1,160,14|0,0:1|0:0,0:0:0:0:
389,239,189704,1,8,0:0:0:0:
498,315,189876,2,0,P|498:270|471:229,1,88.000002685547,0|8,0:0|0:1,0:0:0:0:
432,89,190221,6,0,P|410:123|412:171,1,80,10|0,0:0|0:0,0:0:0:0:
409,161,190566,1,10,0:1:0:0:
337,242,190738,1,8,0:0:0:0:
201,192,190911,1,10,0:0:0:0:
269,34,191083,1,8,0:0:0:0:
414,163,191255,6,0,B|397:190|372:203|372:203|308:202|256:169,1,160,14|0,0:1|0:0,0:0:0:0:
33,145,191773,2,0,P|71:134|142:140,1,80,10|0,0:1|0:0,0:0:0:0:
178,190,192117,1,8,0:1:0:0:
150,342,192290,2,0,P|182:269|178:190,1,160,10|8,0:0|0:1,0:0:0:0:
33,145,192807,2,0,P|20:201|42:245,1,80,10|10,0:0|0:1,0:0:0:0:
178,190,193152,5,8,0:1:0:0:
178,190,193238,1,8,0:1:0:0:
178,190,193324,2,0,B|164:46,1,120,14|0,0:1|0:0,0:0:0:0:
163,45,193669,1,0,0:0:0:0:
359,138,193842,2,0,P|418:86|421:14,1,120,14|0,0:1|0:0,0:0:0:0:
338,52,194186,1,2,0:0:0:0:
372,316,194359,6,0,P|396:232|340:120,1,191.999994140625,14|0,0:1|0:0,0:0:0:0:
358,137,194876,1,8,0:0:0:0:
270,221,195048,6,0,L|222:227,1,47.9999985351563,10|0,0:1|0:0,0:0:0:0:
238,252,195221,2,0,L|185:237,1,47.9999985351563,10|0,0:1|0:0,0:0:0:0:
5,210,195393,2,0,P|73:249|69:351,1,143.999995605469,10|0,0:1|0:0,0:0:0:0:
43,369,195738,5,10,0:0:0:0:
61,350,195911,1,8,0:0:0:0:
138,306,196083,1,10,0:0:0:0:
259,276,196255,1,8,0:0:0:0:
508,305,196428,1,10,0:1:0:0:
21,308,196773,6,0,L|261:275,1,240,14|0,0:1|0:0,0:0:0:0:
259,276,197462,5,0,0:0:0:0:
295,157,205738,5,2,0:0:0:0:
309,172,206773,1,2,0:0:0:0:
324,202,207807,1,2,0:0:0:0:
332,234,208842,1,2,0:0:0:0:
82,333,209876,5,2,0:0:0:0:
68,318,210911,1,2,0:0:0:0:
58,278,211945,2,0,B|31:171|159:174|117:38,1,239.999992675781,2|0,0:0|0:0,0:0:0:0:
122,57,212980,5,10,0:0:0:0:
412,93,213324,1,12,0:0:0:0:
248,17,213669,5,2,0:0:0:0:
108,74,213842,1,0,0:0:0:0:
149,213,214014,6,0,B|104:58,1,143.999995605469,14|0,0:1|0:0,0:0:0:0:
122,57,214359,2,0,L|152:160,1,95.9999970703126,8|8,0:0|0:1,0:0:0:0:
409,298,214704,1,10,0:0:0:0:
251,275,214876,1,2,0:0:0:0:
107,358,215049,6,0,P|54:337|74:243,1,143.999995605469,10|8,0:1|0:1,0:0:0:0:
60,237,215393,2,0,P|110:225|141:168,1,95.9999970703126,8|8,0:0|0:1,0:0:0:0:
29,57,215738,2,0,P|41:100|59:156,1,95.9999970703126,10|0,0:0|0:0,0:0:0:0:
159,362,216083,6,0,P|230:336|302:331,1,143.999995605469,10|0,0:1|0:0,0:0:0:0:
406,362,216428,2,0,P|449:382|494:369,1,95.9999970703126,10|8,0:0|0:1,0:0:0:0:
505,192,216773,2,0,P|460:175|414:183,1,95.9999970703126,8|0,0:0|0:0,0:0:0:0:
384,18,217118,2,0,B|402:64|353:107|341:93|296:136|319:190,1,191.999994140625,10|8,0:1|0:0,0:0:0:0:
316,183,217635,1,8,0:1:0:0:
219,333,217807,2,0,P|169:317|154:260,1,95.9999970703126,8|8,0:0|0:1,0:0:0:0:
2,125,218152,6,0,P|92:156|181:92,1,191.999994140625,10|8,0:1|0:0,0:0:0:0:
193,19,218669,1,10,0:1:0:0:
91,140,218842,1,10,0:0:0:0:
86,116,218928,1,8,0:1:0:0:
82,92,219014,1,8,0:1:0:0:
299,172,219187,6,0,P|352:167|370:85,1,143.999995605469,10|8,0:1|0:1,0:0:0:0:
474,11,219531,2,0,L|461:106,1,95.9999970703126,10|0,0:0|0:0,0:0:0:0:
316,266,219876,2,0,L|298:171,1,95.9999970703126,10|0,0:0|0:0,0:0:0:0:
456,356,220221,2,0,P|502:307|402:269,2,191.999994140625,10|8|8,0:1|0:0|0:0,0:0:0:0:
338,370,221083,1,8,0:0:0:0:
338,370,221169,1,8,0:0:0:0:
338,370,221255,2,0,P|294:360|239:339,1,95.9999970703126,10|0,0:1|0:0,0:0:0:0:
470,212,221600,2,0,P|460:256|439:311,1,95.9999970703126,14|0,0:0|0:0,0:0:0:0:
246,342,221945,5,14,0:2:0:0:
117,290,222118,1,2,0:0:0:0:
2,349,222290,2,0,P|45:364|118:279,1,143.999995605469,14|0,0:1|0:0,0:0:0:0:
117,290,222635,2,0,L|109:175,1,95.9999970703126,8|8,0:0|0:1,0:0:0:0:
0,116,222980,5,10,0:0:0:0:
196,66,223152,1,0,0:0:0:0:
350,197,223324,6,0,B|382:234|382:234|464:232|501:148,1,191.999994140625,10|8,0:1|0:0,0:0:0:0:
428,26,223842,1,8,0:1:0:0:
428,26,223928,1,0,0:0:0:0:
428,26,224014,2,0,P|408:76|412:148,1,95.9999970703126,10|0,0:0|0:0,0:0:0:0:
432,235,224359,5,10,0:1:0:0:
367,149,224531,1,0,0:0:0:0:
303,297,224704,5,10,0:0:0:0:
290,98,224876,1,0,0:0:0:0:
160,264,225048,5,10,0:0:0:0:
259,24,225221,1,0,0:0:0:0:
21,137,225393,6,0,B|77:98|136:119|136:119|116:181,1,143.999995605469,10|8,0:1|0:1,0:0:0:0:
128,174,225738,2,0,P|149:217|160:264,1,95.9999970703126,8|8,0:0|0:1,0:0:0:0:
21,379,226083,2,0,P|4:333|0:270,1,96,10|0,0:0|0:0,0:0:0:0:
37,33,226428,6,0,P|101:49|101:153,1,143.999995605469,10|0,0:1|0:0,0:0:0:0:
17,226,226773,2,0,L|30:95,1,95.9999970703126,10|8,0:0|0:1,0:0:0:0:
27,131,227117,1,8,0:0:0:0:
389,296,227462,6,0,P|462:297|494:265,1,95.9999970703126,10|8,0:1|0:0,0:0:0:0:
464,162,227721,1,8,0:0:0:0:
453,149,227807,2,0,P|408:144|359:205,1,95.9999970703126,10|0,0:1|0:0,0:0:0:0:
231,295,228152,2,0,L|124:320,1,95.9999970703126,10|0,0:0|0:0,0:0:0:0:
371,351,228497,5,10,0:1:0:0:
329,109,228670,1,8,0:0:0:0:
435,76,228842,1,2,0:0:0:0:
235,45,229014,1,10,0:1:0:0:
259,210,229187,1,8,0:0:0:0:
259,210,229359,1,8,0:1:0:0:
454,164,229532,5,10,0:1:0:0:
220,42,229704,1,8,0:0:0:0:
220,42,229790,1,0,0:0:0:0:
220,42,229876,1,10,0:0:0:0:
305,102,230048,1,8,0:3:0:0:
118,235,230221,5,10,0:1:0:0:
71,106,230394,1,4,0:3:0:0:
302,350,230566,6,0,P|406:369|477:280,1,191.999994140625,14|0,0:1|0:0,0:0:0:0:
289,183,231083,2,0,P|257:283|337:365,1,191.999994140625,10|8,0:1|0:1,0:0:0:0:
499,238,231600,2,0,P|440:238|397:272,1,95.9999970703126,10|0,0:0|0:0,0:0:0:0:
409,256,231945,1,8,0:1:0:0:
277,369,232117,1,8,0:0:0:0:
277,369,232204,1,8,0:0:0:0:
277,369,232290,2,0,L|230:198,1,143.999995605469,10|0,0:0|0:0,0:0:0:0:
329,91,232635,6,0,P|290:108|201:12,1,191.999994140625,14|0,0:1|0:0,0:0:0:0:
329,91,233152,2,0,P|257:128|260:264,1,191.999994140625,10|8,0:1|0:1,0:0:0:0:
239,230,233669,1,10,0:0:0:0:
239,230,234014,5,10,0:1:0:0:
239,250,234186,1,8,0:1:0:0:
40,231,234359,5,10,0:0:0:0:
218,132,234531,1,8,0:0:0:0:
406,269,234704,6,0,P|453:200|392:96,1,191.999994140625,14|0,0:1|0:0,0:0:0:0:
258,154,235221,2,0,P|318:92|424:118,1,191.999994140625,10|8,0:1|0:1,0:0:0:0:
258,154,235738,2,0,L|239:48,1,95.9999970703126,10|0,0:0|0:0,0:0:0:0:
241,59,236083,1,8,0:1:0:0:
414,157,236255,2,0,L|414:93,2,47.9999985351563,8|8|8,0:0|0:0|0:0,0:0:0:0:
288,358,236600,1,8,0:1:0:0:
512,301,236773,6,0,B|308:332,1,191.999994140625,14|0,0:1|0:0,0:0:0:0:
182,342,237290,5,10,0:1:0:0:
118,251,237462,1,10,0:0:0:0:
33,331,237635,1,2,0:0:0:0:
222,349,237807,2,0,L|327:361,1,95.9999970703126,10|8,0:1|0:1,0:0:0:0:
430,301,238066,1,8,0:1:0:0:
430,301,238152,2,0,P|440:255|423:210,1,95.9999970703126,10|8,0:0|0:1,0:0:0:0:
211,180,238497,2,0,L|192:278,1,95.9999970703126,10|8,0:0|0:1,0:0:0:0:
456,21,238842,6,0,L|420:224,1,191.999994140625,14|0,0:1|0:0,0:0:0:0:
153,87,239359,2,0,L|201:309,1,191.999994140625,10|8,0:1|0:1,0:0:0:0:
421,339,239876,2,0,L|439:233,1,95.9999970703126,10|0,0:0|0:0,0:0:0:0:
437,244,240221,1,8,0:1:0:0:
262,350,240393,1,8,0:0:0:0:
262,350,240479,1,8,0:0:0:0:
262,350,240566,2,0,P|236:373|173:364,1,95.9999970703126,8|0,0:0|0:1,0:0:0:0:
24,218,240911,6,0,P|114:194|86:78,1,191.999994140625,10|0,0:1|0:0,0:0:0:0:
288,110,241428,2,0,P|200:89|193:0,1,191.999994140625,10|8,0:1|0:0,0:0:0:0:
193,0,241945,1,10,0:1:0:0:
288,110,242290,5,8,0:0:0:0:
370,278,242462,1,8,0:0:0:0:
485,209,242635,5,8,0:1:0:0:
495,200,242807,1,8,0:1:0:0:
432,0,242979,6,0,P|380:70|422:203,1,191.999994140625,14|0,0:1|0:0,0:0:0:0:
353,338,243497,2,0,P|405:268|363:135,1,191.999994140625,14|0,0:1|0:0,0:0:0:0:
392,168,244014,2,0,P|441:214|480:213,1,95.9999970703126,10|0,0:1|0:0,0:0:0:0:
480,295,244359,5,8,0:1:0:0:
459,335,244531,1,10,0:0:0:0:
438,177,244704,5,10,0:0:0:0:
419,29,244876,1,8,0:1:0:0:
195,285,245048,6,0,P|104:299|43:230,1,191.999994140625,14|0,0:1|0:0,0:0:0:0:
346,342,245566,2,0,P|286:273|195:285,1,191.999994140625,14|0,0:1|0:0,0:0:0:0:
247,368,246083,6,0,L|255:340,1,20,12|0,0:0|0:0,0:0:0:0:
141,204,246428,2,0,L|133:231,1,20,12|0,0:0|0:0,0:0:0:0:
347,343,246773,5,14,0:1:0:0:
428,367,246945,1,8,0:3:0:0:
498,326,247117,1,12,0:1:0:0:
256,192,247204,12,0,252290,0:0:0:0:
