osu file format v14

[General]
AudioFilename: audio.mp3
AudioLeadIn: 0
PreviewTime: 56995
Countdown: 0
SampleSet: Soft
StackLeniency: 0.7
Mode: 0
LetterboxInBreaks: 0
WidescreenStoryboard: 1

[Editor]
Bookmarks: 79522
DistanceSpacing: 0.7
BeatDivisor: 4
GridSize: 4
TimelineZoom: 1.9

[Metadata]
Title:Koori no Shiro
TitleUnicode:氷の城
Artist:canoue
ArtistUnicode:canoue
Creator:chaser01
Version:subahibi's insane
Source:SNOW BOUND LAND
Tags:resahc subahibi enryotoki yuuki noa lunalied 霜月はるか Shimotsuki Haruka MANYO 日山 尚 Hiyama Nao ルチカ doujin japanese pop jpop psp opening short ver version カノエ
BeatmapID:3742199
BeatmapSetID:1823506

[Difficulty]
HPDrainRate:3.6
CircleSize:4
OverallDifficulty:8.1
ApproachRate:9.1
SliderMultiplier:1.7
SliderTickRate:1

[Events]
//Background and Video events
0,0,"p.jpg",0,0
//Break Periods
//Storyboard Layer 0 (Background)
//Storyboard Layer 1 (Fail)
//Storyboard Layer 2 (Pass)
//Storyboard Layer 3 (Foreground)
//Storyboard Layer 4 (Overlay)
//Storyboard Sound Samples

[TimingPoints]
938,271.493212669683,6,2,1,40,1,0
938,-166.666666666667,6,2,1,40,0,0
13426,266.666666666667,6,2,1,60,1,0
13959,271.493212669683,6,2,1,70,1,0
13959,-111.111111111111,6,2,1,70,0,0
15587,-100,6,2,1,70,0,0
17216,-166.666666666667,6,2,1,63,0,0
19660,-125,6,2,1,63,0,0
20474,275.229357798165,6,2,1,35,1,0
22125,271.493212669683,6,2,1,20,1,0
22396,-100,6,2,1,23,0,0
22667,-100,6,2,1,25,0,0
22939,-100,6,2,1,30,0,0
23210,265.721877767936,6,2,1,25,1,0
23475,-100,6,2,1,25,0,0
23741,271.493212669683,6,2,1,35,1,0
26184,266.666666666667,6,2,1,20,1,0
26450,-100,6,2,1,23,0,0
26717,289.855072463768,6,2,1,26,1,0
27006,271.493212669683,6,2,1,35,1,0
27820,-100,6,2,1,35,0,0
28091,-100,6,2,1,22,0,0
28363,-100,6,2,1,25,0,0
28634,-100,6,2,1,30,0,0
29449,-100,6,2,1,23,0,0
30128,512.820512820513,6,2,1,35,1,0
30256,271.493212669683,6,2,1,45,1,0
30256,-142.857142857143,6,2,1,45,0,0
31341,274.599542334096,6,2,1,45,1,0
31341,-142.857142857143,6,2,1,45,0,0
31890,271.493212669683,6,2,1,45,1,0
31890,-142.857142857143,6,2,1,45,0,0
33247,521.739130434783,6,2,1,45,1,0
33507,271.493212669683,6,2,1,55,1,0
33507,-117.647058823529,6,2,1,55,0,0
46267,281.030444964871,6,2,1,55,1,0
46548,271.493212669683,6,2,1,40,1,0
46548,-250.000000000001,6,2,1,40,0,0
53063,270.27027027027,6,2,1,55,1,0
53063,-142.857142857143,6,2,1,55,0,0
53873,271.493212669683,6,2,1,60,1,0
53873,-117.647058823529,6,2,1,60,0,0
54144,-142.857142857143,6,2,1,60,0,0
54687,-142.857142857143,6,2,1,65,0,0
55366,283.018867924528,6,2,1,65,1,0
55507,271.493212669683,6,2,1,65,1,0
55778,-100,6,2,1,62,0,0
56049,271.493212669683,6,2,1,68,1,0
56320,-100,6,2,1,40,0,0
56863,264.31718061674,6,2,1,62,1,0
57127,270.880361173815,6,2,1,65,1,0
57939,271.493212669683,6,2,1,75,1,1
82101,-100,6,2,1,65,0,1
83730,-100,6,2,1,70,0,1
85088,275.229357798165,6,2,1,69,1,0
85638,271.493212669683,6,2,1,63,1,0
85773,-100,6,2,1,63,0,0
91882,-100,6,2,1,40,0,0
92696,-166.666666666667,6,2,1,40,0,0
96769,288.461538461538,6,2,1,40,1,0
97057,523.1037489102,6,2,1,40,1,0
97057,-166.666666666667,6,2,1,40,0,0
97841,275.862068965517,6,2,1,55,1,0
98669,272.108843537415,6,2,1,55,1,0
100301,281.69014084507,6,2,1,55,1,0
101146,304.568527918782,6,2,1,55,1,0
101450,361.44578313253,6,2,1,55,1,0
101629,582.52427184466,6,2,1,55,1,0
101920,555.555555555556,6,2,1,55,1,0
103586,588.235294117647,6,2,1,35,1,0
104174,517.241379310345,6,2,1,35,1,0
105984,460.652591170825,6,2,1,35,1,0
106444,600,6,2,1,35,1,0
106744,759.493670886076,6,2,1,35,1,0
106933,759.493670886076,6,2,1,35,1,0
107122,1132.07547169811,6,2,1,35,1,0
107405,674.157303370787,6,2,1,35,1,0
107742,895.522388059701,6,2,1,35,1,0
108189,1562.5,6,2,1,35,1,0

[Colours]
Combo1 : 253,255,174
Combo2 : 125,206,255

[HitObjects]
99,194,938,6,0,P|87:145|61:91,1,101.999996887207,4|0,2:0|2:0,2:0:0:0:
214,39,1345,2,0,P|192:86|180:135,1,101.999996887207,0|0,1:0|2:0,2:0:0:0:
188,143,1752,6,0,P|218:136|242:133,1,50.9999984436036,0|0,1:0|2:0,2:0:0:0:
292,221,2023,2,0,P|262:228|238:231,1,50.9999984436036,0|0,1:0|2:0,2:0:0:0:
113,292,2295,2,0,P|123:315|131:340,1,50.9999984436036,0|0,1:0|2:0,2:0:0:0:
205,306,2566,6,0,B|227:314|248:317|248:317|265:342|305:364,1,101.999996887207,0|0,1:0|1:0,2:0:0:0:
386,384,2974,2,0,P|398:335|420:288,1,101.999996887207,0|0,1:0|1:0,2:0:0:0:
326,277,3381,6,0,P|316:253|304:231,1,50.9999984436036,0|0,1:0|1:0,0:0:0:0:
467,214,3652,2,0,P|479:192|493:170,1,50.9999984436036,0|0,1:0|1:0,0:0:0:0:
468,301,3924,2,0,P|443:296|419:288,1,50.9999984436036,0|0,1:0|1:0,0:0:0:0:
241,168,4195,6,0,P|287:147|337:149,1,101.999996887207,0|0,1:0|2:0,2:0:0:0:
413,163,4603,2,0,B|420:130|400:103|400:103|411:82|414:57,1,101.999996887207,0|0,1:0|2:0,2:0:0:0:
335,53,5010,6,0,P|326:29|318:5,1,50.9999984436036,0|0,1:0|2:0,2:0:0:0:
260,72,5281,2,0,P|236:63|212:55,1,50.9999984436036,0|0,1:0|2:0,2:0:0:0:
116,134,5553,2,0,P|140:125|164:117,1,50.9999984436036,0|0,1:0|0:0,2:0:0:0:
133,43,5824,6,0,P|84:31|37:9,1,101.999996887207,0|0,1:0|1:0,0:0:0:0:
1,94,6232,2,0,P|22:140|35:190,1,101.999996887207,0|0,1:0|1:0,2:0:0:0:
0,282,6639,6,0,B|39:268|76:283|76:283|94:246|129:232,1,152.999995330811,0|0,1:0|1:0,0:0:0:0:
156,312,7182,2,0,P|150:329|144:367,1,50.9999984436036,0|0,1:0|1:0,0:0:0:0:
334,170,7453,6,0,P|344:139|348:108,1,50.9999984436036,4|0,2:0|0:0,2:0:0:0:
335,277,7725,2,0,P|359:255|378:230,1,50.9999984436036,0|0,2:0|1:0,0:0:0:0:
235,359,7996,2,0,P|266:352|295:340,1,50.9999984436036,0|0,0:0|2:0,0:0:0:0:
248,214,8268,6,0,P|241:182|229:153,1,50.9999984436036,0|0,1:0|2:0,2:0:0:0:
346,120,8539,2,0,P|342:148|325:182,1,50.9999984436036,0|0,1:0|2:0,2:0:0:0:
246,63,8811,2,0,P|250:37|259:13,1,50.9999984436036,0|0,1:0|2:0,2:0:0:0:
39,157,9082,6,0,P|77:136|142:136,1,101.999996887207,0|0,1:0|1:0,2:0:0:0:
197,188,9490,2,0,P|178:215|149:299,1,101.999996887207,0|0,1:0|1:0,2:0:0:0:
215,348,9897,6,0,P|236:339|270:330,1,50.9999984436036,0|0,1:0|2:0,2:0:0:0:
140,368,10168,2,0,P|119:359|85:350,1,50.9999984436036,0|0,1:0|2:0,2:0:0:0:
267,253,10440,2,0,P|276:232|285:198,1,50.9999984436036,0|0,1:0|1:0,2:0:0:0:
44,288,10711,6,0,P|26:262|4:181,1,101.999996887207,0|0,1:0|2:0,2:0:0:0:
90,212,11118,2,0,P|104:183|163:124,1,101.999996887207,0|0,1:0|2:0,2:0:0:0:
176,219,11526,6,0,P|195:217|242:230,1,50.9999984436036,0|0,1:0|0:0,2:0:0:0:
205,299,11797,2,0,P|216:314|229:362,1,50.9999984436036,0|0,1:0|0:0,0:0:0:0:
95,383,12069,2,0,P|112:364|124:341,1,50.9999984436036,0|0,1:0|0:0,0:0:0:0:
90,212,12340,6,0,P|72:186|50:105,1,101.999996887207,0|0,1:0|1:0,2:0:0:0:
131,37,12747,2,0,B|119:73|119:73|137:104|134:136,1,101.999996887207
178,210,13155,2,0,P|196:192|216:176,1,50.9999984436036,0|0,1:0|0:0,0:0:0:0:
417,113,13426,5,4,3:2:0:0:
475,175,13559,5,8,2:0:0:0:
334,139,13692,1,8,2:0:0:0:
435,34,13826,1,0,3:0:0:0:
392,216,13959,6,0,B|348:216|313:250|313:250|281:241|250:259,1,152.999995330811,6|8,3:2|2:0,2:0:0:0:
184,296,14366,1,6,3:2:0:0:
174,204,14501,5,0,0:0:0:0:
260,242,14637,1,0,3:0:0:0:
79,339,14773,5,10,2:0:0:0:
92,168,14909,1,8,3:0:0:0:
30,234,15044,5,2,3:2:0:0:
0,313,15180,1,0,3:0:0:0:
92,168,15316,2,0,P|73:124|64:79,1,76.4999976654053,6|0,3:2|0:0,0:0:0:0:
315,358,15587,6,0,B|360:342|360:342|405:346|405:346|443:323|496:321,1,170,6|8,3:2|2:0,2:0:0:0:
192,293,15995,6,0,B|167:260|122:248|122:248|79:257|79:257|38:243,1,170,4|0,3:2|3:0,2:0:0:0:
307,199,16402,5,10,2:0:0:0:
358,68,16538,1,8,3:0:0:0:
227,18,16673,1,8,3:0:0:0:
176,147,16809,1,0,3:0:0:0:
267,109,16945,5,8,3:0:0:0:
138,56,17081,1,0,3:0:0:0:
273,119,17216,1,4,3:2:0:0:
85,186,17759,5,0,2:0:0:0:
114,260,18031,1,8,2:0:0:0:
300,195,18302,5,8,3:0:0:0:
331,265,18574,1,0,3:0:0:0:
198,267,18845,5,4,3:2:0:0:
58,138,18981,1,2,2:0:0:0:
232,80,19117,2,0,L|216:132,1,50.9999984436036,2|0,2:0|0:0,2:0:0:0:
185,263,19388,5,10,2:0:0:0:
69,128,19524,1,10,2:0:0:0:
242,91,19660,2,0,L|214:195,1,102,2|0,3:2|2:0,2:0:0:0:
174,257,19931,5,4,3:2:0:0:
78,116,20067,1,2,2:0:0:0:
249,102,20203,1,2,3:2:0:0:
177,163,20474,5,4,2:0:0:0:
177,163,22125,5,2,2:0:0:0:
189,169,22396,1,2,2:0:0:0:
198,175,22667,1,2,2:0:0:0:
150,87,22939,5,2,2:0:0:0:
139,93,23210,1,2,2:0:0:0:
249,249,23741,5,2,2:0:0:0:
249,249,26184,5,2,2:0:0:0:
259,239,26450,1,2,2:0:0:0:
318,179,26717,5,2,2:0:0:0:
191,309,27006,5,2,2:0:0:0:
191,309,27548,5,0,0:0:0:0:
132,373,27820,5,0,0:0:0:0:
123,384,28091,1,2,2:0:0:0:
111,285,28363,5,2,2:0:0:0:
225,384,28634,5,2,2:0:0:0:
225,384,29449,5,2,2:0:0:0:
237,378,29720,1,2,2:0:0:0:
347,187,29992,5,2,2:0:0:0:
347,187,30128,1,0,2:0:0:0:
347,187,30256,2,0,P|375:237|392:296,1,118.999996368408,6|0,3:2|2:0,2:0:0:0:
344,384,30663,2,0,P|312:332|293:271,1,118.999996368408,2|0,3:2|2:0,2:0:0:0:
218,228,31070,6,0,P|190:237|155:261,1,59.4999981842042,2|0,2:0|2:0,2:0:0:0:
119,136,31341,2,0,P|91:124|-1:93,1,118.999996368408,2|2,2:0|2:0,2:0:0:0:
226,222,31890,6,0,B|203:186|203:186|223:134|202:86,1,118.999996368408,2|0,3:2|2:0,2:0:0:0:
133,138,32297,2,0,P|121:97|81:16,1,118.999996368408,2|0,3:2|2:0,2:0:0:0:
175,326,32704,2,0,P|192:270|235:230,1,118.999996368408,2|0,2:0|0:0,2:0:0:0:
247,361,33111,5,8,2:0:0:0:
116,384,33247,1,8,3:0:0:0:
157,251,33377,1,2,2:0:0:0:
295,285,33507,6,0,P|341:229|356:177,1,108.375002067089,6|0,3:2|0:0,2:0:0:0:
354,188,33778,1,2,3:2:0:0:
256,89,33914,2,0,P|263:122|281:162,1,72.2500013780594,10|0,2:0|0:0,2:0:0:0:
438,178,34185,1,10,2:0:0:0:
437,177,34321,2,0,P|449:145|458:104,1,72.2500013780594,8|0,3:0|2:0,2:0:0:0:
353,41,34592,2,0,P|361:74|376:111,1,72.2500013780594,8|0,2:0|0:0,0:0:0:0:
489,265,34864,2,0,P|488:309|414:381,1,144.500002756119,2|0,3:2|3:0,0:0:0:0:
198,137,35407,5,8,2:0:0:0:
216,47,35543,2,0,P|271:91|282:160,1,144.500002756119,0|0,3:0|0:0,0:0:0:0:
265,384,35950,5,0,3:0:0:0:
173,253,36086,1,8,3:0:0:0:
332,241,36221,2,0,P|299:266|280:297,1,72.2500013780594,8|0,2:0|0:0,2:0:0:0:
173,373,36493,2,0,P|131:356|85:344,1,72.2500013780594,2|2,2:0|2:0,0:0:0:0:
185,253,36764,2,0,P|183:205|125:110,1,144.500002756119,2|2,3:2|2:0,2:0:0:0:
44,165,37172,6,0,P|79:185|103:212,1,72.2500013780594,10|0,2:0|0:0,2:0:0:0:
221,106,37443,1,10,2:0:0:0:
68,59,37579,2,0,P|39:30|23:-1,1,72.2500013780594,2|0,3:2|0:0,0:0:0:0:
66,270,37850,2,0,P|83:238|109:213,1,72.2500013780594,10|0,2:0|0:0,0:0:0:0:
300,114,38122,6,0,P|343:82|358:31,1,108.375002067089,2|0,3:2|0:0,0:0:0:0:
362,22,38393,2,0,B|288:8|288:8|249:40,1,108.375002067089,2|0,3:2|0:0,0:0:0:0:
267,37,38665,1,10,2:0:0:0:
177,186,38801,6,0,B|234:168|234:168|253:191|282:198,1,108.375002067089,2|0,3:2|0:0,2:0:0:0:
292,203,39072,2,0,P|326:194|370:186,1,72.2500013780594,8|0,3:0|3:0,0:0:0:0:
219,265,39344,1,0,0:0:0:0:
279,370,39479,2,0,P|288:336|296:292,1,72.2500013780594,8|0,0:0|0:0,0:0:0:0:
90,205,39751,2,0,P|72:174|53:134,1,72.2500013780594,0|0,3:0|0:0,0:0:0:0:
16,361,40022,2,0,P|70:302|163:303,1,144.500002756119,4|0,3:2|0:0,0:0:0:0:
177,186,40430,6,0,L|205:110,1,72.2500013780594,8|0,2:0|0:0,2:0:0:0:
100,214,40701,1,8,2:0:0:0:
211,312,40837,2,0,P|251:316|292:300,1,72.2500013780594,0|0,3:0|3:0,0:0:0:0:
190,187,41108,6,0,L|162:111,1,72.2500013780594,10|0,2:0|0:0,2:0:0:0:
408,226,41380,2,0,P|368:232|332:258,1,72.2500013780594,0|0,2:0|2:0,0:0:0:0:
286,312,41651,2,0,P|262:267|307:162,1,144.500002756119,2|10,3:2|2:0,2:0:0:0:
421,145,42059,1,0,3:0:0:0:
341,118,42194,2,0,P|361:88|370:53,1,72.2500013780594,0|8,2:0|3:0,0:0:0:0:
217,49,42466,2,0,P|244:71|261:103,1,72.2500013780594,0|0,3:0|3:0,0:0:0:0:
271,308,42737,6,0,P|241:268|172:202,1,144.500002756119,8|2,2:0|2:0,0:0:0:0:
227,384,43145,1,2,2:0:0:0:
493,322,43280,6,0,B|466:311|440:308|440:308|424:264|380:237,1,144.500002756119,4|2,3:2|3:2,2:0:0:0:
363,327,43687,2,0,P|334:358|321:386,1,72.2500013780594,10|0,2:0|0:0,2:0:0:0:
421,384,43959,1,8,2:0:0:0:
480,212,44095,2,0,P|455:185|425:166,1,72.2500013780594,0|0,3:0|2:0,2:0:0:0:
352,130,44366,2,0,P|319:114|293:89,1,72.2500013780594,8|0,2:0|2:0,2:0:0:0:
421,85,44638,5,2,2:0:0:0:
275,179,44773,1,2,2:0:0:0:
293,260,44909,2,0,P|247:308|157:284,1,144.500002756119,2|8,3:2|2:0,2:0:0:0:
275,179,45316,1,10,2:0:0:0:
218,232,45452,2,0,P|199:195|201:148,1,72.2500013780594,0|8,2:0|2:0,0:0:0:0:
12,91,45724,2,0,P|23:40|62:-1,1,108.375002067089,10|0,2:0|2:0,2:0:0:0:
141,14,45995,5,10,2:0:0:0:
247,100,46131,1,8,2:0:0:0:
117,151,46267,1,8,3:0:0:0:
168,87,46548,5,6,3:2:0:0:
219,26,46819,1,2,2:0:0:0:
297,38,47090,1,2,2:0:0:0:
326,110,47362,1,2,2:0:0:0:
197,162,47633,6,0,P|181:223|179:234,2,68,2|2|2,2:0|2:0|2:0,2:0:0:0:
247,100,48584,1,2,2:0:0:0:
275,175,48991,5,2,2:0:0:0:
353,189,49262,1,0,0:0:0:0:
401,126,49534,1,0,0:0:0:0:
369,55,49805,2,0,P|323:52|295:43,1,68,2|2,2:0|2:0,2:0:0:0:
247,100,50348,1,2,2:0:0:0:
170,90,50620,1,2,2:0:0:0:
136,162,50891,2,0,P|158:198|171:236,1,68,2|2,2:0|2:0,0:0:0:0:
402,272,51434,6,0,P|438:236|461:224,1,68,2|0,2:0|0:0,2:0:0:0:
421,162,51842,2,0,P|405:125|401:93,1,68,2|0,2:0|0:0,0:0:0:0:
480,64,52249,2,0,P|493:35|497:25,1,34,2|0,2:0|0:0,0:0:0:0:
493,32,52520,1,0,2:0:0:0:
316,109,52792,1,0,0:0:0:0:
225,266,53063,6,0,P|179:238|89:241,1,118.999996368408,4|0,3:2|3:0,2:0:0:0:
73,169,53468,1,0,0:0:0:0:
73,169,53603,2,0,P|51:140|16:119,1,59.4999981842042,0|0,3:0|0:0,2:0:0:0:
5,329,53873,6,0,P|27:296|55:276,1,72.2500013780594,4|0,3:2|0:0,2:0:0:0:
177,187,54144,2,0,P|205:164|220:140,1,59.4999981842042,0|0,3:0|0:0,2:0:0:0:
157,297,54415,2,0,P|179:325|204:340,1,59.4999981842042,0|0,3:0|0:0,2:0:0:0:
133,99,54687,6,0,L|146:27,1,59.4999981842042,4|0,3:2|0:0,2:0:0:0:
245,254,54958,2,0,L|317:267,1,59.4999981842042,0|0,3:0|0:0,2:0:0:0:
461,84,55230,2,0,L|448:156,1,59.4999981842042,0|0,3:0|0:0,2:0:0:0:
286,177,55507,6,0,L|302:68,1,85,0|0,3:0|0:0,2:0:0:0:
312,14,55778,5,8,3:0:0:0:
218,121,55914,1,8,3:0:0:0:
368,144,56049,1,4,3:2:0:0:
233,40,56320,5,0,1:0:0:0:
379,60,56591,1,0,1:0:0:0:
286,177,56863,1,0,1:0:0:0:
298,92,57127,5,8,2:0:0:0:
310,14,57262,1,8,2:0:0:0:
419,179,57397,6,0,P|471:163|508:156,1,85,8|8,3:0|3:0,0:0:0:0:
284,371,57668,2,0,P|258:322|237:291,1,85,2|0,3:2|3:0,0:0:0:0:
142,111,57939,6,0,B|102:96|59:113|59:113|39:71|0:55,1,170,6|10,3:2|2:0,2:0:0:0:
265,18,58346,2,0,P|234:47|219:88,1,85,2|0,3:2|0:0,2:0:0:0:
236,285,58617,5,0,3:0:0:0:
180,226,58753,2,0,P|147:199|106:190,1,85,0|0,3:0|3:0,3:0:0:0:
304,99,59024,2,0,P|335:127|350:168,1,85,0|0,3:0|2:0,0:0:0:0:
242,298,59296,2,0,P|272:250|254:172,1,127.5,10|0,2:0|3:0,0:0:0:0:
183,130,59567,6,0,P|165:84|157:37,1,85,2|0,3:2|2:0,2:0:0:0:
268,178,59839,1,2,3:2:0:0:
180,226,59975,2,0,P|146:267|136:311,1,85,10|0,2:0|2:0,2:0:0:0:
326,355,60246,5,0,3:0:0:0:
252,384,60382,2,0,P|243:342|227:303,1,85,8|0,2:0|3:0,0:0:0:0:
57,280,60653,5,8,2:0:0:0:
129,115,60789,1,0,3:0:0:0:
298,204,60925,2,0,P|339:195|378:179,1,85,8|0,3:0|3:0,3:0:0:0:
449,384,61196,6,0,P|386:355|309:364,1,127.5,6|0,3:2|2:0,2:0:0:0:
329,357,61468,2,0,P|353:319|362:266,1,85,10|0,2:0|3:0,0:0:0:0:
191,304,61739,2,0,P|211:341|243:370,1,85,2|0,2:0|3:0,0:0:0:0:
442,291,62011,2,0,P|475:249|509:221,1,85,2|0,2:0|3:0,2:0:0:0:
317,172,62282,6,0,P|293:136|261:108,1,85,2|0,2:0|3:0,2:0:0:0:
217,207,62554,2,0,P|171:202|134:223,1,85,10|0,2:0|3:0,2:0:0:0:
347,78,62825,6,0,P|362:39|402:14,1,85,2|0,3:2|0:0,2:0:0:0:
409,150,63097,1,0,3:0:0:0:
254,103,63233,2,0,P|226:65|227:23,1,85,8|0,2:0|0:0,2:0:0:0:
315,178,63504,1,0,3:0:0:0:
298,270,63640,2,0,P|300:311|326:344,1,85,8|0,2:0|3:0,2:0:0:0:
474,217,63911,5,10,2:0:0:0:
315,178,64047,1,8,2:0:0:0:
212,314,64183,2,0,P|172:344|84:361,1,127.5,8|0,3:0|0:0,0:0:0:0:
91,361,64454,6,0,P|64:321|31:288,1,85,6|0,3:2|0:0,2:0:0:0:
315,178,64726,1,10,2:0:0:0:
220,160,64862,2,0,P|193:192|172:229,1,85,2|0,3:2|0:0,2:0:0:0:
359,97,65133,5,2,3:2:0:0:
204,69,65269,2,0,P|164:53|127:32,1,85,2|0,2:0|3:0,2:0:0:0:
258,249,65540,2,0,P|297:264|396:321,1,127.5,0|0,2:0|0:0,2:0:0:0:
372,304,65812,2,0,P|391:249|413:214,1,85,10|0,2:0|2:0,0:0:0:0:
512,333,66083,6,0,P|463:354|434:386,1,85,2|0,3:2|0:0,2:0:0:0:
410,219,66355,1,2,3:2:0:0:
491,238,66491,2,0,P|489:194|467:156,1,85,10|0,2:0|0:0,2:0:0:0:
175,228,66762,5,2,3:2:0:0:
199,307,66898,2,0,P|235:283|258:245,1,85,10|0,2:0|3:0,2:0:0:0:
89,243,67169,2,0,P|39:258|4:283,1,85,10|0,2:0|3:0,2:0:0:0:
331,271,67441,2,0,P|387:246|427:215,1,85,8|8,3:0|3:0,2:0:0:0:
19,77,67712,6,0,B|45:36|91:31|91:31|101:13|116:-2,1,127.5,6|0,3:2|2:0,2:0:0:0:
178,47,67984,2,0,P|219:24|265:8,1,85,8|6,2:0|3:2,0:0:0:0:
334,185,68255,6,0,B|303:142|262:139|262:139|252:121|237:106,1,127.5
174,154,68527,2,0,P|133:131|87:115,1,85,2|8,2:0|0:0,0:0:0:0:
436,49,68798,6,0,L|346:81,1,85,8|8,2:0|3:0,0:0:0:0:
45,182,69070,1,0,3:2:0:0:
365,349,69341,6,0,P|392:295|452:235,1,127.5,4|0,3:2|2:0,2:0:0:0:
444,228,69613,1,8,2:0:0:0:
250,209,69748,2,0,P|277:241|296:279,1,85,4|0,3:2|0:0,2:0:0:0:
367,186,70020,1,0,3:0:0:0:
115,300,70156,2,0,P|123:258|141:220,1,85,8|8,2:0|2:0,0:0:0:0:
472,56,70427,2,0,P|463:97|445:135,1,85,8|8,3:0|3:0,0:0:0:0:
58,163,70699,2,0,P|24:121|-2:39,1,127.5,2|0,3:2|0:0,0:0:0:0:
68,15,70970,6,0,P|114:32|164:38,1,85,6|0,3:2|0:0,2:0:0:0:
331,15,71242,1,10,2:0:0:0:
301,170,71377,2,0,P|271:91|241:34,1,127.5,2|0,3:2|0:0,2:0:0:0:
185,6,71649,2,0,P|170:60|191:98,1,85,0|0,3:0|2:0,0:0:0:0:
370,120,71920,2,0,P|413:83|449:59,1,85,0|0,3:0|2:0,0:0:0:0:
251,52,72192,1,0,3:0:0:0:
191,187,72328,2,0,P|225:211|257:240,1,85,10|0,2:0|2:0,0:0:0:0:
512,211,72599,6,0,P|477:186|445:157,1,85,2|0,3:2|0:0,2:0:0:0:
280,145,72871,1,2,3:2:0:0:
296,333,73006,2,0,P|347:296|488:269,1,170,10|0,2:0|3:0,2:0:0:0:
257,240,73414,6,0,P|213:267|159:267,1,85,8|0,2:0|3:0,0:0:0:0:
415,378,73685,1,8,2:0:0:0:
370,308,73821,1,8,2:0:0:0:
302,354,73957,2,0,P|253:367|223:385,1,85,8|0,3:0|0:0,0:0:0:0:
466,315,74228,6,0,P|486:278|496:236,1,85,6|0,3:2|0:0,2:0:0:0:
347,188,74500,2,0,P|319:149|267:106,1,85,10|0,2:0|3:0,0:0:0:0:
433,169,74771,1,0,0:0:0:0:
266,208,74907,1,0,3:0:0:0:
266,208,75043,2,0,P|231:250|225:287,1,85,2|0,3:2|3:0,2:0:0:0:
433,169,75314,2,0,P|421:128|391:98,1,85,0|0,3:0|3:0,2:0:0:0:
189,139,75586,6,0,P|160:174|74:197,1,127.5,10|0,2:0|0:0,2:0:0:0:
75,192,75857,2,0,P|45:153|-1:125,1,85,2|0,3:2|2:0,2:0:0:0:
180,56,76129,1,0,3:0:0:0:
115,0,76264,2,0,P|98:38|93:80,1,85,8|0,2:0|0:0,2:0:0:0:
267,80,76536,1,0,3:0:0:0:
267,80,76672,2,0,P|262:37|245:0,1,85,10|0,2:0|3:0,2:0:0:0:
186,151,76943,1,8,3:0:0:0:
186,151,77079,1,0,3:0:0:0:
186,151,77215,2,0,P|226:193|265:273,1,127.5,8|0,3:0|0:0,0:0:0:0:
219,320,77486,6,0,P|173:323|133:296,1,85,4|0,3:2|0:0,0:0:0:0:
323,195,77758,2,0,P|365:169|409:171,1,85,10|0,2:0|3:0,0:0:0:0:
351,384,78029,2,0,P|321:331|322:293,1,85,0|0,0:0|3:0,0:0:0:0:
401,319,78300,6,0,P|434:262|515:182,1,170,2|0,2:0|2:0,2:0:0:0:
355,93,78708,1,0,3:0:0:0:
506,96,78843,2,0,P|466:75|432:51,1,85,10|0,2:0|0:0,2:0:0:0:
271,120,79115,6,0,P|223:97|186:73,1,85,2|0,3:2|2:0,2:0:0:0:
313,12,79386,1,2,3:2:0:0:
156,156,79522,2,0,P|134:192|131:234,1,85,10|0,2:0|2:0,2:0:0:0:
280,270,79794,5,2,3:2:0:0:
280,270,79929,2,0,P|246:215|234:179,1,85,10|0,2:0|3:0,2:0:0:0:
0,76,80201,5,10,2:0:0:0:
0,165,80337,1,8,2:0:0:0:
0,165,80472,2,0,P|56:134|85:109,1,85,8|8,3:0|3:0,0:0:0:0:
189,74,80744,6,0,P|155:157|126:254,1,170,4|10,3:2|2:0,0:0:0:0:
348,61,81151,1,4,3:2:0:0:
339,149,81287,2,0,P|291:127|272:96,1,85,0|0,0:0|3:0,0:0:0:0:
409,217,81558,6,0,P|359:241|323:269,1,85,10|8,2:0|2:0,0:0:0:0:
348,379,81830,2,0,P|398:355|434:327,1,85,8|8,3:0|3:0,0:0:0:0:
430,115,82101,5,6,3:2:0:0:
430,115,82916,5,2,2:0:0:0:
403,99,83187,5,8,2:0:0:0:
327,89,83323,1,8,2:0:0:0:
301,17,83459,1,8,3:0:0:0:
225,6,83595,1,8,3:0:0:0:
175,64,83730,1,4,3:2:0:0:
238,157,84002,5,8,2:0:0:0:
252,81,84138,1,4,3:2:0:0:
252,81,84409,1,0,3:0:0:0:
175,64,84545,5,10,2:0:0:0:
225,6,84680,1,8,3:0:0:0:
301,17,84816,1,8,3:0:0:0:
327,89,84952,1,0,3:0:0:0:
238,157,85088,5,6,3:2:0:0:
153,239,85638,5,4,3:2:0:0:
256,192,85705,12,4,92153,2:0:0:0:
256,192,92696,5,0,0:0:0:0:
256,192,92968,2,0,P|240:148|227:130,1,50.9999984436036,0|0,1:0|0:0,2:0:0:0:
325,242,93239,2,0,P|341:198|354:180,1,50.9999984436036,0|0,1:0|0:0,0:0:0:0:
252,278,93511,2,0,P|208:294|190:307,1,50.9999984436036,0|0,1:0|0:0,0:0:0:0:
320,323,93782,6,0,P|351:353|411:372,1,101.999996887207,0|0,1:0|0:0,2:0:0:0:
419,376,94190,2,0,P|407:340|401:264,1,101.999996887207,0|0,1:0|1:0,0:0:0:0:
474,255,94597,6,0,P|464:212|455:191,1,50.9999984436036,0|0,1:0|1:0,2:0:0:0:
417,134,94868,2,0,P|427:91|436:70,1,50.9999984436036,0|0,1:0|1:0,2:0:0:0:
497,49,95140,2,0,P|487:6|478:-15,1,50.9999984436036,0|0,1:0|1:0,2:0:0:0:
338,113,95411,6,0,P|294:96|228:86,1,101.999996887207,0|0,1:0|2:0,2:0:0:0:
177,134,95818,2,0,P|130:141|68:165,1,101.999996887207,0|0,1:0|1:0,2:0:0:0:
32,223,96226,2,0,P|62:238|94:239,1,50.9999984436036,0|0,1:0|0:0,2:0:0:0:
210,206,96497,6,0,P|194:237|181:315,1,101.999996887207,0|0,1:0|1:0,0:0:0:0:
198,379,97057,2,0,B|228:368|228:368|256:389|297:384,1,101.999996887207,0|4,1:0|2:0,2:0:0:0:
350,243,97841,5,8,2:0:0:0:
283,299,98116,1,8,3:0:0:0:
362,329,98392,1,0,3:0:0:0:
272,215,98669,1,4,3:2:0:0:
383,142,98941,5,8,2:0:0:0:
416,73,99213,1,0,3:0:0:0:
176,40,99485,5,4,3:2:0:0:
187,116,99757,1,8,3:0:0:0:
195,193,100029,1,0,3:0:0:0:
350,208,100301,5,4,3:2:0:0:
262,304,100864,5,8,2:0:0:0:
270,224,101146,1,0,3:0:0:0:
278,149,101450,2,0,L|281:98,2,42.5,8|0|0,3:0|0:0|3:0,0:0:0:0:
253,384,101920,5,4,3:2:0:0:
256,192,102058,12,2,105208,2:0:0:0:
