osu file format v14

[General]
AudioFilename: audio.mp3
AudioLeadIn: 0
PreviewTime: 56995
Countdown: 0
SampleSet: Soft
StackLeniency: 0.3
Mode: 0
LetterboxInBreaks: 0
WidescreenStoryboard: 1

[Editor]
Bookmarks: 79522
DistanceSpacing: 0.7
BeatDivisor: 4
GridSize: 32
TimelineZoom: 1

[Metadata]
Title:Koori no Shiro
TitleUnicode:氷の城
Artist:canoue
ArtistUnicode:canoue
Creator:chaser01
Version:hard
Source:SNOW BOUND LAND
Tags:resahc subahibi enryotoki yuuki noa lunalied 霜月はるか Shimotsuki Haruka MANYO 日山 尚 Hiyama Nao ルチカ doujin japanese pop jpop psp opening short ver version カノエ
BeatmapID:3760610
BeatmapSetID:1823506

[Difficulty]
HPDrainRate:3.4
CircleSize:3.8
OverallDifficulty:6.6
ApproachRate:8
SliderMultiplier:1.2
SliderTickRate:1

[Events]
//Background and Video events
0,0,"p.jpg",0,0
//Break Periods
2,20674,29506
//Storyboard Layer 0 (Background)
//Storyboard Layer 1 (Fail)
//Storyboard Layer 2 (Pass)
//Storyboard Layer 3 (Foreground)
//Storyboard Layer 4 (Overlay)
//Storyboard Sound Samples

[TimingPoints]
938,271.493212669683,6,2,1,40,1,0
938,-133.333333333333,6,2,1,40,0,0
13426,266.666666666667,6,2,1,60,1,0
13959,271.493212669683,6,2,1,70,1,0
17216,-113.636363636364,6,2,1,63,0,0
17758,-113.636363636364,6,2,1,70,0,0
18031,-113.636363636364,6,2,1,63,0,0
20474,275.229357798165,6,2,1,35,1,0
22125,271.493212669683,6,2,1,35,1,0
23210,265.721877767936,6,2,1,35,1,0
23741,271.493212669683,6,2,1,35,1,0
26184,266.666666666667,6,2,1,35,1,0
26717,289.855072463768,6,2,1,35,1,0
27006,271.493212669683,6,2,1,35,1,0
30128,512.820512820513,6,2,1,35,1,0
30256,271.493212669683,6,2,1,45,1,0
30256,-117.647058823529,6,2,1,45,0,0
31341,274.599542334096,6,2,1,45,1,0
31890,271.493212669683,6,2,1,45,1,0
31890,-117.647058823529,6,2,1,45,0,0
33247,521.739130434783,6,2,1,45,1,0
33507,271.493212669683,6,2,1,55,1,0
33507,-117.647058823529,6,2,1,55,0,0
33710,-117.647058823529,6,2,1,45,0,0
33778,-117.647058823529,6,2,1,55,0,0
34456,-117.647058823529,6,2,1,45,0,0
34592,-117.647058823529,6,2,1,55,0,0
34999,-117.647058823529,6,2,1,45,0,0
35135,-117.647058823529,6,2,1,55,0,0
37714,-117.647058823529,6,2,1,45,0,0
37850,-117.647058823529,6,2,1,55,0,0
37985,-117.647058823529,6,2,1,45,0,0
38121,-117.647058823529,6,2,1,55,0,0
39750,-117.647058823529,6,2,1,45,0,0
40022,-117.647058823529,6,2,1,55,0,0
41379,-117.647058823529,6,2,1,45,0,0
41651,-117.647058823529,6,2,1,55,0,0
46267,281.030444964871,6,2,1,55,1,0
46548,271.493212669683,6,2,1,40,1,0
46548,-142.857142857143,6,2,1,40,0,0
53063,270.27027027027,6,2,1,55,1,0
53873,271.493212669683,6,2,1,60,1,0
54687,-100,6,2,1,65,0,0
55366,283.018867924528,6,2,1,65,1,0
55507,271.493212669683,6,2,1,65,1,0
55778,-100,6,2,1,62,0,0
56049,271.493212669683,6,2,1,68,1,0
56049,-200,6,2,1,68,0,0
56863,264.31718061674,6,2,1,62,1,0
57127,270.880361173815,6,2,1,65,1,0
57939,271.493212669683,6,2,1,75,1,1
57939,-90.9090909090909,6,2,1,75,0,1
82101,-133.333333333333,6,2,1,65,0,1
83730,-100,6,2,1,70,0,1
85088,275.229357798165,6,2,1,69,1,0
85638,271.493212669683,6,2,1,63,1,0
90932,-100,6,2,1,40,0,0
91610,-133.333333333333,6,2,1,40,0,0
92424,-133.333333333333,6,2,1,63,0,0
92561,-133.333333333333,6,2,1,40,0,0
96769,288.461538461538,6,2,1,40,1,0
97057,523.1037489102,6,2,1,40,1,0
97057,-66.6666666666667,6,2,1,40,0,0
97841,275.862068965517,6,2,1,55,1,0
98669,272.108843537415,6,2,1,55,1,0
98669,-133.333333333333,6,2,1,55,0,0
100301,281.69014084507,6,2,1,55,1,0
100301,-133.333333333333,6,2,1,55,0,0
101146,304.568527918782,6,2,1,55,1,0
101146,-133.333333333333,6,2,1,55,0,0
101450,361.44578313253,6,2,1,55,1,0
101629,582.52427184466,6,2,1,55,1,0
101920,555.555555555556,6,2,1,55,1,0
103586,588.235294117647,6,2,1,35,1,0
104174,517.241379310345,6,2,1,35,1,0
105984,460.652591170825,6,2,1,35,1,0
106444,600,6,2,1,35,1,0
106744,759.493670886076,6,2,1,35,1,0
106933,759.493670886076,6,2,1,35,1,0
107122,1132.07547169811,6,2,1,35,1,0
107405,674.157303370787,6,2,1,35,1,0
107742,895.522388059701,6,2,1,35,1,0
108189,1562.5,6,2,1,35,1,0

[Colours]
Combo1 : 253,255,174
Combo2 : 125,206,255

[HitObjects]
3,377,938,6,0,P|46:372|114:367,1,90.0000000000002,4|0,2:0|2:0,2:0:0:0:
140,303,1345,2,0,P|184:310|229:313,1,90.0000000000002,0|0,1:0|2:0,2:0:0:0:
284,373,1752,2,0,P|301:348|358:322,2,90.0000000000002,0|0|0,1:0|1:0|1:0,2:0:0:0:
213,217,2566,6,0,P|221:261|227:306,1,90.0000000000002,0|0,1:0|1:0,2:0:0:0:
296,229,2974,2,0,P|290:184|282:140,1,90.0000000000002,0|0,1:0|1:0,2:0:0:0:
218,93,3381,2,0,P|213:63|213:41,1,45.0000000000001,0|0,1:0|1:0,2:0:0:0:
134,30,3652,2,0,P|135:52|139:74,1,45.0000000000001,0|0,1:0|1:0,2:0:0:0:
60,65,3924,2,0,P|55:42|54:20,1,45.0000000000001,0|0,1:0|1:0,2:0:0:0:
0,113,4195,6,0,P|26:138|96:148,1,90.0000000000002,0|0,1:0|2:0,2:0:0:0:
124,210,4603,2,0,P|156:189|224:188,1,90.0000000000002,0|0,1:0|2:0,2:0:0:0:
197,258,5010,2,0,P|192:293|193:353,2,90.0000000000002,0|0|0,1:0|1:0|1:0,2:0:0:0:
375,384,5824,6,0,P|380:339|379:294,1,90.0000000000002,0|0,1:0|1:0,2:0:0:0:
453,278,6232,2,0,P|438:232|415:194,1,90.0000000000002,0|0,1:0|1:0,2:0:0:0:
471,144,6639,2,0,P|453:129|426:115,1,45.0000000000001,0|0,1:0|1:0,2:0:0:0:
414,48,6910,2,0,P|384:49|352:58,1,45.0000000000001,0|0,1:0|1:0,2:0:0:0:
306,17,7182,2,0,P|273:35|258:52,1,45.0000000000001,0|0,1:0|1:0,2:0:0:0:
173,76,7453,6,0,P|198:106|213:166,1,90.0000000000002,4|0,2:0|2:0,2:0:0:0:
158,212,7861,2,0,P|133:182|118:122,1,90.0000000000002,0|0,1:0|2:0,2:0:0:0:
19,139,8268,2,0,P|44:169|59:229,1,90.0000000000002,0|0,1:0|1:0,2:0:0:0:
0,361,8811,1,0,1:0:0:0:
190,372,9082,6,0,P|243:375|292:389,1,90.0000000000002,0|0,1:0|1:0,2:0:0:0:
332,326,9490,2,0,P|308:278|295:229,1,90.0000000000002,0|0,1:0|1:0,2:0:0:0:
223,258,9897,2,0,P|193:302|186:312,1,45.0000000000001,0|0,1:0|2:0,2:0:0:0:
167,197,10168,2,0,P|145:245|138:256,1,45.0000000000001,0|0,1:0|2:0,2:0:0:0:
96,144,10440,2,0,P|88:196|85:208,1,45.0000000000001,0|0,1:0|1:0,2:0:0:0:
178,117,10711,6,0,P|177:77|180:19,1,90.0000000000002,0|0,1:0|2:0,2:0:0:0:
179,27,11118,1,0,1:0:0:0:
331,162,11390,1,0,1:0:0:0:
331,162,11526,2,0,P|357:136|370:114,1,45.0000000000001,0|0,1:0|2:0,2:0:0:0:
410,241,11797,2,0,P|374:231|348:231,1,45.0000000000001,0|0,1:0|2:0,2:0:0:0:
440,130,12069,2,0,P|449:165|462:187,1,45.0000000000001,0|0,1:0|2:0,2:0:0:0:
334,151,12340,6,0,P|364:130|381:111,1,45.0000000000001,0|0,1:0|2:0,2:0:0:0:
396,243,12612,2,0,P|362:226|337:221,1,45.0000000000001,0|0,1:0|2:0,2:0:0:0:
447,140,12883,2,0,P|449:176|457:200,1,45.0000000000001,0|0,1:0|2:0,2:0:0:0:
402,248,13155,1,0,1:0:0:0:
223,286,13426,5,4,3:2:0:0:
223,286,13559,1,8,2:0:0:0:
212,374,13692,1,8,2:0:0:0:
212,374,13826,1,0,3:0:0:0:
133,319,13959,6,0,B|58:313|87:300|15:285,1,120,6|8,3:2|2:0,2:0:0:0:
128,234,14366,2,0,B|203:228|174:215|246:200,1,120,6|0,3:2|3:0,2:0:0:0:
157,145,14773,2,0,P|129:133|100:125,1,60,10|8,2:0|3:0,2:0:0:0:
123,49,15044,2,0,P|165:56|199:57,1,60,2|0,3:2|3:0,2:0:0:0:
44,68,15316,1,6,3:2:0:0:
292,28,15587,6,0,P|363:39|407:91,1,120,6|8,3:2|2:0,2:0:0:0:
451,178,15995,2,0,P|380:167|336:115,1,120,6|0,3:2|3:0,2:0:0:0:
293,198,16402,2,0,P|303:232|308:264,1,60,10|8,2:0|3:0,2:0:0:0:
224,253,16673,2,0,P|231:289|235:330,1,60,8|0,3:0|3:0,2:0:0:0:
151,305,16945,1,8,3:0:0:0:
512,382,17216,6,0,B|422:359|417:400|300:355,1,211.199999999999,4|0,3:2|2:0,2:0:0:0:
304,356,18031,2,0,P|311:302|363:259,2,105.6,8|8|0,2:0|3:0|3:0,2:0:0:0:
203,175,18845,5,4,3:2:0:0:
255,228,18981,1,2,2:0:0:0:
274,159,19117,1,2,2:0:0:0:
193,184,19388,5,10,2:0:0:0:
265,234,19524,1,10,2:0:0:0:
272,148,19660,1,2,3:2:0:0:
189,199,19931,5,4,3:2:0:0:
283,239,20067,1,2,2:0:0:0:
281,132,20203,2,0,P|279:98|261:27,1,105.600003222656,2|4,3:2|2:0,2:0:0:0:
259,13,30256,6,0,P|224:23|158:32,1,102,6|0,3:2|2:0,2:0:0:0:
94,96,30663,2,0,P|126:100|200:123,1,102,2|0,3:2|2:0,2:0:0:0:
250,185,31070,2,0,P|197:196|134:221,1,102.000001945496,2|2,2:0|2:0,2:0:0:0:
253,267,31615,1,0,2:0:0:0:
253,267,31752,1,0,2:0:0:0:
343,225,31890,6,0,P|347:259|367:341,1,102,2|0,3:2|2:0,2:0:0:0:
469,353,32297,2,0,P|453:287|449:241,1,102,2|0,3:2|2:0,2:0:0:0:
507,170,32704,2,0,P|513:122|505:5,1,153.000000000001,2|8,2:0|2:0,2:0:0:0:
436,5,33247,1,8,3:0:0:0:
436,5,33377,1,2,2:0:0:0:
410,110,33507,6,0,P|363:108|304:74,1,102,6|2,3:2|3:2,2:0:0:0:
254,137,33914,2,0,P|272:165|282:255,1,102,10|10,2:0|2:0,2:0:0:0:
368,210,34321,2,0,P|397:202|490:190,1,102,8|10,3:0|2:0,2:0:0:0:
335,384,34864,2,0,P|309:379|285:372,1,51.0000000000002,2|0,3:2|2:0,2:0:0:0:
231,317,35135,6,0,P|198:322|119:353,1,102,0|8,3:0|2:0,2:0:0:0:
54,294,35543,2,0,P|101:276|145:251,1,102,0|8,3:0|3:0,2:0:0:0:
118,176,35950,2,0,P|77:173|47:170,2,51.0000000000002,0|8|8,3:0|3:0|2:0,2:0:0:0:
281,36,36493,5,2,2:0:0:0:
281,36,36629,1,2,2:0:0:0:
357,66,36764,2,0,P|373:92|379:167,1,102,2|2,3:2|2:0,2:0:0:0:
297,210,37172,2,0,P|281:184|275:109,1,102,10|10,2:0|2:0,2:0:0:0:
161,90,37579,2,0,P|177:116|183:191,2,102,2|10|2,3:2|2:0|2:0,2:0:0:0:
37,330,38393,6,0,P|78:315|98:293,1,51.0000000000002,2|0,3:2|2:0,2:0:0:0:
150,268,38665,1,10,2:0:0:0:
172,348,38801,2,0,B|223:357|207:362|285:376,1,102,2|8,3:2|3:0,2:0:0:0:
360,328,39208,2,0,P|315:313|262:282,2,102,0|8|0,3:0|2:0|2:0,2:0:0:0:
464,142,40022,5,4,3:2:0:0:
162,237,40430,1,8,2:0:0:0:
0,136,40701,1,8,2:0:0:0:
66,85,40837,2,0,P|104:76|161:46,2,102,2|10|0,3:2|2:0|2:0,2:0:0:0:
75,163,41516,1,0,2:0:0:0:
113,241,41651,6,0,P|125:277|135:345,1,102,2|10,3:2|2:0,2:0:0:0:
211,383,42059,2,0,P|213:346|204:277,1,102,0|8,3:0|3:0,2:0:0:0:
281,269,42466,2,0,P|279:238|272:210,2,51.0000000000002,0|0|8,3:0|3:0|2:0,2:0:0:0:
40,210,43009,6,0,P|53:166|53:140,1,51.0000000000002,2|2,2:0|2:0,2:0:0:0:
8,76,43280,2,0,P|41:49|111:52,1,102,4|2,3:2|3:2,2:0:0:0:
169,12,43687,2,0,P|202:38|271:36,1,102,10|8,2:0|2:0,2:0:0:0:
338,51,44095,2,0,P|381:41|460:32,1,102,0|8,3:0|2:0,2:0:0:0:
167,149,44638,6,0,P|169:177|169:201,1,51.0000000000002,2|2,2:0|2:0,2:0:0:0:
211,264,44909,2,0,B|157:280|182:286|100:301,1,102,2|8,3:2|2:0,2:0:0:0:
253,330,45316,2,0,B|307:346|282:352|364:367,1,102,10|8,2:0|2:0,2:0:0:0:
184,358,45724,1,10,2:0:0:0:
367,278,45995,5,10,2:0:0:0:
435,260,46131,1,8,2:0:0:0:
504,237,46267,1,8,3:0:0:0:
504,237,46548,6,0,P|492:195|484:139,1,83.9999999999999,6|2,3:2|2:0,2:0:0:0:
434,98,46955,2,0,P|437:71|437:51,1,42,2|2,2:0|2:0,2:0:0:0:
299,115,47362,2,0,P|248:108|209:97,2,83.9999999999999,2|2|2,2:0|2:0|2:0,2:0:0:0:
172,27,48176,2,0,P|225:20|300:-2,2,126,2|2|2,2:0|2:0|2:0,2:0:0:0:
158,38,49805,6,0,P|154:67|95:103,1,83.9999999999999,2|2,2:0|2:0,2:0:0:0:
58,150,50213,2,0,P|26:147|0:143,1,42,2|2,2:0|2:0,2:0:0:0:
160,236,50620,2,0,P|198:251|216:287,2,83.9999999999999,2|2|2,2:0|2:0|2:0,2:0:0:0:
356,303,51434,2,0,P|307:311|256:379,2,126,2|2|2,2:0|2:0|2:0,2:0:0:0:
356,303,53063,5,4,3:2:0:0:
292,172,53333,1,0,3:0:0:0:
189,269,53603,1,0,3:0:0:0:
385,287,53873,5,4,3:2:0:0:
270,156,54144,1,0,3:0:0:0:
181,300,54415,1,0,3:0:0:0:
405,260,54687,5,4,3:2:0:0:
243,151,54958,1,0,3:0:0:0:
188,333,55230,1,0,3:0:0:0:
415,224,55507,5,0,3:0:0:0:
217,161,55778,5,8,3:0:0:0:
236,251,55914,1,8,3:0:0:0:
311,203,56049,2,0,P|298:117|162:72,1,238.453,4|8,3:2|2:0,2:0:0:0:
390,169,57397,5,8,3:0:0:0:
390,169,57533,1,8,3:0:0:0:
430,90,57668,1,2,3:2:0:0:
430,90,57804,1,0,3:0:0:0:
511,82,57939,6,0,P|453:69|369:43,1,132,6|10,3:2|2:0,2:0:0:0:
280,119,58346,2,0,P|343:138|407:152,1,132,2|0,3:2|3:0,2:0:0:0:
476,211,58753,1,0,2:0:0:0:
476,211,58889,2,0,P|495:248|491:294,1,66,0|0,3:0|2:0,2:0:0:0:
423,305,59160,2,0,P|404:268|408:222,1,66,0|10,3:0|2:0,2:0:0:0:
337,314,59432,1,0,2:0:0:0:
258,371,59567,6,0,P|213:373|129:316,1,132,2|2,3:2|3:2,2:0:0:0:
97,230,59975,2,0,P|142:228|226:285,1,132,10|0,2:0|3:0,2:0:0:0:
263,204,60382,2,0,P|254:160|249:125,1,66,8|0,2:0|3:0,2:0:0:0:
187,89,60653,1,8,2:0:0:0:
187,89,60789,1,0,3:0:0:0:
217,7,60925,1,8,3:0:0:0:
4,233,61196,6,0,B|97:220|54:245|144:225,1,132,6|10,3:2|2:0,2:0:0:0:
197,178,61604,2,0,P|231:215|218:291,1,132,0|0,3:0|3:0,2:0:0:0:
258,361,62011,2,0,P|311:369|347:381,1,66,2|0,2:0|3:0,2:0:0:0:
342,293,62282,2,0,P|384:282|420:279,1,66,2|0,2:0|3:0,2:0:0:0:
383,200,62554,2,0,P|407:175|452:149,1,66,10|0,2:0|2:0,2:0:0:0:
302,129,62825,6,0,P|289:92|276:-6,1,132,2|0,3:2|3:0,2:0:0:0:
183,62,63233,2,0,P|196:99|209:197,1,132,8|0,2:0|3:0,2:0:0:0:
132,258,63640,2,0,P|119:221|113:155,1,99,8|0,2:0|2:0,2:0:0:0:
112,161,63911,1,10,2:0:0:0:
39,143,64047,1,8,2:0:0:0:
69,59,64183,1,8,3:0:0:0:
56,325,64454,6,0,P|87:346|206:366,1,132,6|10,3:2|2:0,2:0:0:0:
249,306,64862,2,0,P|313:316|370:349,1,132,2|2,3:2|3:2,2:0:0:0:
462,383,65269,2,0,P|453:340|449:298,1,66,2|0,2:0|3:0,2:0:0:0:
503,248,65540,2,0,P|494:205|490:163,1,66,0|0,2:0|3:0,2:0:0:0:
397,217,65812,2,0,P|353:214|311:207,1,66,10|0,2:0|2:0,2:0:0:0:
261,134,66083,6,0,P|304:82|275:7,1,132,2|2,3:2|3:2,2:0:0:0:
181,6,66491,2,0,P|138:58|167:133,1,132,10|2,2:0|3:2,2:0:0:0:
205,187,66898,2,0,P|226:217|244:256,1,66,10|0,2:0|3:0,2:0:0:0:
146,251,67169,2,0,P|125:221|107:182,1,66,10|0,2:0|3:0,2:0:0:0:
58,131,67441,1,8,3:0:0:0:
172,345,67712,6,0,P|221:358|280:364,1,99,6|0,3:2|2:0,2:0:0:0:
268,363,67984,1,8,2:0:0:0:
312,279,68119,2,0,P|361:292|457:302,1,132.00000402832,6|0,3:2|3:0,2:0:0:0:
504,222,68527,2,0,P|465:215|436:215,1,66,2|8,2:0|2:0,2:0:0:0:
473,85,68798,2,0,P|486:122|500:147,1,66,8|8,2:0|3:0,2:0:0:0:
368,180,69070,2,0,P|393:149|408:124,1,66,4|0,3:2|2:0,2:0:0:0:
303,84,69341,6,0,P|268:58|236:50,1,66.0000020141602,4|0,3:2|2:0,2:0:0:0:
173,49,69613,1,8,2:0:0:0:
147,132,69748,2,0,P|104:121|42:131,1,99,4|0,3:2|2:0,2:0:0:0:
49,128,70020,1,0,3:0:0:0:
57,234,70156,2,0,P|24:254|1:283,1,66,8|8,2:0|2:0,2:0:0:0:
79,330,70427,1,8,3:0:0:0:
79,330,70563,1,8,3:0:0:0:
0,376,70699,1,2,3:2:0:0:
273,281,70970,6,0,P|267:238|262:132,1,132,6|10,3:2|2:0,2:0:0:0:
353,72,71377,2,0,P|359:115|363:193,1,99,2|0,3:2|2:0,2:0:0:0:
362,170,71649,2,0,P|401:188|447:205,1,66,0|0,3:0|2:0,2:0:0:0:
424,277,71920,2,0,P|465:296|498:308,1,66,0|0,3:0|2:0,2:0:0:0:
425,364,72192,1,0,3:0:0:0:
337,318,72328,2,0,P|298:313|249:352,1,99,10|0,2:0|2:0,2:0:0:0:
251,346,72599,6,0,P|207:337|113:329,1,132,2|2,3:2|3:2,2:0:0:0:
30,258,73006,2,0,P|95:253|160:240,1,132,10|0,2:0|3:0,2:0:0:0:
234,167,73414,2,0,P|195:165|151:156,1,66,8|0,2:0|3:0,2:0:0:0:
106,101,73685,1,8,2:0:0:0:
106,101,73821,1,8,2:0:0:0:
2,109,73957,1,8,3:0:0:0:
226,33,74228,6,0,P|268:5|371:22,1,132,6|10,3:2|2:0,2:0:0:0:
390,96,74635,2,0,P|348:124|245:107,1,132,0|0,3:0|3:0,2:0:0:0:
220,194,75043,1,2,3:2:0:0:
220,194,75178,2,0,P|227:241|229:277,1,66,0|0,3:0|3:0,2:0:0:0:
313,251,75450,1,0,3:0:0:0:
313,251,75586,2,0,P|320:298|322:334,1,66,10|0,2:0|2:0,2:0:0:0:
212,362,75857,6,0,P|153:361|85:300,1,132,2|0,3:2|3:0,2:0:0:0:
0,239,76264,2,0,P|59:238|127:177,1,132,8|0,2:0|3:0,2:0:0:0:
141,108,76672,2,0,P|126:77|119:46,1,66,10|0,2:0|3:0,2:0:0:0:
248,67,76943,2,0,P|245:33|246:1,1,66,8|0,2:0|3:0,2:0:0:0:
354,94,77215,2,0,P|368:56|390:27,1,66,8|8,3:0|3:0,2:0:0:0:
259,160,77486,5,4,3:2:0:0:
259,160,77758,2,0,B|266:245|274:211|286:305,2,132,10|2|2,2:0|2:0|2:0,2:0:0:0:
186,119,78436,1,0,3:0:0:0:
186,119,78572,2,0,P|190:83|200:42,1,66,0|0,2:0|3:0,2:0:0:0:
103,79,78843,2,0,P|99:115|89:156,1,66,10|0,2:0|2:0,2:0:0:0:
3,196,79115,6,0,P|56:236|134:236,1,132,2|2,3:2|3:2,2:0:0:0:
193,283,79522,2,0,P|244:243|309:238,1,132,10|2,2:0|3:2,2:0:0:0:
381,194,79929,2,0,P|414:208|450:215,1,66,10|0,2:0|3:0,2:0:0:0:
390,289,80201,1,10,2:0:0:0:
390,289,80337,1,8,2:0:0:0:
327,342,80472,1,8,3:0:0:0:
327,342,80608,1,8,3:0:0:0:
251,375,80744,1,4,3:2:0:0:
33,223,81015,5,10,2:0:0:0:
50,147,81151,2,0,B|61:65|74:100|85:8,1,132,4|0,3:2|3:0,2:0:0:0:
152,100,81558,1,10,2:0:0:0:
152,100,81694,1,8,2:0:0:0:
230,95,81830,2,0,P|269:105|297:111,1,66,8|8,3:0|3:0,2:0:0:0:
191,25,82101,6,0,P|345:30|412:118,1,270.000000000001,6|2,3:2|2:0,2:0:0:0:
297,309,83187,1,8,2:0:0:0:
297,309,83323,1,8,2:0:0:0:
268,224,83459,1,8,3:0:0:0:
268,224,83595,1,8,3:0:0:0:
182,230,83730,6,0,P|144:244|59:257,1,120,4|8,3:2|2:0,2:0:0:0:
168,315,84138,2,0,P|227:322|284:341,1,120,4|0,3:2|3:0,2:0:0:0:
386,323,84545,2,0,P|390:364|387:397,2,60,10|8|8,2:0|3:0|3:0,2:0:0:0:
454,286,84952,1,0,3:0:0:0:
401,206,85088,1,6,3:2:0:0:
254,19,85638,5,4,3:2:0:0:
256,192,85773,12,0,90932,1:0:0:0:
243,6,91610,6,0,P|240:34|240:69,1,45.0000000000001,0|0,1:0|1:0,2:0:0:0:
315,59,91882,2,0,P|312:87|312:122,1,45.0000000000001,2|2,1:2|1:2,2:0:0:0:
335,181,92153,6,0,P|383:153|434:151,1,90.0000000000002,4|0,2:0|2:0,2:0:0:0:
447,217,92561,2,0,P|399:245|348:247,1,90.0000000000002,0|0,1:0|1:0,2:0:0:0:
303,296,92968,2,0,P|296:329|301:400,2,90.0000000000002,0|0|0,1:0|1:0|1:0,2:0:0:0:
164,249,93782,6,0,P|173:189|165:115,2,135,0|0|0,1:0|1:0|1:0,2:0:0:0:
115,362,94868,2,0,P|79:368|26:385,1,90.0000000000002,0|0,1:0|1:0,2:0:0:0:
268,299,95411,6,0,P|330:319|406:329,2,135,0|0|0,1:0|1:0|1:0,2:0:0:0:
319,134,96497,2,0,P|362:140|414:157,1,90.3315034332277,0|0,1:0|1:0,2:0:0:0:
512,254,97057,2,0,P|471:261|397:281,2,89.9999999999999,0|0|4,1:0|1:0|2:0,2:0:0:0:
489,122,97841,5,8,2:0:0:0:
325,135,98116,5,8,3:0:0:0:
167,144,98392,5,0,3:0:0:0:
16,152,98669,6,0,P|16:193|26:261,2,90.0000000000002,4|8|0,3:2|2:0|3:0,2:0:0:0:
174,149,99485,6,0,P|174:190|184:258,2,90.0000000000002,4|8|0,3:2|3:0|3:0,2:0:0:0:
334,138,100301,6,0,P|334:179|366:323,1,180,4|8,3:2|2:0,2:0:0:0:
512,360,101146,2,0,P|511:326|496:266,1,90.0000034332277,0|8,3:0|3:0,2:0:0:0:
433,215,101629,1,0,3:0:0:0:
256,192,101920,5,4,3:2:0:0:
256,192,102197,12,2,105208,2:0:0:0:
