osu file format v14

[General]
AudioFilename: audio.mp3
AudioLeadIn: 0
PreviewTime: 56985
Countdown: 1
SampleSet: Soft
StackLeniency: 0.7
Mode: 0
LetterboxInBreaks: 0
WidescreenStoryboard: 1

[Editor]
Bookmarks: 13885,20401,30184,33435,46476,52991,57055,57867,70899,85559,87194,98596,111627,118139,124659,135244,136053,149084,163763,173536,176781,199597,204473,217505,230537,243568,255786,258241,272908,281575
DistanceSpacing: 1.2
BeatDivisor: 4
GridSize: 32
TimelineZoom: 2.2

[Metadata]
Title:Koori no Shiro
TitleUnicode:氷の城
Artist:canoue
ArtistUnicode:canoue
Creator:Lasse
Version:Petal
Source:SNOW BOUND LAND
Tags:霜月はるか Shimotsuki Haruka MANYO 日山 尚 Hiyama Nao ルチカ doujin japanese psp opening full version
BeatmapID:2169240
BeatmapSetID:1037604

[Difficulty]
HPDrainRate:6
CircleSize:4
OverallDifficulty:8.7
ApproachRate:9.3
SliderMultiplier:1.2
SliderTickRate:1

[Events]
//Background and Video events
0,0,"a.jpg",0,0
//Break Periods
//Storyboard Layer 0 (Background)
//Storyboard Layer 1 (Fail)
//Storyboard Layer 2 (Pass)
//Storyboard Layer 3 (Foreground)
//Storyboard Layer 4 (Overlay)
//Storyboard Sound Samples

[TimingPoints]
866,271.493212669683,6,2,35,30,1,0
866,-200,6,2,35,30,0,0
1137,-200,6,2,35,10,0,0
1273,-200,6,2,35,24,0,0
1680,-200,6,2,35,30,0,0
1951,-200,6,2,35,10,0,0
2223,-200,6,2,35,24,0,0
2494,-200,6,2,35,30,0,0
2766,-200,6,2,35,10,0,0
2902,-200,6,2,35,24,0,0
3309,-200,6,2,35,30,0,0
3580,-200,6,2,35,24,0,0
4123,-200,6,2,35,30,0,0
4395,-200,6,2,35,10,0,0
4531,-200,6,2,35,24,0,0
4938,-200,6,2,35,30,0,0
5209,-200,6,2,35,24,0,0
5752,-200,6,2,35,30,0,0
6024,-200,6,2,35,10,0,0
6160,-200,6,2,35,24,0,0
6567,-200,6,2,35,30,0,0
6838,-200,6,2,35,10,0,0
7110,-200,6,2,35,24,0,0
7381,-166.666666666667,6,2,35,32,0,0
7653,-166.666666666667,6,2,35,10,0,0
7789,-166.666666666667,6,2,35,26,0,0
8196,-166.666666666667,6,2,35,32,0,0
8467,-166.666666666667,6,2,35,24,0,0
9010,-166.666666666667,6,2,35,32,0,0
9282,-166.666666666667,6,2,35,10,0,0
9418,-166.666666666667,6,2,35,24,0,0
9825,-166.666666666667,6,2,35,32,0,0
10096,-166.666666666667,6,2,35,30,0,0
10368,-166.666666666667,6,2,35,28,0,0
10639,-166.666666666667,6,2,35,32,0,0
10911,-166.666666666667,6,2,35,10,0,0
11046,-166.666666666667,6,2,35,24,0,0
11454,-166.666666666667,6,2,35,32,0,0
11725,-166.666666666667,6,2,35,30,0,0
11997,-166.666666666667,6,2,35,28,0,0
12268,-166.666666666667,6,2,35,32,0,0
12540,-166.666666666667,6,2,35,10,0,0
12675,-166.666666666667,6,2,35,26,0,0
12811,-166.666666666667,6,2,35,10,0,0
13083,-166.666666666667,6,2,35,30,0,0
13354,266.666666666667,6,2,35,52,1,0
13354,-166.666666666667,6,2,35,52,0,0
13620,-166.666666666667,6,2,35,54,0,0
13887,271.493212669683,6,2,35,56,1,0
13887,-83.3333333333333,6,2,35,56,0,0
14158,-83.3333333333333,6,2,35,56,0,0
15515,-76.9230769230769,6,2,35,56,0,0
16601,-76.9230769230769,6,2,35,54,0,0
16873,-76.9230769230769,6,2,35,52,0,0
17144,-166.666666666667,6,2,35,50,0,0
17416,-166.666666666667,6,2,35,10,0,0
17687,-166.666666666667,6,2,35,38,0,0
17959,-166.666666666667,6,2,35,50,0,0
18230,-166.666666666667,6,2,35,48,0,0
18502,-166.666666666667,6,2,35,46,0,0
18773,-100,6,2,35,50,0,0
19181,-100,6,2,35,40,0,0
19316,-100,6,2,35,52,0,0
19724,-100,6,2,35,42,0,0
19859,-100,6,2,35,54,0,0
20267,-100,6,2,35,34,0,0
20402,275.229357798165,6,2,35,36,1,0
20402,-200,6,2,35,36,0,0
20677,-200,6,2,35,10,0,0
20814,-200,6,2,35,28,0,0
21227,-200,6,2,35,34,0,0
21502,-200,6,2,35,28,0,0
21778,-200,6,2,35,26,0,0
22053,271.493212669683,6,2,35,26,1,0
22324,-200,6,2,35,30,0,0
22595,-200,6,2,35,32,0,0
22867,-200,6,2,35,28,0,0
23138,265.721877767936,6,2,35,26,1,0
23138,-200,6,2,35,26,0,0
23403,-200,6,2,35,28,0,0
23669,271.493212669683,6,2,35,34,1,0
23669,-200,6,2,35,34,0,0
23940,-200,6,2,35,24,0,0
24076,-200,6,2,35,32,0,0
24347,-200,6,2,35,24,0,0
24483,-200,6,2,35,32,0,0
24754,-200,6,2,35,24,0,0
25026,-200,6,2,35,22,0,0
25297,-200,6,2,35,30,0,0
25569,-200,6,2,35,24,0,0
25705,-200,6,2,35,30,0,0
25976,-200,6,2,35,24,0,0
26112,266.666666666667,6,2,35,28,1,0
26112,-200,6,2,35,28,0,0
26378,-200,6,2,35,30,0,0
26645,289.855072463768,6,2,35,32,1,0
26645,-200,6,2,35,32,0,0
26934,271.493212669683,6,2,35,34,1,0
26934,-200,6,2,35,34,0,0
27205,-200,6,2,35,10,0,0
27476,-200,6,2,35,22,0,0
27748,-200,6,2,35,30,0,0
28019,-200,6,2,35,24,0,0
28291,-200,6,2,35,30,0,0
28562,-200,6,2,35,32,0,0
28834,-200,6,2,35,22,0,0
29105,-200,6,2,35,20,0,0
29377,-200,6,2,35,26,0,0
29648,-200,6,2,35,22,0,0
29920,-200,6,2,35,26,0,0
30056,512.820512820513,6,2,35,26,1,0
30056,-100,6,2,35,26,0,0
30184,271.493212669683,6,2,35,40,1,0
30184,-142.857142857143,6,2,35,40,0,0
31269,274.599542334096,6,2,35,40,1,0
31818,271.493212669683,6,2,35,42,1,0
31818,-125,6,2,35,42,0,0
33175,521.739130434783,6,2,35,42,1,0
33435,271.493212669683,6,2,35,46,1,0
33435,-111.111111111111,6,2,35,46,0,0
44837,-100,6,2,35,50,0,0
45109,-100,6,2,35,44,0,0
45244,-100,6,2,35,48,0,0
45516,-100,6,2,35,44,0,0
45652,-100,6,2,35,48,0,0
45787,-100,6,2,35,44,0,0
45923,-100,6,2,35,48,0,0
46195,281.030444964871,6,2,35,48,1,0
46476,271.493212669683,6,2,35,40,1,0
46476,-166.666666666667,6,2,35,40,0,0
46747,-166.666666666667,6,2,35,10,0,0
47290,-166.666666666667,6,2,35,28,0,0
47561,-166.666666666667,6,2,35,38,0,0
47833,-166.666666666667,6,2,35,28,0,0
48104,-166.666666666667,6,2,35,38,0,0
48376,-166.666666666667,6,2,35,10,0,0
48512,-166.666666666667,6,2,35,28,0,0
48919,-166.666666666667,6,2,35,38,0,0
49190,-166.666666666667,6,2,35,28,0,0
49733,-166.666666666667,6,2,35,38,0,0
50005,-166.666666666667,6,2,35,10,0,0
50276,-166.666666666667,6,2,35,28,0,0
50548,-166.666666666667,6,2,35,38,0,0
50819,-166.666666666667,6,2,35,28,0,0
51362,-166.666666666667,6,2,35,38,0,0
51634,-166.666666666667,6,2,35,10,0,0
51770,-166.666666666667,6,2,35,30,0,0
51905,-166.666666666667,6,2,35,10,0,0
52177,-166.666666666667,6,2,35,30,0,0
52448,-166.666666666667,6,2,35,32,0,0
52720,-166.666666666667,6,2,35,34,0,0
52991,270.27027027027,6,2,35,50,1,0
52991,-111.111111111111,6,2,35,50,0,0
53801,271.493212669683,6,2,35,51,1,0
53801,-99.9999999999999,6,2,35,51,0,0
54615,-90.9090909090909,6,2,35,52,0,0
55294,283.018867924528,6,2,35,52,1,0
55435,271.493212669683,6,2,35,54,1,0
55435,-90.9090909090909,6,2,35,54,0,0
55706,-90.9090909090909,6,2,35,50,0,0
55977,271.493212669683,6,2,35,52,1,0
55977,-166.666666666667,6,2,35,52,0,0
56250,-166.666666666667,6,2,35,10,0,0
56791,264.31718061674,6,2,35,48,1,0
56791,-166.666666666667,6,2,35,48,0,0
57055,270.880361173815,6,2,35,54,1,0
57055,-166.666666666667,6,2,35,54,0,0
57325,-166.666666666667,6,2,35,56,0,0
57596,-166.666666666667,6,2,35,58,0,0
57867,271.493212669683,6,2,34,60,1,1
57867,-66.6666666666667,6,2,34,60,0,1
58274,-66.6666666666667,6,2,35,60,0,1
67640,-62.5,6,2,35,62,0,1
69269,-58.8235294117647,6,2,35,64,0,1
70830,-58.8235294117647,6,2,35,60,0,0
70898,-66.6666666666667,6,2,34,60,0,1
71305,-66.6666666666667,6,2,35,60,0,1
77414,-62.5,6,2,35,62,0,1
79043,-66.6666666666667,6,2,35,62,0,1
80672,-58.8235294117647,6,2,35,64,0,1
82029,-133.333333333333,6,2,35,54,0,0
82301,-133.333333333333,6,2,35,20,0,0
82844,-133.333333333333,6,2,35,40,0,0
83115,-79.9999999999999,6,2,35,56,0,0
83930,-79.9999999999999,6,2,35,50,0,0
84066,-79.9999999999999,6,2,35,48,0,0
84337,-79.9999999999999,6,2,35,46,0,0
84473,-100,6,2,35,50,0,0
84880,-100,6,2,35,44,0,0
85016,275.229357798165,6,2,35,46,1,0
85016,-125,6,2,35,46,0,0
85291,-125,6,2,35,10,0,0
85428,-125,6,2,35,32,0,0
85566,271.493212669683,6,2,35,38,1,0
85566,-166.666666666667,6,2,35,38,0,0
85837,-166.666666666667,6,2,35,10,0,0
85973,-166.666666666667,6,2,35,26,0,0
86380,-166.666666666667,6,2,35,34,0,0
86651,-166.666666666667,6,2,35,26,0,0
87194,-166.666666666667,6,2,35,34,0,0
87466,-166.666666666667,6,2,35,10,0,0
87602,-166.666666666667,6,2,35,26,0,0
88009,-166.666666666667,6,2,35,32,0,0
88280,-166.666666666667,6,2,35,30,0,0
88552,-166.666666666667,6,2,35,28,0,0
88823,-166.666666666667,6,2,35,34,0,0
89095,-166.666666666667,6,2,35,10,0,0
89231,-166.666666666667,6,2,35,26,0,0
89638,-166.666666666667,6,2,35,34,0,0
89909,-166.666666666667,6,2,35,10,0,0
90181,-166.666666666667,6,2,35,26,0,0
90452,-166.666666666667,6,2,35,34,0,0
90724,-166.666666666667,6,2,35,10,0,0
90860,-166.666666666667,6,2,35,26,0,0
90995,-166.666666666667,6,2,35,10,0,0
91267,-166.666666666667,6,2,35,28,0,0
91810,-166.666666666667,6,2,35,36,0,0
92081,-166.666666666667,6,2,35,34,0,0
92353,-166.666666666667,6,2,35,10,0,0
92489,-166.666666666667,6,2,35,26,0,0
92896,-166.666666666667,6,2,35,34,0,0
93167,-166.666666666667,6,2,35,10,0,0
93439,-166.666666666667,6,2,35,26,0,0
93710,-166.666666666667,6,2,35,34,0,0
93982,-166.666666666667,6,2,35,10,0,0
94118,-166.666666666667,6,2,35,26,0,0
94525,-166.666666666667,6,2,35,34,0,0
94796,-166.666666666667,6,2,35,26,0,0
95339,-166.666666666667,6,2,35,34,0,0
95611,-166.666666666667,6,2,35,10,0,0
95746,-166.666666666667,6,2,35,26,0,0
96154,-166.666666666667,6,2,35,32,0,0
96425,-166.666666666667,6,2,35,30,0,0
96697,-166.666666666667,6,2,35,28,0,0
96968,-166.666666666667,6,2,35,34,0,0
97240,-166.666666666667,6,2,35,10,0,0
97375,-166.666666666667,6,2,35,28,0,0
97511,-166.666666666667,6,2,35,10,0,0
97783,-166.666666666667,6,2,35,30,0,0
98054,-166.666666666667,6,2,35,40,0,0
98326,270.27027027027,6,2,35,42,1,0
98326,-166.666666666667,6,2,35,42,0,0
98596,271.493212669683,6,2,35,46,1,0
98596,-100,6,2,35,46,0,0
108369,-90.9090909090909,6,2,35,47,0,0
109998,-83.3333333333333,6,2,35,48,0,0
111084,-83.3333333333333,6,2,35,46,0,0
111356,-83.3333333333333,6,2,35,44,0,0
111623,-100,6,2,35,48,0,0
121396,-90.9090909090909,6,2,35,49,0,0
123030,-83.3333333333333,6,2,35,50,0,0
123301,-83.3333333333333,6,2,35,46,0,0
123437,-83.3333333333333,6,2,35,48,0,0
123709,-83.3333333333333,6,2,35,44,0,0
123844,-83.3333333333333,6,2,35,48,0,0
124116,-83.3333333333333,6,2,35,44,0,0
124252,-83.3333333333333,6,2,35,48,0,0
124387,-83.3333333333333,6,2,35,46,0,0
124659,279.06976744186,6,2,35,50,1,0
124659,-125,6,2,35,50,0,0
125635,485.82995951417,6,2,35,50,1,0
125877,284.36018957346,6,2,35,50,1,0
126019,508.474576271186,6,2,35,50,1,0
126273,283.018867924528,6,2,35,50,1,0
126273,-111.111111111111,6,2,35,50,0,0
126839,533.807829181495,6,2,35,50,1,0
127105,271.493212669683,6,2,35,46,1,0
127105,-111.111111111111,6,2,35,46,0,0
127919,275.229357798165,6,2,35,48,1,0
127919,-100,6,2,35,48,0,0
129019,252.100840336134,6,2,35,50,1,0
129019,-100,6,2,35,50,0,0
129271,280.373831775701,6,2,35,50,1,0
129551,271.493212669683,6,2,35,52,1,0
129551,-90.9090909090909,6,2,35,52,0,0
130365,-90.9090909090909,6,2,34,52,0,0
130908,261.437908496732,6,2,35,52,1,0
130908,-90.9090909090909,6,2,35,52,0,0
131169,277.777777777778,6,2,35,50,1,0
131169,-100,6,2,35,50,0,0
132002,267.857142857143,6,2,35,51,1,0
132002,-90.9090909090909,6,2,35,51,0,0
132805,275.229357798165,6,2,35,52,1,0
132805,-83.3333333333333,6,2,35,52,0,0
133493,526.315789473684,6,2,35,52,1,0
133624,271.493212669683,6,2,35,54,1,0
133624,-83.3333333333333,6,2,35,54,0,0
133895,266.666666666667,6,2,35,50,1,0
133895,-83.3333333333333,6,2,35,50,0,0
134161,270.880361173815,6,2,35,52,1,0
134161,-166.666666666667,6,2,35,52,0,0
134431,-166.666666666667,6,2,35,10,0,0
134973,-166.666666666667,6,2,35,48,0,0
135244,269.905533063428,6,2,35,54,1,0
135244,-166.666666666667,6,2,35,54,0,0
135513,-166.666666666667,6,2,35,56,0,0
135783,-166.666666666667,6,2,35,58,0,0
136053,271.493212669683,6,2,34,60,1,1
136053,-66.6666666666667,6,2,34,60,0,1
136460,-66.6666666666667,6,2,35,60,0,1
145826,-62.5,6,2,35,62,0,1
147455,-58.8235294117647,6,2,35,64,0,1
149016,-58.8235294117647,6,2,35,60,0,0
149084,-66.6666666666667,6,2,34,60,0,1
149491,-66.6666666666667,6,2,35,60,0,1
155600,-62.5,6,2,35,62,0,1
157229,-66.6666666666667,6,2,35,62,0,1
158858,-58.8235294117647,6,2,35,64,0,1
160215,-133.333333333333,6,2,35,54,0,0
160351,-133.333333333333,6,2,35,20,0,0
161030,284.36018957346,6,2,35,40,1,0
161030,-133.333333333333,6,2,35,40,0,0
161314,272.727272727273,6,2,35,56,1,0
161314,-79.9999999999999,6,2,35,56,0,0
162132,269.058295964126,6,2,35,50,1,0
162132,-79.9999999999999,6,2,35,50,0,0
162266,273.972602739726,6,2,35,48,1,0
162266,-79.9999999999999,6,2,35,48,0,0
162539,-79.9999999999999,6,2,35,46,0,0
162676,269.058295964126,6,2,35,50,1,0
162676,-100,6,2,35,50,0,0
162810,264.31718061674,6,2,35,50,1,0
162810,-100,6,2,35,50,0,0
163074,-100,6,2,35,44,0,0
163206,278.758595056681,6,2,35,46,1,0
163206,-125,6,2,35,46,0,0
163484,-125,6,2,35,10,0,0
163624,-125,6,2,35,32,0,0
163763,271.493212669683,6,2,35,40,1,0
163763,-166.666666666667,6,2,35,40,0,0
164034,-166.666666666667,6,2,35,10,0,0
164577,-166.666666666667,6,2,35,34,0,0
164848,-166.666666666667,6,2,35,10,0,0
165391,-166.666666666667,6,2,35,30,0,0
166115,-166.666666666667,6,2,35,32,0,0
166206,-166.666666666667,6,2,35,36,0,0
166477,-166.666666666667,6,2,35,32,0,0
167020,-166.666666666667,6,2,35,36,0,0
167292,-166.666666666667,6,2,35,10,0,0
167563,-166.666666666667,6,2,35,30,0,0
167835,-166.666666666667,6,2,35,36,0,0
168106,-166.666666666667,6,2,35,10,0,0
168378,-166.666666666667,6,2,35,30,0,0
168649,-166.666666666667,6,2,35,36,0,0
168921,-166.666666666667,6,2,35,10,0,0
169192,-166.666666666667,6,2,35,30,0,0
169328,-166.666666666667,6,2,35,32,0,0
169464,-166.666666666667,6,2,35,34,0,0
169735,-166.666666666667,6,2,35,32,0,0
170007,-166.666666666667,6,2,35,30,0,0
170278,-166.666666666667,6,2,35,36,0,0
170550,-166.666666666667,6,2,35,10,0,0
170821,-166.666666666667,6,2,35,30,0,0
171093,-166.666666666667,6,2,35,36,0,0
171364,-166.666666666667,6,2,35,10,0,0
171636,-166.666666666667,6,2,35,30,0,0
171907,-166.666666666667,6,2,35,34,0,0
172043,-166.666666666667,6,2,35,24,0,0
172179,-166.666666666667,6,2,35,28,0,0
172315,-166.666666666667,6,2,35,22,0,0
172450,-166.666666666667,6,2,35,28,0,0
172586,-166.666666666667,6,2,35,22,0,0
172722,-166.666666666667,6,2,35,28,0,0
172858,-166.666666666667,6,2,35,22,0,0
172993,-166.666666666667,6,2,35,30,0,0
173129,-166.666666666667,6,2,35,24,0,0
173265,-166.666666666667,6,2,35,32,0,0
173401,-166.666666666667,6,2,35,26,0,0
173536,-166.666666666667,6,2,35,34,0,0
173808,-166.666666666667,6,2,35,28,0,0
174079,-166.666666666667,6,2,35,30,0,0
174351,-166.666666666667,6,2,35,32,0,0
174622,-166.666666666667,6,2,35,26,0,0
174894,-166.666666666667,6,2,35,30,0,0
175165,-166.666666666667,6,2,35,32,0,0
175437,-166.666666666667,6,2,35,34,0,0
175708,-166.666666666667,6,2,35,36,0,0
175980,517.241379310345,6,2,35,38,1,0
175980,-166.666666666667,6,2,35,38,0,0
176238,271.493212669683,6,2,35,48,1,0
176238,-166.666666666667,6,2,35,48,0,0
176509,-166.666666666667,6,2,35,50,0,0
176780,271.493212669683,6,2,34,54,1,0
176780,-83.3333333333333,6,2,34,54,0,0
177051,-83.3333333333333,6,2,35,54,0,0
189811,-76.9230769230769,6,2,35,54,0,0
190627,277.777777777778,6,2,35,54,1,0
191460,265.486725663717,6,2,35,56,1,0
191460,-71.4285714285714,6,2,35,56,0,0
191592,-71.4285714285714,6,2,35,44,0,0
191725,-66.6666666666667,6,2,35,57,0,0
191858,-66.6666666666667,6,2,35,44,0,0
191990,-62.5,6,2,35,58,0,0
192123,-62.5,6,2,35,44,0,0
192256,278.129302312645,6,2,35,60,1,0
192256,-62.5,6,2,35,60,0,0
193090,271.493212669683,6,2,35,40,1,0
193090,-166.666666666667,6,2,35,40,0,0
193361,-166.666666666667,6,2,35,10,0,0
193904,-166.666666666667,6,2,35,28,0,0
194175,-166.666666666667,6,2,35,38,0,0
194447,-166.666666666667,6,2,35,28,0,0
194718,-166.666666666667,6,2,35,38,0,0
194990,-166.666666666667,6,2,35,10,0,0
195126,-166.666666666667,6,2,35,28,0,0
195533,-166.666666666667,6,2,35,38,0,0
195804,-166.666666666667,6,2,35,28,0,0
196347,-166.666666666667,6,2,35,38,0,0
196619,-166.666666666667,6,2,35,10,0,0
196890,-166.666666666667,6,2,35,28,0,0
197162,-166.666666666667,6,2,35,38,0,0
197433,-166.666666666667,6,2,35,28,0,0
197976,-166.666666666667,6,2,35,38,0,0
198248,-166.666666666667,6,2,35,10,0,0
198384,-166.666666666667,6,2,35,32,0,0
198655,-142.857142857143,6,2,35,30,0,0
198791,-142.857142857143,6,2,35,32,0,0
199062,267.857142857143,6,2,35,30,1,0
199062,-142.857142857143,6,2,35,30,0,0
199329,-142.857142857143,6,2,35,34,0,0
199597,271.493212669683,6,2,35,50,1,0
199597,-90.9090909090909,6,2,35,50,0,0
200411,269.058295964126,6,2,35,51,1,0
200411,-83.3333333333333,6,2,35,51,0,0
201218,273.972602739726,6,2,35,52,1,0
201218,-76.9230769230769,6,2,35,52,0,0
202039,263.157894736842,6,2,35,54,1,0
202039,-76.9230769230769,6,2,35,54,0,0
202302,271.493212669683,6,2,35,50,1,0
202302,-76.9230769230769,6,2,35,50,0,0
202573,-166.666666666667,6,2,35,52,0,0
202844,-166.666666666667,6,2,35,10,0,0
203387,273.972602739726,6,2,35,48,1,0
203387,-166.666666666667,6,2,35,48,0,0
203934,272.108843537415,6,2,35,50,1,0
203934,-133.333333333333,6,2,35,50,0,0
204206,268.456375838926,6,2,35,48,1,0
204206,-133.333333333333,6,2,35,48,0,0
204474,271.493212669683,6,2,34,60,1,1
204474,-66.6666666666667,6,2,34,60,0,1
204881,-66.6666666666667,6,2,35,60,0,1
214247,-62.5,6,2,35,62,0,1
215876,-58.8235294117647,6,2,35,64,0,1
217437,-66.6666666666667,6,2,35,60,0,0
217505,-66.6666666666667,6,2,35,60,0,1
224021,-62.5,6,2,35,62,0,1
225650,-66.6666666666667,6,2,35,62,0,1
227279,-58.8235294117647,6,2,35,64,0,1
228636,-55.5555555555556,6,2,35,66,0,1
228908,-55.5555555555556,6,2,35,62,0,1
229451,-62.5,6,2,35,62,0,1
229587,-62.5,6,2,35,58,0,1
229722,-62.5,6,2,35,60,0,1
229858,-62.5,6,2,35,58,0,1
229994,-62.5,6,2,35,60,0,1
230265,-62.5,6,2,35,62,0,1
230469,-66.6666666666667,6,2,35,60,0,0
230537,-60.6060606060606,6,2,34,62,0,1
230945,-60.6060606060606,6,2,35,62,0,1
240311,-57.1428571428571,6,2,35,64,0,1
241940,-52.6315789473684,6,2,35,66,0,1
243501,-52.6315789473684,6,2,35,62,0,1
243569,-55.5555555555556,6,2,34,64,0,1
243976,-55.5555555555556,6,2,35,64,0,1
250084,-52.6315789473684,6,2,35,66,0,1
251713,-55.5555555555556,6,2,35,66,0,1
253342,-50,6,2,35,68,0,1
254700,-133.333333333333,6,2,35,54,0,0
254835,-133.333333333333,6,2,35,20,0,0
255514,-133.333333333333,6,2,35,40,0,0
255786,279.06976744186,6,2,35,52,1,0
255786,-133.333333333333,6,2,35,52,0,0
256065,-133.333333333333,6,2,35,50,0,0
256344,545.454545454546,6,2,35,48,1,0
256344,-133.333333333333,6,2,35,48,0,0
256616,480,6,2,35,50,1,0
256616,-80,6,2,35,50,0,0
256736,271.493212669683,6,2,35,48,1,0
256736,-80,6,2,35,48,0,0
257007,304.568527918782,6,2,35,46,1,0
257007,-80,6,2,35,46,0,0
257159,483.870967741935,6,2,35,50,1,0
257159,-100,6,2,35,50,0,0
257279,271.493212669683,6,2,35,50,1,0
257279,-100,6,2,35,50,0,0
257550,289.855072463768,6,2,35,42,1,0
257550,-100,6,2,35,42,0,0
257694,274.599542334096,6,2,35,46,1,0
257694,-125,6,2,35,46,0,0
257968,-125,6,2,35,10,0,0
258105,-125,6,2,35,30,0,0
258243,271.493212669683,6,2,35,34,1,0
258243,-166.666666666667,6,2,35,34,0,0
258514,-166.666666666667,6,2,35,10,0,0
258650,-166.666666666667,6,2,35,24,0,0
259057,-166.666666666667,6,2,35,30,0,0
259328,-166.666666666667,6,2,35,24,0,0
259871,-166.666666666667,6,2,35,30,0,0
260143,-166.666666666667,6,2,35,10,0,0
260279,-166.666666666667,6,2,35,24,0,0
260686,-166.666666666667,6,2,35,30,0,0
260957,-166.666666666667,6,2,35,28,0,0
261229,-166.666666666667,6,2,35,26,0,0
261500,-166.666666666667,6,2,35,30,0,0
261772,-166.666666666667,6,2,35,10,0,0
261908,-166.666666666667,6,2,35,24,0,0
262315,-166.666666666667,6,2,35,30,0,0
262858,-166.666666666667,6,2,35,24,0,0
263129,-166.666666666667,6,2,35,30,0,0
263401,-166.666666666667,6,2,35,24,0,0
263537,-166.666666666667,6,2,35,28,0,0
263808,-166.666666666667,6,2,35,24,0,0
263944,-166.666666666667,6,2,35,30,0,0
264487,-166.666666666667,6,2,35,24,0,0
264758,-181.818181818182,6,2,35,32,0,0
265030,-181.818181818182,6,2,35,10,0,0
265166,-181.818181818182,6,2,35,20,0,0
265573,-181.818181818182,6,2,35,28,0,0
266116,-181.818181818182,6,2,35,20,0,0
266387,-181.818181818182,6,2,35,28,0,0
266659,-181.818181818182,6,2,35,10,0,0
266795,-181.818181818182,6,2,35,20,0,0
267100,-181.818181818182,6,2,35,26,0,0
267202,-181.818181818182,6,2,35,28,0,0
267473,-181.818181818182,6,2,35,20,0,0
268016,-181.818181818182,6,2,35,26,0,0
268288,-181.818181818182,6,2,35,10,0,0
268423,-181.818181818182,6,2,35,18,0,0
268831,-181.818181818182,6,2,35,26,0,0
269102,-181.818181818182,6,2,35,18,0,0
269238,-181.818181818182,6,2,35,26,0,0
269374,288.461538461538,6,2,35,18,1,0
269374,-181.818181818182,6,2,35,18,0,0
269662,523.1037489102,6,2,35,26,1,0
269662,-90.9090909090909,6,2,35,26,0,0
269923,-181.818181818182,6,2,35,18,0,0
270185,-181.818181818182,6,2,35,24,0,0
270446,275.862068965517,6,2,35,36,1,0
270446,-181.818181818182,6,2,35,36,0,0
270721,-181.818181818182,6,2,35,34,0,0
270997,-181.818181818182,6,2,35,32,0,0
271274,272.108843537415,6,2,35,38,1,0
271274,-200,6,2,35,38,0,0
271546,-200,6,2,35,36,0,0
271818,-200,6,2,35,34,0,0
272090,-200,6,2,35,36,0,0
272362,-200,6,2,35,34,0,0
272634,-200,6,2,35,32,0,0
272906,281.69014084507,6,2,35,34,1,0
272906,-200,6,2,35,34,0,0
273187,-200,6,2,35,10,0,0
273328,-200,6,2,35,24,0,0
273469,-200,6,2,35,34,0,0
273751,304.568527918782,6,2,35,30,1,0
273751,-200,6,2,35,30,0,0
274055,361.44578313253,6,2,35,32,1,0
274055,-166.666666666667,6,2,35,32,0,0
274234,582.52427184466,6,2,35,28,1,0
274235,-200,6,2,35,28,0,0
274525,555.555555555556,6,2,35,30,1,0
274525,-125,6,2,35,30,0,0
274802,-125,6,2,35,10,0,0
275636,-125,6,2,35,20,0,0
276191,588.235294117647,6,2,35,26,1,0
276191,-125,6,2,35,26,0,0
276779,517.241379310345,6,2,35,16,1,0
276779,-222.222222222222,6,2,35,16,0,0
277813,-125,6,2,35,24,0,0
278072,-250,6,2,35,6,0,0
278589,460.652591170825,6,2,35,14,1,0
278589,-250,6,2,35,14,0,0
279049,600,6,2,35,20,1,0
279049,-125,6,2,35,20,0,0
279199,-250,6,2,35,14,0,0
279349,759.493670886076,6,2,35,10,1,0
279349,-250,6,2,35,10,0,0
279538,759.493670886076,6,2,35,14,1,0
279538,-142.857142857143,6,2,35,14,0,0
279727,1132.07547169811,6,2,35,10,1,0
279728,-285.714285714286,6,2,35,10,0,0
280010,674.157303370787,6,2,35,12,1,0
280010,-153.846153846154,6,2,35,12,0,0
280347,895.522388059701,6,2,35,10,1,0
280347,-333.333333333333,6,2,35,10,0,0
280794,1562.5,6,2,35,10,1,0
280794,-400,6,2,35,10,0,0
281575,-400,6,2,24,8,0,0

[Colours]
Combo1 : 255,160,160
Combo2 : 150,210,240
Combo3 : 255,225,140
Combo4 : 170,240,140

[HitObjects]
14,332,866,6,0,L|112:321,1,90,2|2,0:0|0:0,0:0:0:0:
191,231,1680,2,0,P|172:201|190:118,1,120,2|2,0:0|0:0,0:0:0:0:
249,66,2494,2,0,L|356:43,1,90,2|2,0:0|0:0,0:0:0:0:
435,126,3309,2,0,L|501:136,2,60,2|2|2,0:0|0:0|0:0,0:0:0:0:
360,202,4123,6,0,P|370:244|354:286,1,90,2|2,0:0|0:0,0:0:0:0:
232,319,4938,2,0,L|224:260,2,60,2|2|2,0:0|0:0|0:0,0:0:0:0:
166,372,5752,2,0,B|129:365|129:365|117:368|117:368|75:361,1,90,2|2,0:0|0:0,0:0:0:0:
3,263,6567,2,0,B|24:197|3:226|26:135,1,120,2|2,0:0|0:0,0:0:0:0:
94,34,7381,6,0,P|120:82|188:74,1,107.999996704102,2|2,0:0|0:0,0:0:0:0:
302,44,8196,2,0,P|330:29|378:21,2,71.9999978027344,2|2|2,0:0|0:0|0:0,0:0:0:0:
339,130,9010,2,0,P|362:148|373:228,1,107.999996704102,2|2,0:0|0:0,0:0:0:0:
333,359,9825,1,2,0:0:0:0:
333,359,10096,1,2,0:0:0:0:
333,359,10368,1,2,0:0:0:0:
268,292,10639,6,0,P|275:246|252:187,1,107.999996704102,2|2,0:0|0:0,0:0:0:0:
170,75,11454,1,2,0:0:0:0:
170,75,11725,1,2,0:0:0:0:
170,75,11997,1,2,0:0:0:0:
94,132,12268,2,0,P|40:135|-12:102,2,107.999996704102,2|2|2,0:0|0:0|0:0,0:0:0:0:
239,29,13354,5,14,0:1:0:0:
160,0,13487,1,8,0:0:0:0:
250,51,13620,5,10,0:0:0:0:
331,0,13754,1,8,0:3:0:0:
426,68,13887,6,0,P|444:134|510:156,1,143.999995605469,14|8,0:1|0:2,0:0:0:0:
403,257,14294,2,0,P|384:323|318:345,1,143.999995605469,14|0,0:1|0:0,0:0:0:0:
144,288,14701,5,10,0:0:0:0:
238,256,14837,1,8,0:0:0:0:
145,233,14972,5,10,0:3:0:0:
236,310,15108,1,8,0:3:0:0:
191,272,15244,5,10,0:1:0:0:
348,152,15515,6,0,P|416:128|412:56,1,155.999992858887,14|8,0:1|0:0,0:0:0:0:
233,95,15923,2,0,P|164:71|168:0,1,155.999992858887,14|8,0:1|0:1,0:0:0:0:
85,149,16330,5,10,0:0:0:0:
34,54,16466,1,8,0:0:0:0:
90,168,16601,5,10,0:3:0:0:
3,136,16737,1,8,0:3:0:0:
103,184,16873,5,6,0:3:0:0:
22,221,17009,1,4,0:3:0:0:
120,195,17144,6,0,B|174:206|174:206|191:231|191:231|247:247,1,143.999995605469,14|2,0:1|0:0,0:0:0:0:
444,183,17959,5,10,0:0:0:0:
282,112,18230,1,8,0:3:0:0:
423,7,18502,1,8,0:1:0:0:
196,138,18773,5,14,0:1:0:0:
105,130,18909,1,2,0:0:0:0:
279,171,19045,2,0,P|286:142|282:113,1,60,2|8,0:0|0:1,0:0:0:0:
100,236,19316,5,10,0:0:0:0:
195,228,19452,1,10,0:0:0:0:
5,211,19588,2,0,P|1:240|8:270,1,60,2|8,0:0|0:1,0:0:0:0:
209,336,19859,5,10,0:0:0:0:
104,326,19995,1,2,0:0:0:0:
302,373,20131,2,0,P|310:344|309:314,1,60,2|0,0:0|0:0,0:0:0:0:
210,213,20402,6,0,B|187:232|187:232|115:219,1,90,6|2,0:0|0:0,0:0:0:0:
31,139,21227,2,0,L|24:75,2,60,2|2|2,2:2|0:0|0:0,0:0:0:0:
62,319,22324,1,2,0:0:0:0:
103,294,22460,1,2,0:0:0:0:
144,318,22595,2,0,P|171:328|201:325,2,60,2|2|2,0:0|0:0|0:0,0:0:0:0:
101,205,23403,1,2,0:0:0:0:
223,129,23669,6,0,P|221:93|236:63,1,60,2|0,0:0|0:0,0:0:0:0:
301,110,24076,2,0,P|331:90|364:88,1,60,2|0,0:0|0:0,0:0:0:0:
356,168,24483,2,0,P|388:184|406:212,2,60,2|2|2,0:0|0:0|0:0,0:0:0:0:
219,159,25297,2,0,L|149:167,1,60,2|0,0:0|0:0,0:0:0:0:
91,125,25705,2,0,P|90:95|78:67,1,60,2|0,0:0|0:0,0:0:0:0:
11,33,26112,1,2,0:0:0:0:
91,125,26378,1,2,0:0:0:0:
11,33,26645,1,2,0:0:0:0:
161,70,26934,6,0,L|288:55,1,120,2|2,0:0|0:0,0:0:0:0:
402,60,27748,2,0,P|389:32|391:3,1,60,2|2,0:0|0:0,0:0:0:0:
484,107,28291,1,2,0:0:0:0:
395,147,28562,2,0,L|325:141,2,60,2|2|2,0:0|0:0|0:0,0:0:0:0:
480,209,29377,2,0,P|491:237|486:271,1,60,2|2,0:0|0:0,0:0:0:0:
406,366,29920,1,2,0:0:0:0:
406,366,30056,1,2,0:0:0:0:
342,287,30184,6,0,P|304:268|262:265,1,83.9999974365235,14|0,0:1|0:0,0:0:0:0:
180,357,30591,2,0,P|142:375|100:378,1,83.9999974365235,10|0,0:1|0:0,0:0:0:0:
0,300,30998,1,2,0:0:0:0:
217,184,31269,1,2,0:0:0:0:
32,18,31818,6,0,L|44:124,1,96,14|0,0:1|0:0,0:0:0:0:
124,187,32225,2,0,L|134:91,1,96,10|0,0:1|0:0,0:0:0:0:
214,0,32632,2,0,L|224:95,1,96,2|0,0:0|0:0,0:0:0:0:
309,153,33039,2,0,L|315:96,1,48,10|8,0:0|0:3,0:0:0:0:
314,105,33435,6,0,P|362:85|420:95,1,107.999996704102,14|0,0:1|0:0,0:0:0:0:
449,184,33842,2,0,P|490:215|498:275,1,107.999996704102,10|8,0:0|0:0,0:0:0:0:
441,379,34249,2,0,L|430:322,1,53.9999983520508,10|4,0:3|0:3,0:0:0:0:
337,384,34520,2,0,L|346:270,1,107.999996704102,10|2,0:0|0:0,0:0:0:0:
345,276,35063,6,0,B|294:262|295:302|240:299,1,107.999996704102,10|8,0:1|0:0,0:0:0:0:
165,203,35471,2,0,P|182:156|159:95,1,107.999996704102,10|8,0:1|0:3,0:0:0:0:
78,50,35878,1,6,0:3:0:0:
78,151,36014,1,8,0:3:0:0:
165,203,36149,2,0,B|207:196|207:196|223:205|223:205|281:197,1,107.999996704102,10|2,0:0|0:0,0:0:0:0:
269,198,36557,1,2,0:0:0:0:
383,103,36692,6,0,B|341:96|341:96|320:104|320:104|267:97,1,107.999996704102,10|0,0:1|0:0,0:0:0:0:
359,189,37100,2,0,P|375:246|416:267,1,107.999996704102,10|8,0:0|0:0,0:0:0:0:
387,354,37507,2,0,P|415:346|446:344,1,53.9999983520508,10|4,0:3|0:3,0:0:0:0:
319,312,37778,2,0,B|262:314|278:348|212:359,1,107.999996704102,10|2,0:0|0:0,0:0:0:0:
223,356,38321,6,0,L|210:237,1,107.999996704102,10|8,0:1|0:0,0:0:0:0:
104,324,38729,2,0,L|91:205,1,107.999996704102,10|8,0:1|0:3,0:0:0:0:
2,165,39136,1,6,0:3:0:0:
79,97,39272,1,8,0:3:0:0:
169,148,39407,2,0,P|226:154|293:121,1,107.999996704102,10|2,0:0|0:0,0:0:0:0:
273,137,39950,6,0,P|257:81|284:19,1,107.999996704102,14|0,0:1|0:0,0:0:0:0:
359,87,40358,2,0,P|399:45|466:37,1,107.999996704102,10|8,0:0|0:0,0:0:0:0:
448,136,40765,2,0,P|473:148|495:164,1,53.9999983520508,10|4,0:3|0:3,0:0:0:0:
478,267,41036,2,0,P|479:314|448:365,1,107.999996704102,10|2,0:0|0:0,0:0:0:0:
448,364,41579,6,0,B|413:356|413:356|383:368|383:368|332:357,1,107.999996704102,14|8,0:1|0:0,0:0:0:0:
279,275,41987,2,0,P|303:228|280:163,1,107.999996704102,10|8,0:1|0:3,0:0:0:0:
213,108,42394,1,6,0:3:0:0:
137,177,42530,1,8,0:3:0:0:
48,126,42665,2,0,P|29:76|46:26,1,107.999996704102,10|2,0:0|0:0,0:0:0:0:
45,26,43073,1,2,0:0:0:0:
137,177,43208,6,0,P|128:229|88:263,1,107.999996704102,14|0,0:1|0:0,0:0:0:0:
227,298,43615,2,0,P|235:350|275:384,1,107.999996704102,10|8,0:0|0:0,0:0:0:0:
410,357,44023,2,0,L|356:353,1,53.9999983520508,10|4,0:3|0:3,0:0:0:0:
450,278,44294,2,0,L|503:274,1,53.9999983520508,10|0,0:0|0:0,0:0:0:0:
417,176,44566,5,2,0:3:0:0:
367,240,44701,1,2,0:3:0:0:
336,164,44837,6,0,P|305:137|216:142,1,120,14|8,0:1|0:0,0:0:0:0:
367,240,45244,2,0,P|359:280|407:354,1,120,10|8,0:1|0:0,0:0:0:0:
417,176,45652,2,0,P|455:162|479:129,1,60,10|0,0:0|0:0,0:0:0:0:
321,45,45923,5,10,0:0:0:0:
250,122,46059,1,8,0:0:0:0:
221,0,46195,1,10,0:3:0:0:
76,181,46476,6,0,P|62:85|158:68,1,215.999993408203,14|2,0:1|0:0,0:0:0:0:
250,122,47561,2,0,P|282:136|321:125,1,71.9999978027344,2|0,0:0|0:0,0:0:0:0:
317,128,48104,2,0,P|342:89|328:22,1,107.999996704102,2|2,0:0|0:0,0:0:0:0:
411,190,48919,2,0,P|414:220|453:257,2,71.9999978027344,2|0|0,0:0|0:0|0:0,0:0:0:0:
317,139,49733,6,0,B|235:115|265:181|179:180,1,143.999995605469,2|2,0:0|0:0,0:0:0:0:
100,182,50548,2,0,L|26:167,2,71.9999978027344,2|0|0,0:0|0:0|0:0,0:0:0:0:
145,255,51362,2,0,B|139:295|139:295|143:317|143:317|137:361,2,107.999996704102,2|2|2,0:0|0:0|0:0,0:0:0:0:
217,146,52448,5,2,0:0:0:0:
294,37,52720,5,2,0:0:0:0:
417,97,52991,6,0,L|469:108,1,53.9999983520508,14|0,0:1|0:0,0:0:0:0:
332,180,53261,2,0,L|349:232,1,53.9999983520508,10|0,0:2|0:0,0:0:0:0:
217,146,53531,2,0,L|180:186,1,53.9999983520508,10|0,0:0|0:0,0:0:0:0:
417,97,53801,6,0,L|479:110,1,60,14|0,0:1|0:0,0:0:0:0:
332,180,54072,2,0,L|357:259,1,60,10|0,0:0|0:0,0:0:0:0:
217,146,54343,2,0,L|173:194,1,60,10|0,0:0|0:0,0:0:0:0:
417,97,54615,6,0,L|481:112,1,66.0000020141602,14|0,0:1|0:0,0:0:0:0:
332,180,54886,2,0,L|351:243,1,66.0000020141602,10|0,0:0|0:0,0:0:0:0:
217,146,55158,2,0,L|172:194,1,66.0000020141602,10|0,0:0|0:0,0:0:0:0:
188,29,55435,5,10,0:1:0:0:
171,194,55706,5,10,0:3:0:0:
295,99,55842,1,8,0:3:0:0:
369,272,55977,6,0,B|388:324|454:324|454:324|475:261|431:226,1,215.999993408203,14|10,0:1|0:1,0:0:0:0:
180,332,57055,5,8,0:0:0:0:
162,209,57190,1,8,0:0:0:0:
76,252,57325,5,10,0:3:0:0:
126,116,57461,1,8,0:3:0:0:
41,117,57596,5,6,0:3:0:0:
147,4,57732,1,4,0:3:0:0:
274,122,57867,6,0,P|358:121|384:41,1,180.000006866455,14|8,0:1|0:1,0:0:0:0:
166,248,58274,2,0,P|81:246|56:166,1,180.000006866455,10|8,0:0|0:1,0:0:0:0:
251,277,58681,1,2,0:0:0:0:
294,355,58817,2,0,P|378:353|403:273,1,180.000006866455,8|8,0:1|0:1,0:0:0:0:
468,124,59224,2,0,B|450:167|450:167|476:225,1,90.0000034332277,10|0,0:0|0:0,0:0:0:0:
341,21,59495,6,0,B|247:-3|277:86|179:78,1,180.000006866455,10|8,0:1|0:1,0:0:0:0:
0,199,59903,2,0,B|94:175|64:264|162:256,1,180.000006866455,10|8,0:0|0:1,0:0:0:0:
347,119,60310,5,10,0:0:0:0:
181,78,60446,1,8,0:1:0:0:
286,181,60581,5,10,0:0:0:0:
240,15,60717,1,8,0:0:0:0:
169,89,60853,5,10,0:3:0:0:
512,286,61124,6,0,P|427:296|406:378,1,180.000006866455,14|10,0:1|0:1,0:0:0:0:
342,211,61532,1,8,0:2:0:0:
407,123,61667,2,0,P|425:85|404:24,1,90.0000034332277,2|8,0:0|0:1,0:0:0:0:
191,157,61939,2,0,L|280:149,1,90.0000034332277,2|8,0:0|0:1,0:0:0:0:
433,303,62210,2,0,L|343:295,1,90.0000034332277,2|8,0:0|0:1,0:0:0:0:
191,384,62482,2,0,P|198:340|182:298,1,90.0000034332277,10|0,0:0|0:0,0:0:0:0:
18,166,62753,6,0,B|58:186|58:186|207:153,1,180.000006866455,10|8,0:1|0:1,0:0:0:0:
407,22,63161,2,0,B|367:42|367:42|218:9,1,180.000006866455,10|8,0:0|0:1,0:0:0:0:
389,203,63568,5,10,0:0:0:0:
491,151,63704,1,8,0:1:0:0:
376,217,63839,5,10,0:0:0:0:
512,243,63975,1,8,0:0:0:0:
362,231,64111,5,10,0:3:0:0:
494,330,64247,1,8,0:3:0:0:
264,384,64382,6,0,P|252:299|172:270,1,180.000006866455,14|8,0:1|0:1,0:0:0:0:
328,127,64790,2,0,P|339:42|419:13,1,180.000006866455,10|8,0:0|0:1,0:0:0:0:
235,190,65197,2,0,L|137:161,1,90.0000034332277,2|8,0:0|0:1,0:0:0:0:
378,229,65468,2,0,L|476:258,1,90.0000034332277,2|8,0:0|0:1,0:0:0:0:
292,303,65740,2,0,P|288:350|255:390,1,90.0000034332277,10|0,0:0|0:0,0:0:0:0:
29,254,66011,6,0,P|9:140|59:86,1,180.000006866455,10|8,0:1|0:1,0:0:0:0:
308,4,66419,2,0,B|280:57|280:57|139:31,1,180.000006866455,10|8,0:0|0:1,0:0:0:0:
331,210,66826,5,10,0:0:0:0:
490,142,66962,1,8,0:1:0:0:
420,90,67097,5,10,0:0:0:0:
400,261,67233,1,8,0:0:0:0:
479,227,67369,5,10,0:3:0:0:
341,124,67505,1,8,0:0:0:0:
231,261,67640,6,0,P|222:346|108:355,1,192,14|8,0:1|0:0,0:0:0:0:
0,120,68047,2,0,P|9:205|123:214,1,192,14|8,0:1|0:1,0:0:0:0:
258,59,68455,5,10,0:0:0:0:
121,10,68590,1,8,0:0:0:0:
254,81,68726,5,10,0:3:0:0:
412,6,68862,1,8,0:3:0:0:
236,66,68998,5,14,0:1:0:0:
512,319,69269,6,0,B|415:283|422:383|322:362,1,204.000003890991,14|8,0:1|0:0,0:0:0:0:
107,237,69676,2,0,B|203:201|196:301|296:280,1,204.000003890991,14|8,0:1|0:1,0:0:0:0:
410,111,70084,5,10,0:0:0:0:
270,194,70219,1,8,0:0:0:0:
433,112,70355,5,10,0:3:0:0:
227,107,70491,1,8,0:3:0:0:
456,114,70627,5,6,0:3:0:0:
251,13,70762,1,4,0:3:0:0:
380,200,70898,6,0,P|400:131|305:93,1,180.000006866455,14|8,0:1|0:1,0:0:0:0:
80,129,71305,2,0,P|60:60|155:22,1,180.000006866455,10|8,0:0|0:1,0:0:0:0:
262,297,71713,5,2,0:0:0:0:
192,263,71848,1,8,0:1:0:0:
227,194,71984,1,2,0:0:0:0:
296,228,72120,1,8,0:1:0:0:
181,273,72256,2,0,P|136:271|91:245,1,90.0000034332277,10|0,0:0|0:0,0:0:0:0:
323,114,72527,6,0,B|322:29|406:9|406:9|458:45,1,180.000006866455,10|8,0:1|0:1,0:0:0:0:
421,206,72934,2,0,P|491:250|493:365,1,180.000006866455,10|8,0:0|0:1,0:0:0:0:
280,384,73342,5,10,0:0:0:0:
254,250,73477,1,8,0:1:0:0:
421,206,73613,5,10,0:0:0:0:
374,313,73749,1,8,0:0:0:0:
295,110,73885,5,10,0:3:0:0:
424,68,74020,1,8,0:3:0:0:
281,127,74156,6,0,B|174:118|237:51|126:54,1,180.000006866455,14|8,0:1|0:1,0:0:0:0:
0,292,74563,2,0,B|106:283|43:216|154:219,1,180.000006866455,10|8,0:0|0:1,0:0:0:0:
387,384,74971,5,2,0:0:0:0:
361,310,75106,1,8,0:1:0:0:
388,237,75242,1,2,0:0:0:0:
356,166,75378,1,8,0:1:0:0:
400,102,75514,2,0,P|415:61|387:-2,1,90.0000034332277,10|0,0:0|0:0,0:0:0:0:
205,130,75785,6,0,B|118:95|121:176|25:135,1,180.000006866455,10|8,0:1|0:1,0:0:0:0:
237,262,76192,2,0,P|227:338|335:361,1,180.000006866455,10|8,0:0|0:1,0:0:0:0:
505,258,76600,5,10,0:0:0:0:
374,208,76735,1,8,0:1:0:0:
426,130,76871,5,10,0:0:0:0:
242,150,77007,1,8,0:0:0:0:
314,94,77143,5,10,0:3:0:0:
160,4,77278,1,8,0:3:0:0:
86,91,77414,6,0,P|73:178|-14:176,1,192,14|10,0:1|0:1,0:0:0:0:
148,254,77821,1,10,0:0:0:0:
73,384,77957,2,0,B|57:343|57:343|82:271,1,96,2|8,0:0|0:1,0:0:0:0:
228,229,78228,2,0,L|428:209,1,192,2|0,0:0|0:0,0:0:0:0:
242,142,78636,1,8,0:1:0:0:
320,92,78771,2,0,B|338:48|338:48|311:-21,1,96,10|0,0:0|0:0,0:0:0:0:
146,145,79043,6,0,P|97:134|63:250,1,180.000006866455,10|8,0:1|0:1,0:0:0:0:
178,358,79450,2,0,B|250:354|250:354|259:358|259:358|367:354,1,180.000006866455,10|8,0:0|0:1,0:0:0:0:
511,215,79857,5,10,0:0:0:0:
347,175,79993,1,10,0:1:0:0:
462,283,80129,5,10,0:0:0:0:
393,104,80265,1,10,0:0:0:0:
429,195,80400,5,10,0:3:0:0:
175,0,80672,6,0,P|153:93|58:110,1,204.000003890991,14|8,0:1|0:0,0:0:0:0:
346,175,81079,2,0,P|368:268|463:285,1,204.000003890991,14|8,0:1|0:1,0:0:0:0:
164,384,81486,5,8,0:0:0:0:
188,227,81622,1,8,0:0:0:0:
273,329,81758,5,8,0:3:0:0:
219,111,81894,1,8,0:3:0:0:
78,203,82029,6,0,L|346:175,1,270.000010299683,14|2,0:1|0:0,0:0:0:0:
476,63,83115,5,8,0:0:0:0:
406,20,83251,1,8,0:0:0:0:
479,85,83387,5,8,0:3:0:0:
417,0,83523,1,8,0:3:0:0:
471,108,83658,5,14,0:2:0:0:
299,192,83930,5,10,0:1:0:0:
335,284,84066,2,0,P|307:352|219:357,1,150,12|8,0:0|0:1,0:0:0:0:
43,221,84473,5,10,0:3:0:0:
104,296,84609,2,0,B|153:325|190:278|190:278|172:239,1,120,4|8,0:3|0:1,0:0:0:0:
152,180,85016,6,0,B|66:169|66:169|124:206,1,144,14|0,0:0|0:0,0:0:0:0:
180,258,85566,6,0,P|167:293|205:347,1,107.999996704102,14|2,0:1|0:0,0:0:0:0:
375,372,86380,2,0,L|452:376,2,71.9999978027344,2|2|2,0:0|0:0|0:0,0:0:0:0:
309,277,87194,2,0,P|327:232|311:167,1,107.999996704102,2|2,0:0|0:0,0:0:0:0:
215,34,88009,1,2,0:0:0:0:
177,103,88280,1,2,0:0:0:0:
101,78,88552,1,2,0:0:0:0:
222,22,88823,6,0,B|288:11|266:46|332:39,1,107.999996704102,2|2,0:0|0:0,0:0:0:0:
262,137,89638,2,0,B|168:131|215:182|133:187,1,143.999995605469,2|2,0:0|0:0,0:0:0:0:
232,251,90452,2,0,P|232:292|284:334,2,107.999996704102,2|2|2,0:0|0:0|0:0,0:0:0:0:
356,97,91810,1,2,0:0:0:0:
247,39,92081,6,0,B|212:25|212:25|180:51|139:41,1,107.999996704102,6|2,0:1|0:0,0:0:0:0:
12,108,92896,2,0,P|-19:170|4:235,1,143.999995605469,2|2,0:0|0:0,0:0:0:0:
89,302,93710,2,0,L|205:294,1,107.999996704102,2|2,0:0|0:0,0:0:0:0:
344,361,94525,2,0,L|424:370,2,71.9999978027344,2|2|2,0:0|0:0|0:0,0:0:0:0:
275,261,95339,6,0,P|258:209|273:151,1,107.999996704102,2|2,0:0|0:0,0:0:0:0:
383,7,96154,1,2,0:0:0:0:
428,79,96425,1,2,0:0:0:0:
468,5,96697,1,2,0:0:0:0:
343,81,96968,2,0,L|231:78,2,107.999996704102,2|2|2,0:0|0:0|0:0,0:0:0:0:
512,163,98054,5,10,0:0:0:0:
300,241,98326,1,10,0:3:0:0:
496,384,98596,6,0,P|491:319|461:255,1,120,14|0,0:1|0:0,0:0:0:0:
371,191,99003,2,0,B|398:198|398:198|426:183,1,60,2|8,0:0|0:0,0:0:0:0:
328,119,99274,1,2,0:0:0:0:
394,68,99410,2,0,P|409:44|405:10,1,60,2|8,0:0|0:0,0:0:0:0:
252,82,99681,2,0,P|183:62|127:66,1,120,2|8,0:0|0:0,0:0:0:0:
135,64,100224,6,0,L|119:199,1,120,10|0,0:1|0:0,0:0:0:0:
50,246,100632,2,0,L|33:184,1,60,10|8,0:1|0:0,0:0:0:0:
177,384,101039,2,0,L|187:320,1,60,2|8,0:0|0:0,0:0:0:0:
261,276,101310,2,0,B|337:272|298:311|378:319,1,120,2|10,2:1|0:0,0:0:0:0:
368,317,101718,1,2,0:0:0:0:
496,272,101853,6,0,B|501:228|501:228|499:215|499:215|505:151,1,120,10|0,0:1|0:0,0:0:0:0:
423,175,102261,2,0,L|412:97,1,60,2|8,0:0|0:0,0:0:0:0:
367,3,102532,1,2,0:0:0:0:
287,82,102668,2,0,B|317:89|317:89|358:70,1,60,2|8,0:0|0:0,0:0:0:0:
217,46,102939,2,0,B|165:18|165:18|101:37,1,120,2|8,0:0|0:0,0:0:0:0:
106,35,103482,6,0,P|122:106|77:156,1,120,10|0,0:1|0:0,0:0:0:0:
30,191,103890,2,0,P|12:166|25:124,1,60,10|8,0:1|0:0,0:0:0:0:
198,23,104297,1,2,0:0:0:0:
255,106,104433,1,8,0:0:0:0:
314,26,104568,2,0,B|265:19|265:19|244:30|244:30|192:22,1,120,2|8,0:1|0:0,0:0:0:0:
394,129,105111,5,10,0:1:0:0:
394,129,105247,2,0,P|393:168|466:203,1,120,2|0,0:0|0:0,0:0:0:0:
437,295,105654,2,0,P|465:286|495:286,1,60,8|0,0:0|0:0,0:0:0:0:
382,365,105926,2,0,P|352:364|323:356,1,60,2|8,0:0|0:0,0:0:0:0:
267,255,106197,2,0,P|279:188|253:140,1,120,2|8,0:1|0:0,0:0:0:0:
256,143,106740,6,0,B|212:139|212:139|191:154|191:154|134:167,1,120,10|0,0:1|0:0,0:0:0:0:
75,216,107148,2,0,L|60:153,1,60,10|8,0:1|0:0,0:0:0:0:
0,340,107555,1,2,0:0:0:0:
74,300,107691,1,8,0:0:0:0:
144,347,107826,2,0,P|199:356|259:296,1,120,2|10,0:2|0:0,0:0:0:0:
249,320,108234,1,2,0:0:0:0:
174,184,108369,6,0,P|153:125|176:58,1,132.00000402832,14|0,0:1|0:0,0:0:0:0:
289,7,108776,2,0,B|264:29|264:29|249:-5,1,66.0000020141602,2|8,0:0|0:0,0:0:0:0:
447,172,109184,6,0,L|513:164,1,66.0000020141602,2|8,0:0|0:0,0:0:0:0:
424,265,109455,2,0,L|490:257,1,66.0000020141602,2|0,0:0|0:0,0:0:0:0:
360,154,109727,2,0,L|426:146,1,66.0000020141602,10|0,0:0|0:0,0:0:0:0:
318,275,109998,6,0,P|321:326|237:358,1,143.999995605469,10|0,0:1|0:0,0:0:0:0:
154,298,110405,2,0,L|144:221,1,71.9999978027344,2|8,0:1|0:0,0:0:0:0:
15,40,110813,5,10,0:0:0:0:
51,149,110948,1,8,0:0:0:0:
133,126,111084,5,10,0:3:0:0:
129,25,111220,1,8,0:3:0:0:
215,17,111356,5,6,0:3:0:0:
242,99,111491,1,4,0:3:0:0:
333,34,111627,6,0,P|385:12|451:21,1,120,14|0,0:1|0:0,0:0:0:0:
418,127,112034,2,0,P|436:145|452:187,1,60,2|8,0:0|0:0,0:0:0:0:
398,307,112306,1,2,0:0:0:0:
322,254,112442,2,0,P|292:241|241:243,1,60,2|8,0:0|0:0,0:0:0:0:
398,307,112713,2,0,P|434:352|489:375,1,120,2|8,0:0|0:0,0:0:0:0:
490,375,113256,6,0,P|454:330|399:307,1,120,10|0,0:1|0:0,0:0:0:0:
322,254,113663,2,0,P|313:225|315:195,1,60,10|8,0:1|0:0,0:0:0:0:
214,4,114071,2,0,P|215:33|207:62,1,60,2|8,0:0|0:0,0:0:0:0:
108,115,114342,2,0,B|78:112|51:129|51:129|29:104|0:100,1,120,2|10,0:0|0:0,0:0:0:0:
0,100,114749,1,2,0:0:0:0:
42,227,114885,6,0,P|33:280|82:318,1,120,10|0,0:1|0:0,0:0:0:0:
159,367,115292,2,0,L|170:295,1,60,2|8,0:0|0:0,0:0:0:0:
230,240,115564,1,2,0:0:0:0:
313,335,115700,2,0,L|303:275,1,60,2|8,0:0|0:0,0:0:0:0:
243,159,115971,2,0,B|209:155|209:155|174:171|174:171|121:163,1,120,2|8,0:0|0:0,0:0:0:0:
127,163,116514,6,0,P|114:89|146:50,1,120,10|0,0:1|0:0,0:0:0:0:
254,12,116921,2,0,B|224:22|224:22|193:3,1,60,10|8,0:1|0:0,0:0:0:0:
4,133,117329,1,2,0:0:0:0:
79,94,117464,1,8,0:0:0:0:
127,163,117600,2,0,P|171:197|254:184,1,120,2|8,0:1|0:0,0:0:0:0:
233,195,118143,6,0,P|280:159|339:162,1,120,14|0,0:1|0:0,0:0:0:0:
411,225,118550,2,0,L|421:285,1,60,2|8,0:0|0:0,0:0:0:0:
234,384,118957,2,0,L|224:324,1,60,2|8,0:0|0:0,0:0:0:0:
136,272,119229,2,0,B|113:272|83:293|83:293|61:269|30:263,1,120,2|8,0:0|0:0,0:0:0:0:
30,263,119772,6,0,L|22:120,1,120,10|0,0:1|0:0,0:0:0:0:
104,66,120179,2,0,P|72:71|42:57,1,60,10|8,0:1|0:0,0:0:0:0:
228,0,120586,1,2,0:0:0:0:
268,74,120722,1,8,0:0:0:0:
341,32,120858,2,0,P|389:10|476:29,1,120,2|10,0:0|0:0,0:0:0:0:
454,16,121265,1,2,0:0:0:0:
382,108,121401,6,0,P|433:148|455:209,1,132.00000402832,14|0,0:1|0:0,0:0:0:0:
485,297,121808,2,0,P|474:327|434:344,1,66.0000020141602,2|8,0:0|0:0,0:0:0:0:
193,301,122215,6,0,L|184:235,1,66.0000020141602,2|8,0:0|0:0,0:0:0:0:
289,212,122487,2,0,L|297:146,1,66.0000020141602,2|0,0:0|0:0,0:0:0:0:
247,25,122758,5,10,0:0:0:0:
205,106,122894,1,2,0:0:0:0:
155,29,123030,6,0,P|102:9|11:20,1,143.999995605469,10|0,0:1|0:0,0:0:0:0:
130,143,123437,2,0,P|86:178|50:263,1,143.999995605469,10|8,0:0|0:0,0:0:0:0:
216,221,123844,2,0,P|225:276|280:350,1,143.999995605469,10|8,0:0|0:0,0:0:0:0:
326,185,124252,2,0,P|368:203|422:196,1,71.9999978027344,8|8,0:0|0:3,0:0:0:0:
512,52,124659,5,14,0:1:0:0:
512,52,125496,5,8,0:0:0:0:
376,74,125635,1,8,0:3:0:0:
453,118,125877,5,8,0:0:0:0:
299,30,126019,1,8,0:3:0:0:
200,114,126273,6,0,P|150:131|105:105,1,107.999996704102,14|8,0:1|0:0,0:0:0:0:
64,26,126697,1,10,0:1:0:0:
26,162,126839,1,8,0:3:0:0:
157,256,127105,5,10,0:0:0:0:
221,194,127240,1,4,0:3:0:0:
145,235,127376,5,10,0:3:0:0:
232,214,127512,1,4,0:3:0:0:
146,211,127647,5,10,0:3:0:0:
231,238,127783,1,4,0:3:0:0:
189,225,127919,5,14,0:1:0:0:
323,380,128194,1,10,0:3:0:0:
479,243,128469,1,10,0:3:0:0:
344,88,128744,1,10,0:0:0:0:
189,225,129019,5,10,0:0:0:0:
278,284,129145,1,8,0:3:0:0:
286,178,129271,1,10,0:1:0:0:
150,27,129551,6,0,B|87:6|94:59|23:40,1,132.00000402832,14|8,0:1|0:0,0:0:0:0:
135,135,129958,2,0,P|133:198|189:224,1,132.00000402832,14|8,0:1|0:1,0:0:0:0:
341,116,130365,5,10,0:0:0:0:
244,118,130501,1,8,0:0:0:0:
339,128,130636,5,10,0:0:0:0:
245,105,130772,1,8,0:0:0:0:
337,138,130908,5,10,0:3:0:0:
123,259,131169,6,0,P|93:263|64:256,1,60,14|0,0:1|0:0,0:0:0:0:
215,155,131446,2,0,P|226:127|246:105,1,60,10|0,0:2|0:0,0:0:0:0:
265,291,131724,2,0,P|283:314|291:343,1,60,10|0,0:0|0:0,0:0:0:0:
135,174,132002,6,0,P|115:148|106:117,1,66.0000020141602,14|0,0:1|0:0,0:0:0:0:
283,204,132269,2,0,P|316:200|348:208,1,66.0000020141602,10|0,0:0|0:0,0:0:0:0:
183,325,132537,2,0,P|170:356|147:379,1,66.0000020141602,10|0,0:0|0:0,0:0:0:0:
222,140,132805,6,0,P|236:107|260:82,1,71.9999978027344,14|0,0:1|0:0,0:0:0:0:
274,296,133080,2,0,P|296:324|306:359,1,71.9999978027344,10|0,0:0|0:0,0:0:0:0:
105,267,133355,2,0,P|70:272|35:263,1,71.9999978027344,10|0,0:0|0:0,0:0:0:0:
260,81,133624,5,10,0:1:0:0:
510,97,133895,5,10,0:3:0:0:
404,7,134028,1,8,0:3:0:0:
309,142,134161,6,0,B|277:187|213:170|213:170|209:103|261:81,1,215.999993408203,14|10,0:1|0:1,0:0:0:0:
512,293,135244,5,8,0:0:0:0:
479,171,135378,1,8,0:0:0:0:
383,270,135513,5,10,0:3:0:0:
429,98,135648,1,8,0:3:0:0:
275,210,135783,5,6,0:3:0:0:
369,33,135918,1,4,0:3:0:0:
194,74,136053,6,0,P|119:88|137:15,1,180.000006866455,14|8,0:1|0:1,0:0:0:0:
280,222,136460,2,0,P|354:236|336:163,1,180.000006866455,10|8,0:0|0:1,0:0:0:0:
182,262,136867,1,2,0:0:0:0:
153,340,137003,2,0,P|78:354|96:281,1,180.000006866455,8|8,0:1|0:1,0:0:0:0:
0,176,137410,2,0,B|44:186|44:186|90:165,1,90.0000034332277,10|0,0:0|0:0,0:0:0:0:
214,15,137681,6,0,B|154:12|154:12|120:57|120:57|56:63,1,180.000006866455,10|8,0:1|0:1,0:0:0:0:
294,184,138089,2,0,B|352:196|352:196|373:248|373:248|433:271,1,180.000006866455,10|8,0:0|0:1,0:0:0:0:
178,384,138496,5,10,0:0:0:0:
156,233,138632,1,8,0:1:0:0:
61,266,138767,5,10,0:0:0:0:
112,84,138903,1,8,0:0:0:0:
21,119,139039,5,10,0:3:0:0:
381,0,139310,6,0,P|403:81|488:90,1,180.000006866455,14|10,0:1|0:1,0:0:0:0:
333,215,139718,1,8,0:2:0:0:
270,121,139853,2,0,B|289:81|289:81|265:36,1,90.0000034332277,2|8,0:0|0:1,0:0:0:0:
101,194,140125,2,0,L|191:190,1,90.0000034332277,2|8,0:0|0:1,0:0:0:0:
382,307,140396,2,0,L|292:302,1,90.0000034332277,2|8,0:0|0:1,0:0:0:0:
155,384,140668,2,0,B|174:344|174:344|152:303,1,90.0000034332277,10|0,0:0|0:0,0:0:0:0:
12,137,140939,6,0,B|47:175|102:153|102:153|114:112|155:97,1,180.000006866455,10|8,0:1|0:1,0:0:0:0:
373,40,141347,2,0,B|337:78|282:56|282:56|270:15|229:0,1,180.000006866455,10|8,0:0|0:1,0:0:0:0:
357,219,141754,5,10,0:0:0:0:
512,162,141890,1,8,0:1:0:0:
448,108,142025,5,10,0:0:0:0:
418,273,142161,1,8,0:0:0:0:
497,245,142297,5,10,0:3:0:0:
372,137,142433,1,8,0:3:0:0:
303,377,142568,6,0,P|295:292|214:265,1,180.000006866455,14|8,0:1|0:1,0:0:0:0:
1,143,142976,2,0,P|8:58|89:31,1,180.000006866455,10|8,0:0|0:1,0:0:0:0:
140,210,143383,2,0,B|120:251|120:251|128:293,1,90.0000034332277,2|8,0:0|0:1,0:0:0:0:
304,377,143654,2,0,B|324:336|324:336|315:293,1,90.0000034332277,2|8,0:0|0:1,0:0:0:0:
189,128,143926,2,0,L|80:106,1,90.0000034332277,10|0,0:0|0:0,0:0:0:0:
424,0,144197,6,0,P|431:84|512:110,1,180.000006866455,10|8,0:1|0:1,0:0:0:0:
293,220,144605,2,0,P|286:304|205:330,1,180.000006866455,10|8,0:0|0:1,0:0:0:0:
0,211,145012,5,10,0:0:0:0:
159,131,145148,1,8,0:1:0:0:
3,119,145283,5,10,0:0:0:0:
152,218,145419,1,8,0:0:0:0:
84,82,145555,5,10,0:3:0:0:
73,258,145691,1,8,0:0:0:0:
245,168,145826,6,0,B|276:135|295:78|242:30|242:30|232:59|247:83,1,192,14|8,0:1|0:0,0:0:0:0:
353,249,146233,2,0,P|369:334|476:333,1,192,14|8,0:1|0:1,0:0:0:0:
470,44,146641,5,10,0:0:0:0:
245,168,146776,1,8,0:0:0:0:
476,147,146912,5,10,0:3:0:0:
239,65,147048,1,8,0:3:0:0:
353,249,147184,5,14,0:1:0:0:
58,377,147455,6,0,P|22:283|57:189,1,204.000003890991,14|8,0:1|0:0,0:0:0:0:
353,249,147862,2,0,P|389:155|354:61,1,204.000003890991,14|8,0:1|0:1,0:0:0:0:
112,0,148270,5,10,0:0:0:0:
158,189,148405,1,8,0:0:0:0:
203,7,148541,5,10,0:3:0:0:
156,211,148677,1,8,0:3:0:0:
34,46,148813,5,6,0:3:0:0:
153,233,148948,1,4,0:3:0:0:
340,68,149084,6,0,B|241:30|275:119|164:83,1,180.000006866455,14|8,0:1|0:1,0:0:0:0:
387,192,149491,2,0,B|490:205|426:268|532:289,1,180.000006866455,10|8,0:0|0:1,0:0:0:0:
251,384,149899,5,2,0:0:0:0:
273,306,150034,1,8,0:1:0:0:
217,247,150170,1,2,0:0:0:0:
195,326,150306,1,8,0:1:0:0:
329,365,150442,2,0,P|352:323|336:257,1,90.0000034332277,10|0,0:0|0:0,0:0:0:0:
152,171,150713,6,0,B|95:162|95:162|43:197|43:197|-38:187,1,180.000006866455,10|8,0:1|0:1,0:0:0:0:
234,93,151120,2,0,P|251:11|336:0,1,180.000006866455,10|8,0:0|0:1,0:0:0:0:
504,154,151528,5,10,0:0:0:0:
347,138,151663,1,8,0:1:0:0:
443,295,151799,5,10,0:0:0:0:
325,171,151935,1,8,0:0:0:0:
318,379,152071,5,10,0:3:0:0:
291,190,152206,1,8,0:3:0:0:
112,366,152342,6,0,P|192:339|193:254,1,180.000006866455,14|8,0:1|0:1,0:0:0:0:
26,91,152749,2,0,P|27:175|107:202,1,180.000006866455,10|8,0:0|0:1,0:0:0:0:
380,114,153157,5,2,0:0:0:0:
344,39,153292,1,8,0:1:0:0:
263,48,153428,1,2,0:0:0:0:
246,129,153564,1,8,0:1:0:0:
317,168,153700,2,0,L|431:156,1,90.0000034332277,10|0,0:0|0:0,0:0:0:0:
180,17,153971,6,0,B|71:5|126:83|24:83,1,180.000006866455,10|8,0:1|0:1,0:0:0:0:
257,217,154378,2,0,B|366:204|311:282|413:282,1,180.000006866455,10|8,0:0|0:1,0:0:0:0:
152,384,154786,5,10,0:0:0:0:
123,199,154921,1,8,0:1:0:0:
196,294,155057,5,10,0:0:0:0:
216,94,155193,1,8,0:0:0:0:
257,217,155329,5,10,0:3:0:0:
309,18,155464,1,8,0:3:0:0:
512,213,155600,6,0,P|424:217|411:131,1,192,14|10,0:1|0:1,0:0:0:0:
297,314,156007,1,10,0:0:0:0:
389,383,156143,2,0,P|404:340|388:295,1,96,2|8,0:0|0:1,0:0:0:0:
241,203,156414,2,0,B|165:194|165:194|131:212|131:212|33:199,1,192,2|0,0:0|0:0,0:0:0:0:
192,282,156822,1,8,0:1:0:0:
149,118,156957,2,0,P|132:74|155:33,1,96,10|0,0:0|0:0,0:0:0:0:
323,143,157229,6,0,P|382:146|407:258,1,180.000006866455,10|8,0:1|0:1,0:0:0:0:
282,346,157636,2,0,B|206:335|206:335|184:342|184:342|103:330,1,180.000006866455,10|8,0:0|0:1,0:0:0:0:
0,182,158043,5,10,0:0:0:0:
226,138,158179,1,10,0:1:0:0:
16,97,158315,5,10,0:0:0:0:
209,222,158451,1,10,0:0:0:0:
113,160,158586,5,10,0:3:0:0:
388,0,158858,6,0,P|417:91|512:96,1,204.000003890991,14|8,0:1|0:0,0:0:0:0:
284,245,159265,2,0,P|254:336|159:341,1,204.000003890991,14|8,0:1|0:1,0:0:0:0:
0,184,159672,5,8,0:0:0:0:
187,128,159808,1,8,0:0:0:0:
94,59,159944,5,8,0:3:0:0:
288,118,160080,1,8,0:3:0:0:
230,2,160215,6,0,B|185:94|254:122|325:150|283:245,1,270.000010299683,14|2,0:1|0:0,0:0:0:0:
88,331,161314,5,8,0:0:0:0:
42,263,161450,1,8,0:0:0:0:
82,352,161586,5,8,0:3:0:0:
62,248,161723,1,8,0:3:0:0:
69,372,161859,5,14,0:2:0:0:
257,151,162132,5,10,0:1:0:0:
283,244,162266,2,0,P|350:244|348:177,1,150,12|8,0:0|0:1,0:0:0:0:
209,38,162676,5,10,0:3:0:0:
134,90,162810,2,0,B|104:101|83:87|83:87|95:44|54:12,1,120,4|8,0:3|0:1,0:0:0:0:
0,126,163206,6,0,P|-12:174|63:213,1,144,14|0,0:0|0:0,0:0:0:0:
150,210,163763,6,0,P|247:235|247:335,2,215.999993408203,2|2|2,0:0|0:0|0:0,0:0:0:0:
4,303,166115,5,2,0:0:0:0:
4,303,166206,2,0,L|-2:215,2,71.9999978027344,2|2|2,0:0|0:0|0:0,0:0:0:0:
104,358,167020,2,0,B|188:346|160:389|242:382,1,143.999995605469,2|0,0:0|0:0,0:0:0:0:
328,304,167835,2,0,L|331:156,1,143.999995605469,2|0,0:0|0:0,0:0:0:0:
235,224,168649,2,0,L|237:80,1,143.999995605469,2|0,0:0|0:0,0:0:0:0:
185,0,169328,5,2,0:0:0:0:
185,0,169464,1,2,0:0:0:0:
148,78,169735,1,2,0:0:0:0:
63,98,170007,1,2,0:0:0:0:
235,224,170278,6,0,P|292:258|364:232,1,143.999995605469,2|0,0:0|0:0,0:0:0:0:
361,235,171093,2,0,P|382:172|341:106,1,143.999995605469,2|0,0:0|0:0,0:0:0:0:
212,36,171907,6,0,L|203:84,1,35.9999989013672,2|2,0:0|0:0,0:0:0:0:
169,76,172179,2,0,L|178:124,1,35.9999989013672,2|2,0:0|0:0,0:0:0:0:
212,126,172450,2,0,L|203:174,1,35.9999989013672,2|2,0:0|0:0,0:0:0:0:
159,166,172722,2,0,L|168:214,1,35.9999989013672,2|2,0:0|0:0,0:0:0:0:
210,221,172993,2,0,L|201:269,1,35.9999989013672,2|2,0:0|0:0,0:0:0:0:
160,286,173265,2,0,L|169:334,1,35.9999989013672,2|2,0:0|0:0,0:0:0:0:
247,368,173536,6,0,B|276:365|276:365|291:374|291:374|319:377,1,71.9999978027344,2|2,0:0|0:0,0:0:0:0:
436,317,174079,1,2,0:0:0:0:
436,317,174351,2,0,P|413:278|413:242,1,71.9999978027344,2|0,0:0|0:0,0:0:0:0:
498,126,174894,5,2,0:0:0:0:
405,63,175165,1,2,0:0:0:0:
322,148,175437,1,2,0:0:0:0:
251,41,175708,1,2,0:0:0:0:
200,170,175980,1,2,0:0:0:0:
98,75,176238,5,10,0:0:0:0:
80,201,176373,1,10,0:0:0:0:
0,138,176509,5,10,0:3:0:0:
20,298,176645,1,10,0:3:0:0:
153,235,176780,6,0,P|176:208|212:199,1,71.9999978027344,14|0,0:1|0:0,0:0:0:0:
306,376,177051,2,0,P|270:365|245:340,1,71.9999978027344,10|0,0:1|0:0,0:0:0:0:
352,171,177322,2,0,P|360:204|351:239,1,71.9999978027344,8|0,0:0|0:0,0:0:0:0:
199,119,177594,5,10,0:1:0:0:
235,44,177730,1,10,0:1:0:0:
211,199,177865,1,2,0:0:0:0:
139,59,178001,1,2,0:0:0:0:
280,131,178137,1,10,0:0:0:0:
125,155,178273,1,2,0:0:0:0:
280,131,178408,6,0,P|316:124|362:84,1,71.9999978027344,10|0,0:1|0:0,0:0:0:0:
139,59,178680,2,0,P|120:25|68:-4,1,71.9999978027344,10|0,0:1|0:1,0:0:0:0:
41,206,178951,2,0,P|23:238|27:300,1,71.9999978027344,10|0,0:0|0:0,0:0:0:0:
165,384,179223,5,10,0:1:0:0:
126,261,179359,1,8,0:0:0:0:
218,290,179494,5,10,0:0:0:0:
226,135,179630,1,8,0:0:0:0:
305,184,179766,5,10,0:3:0:0:
266,17,179902,1,8,0:3:0:0:
130,85,180037,6,0,B|49:85|89:34|-4:39,1,143.999995605469,14|8,0:1|0:1,0:0:0:0:
122,179,180445,1,2,0:0:0:0:
3,221,180580,2,0,B|-12:187|-12:187|2:145,1,71.9999978027344,10|0,0:0|0:0,0:0:0:0:
148,270,180852,2,0,B|163:304|163:304|149:346,1,71.9999978027344,10|8,0:1|0:1,0:0:0:0:
233,93,181123,5,2,0:0:0:0:
352,191,181259,1,2,0:0:0:0:
352,191,181327,1,2,0:0:0:0:
352,191,181395,1,10,0:0:0:0:
377,39,181531,1,2,0:0:0:0:
233,93,181666,6,0,P|197:90|172:65,1,71.9999978027344,10|0,0:1|0:0,0:0:0:0:
377,39,181938,2,0,P|396:9|430:0,1,71.9999978027344,10|0,0:1|0:0,0:0:0:0:
352,191,182209,2,0,P|367:222|358:256,1,71.9999978027344,8|0,0:0|0:0,0:0:0:0:
198,381,182481,5,10,0:1:0:0:
179,282,182617,1,8,0:0:0:0:
71,328,182752,5,10,0:3:0:0:
104,232,182888,1,8,0:3:0:0:
0,213,183024,5,6,0:3:0:0:
76,146,183160,1,4,0:3:0:0:
21,53,183295,6,0,P|13:119|74:146,1,143.999995605469,14|8,0:1|0:1,0:0:0:0:
162,113,183703,1,2,0:0:0:0:
172,244,183838,2,0,B|138:228|138:228|100:232,1,71.9999978027344,10|0,0:0|0:0,0:0:0:0:
240,351,184110,1,10,0:1:0:0:
240,351,184246,2,0,P|242:300|332:271,1,143.999995605469,8|0,0:1|0:0,0:0:0:0:
475,332,184653,5,10,0:0:0:0:
392,384,184789,1,2,0:0:0:0:
318,265,184924,6,0,L|397:257,1,71.9999978027344,10|0,0:1|0:0,0:0:0:0:
273,146,185196,2,0,L|337:99,1,71.9999978027344,10|0,0:1|0:0,0:0:0:0:
161,65,185467,2,0,L|193:-7,1,71.9999978027344,8|0,0:0|0:0,0:0:0:0:
32,121,185739,5,10,0:1:0:0:
59,14,185875,1,8,0:0:0:0:
32,121,186010,5,10,0:0:0:0:
161,65,186146,1,8,0:0:0:0:
32,121,186282,5,10,0:3:0:0:
162,170,186418,1,8,0:3:0:0:
23,252,186553,6,0,P|3:185|32:120,1,143.999995605469,14|8,0:1|0:1,0:0:0:0:
335,0,187096,5,10,0:0:0:0:
358,106,187232,1,2,0:0:0:0:
456,130,187368,1,10,0:1:0:0:
358,106,187503,2,0,P|300:119|289:206,1,143.999995605469,8|0,0:1|0:0,0:0:0:0:
355,290,187911,2,0,L|445:312,1,71.9999978027344,10|0,0:0|0:0,0:0:0:0:
261,104,188182,5,10,0:1:0:0:
189,231,188318,1,2,0:0:0:0:
185,59,188454,5,10,0:1:0:0:
189,231,188589,1,2,0:0:0:0:
100,74,188725,5,10,0:0:0:0:
189,231,188861,1,2,0:0:0:0:
36,133,188997,5,10,0:1:0:0:
189,231,189132,1,10,0:0:0:0:
15,219,189268,5,10,0:0:0:0:
189,231,189404,1,10,0:0:0:0:
32,303,189540,5,10,0:3:0:0:
189,231,189675,1,10,0:3:0:0:
111,45,189811,6,0,P|107:118|36:133,1,155.999992858887,14|8,0:1|0:1,0:0:0:0:
36,133,190218,1,2,0:0:0:0:
189,231,190354,2,0,B|225:244|225:244|292:216,1,77.9999964294435,10|0,0:0|0:0,0:0:0:0:
98,20,190626,5,10,0:1:0:0:
146,114,190765,1,8,0:0:0:0:
201,2,190904,5,10,0:0:0:0:
154,135,191043,1,8,0:0:0:0:
298,41,191182,5,10,0:3:0:0:
164,156,191321,1,8,0:3:0:0:
333,223,191460,6,0,L|416:214,1,83.9999974365235,14|0,0:1|0:0,0:0:0:0:
208,50,191725,2,0,L|297:41,1,90.0000034332277,2|0,0:0|0:0,0:0:0:0:
147,270,191990,2,0,L|247:259,1,96,2|0,0:0|0:0,0:0:0:0:
73,17,192256,5,14,0:1:0:0:
90,32,193090,6,0,B|119:66|111:100|76:139|78:126|45:149|38:194|55:232,1,215.999993408203,14|2,0:1|0:0,0:0:0:0:
124,305,194175,2,0,L|197:295,1,71.9999978027344,2|0,0:0|0:0,0:0:0:0:
195,295,194718,2,0,P|214:254|193:185,1,107.999996704102,2|2,0:0|0:0,0:0:0:0:
89,83,195533,2,0,L|13:71,2,71.9999978027344,2|0|0,0:0|0:0|0:0,0:0:0:0:
186,43,196347,6,0,B|274:25|237:78|325:85,1,143.999995605469,2|2,0:0|0:0,0:0:0:0:
421,96,197162,2,0,B|455:89|455:89|463:84|463:84|497:78,2,71.9999978027344,2|0|0,0:0|0:0|0:0,0:0:0:0:
367,181,197976,2,0,B|354:241|374:240|356:302,1,107.999996704102,2|2,0:0|0:0,0:0:0:0:
256,371,198655,5,2,0:0:0:0:
256,371,198723,1,2,0:0:0:0:
256,371,198791,2,0,P|252:318|241:277,1,83.9999974365235,2|2,0:0|0:0,0:0:0:0:
179,137,199329,5,2,0:0:0:0:
12,236,199597,6,0,L|73:212,1,66.0000020141602,14|0,0:1|0:0,0:0:0:0:
140,358,199868,2,0,L|151:293,1,66.0000020141602,10|0,0:2|0:0,0:0:0:0:
303,287,200139,2,0,L|252:243,1,66.0000020141602,10|0,0:0|0:0,0:0:0:0:
6,238,200411,6,0,L|73:212,1,71.9999978027344,14|0,0:1|0:0,0:0:0:0:
139,364,200680,2,0,L|151:293,1,71.9999978027344,8|0,0:0|0:0,0:0:0:0:
308,291,200949,2,0,L|253:244,1,71.9999978027344,8|0,0:0|0:0,0:0:0:0:
0,240,201218,6,0,L|72:212,1,77.9999964294435,14|0,0:1|0:0,0:0:0:0:
138,370,201491,2,0,L|151:293,1,77.9999964294435,10|0,0:0|0:0,0:0:0:0:
312,295,201765,2,0,L|252:244,1,77.9999964294435,10|0,0:0|0:0,0:0:0:0:
179,137,202039,5,10,0:1:0:0:
310,35,202302,5,10,0:3:0:0:
356,172,202437,1,8,0:3:0:0:
484,98,202573,6,0,B|521:56|491:-3|491:-3|426:7|415:62,1,215.999993408203,14|14,0:1|0:1,0:0:0:0:
415,62,203934,6,0,P|385:90|333:79,1,90.0000034332277,14|0,0:1|0:0,0:0:0:0:
339,84,204474,6,0,P|349:168|432:180,1,180.000006866455,14|8,0:1|0:1,0:0:0:0:
226,281,204881,2,0,P|215:364|132:376,1,180.000006866455,10|8,0:0|0:1,0:0:0:0:
0,240,205288,1,2,0:0:0:0:
89,221,205424,2,0,L|274:187,1,180.000006866455,8|8,0:1|0:1,0:0:0:0:
86,107,205831,2,0,B|98:62|98:62|61:11,1,90.0000034332277,10|0,0:0|0:0,0:0:0:0:
193,243,206102,6,0,P|225:320|308:310,1,180.000006866455,10|8,0:1|0:1,0:0:0:0:
494,131,206510,2,0,P|462:208|379:198,1,180.000006866455,10|8,0:0|0:1,0:0:0:0:
228,8,206917,5,10,0:0:0:0:
292,192,207053,1,8,0:1:0:0:
207,94,207188,5,10,0:0:0:0:
186,289,207324,1,8,0:0:0:0:
143,32,207460,5,10,0:3:0:0:
104,382,207731,6,0,P|83:299|0:287,1,180.000006866455,14|10,0:1|0:1,0:0:0:0:
121,118,208139,1,8,0:2:0:0:
183,183,208274,2,0,B|223:206|223:206|270:189,1,90.0000034332277,2|8,0:0|0:1,0:0:0:0:
143,32,208546,2,0,B|103:9|103:9|56:26,1,90.0000034332277,2|8,0:0|0:1,0:0:0:0:
118,255,208817,2,0,P|101:296|109:339,1,90.0000034332277,2|8,0:0|0:1,0:0:0:0:
395,264,209089,2,0,P|411:222|403:179,1,90.0000034332277,10|0,0:0|0:0,0:0:0:0:
142,32,209360,6,0,P|110:99|185:97,1,180.000006866455,10|8,0:1|0:1,0:0:0:0:
436,199,209768,2,0,P|469:267|395:265,1,180.000006866455,10|8,0:0|0:1,0:0:0:0:
185,95,210175,5,10,0:0:0:0:
206,266,210311,1,8,0:1:0:0:
142,32,210446,5,10,0:0:0:0:
206,266,210582,1,8,0:0:0:0:
221,26,210718,5,10,0:3:0:0:
206,266,210854,1,8,0:3:0:0:
20,53,210989,6,0,P|15:137|95:163,1,180.000006866455,14|8,0:1|0:1,0:0:0:0:
379,135,211397,2,0,P|383:218|303:244,1,180.000006866455,10|8,0:0|0:1,0:0:0:0:
221,26,211804,2,0,P|233:69|216:113,1,90.0000034332277,2|8,0:0|0:1,0:0:0:0:
10,261,212075,2,0,P|-2:218|15:174,1,90.0000034332277,2|8,0:0|0:1,0:0:0:0:
197,376,212347,2,0,B|105:368,1,90.0000034332277,10|0,0:0|0:0,0:0:0:0:
311,242,212618,6,0,B|411:216|385:283|491:269,1,180.000006866455,10|8,0:1|0:1,0:0:0:0:
286,116,213026,2,0,P|285:68|162:44,1,180.000006866455,10|8,0:0|0:1,0:0:0:0:
38,209,213433,5,10,0:0:0:0:
82,51,213569,1,8,0:1:0:0:
169,246,213704,5,10,0:0:0:0:
177,32,213840,1,8,0:0:0:0:
311,242,213976,5,10,0:3:0:0:
271,13,214112,1,8,0:0:0:0:
425,219,214247,6,0,B|439:266|496:272|496:272|520:218|488:181,1,192,14|8,0:1|0:0,0:0:0:0:
228,290,214654,2,0,B|208:335|150:335|150:335|132:278|168:245,1,192,14|8,0:1|0:1,0:0:0:0:
306,89,215062,5,10,0:0:0:0:
383,307,215197,1,8,0:0:0:0:
382,53,215333,5,10,0:3:0:0:
315,261,215469,1,8,0:3:0:0:
271,13,215605,5,14,0:1:0:0:
0,328,215876,6,0,B|42:315|88:342|88:342|94:355|94:355|132:388|186:379,1,204.000003890991,14|8,0:1|0:0,0:0:0:0:
439,260,216283,2,0,B|397:247|351:274|351:274|345:287|345:287|307:320|252:311,1,204.000003890991,14|8,0:1|0:1,0:0:0:0:
68,144,216691,5,10,0:0:0:0:
246,208,216826,1,8,0:0:0:0:
38,145,216962,5,10,0:3:0:0:
254,118,217098,1,8,0:3:0:0:
10,144,217234,5,6,0:3:0:0:
213,38,217369,1,4,0:3:0:0:
67,253,217505,6,0,P|55:170|134:146,1,180.000006866455,14|8,0:1|0:1,0:0:0:0:
386,122,217912,2,0,P|397:39|318:16,1,180.000006866455,10|8,0:0|0:1,0:0:0:0:
167,241,218320,5,2,0:0:0:0:
214,311,218455,1,8,0:1:0:0:
251,233,218591,1,2,0:0:0:0:
130,319,218727,1,8,0:1:0:0:
263,381,218863,2,0,P|305:387|362:367,1,90.0000034332277,10|0,0:0|0:0,0:0:0:0:
504,136,219134,6,0,P|486:218|402:231,1,180.000006866455,10|8,0:1|0:1,0:0:0:0:
241,4,219541,2,0,P|259:86|343:99,1,180.000006866455,10|8,0:0|0:1,0:0:0:0:
134,202,219949,5,10,0:0:0:0:
190,131,220084,1,8,0:1:0:0:
13,104,220220,5,10,0:0:0:0:
45,188,220356,1,8,0:0:0:0:
158,48,220492,5,10,0:3:0:0:
69,34,220627,1,8,0:3:0:0:
277,126,220763,6,0,B|326:111|354:71|328:13|328:13|301:31|301:66,1,180.000006866455,14|8,0:1|0:1,0:0:0:0:
430,252,221170,2,0,P|505:261|480:189,1,180.000006866455,10|8,0:0|0:1,0:0:0:0:
225,15,221578,5,2,0:0:0:0:
194,95,221713,1,8,0:1:0:0:
213,178,221849,1,2,0:0:0:0:
184,258,221985,1,8,0:1:0:0:
203,340,222121,2,0,P|237:358|299:345,1,90.0000034332277,10|0,0:0|0:0,0:0:0:0:
167,89,222392,6,0,B|130:57|83:77|83:77|61:126|14:128,1,180.000006866455,10|8,0:1|0:1,0:0:0:0:
203,340,222799,2,0,B|240:372|287:352|287:352|309:303|355:301,1,180.000006866455,10|8,0:0|0:1,0:0:0:0:
498,384,223207,5,10,0:0:0:0:
512,190,223342,1,8,0:1:0:0:
459,294,223478,5,10,0:0:0:0:
440,85,223614,1,8,0:0:0:0:
408,216,223750,5,10,0:3:0:0:
340,19,223885,1,8,0:3:0:0:
119,218,224021,6,0,L|319:195,1,192,14|10,0:1|0:1,0:0:0:0:
182,296,224428,1,10,0:0:0:0:
220,125,224564,2,0,B|233:78|233:78|207:37,1,96,2|8,0:0|0:1,0:0:0:0:
75,143,224835,2,0,P|-3:180|3:280,1,192,2|0,0:0|0:0,0:0:0:0:
100,381,225243,1,8,0:1:0:0:
232,274,225378,2,0,B|186:255|186:255|124:276,1,96,10|0,0:0|0:0,0:0:0:0:
373,384,225650,6,0,P|451:347|428:257,1,180.000006866455,10|8,0:1|0:1,0:0:0:0:
300,86,226057,2,0,P|289:169|365:203,1,180.000006866455,10|8,0:0|0:1,0:0:0:0:
197,14,226464,5,10,0:0:0:0:
63,188,226600,1,10,0:1:0:0:
105,0,226736,5,10,0:0:0:0:
155,203,226872,1,10,0:0:0:0:
197,14,227007,5,10,0:3:0:0:
1,383,227279,6,0,P|2:289|95:276,1,204.000003890991,14|8,0:1|0:0,0:0:0:0:
357,217,227686,2,0,P|356:123|263:110,1,204.000003890991,14|8,0:1|0:1,0:0:0:0:
0,174,228093,5,8,0:0:0:0:
191,196,228229,1,8,0:0:0:0:
5,149,228365,5,8,0:3:0:0:
184,219,228501,1,8,0:3:0:0:
49,57,228636,6,0,P|25:178|61:288,2,215.999993408203,14|8|8,0:1|0:1|0:0,0:0:0:0:
268,0,229315,1,10,0:1:0:0:
183,218,229451,6,0,P|165:175|168:127,1,96,2|0,0:0|0:0,0:0:0:0:
397,238,229722,2,0,P|400:285|381:329,1,96,2|0,0:0|0:0,0:0:0:0:
186,363,229994,5,10,0:0:0:0:
326,179,230130,1,8,0:0:0:0:
381,329,230265,5,10,0:0:0:0:
183,218,230401,1,8,0:0:0:0:
357,27,230537,6,0,P|349:118|258:125,1,198.000001888275,14|8,0:1|0:1,0:0:0:0:
0,72,230944,2,0,P|8:162|99:169,1,198.000001888275,10|8,0:0|0:1,0:0:0:0:
360,127,231351,1,2,0:0:0:0:
423,210,231487,2,0,P|414:300|323:307,1,198.000001888275,8|8,0:1|0:1,0:0:0:0:
180,120,231894,2,0,B|196:73|196:73|179:26,1,99.0000009441376,10|0,0:0|0:0,0:0:0:0:
6,268,232166,6,0,B|7:318|62:339|62:339|100:292|78:247,1,198.000001888275,10|8,0:1|0:1,0:0:0:0:
377,151,232573,2,0,B|375:201|320:222|320:222|282:175|304:130,1,198.000001888275,10|8,0:0|0:1,0:0:0:0:
91,0,232980,5,10,0:0:0:0:
139,195,233116,1,8,0:1:0:0:
83,22,233252,5,10,0:0:0:0:
131,217,233388,1,8,0:0:0:0:
67,4,233523,5,10,0:3:0:0:
116,383,233795,6,0,P|105:300|-1:285,1,198.000001888275,14|10,0:1|0:1,0:0:0:0:
153,113,234202,1,8,0:2:0:0:
218,188,234338,2,0,P|260:211|308:201,1,99.0000009441376,2|8,0:0|0:1,0:0:0:0:
157,16,234609,2,0,P|115:-7|67:3,1,99.0000009441376,2|8,0:0|0:1,0:0:0:0:
308,200,234881,2,0,B|329:154|329:154|312:108,1,99.0000009441376,2|8,0:0|0:1,0:0:0:0:
67,3,235152,2,0,B|46:49|46:49|62:94,1,99.0000009441376,10|0,0:0|0:0,0:0:0:0:
260,265,235424,6,0,P|342:274|308:200,1,198.000001888275,10|8,0:1|0:1,0:0:0:0:
61,343,235831,2,0,P|-20:350|15:277,1,198.000001888275,10|8,0:0|0:1,0:0:0:0:
238,99,236238,5,10,0:0:0:0:
260,265,236374,1,8,0:1:0:0:
224,93,236510,5,10,0:0:0:0:
247,272,236645,1,8,0:0:0:0:
210,87,236781,5,10,0:3:0:0:
234,279,236917,1,8,0:3:0:0:
49,176,237053,6,0,B|170:135|115:214|239:179,1,198.000001888275,14|8,0:1|0:1,0:0:0:0:
499,48,237460,2,0,B|377:7|432:86|308:51,1,198.000001888275,10|8,0:0|0:1,0:0:0:0:
421,181,237867,2,0,P|406:230|441:283,1,99.0000009441376,2|8,0:0|0:1,0:0:0:0:
236,384,238139,2,0,P|251:335|216:282,1,99.0000009441376,2|8,0:0|0:1,0:0:0:0:
49,176,238410,2,0,B|96:187|96:187|148:161,1,99.0000009441376,10|0,0:0|0:0,0:0:0:0:
424,24,238682,6,0,B|384:53|384:53|238:24,1,198.000001888275,10|8,0:1|0:1,0:0:0:0:
24,200,239089,2,0,B|64:229|64:229|209:200,1,198.000001888275,10|8,0:0|0:1,0:0:0:0:
512,220,239496,5,10,0:0:0:0:
447,151,239632,1,8,0:1:0:0:
390,330,239768,5,10,0:0:0:0:
482,310,239903,1,8,0:0:0:0:
355,170,240039,5,10,0:3:0:0:
327,260,240175,1,8,0:0:0:0:
448,126,240311,6,0,P|418:35|316:38,1,210.000002002716,14|8,0:1|0:0,0:0:0:0:
134,236,240718,2,0,P|232:239|264:146,1,210.000002002716,14|8,0:1|0:1,0:0:0:0:
118,9,241125,5,10,0:0:0:0:
16,224,241261,1,8,0:0:0:0:
2,33,241397,5,10,0:3:0:0:
134,236,241532,1,8,0:3:0:0:
118,9,241668,5,14,0:1:0:0:
83,313,241940,6,0,B|87:340|69:371|69:371|-6:316|16:224,1,227.999993911743,14|8,0:1|0:0,0:0:0:0:
309,138,242347,2,0,B|331:229|256:284|256:284|237:254|242:226,1,227.999993911743,14|8,0:1|0:1,0:0:0:0:
430,4,242754,5,10,0:0:0:0:
497,222,242890,1,8,0:0:0:0:
480,65,243026,5,10,0:3:0:0:
461,292,243161,1,8,0:3:0:0:
503,142,243297,5,6,0:3:0:0:
400,346,243433,1,4,0:3:0:0:
232,142,243569,6,0,B|206:51|294:4|294:4|308:37|294:62,1,215.999993408203,14|8,0:1|0:1,0:0:0:0:
159,244,243976,2,0,B|108:326|18:291|18:291|-4:263|30:209,1,215.999993408203,10|8,0:0|0:1,0:0:0:0:
174,64,244383,5,2,0:0:0:0:
232,142,244519,1,8,0:1:0:0:
321,180,244654,1,2,0:0:0:0:
417,168,244790,1,8,0:1:0:0:
494,110,244926,2,0,B|515:96|511:61|511:61|478:71|473:107,1,107.999996704102,10|0,0:0|0:0,0:0:0:0:
322,288,245197,6,0,P|270:375|172:352,1,215.999993408203,10|8,0:1|0:1,0:0:0:0:
0,167,245605,2,0,P|51:254|149:231,1,215.999993408203,10|8,0:0|0:1,0:0:0:0:
351,34,246012,5,10,0:0:0:0:
138,48,246148,1,8,0:1:0:0:
348,57,246283,5,10,0:0:0:0:
139,24,246419,1,8,0:0:0:0:
340,82,246555,5,10,0:3:0:0:
147,0,246691,1,8,0:3:0:0:
314,189,246826,6,0,P|414:182|430:80,1,215.999993408203,14|8,0:1|0:1,0:0:0:0:
221,257,247234,2,0,P|120:250|104:148,1,215.999993408203,10|8,0:0|0:1,0:0:0:0:
432,83,247641,5,2,0:0:0:0:
386,0,247777,1,8,0:1:0:0:
295,14,247912,1,2,0:0:0:0:
280,106,248048,1,8,0:1:0:0:
363,145,248184,2,0,L|490:129,1,107.999996704102,10|0,0:0|0:0,0:0:0:0:
201,22,248455,6,0,B|173:27|133:14|133:14|108:31|94:57|94:57|56:59|5:87,1,215.999993408203,10|8,0:1|0:1,0:0:0:0:
156,255,248863,2,0,P|154:354|252:373,1,215.999993408203,10|8,0:0|0:1,0:0:0:0:
512,282,249270,5,10,0:0:0:0:
356,241,249406,1,8,0:1:0:0:
447,152,249541,5,10,0:0:0:0:
233,206,249677,1,8,0:0:0:0:
334,99,249813,5,10,0:3:0:0:
169,20,249949,1,8,0:3:0:0:
341,115,250084,6,0,B|384:151|447:124|447:124|439:53|385:36,1,227.999993911743,14|10,0:1|0:1,0:0:0:0:
149,142,250492,1,10,0:0:0:0:
356,241,250627,2,0,B|385:251|410:238|410:238|391:218|359:216,1,113.999996955872,2|8,0:0|0:1,0:0:0:0:
170,274,250899,2,0,B|115:291|107:362|107:362|171:389|214:352,1,227.999993911743,2|0,0:0|0:0,0:0:0:0:
356,241,251306,1,8,0:1:0:0:
149,142,251442,2,0,B|116:142|97:162|97:162|122:175|152:164,1,113.999996955872,10|0,0:0|0:0,0:0:0:0:
407,42,251713,6,0,B|423:32|432:13|432:13|321:-14|277:63,1,215.999993408203,10|8,0:1|0:1,0:0:0:0:
364,251,252121,2,0,P|349:349|223:361,1,215.999993408203,10|8,0:0|0:1,0:0:0:0:
0,197,252528,5,10,0:0:0:0:
224,127,252664,1,10,0:1:0:0:
9,108,252799,5,10,0:0:0:0:
216,216,252935,1,10,0:0:0:0:
119,16,253071,5,10,0:3:0:0:
175,382,253342,6,0,P|169:285|45:275,1,240,14|8,0:1|0:0,0:0:0:0:
400,48,253750,2,0,P|397:158|287:174,1,240,14|8,0:1|0:1,0:0:0:0:
90,0,254157,5,8,0:0:0:0:
110,197,254293,1,8,0:0:0:0:
202,78,254428,5,8,0:3:0:0:
159,308,254564,1,8,0:3:0:0:
10,229,254700,6,0,B|83:160|126:240|132:238|139:237|189:300|251:230,1,270.000010299683,14|2,0:1|0:0,0:0:0:0:
360,5,255786,5,8,0:0:0:0:
192,89,256065,5,8,0:3:0:0:
511,228,256344,5,14,0:2:0:0:
293,349,256616,5,10,0:1:0:0:
378,379,256736,2,0,B|417:363|417:363|398:245,1,150,12|8,0:0|0:1,0:0:0:0:
305,110,257159,5,10,0:3:0:0:
256,178,257279,2,0,B|243:204|207:211|207:211|209:174|236:159,1,120,4|8,0:3|0:1,0:0:0:0:
321,97,257694,6,0,B|411:88|367:139|456:126,1,144,14|0,0:0|0:0,0:0:0:0:
341,179,258243,6,0,P|349:213|290:261,1,107.999996704102,14|2,0:1|0:0,0:0:0:0:
132,296,259057,2,0,L|54:300,2,71.9999978027344,2|2|2,0:0|0:0|0:0,0:0:0:0:
210,216,259871,2,0,B|234:170|234:170|204:112,1,107.999996704102,2|2,0:0|0:0,0:0:0:0:
59,12,260686,1,2,0:0:0:0:
46,90,260957,1,2,0:0:0:0:
33,168,261229,1,2,0:0:0:0:
92,242,261500,6,0,B|160:231|134:269|210:257,1,107.999996704102,2|2,0:0|0:0,0:0:0:0:
313,171,262315,2,0,L|322:91,2,71.9999978027344,2|2|2,0:0|0:0|0:0,0:0:0:0:
354,274,263129,2,0,L|370:347,1,71.9999978027344,2|0,0:0|0:0,0:0:0:0:
407,371,263537,2,0,P|436:377|481:355,1,71.9999978027344,2|0,0:0|0:0,0:0:0:0:
505,326,263944,2,0,L|507:248,2,71.9999978027344,2|2|2,0:0|0:0|0:0,0:0:0:0:
407,371,264758,6,0,B|367:353|356:383|307:363,1,99.0000030212403,6|2,0:0|0:0,0:0:0:0:
183,315,265573,2,0,L|259:298,2,66.0000020141602,2|2|2,0:0|0:0|0:0,0:0:0:0:
98,274,266387,2,0,B|101:213|115:240|112:167,1,99.0000030212403,2|2,0:0|0:0,0:0:0:0:
65,80,267100,1,2,0:0:0:0:
65,80,267202,2,0,L|-15:68,2,66.0000020141602,2|2|2,0:0|0:0|0:0,0:0:0:0:
177,38,268016,6,0,B|237:26|223:56|277:55,1,99.0000030212403,2|2,0:0|0:0,0:0:0:0:
409,24,268831,2,0,L|480:8,1,66.0000020141602,2|0,0:0|0:0,0:0:0:0:
508,38,269238,2,0,P|515:54|513:79,1,33.0000010070801,2|0,0:0|0:0,0:0:0:0:
434,143,269662,2,0,L|363:127,2,66.0000020141602,2|2|2,0:0|0:0|0:0,0:0:0:0:
330,15,270446,5,8,0:0:0:0:
268,132,270721,1,8,0:3:0:0:
197,19,270997,1,4,0:3:0:0:
53,144,271273,5,14,0:1:0:0:
162,230,271546,1,8,0:0:0:0:
268,132,271818,1,8,0:3:0:0:
58,134,272090,5,14,0:1:0:0:
163,218,272362,1,8,0:3:0:0:
265,123,272634,1,4,0:3:0:0:
125,25,272906,6,0,L|30:14,1,90,14|0,0:1|0:0,0:0:0:0:
4,49,273469,2,0,P|-6:83|-2:108,1,60,10|8,0:0|0:3,0:0:0:0:
99,286,274055,2,0,L|104:240,1,35.9999989013672,8|4,0:3|0:3,0:0:0:0:
103,251,274525,6,0,B|229:246|157:322|286:341,1,192,14|2,0:1|0:0,0:0:0:0:
442,384,276191,2,0,P|432:332|448:277,1,96,2|2,0:0|0:0,0:0:0:0:
392,15,277813,6,0,P|394:82|334:139,1,144,2|0,0:0|0:0,0:0:0:0:
203,145,279049,6,0,L|176:139,2,24,2|2|2,0:0|0:0|0:0,0:0:0:0:
261,205,279538,6,0,L|290:211,1,20.9999993591309,2|2,0:0|0:0,0:0:0:0:
354,174,280010,6,0,L|400:166,1,38.9999982147218,2|2,0:0|0:0,0:0:0:0:
462,222,280794,5,2,0:0:0:0:
504,48,281575,5,6,0:0:0:0:
