osu file format v14

[General]
AudioFilename: audio.mp3
AudioLeadIn: 0
PreviewTime: 129526
Countdown: 0
SampleSet: Soft
StackLeniency: 0.7
Mode: 0
LetterboxInBreaks: 0
WidescreenStoryboard: 0

[Editor]
DistanceSpacing: 0.9
BeatDivisor: 4
GridSize: 8
TimelineZoom: 2.4

[Metadata]
Title:Ao no Rokubungi
TitleUnicode:蒼の六分儀
Artist:canoue
ArtistUnicode:canoue
Creator:SpokenAway
Version:Sakura
Source:
Tags:霜月はるか Shimotsuki Haruka MANYO japanese chronicle album original fantasy pop canoueIII ~海に眠る王国~ Umi ni nemuru oukoku 日山 尚 nao hiyama ひやま なお comiket85 c85 まにょっ カノエ jpop j-pop shimotsukin Kingdom Sleeping in the Sea
BeatmapID:3334197
BeatmapSetID:1633529

[Difficulty]
HPDrainRate:5
CircleSize:4.2
OverallDifficulty:8.3
ApproachRate:9
SliderMultiplier:1.9
SliderTickRate:1

[Events]
//Background and Video events
0,0,"bg.jpg",0,0
//Break Periods
2,152180,158653
//Storyboard Layer 0 (Background)
//Storyboard Layer 1 (Fail)
//Storyboard Layer 2 (Pass)
//Storyboard Layer 3 (Foreground)
//Storyboard Layer 4 (Overlay)
//Storyboard Sound Samples

[TimingPoints]
708,363.636363636364,4,2,1,80,1,0
708,-142.857142857143,4,2,1,40,0,0
3617,-111.111111111111,4,2,1,40,0,0
4162,-142.857142857143,4,2,1,40,0,0
6526,-100,4,2,1,40,0,0
7071,-142.857142857143,4,2,1,40,0,0
9435,-111.111111111111,4,2,1,40,0,0
9980,-142.857142857143,4,2,1,40,0,0
12344,-100,4,2,1,50,0,0
12708,-125,4,2,1,50,0,0
15253,-100,4,2,1,50,0,0
15798,-125,4,2,1,50,0,0
18162,-100,4,2,1,50,0,0
18526,-125,4,2,1,50,0,0
21071,-95.2380952380952,4,2,1,50,0,0
21435,-125,4,2,1,50,0,0
23980,-111.111111111111,4,2,1,60,0,0
32980,-111.111111111111,4,2,1,5,0,0
33071,-111.111111111111,4,2,1,60,0,0
35617,-100,4,2,1,60,0,0
36162,-111.111111111111,4,2,1,60,0,0
41435,-100,4,2,1,60,0,0
41798,-111.111111111111,4,2,1,60,0,0
45435,-90.9090909090908,4,2,1,60,0,0
45708,-90.9090909090908,4,2,1,5,0,0
45798,-100,4,2,1,60,0,0
46071,-100,4,2,1,5,0,0
46162,-111.111111111111,4,2,1,60,0,0
46435,-111.111111111111,4,2,1,5,0,0
46526,-125,4,2,1,60,0,0
46798,-125,4,2,1,5,0,0
46889,-142.857142857143,4,2,1,60,0,0
47162,-142.857142857143,4,2,1,5,0,0
47253,-200,4,2,1,65,0,0
48344,-250,4,2,1,5,0,0
48708,-111.111111111111,4,2,1,40,0,0
50526,-200,4,2,1,40,0,0
51617,-128.205128205128,4,2,1,40,0,0
58889,-99.9999999999999,4,2,1,70,0,0
60344,-83.3333333333333,4,2,1,75,0,1
63253,-80,4,2,1,75,0,1
63617,-83.3333333333333,4,2,1,75,0,1
66162,-76.9230769230769,4,2,1,75,0,1
66526,-83.3333333333333,4,2,1,75,0,1
69071,-76.9230769230769,4,2,1,75,0,1
69435,-83.3333333333333,4,2,1,75,0,1
69980,-100,4,2,1,75,0,1
70253,-100,4,2,1,5,0,1
70344,-80,4,2,1,75,0,1
70889,-83.3333333333333,4,2,1,75,0,1
71980,-76.9230769230769,4,2,1,75,0,1
72344,-83.3333333333333,4,2,1,75,0,1
77798,-166.666666666667,4,2,1,50,0,0
79071,-83.3333333333333,4,2,1,75,0,1
80708,-100,4,2,1,70,0,0
85435,-90.9090909090909,4,2,1,70,0,0
86526,-83.3333333333333,4,2,1,70,0,0
86889,-100,4,2,1,70,0,0
92344,-80,4,2,1,60,0,0
92708,-111.111111111111,4,2,1,60,0,0
95253,-95.2380952380952,4,2,1,60,0,0
95617,-111.111111111111,4,2,1,60,0,0
96980,-111.111111111111,4,2,1,5,0,0
97071,-111.111111111111,4,2,1,60,0,0
99889,-111.111111111111,4,2,1,5,0,0
99980,-111.111111111111,4,2,1,60,0,0
101344,-111.111111111111,4,2,1,5,0,0
101435,-111.111111111111,4,2,1,60,0,0
102344,-99.9999999999999,4,2,1,60,0,0
102708,-111.111111111111,4,2,1,60,0,0
103980,-90.9090909090908,4,2,1,60,0,0
104344,-111.111111111111,4,2,1,60,0,0
107889,-111.111111111111,4,2,1,5,0,0
107980,-111.111111111111,4,2,1,60,0,0
108617,-111.111111111111,4,2,1,5,0,0
108708,-111.111111111111,4,2,1,60,0,0
109435,-166.666666666666,4,2,1,60,0,0
109708,-166.666666666666,4,2,1,5,0,0
109798,-90.9090909090908,4,2,1,60,0,0
110162,-111.111111111111,4,2,1,60,0,0
111526,-111.111111111111,4,2,1,5,0,0
111617,-111.111111111111,4,2,1,60,0,0
112344,-200,4,2,1,60,0,0
112617,-200,4,2,1,5,0,0
112708,-95.2380952380952,4,2,1,60,0,0
113071,-111.111111111111,4,2,1,60,0,0
114435,-111.111111111111,4,2,1,5,0,0
114526,-111.111111111111,4,2,1,60,0,0
115617,-200,4,2,1,60,0,0
116708,-200,4,2,1,5,0,0
116889,-200,4,2,1,50,0,0
117071,-166.666666666667,4,2,1,50,0,0
118526,-153.846153846154,4,2,1,50,0,0
119980,-142.857142857143,4,2,1,50,0,0
121435,-125,4,2,1,50,0,0
124617,-125,4,2,1,5,0,0
124708,-125,4,2,1,50,0,0
127253,-100,4,2,1,70,0,0
130162,-83.3333333333333,4,2,1,75,0,1
133071,-76.9230769230769,4,2,1,75,0,1
133435,-83.3333333333333,4,2,1,75,0,1
135980,-76.9230769230769,4,2,1,75,0,1
136344,-83.3333333333333,4,2,1,75,0,1
140071,-83.3333333333333,4,2,1,5,0,1
140162,-83.3333333333333,4,2,1,75,0,1
141798,-74.0740740740741,4,2,1,75,0,1
142162,-83.3333333333333,4,2,1,75,0,1
147617,-166.666666666667,4,2,1,65,0,0
148889,-83.3333333333333,4,2,1,75,0,1
150162,-238.095238095238,4,2,1,50,0,0
150526,363.636363636364,3,2,1,50,1,0
151980,-238.095238095238,4,2,1,5,0,0
159253,-142.857142857143,4,2,1,40,0,0
159344,-142.857142857143,4,2,1,5,0,0
159617,-142.857142857143,4,2,1,40,0,0
159708,-142.857142857143,4,2,1,5,0,0
160162,-142.857142857143,4,2,1,40,0,0
160617,-142.857142857143,4,2,1,5,0,0
160708,-142.857142857143,4,2,1,40,0,0
160798,-142.857142857143,4,2,1,5,0,0
161253,-142.857142857143,4,2,1,40,0,0
161708,-142.857142857143,4,2,1,5,0,0
161798,-142.857142857143,4,2,1,40,0,0
161889,-142.857142857143,4,2,1,5,0,0
162344,-142.857142857143,4,2,1,40,0,0
162798,-142.857142857143,4,2,1,5,0,0
162889,-142.857142857143,4,2,1,40,0,0
162980,-142.857142857143,4,2,1,5,0,0
163071,-142.857142857143,4,2,1,40,0,0
163162,-142.857142857143,4,2,1,5,0,0
163253,-142.857142857143,4,2,1,40,0,0
163708,-142.857142857143,4,2,1,5,0,0
163980,-142.857142857143,4,2,1,40,0,0
164071,-142.857142857143,4,2,1,5,0,0
164526,-142.857142857143,4,2,1,40,0,0
164980,-142.857142857143,4,2,1,5,0,0
165071,-142.857142857143,4,2,1,40,0,0
165162,-142.857142857143,4,2,1,5,0,0
165617,-142.857142857143,4,2,1,40,0,0
166071,-142.857142857143,4,2,1,5,0,0
166162,-142.857142857143,4,2,1,40,0,0
166253,-142.857142857143,4,2,1,5,0,0
166708,-142.857142857143,4,2,1,40,0,0
166980,-142.857142857143,4,2,1,5,0,0
167253,-142.857142857143,4,2,1,40,0,0
167344,-142.857142857143,4,2,1,5,0,0
167617,-200,4,2,1,40,0,0
167889,-200,4,2,1,5,0,0
167980,-111.111111111111,4,2,1,50,0,0
168889,-125,4,2,1,50,0,0
169344,-125,4,2,1,5,0,0
169435,-125,4,2,1,50,0,0
169526,-125,4,2,1,5,0,0
169980,-125,4,2,1,50,0,0
170435,-125,4,2,1,5,0,0
170526,-125,4,2,1,50,0,0
170617,-125,4,2,1,5,0,0
170708,-125,4,2,1,50,0,0
172617,-125,4,2,1,5,0,0
172708,-125,4,2,1,50,0,0
172798,-125,4,2,1,5,0,0
172889,-125,4,2,1,50,0,0
173708,-125,4,2,1,5,0,0
173798,-125,4,2,1,50,0,0
173889,-125,4,2,1,5,0,0
174162,-125,4,2,1,50,0,0
174798,-125,4,2,1,5,0,0
174889,-125,4,2,1,50,0,0
174980,-125,4,2,1,5,0,0
175253,-125,4,2,1,50,0,0
176708,-95.2380952380952,4,2,1,55,0,0
177071,-111.111111111111,4,2,1,55,0,0
178071,-111.111111111111,4,2,1,5,0,0
178162,-111.111111111111,4,2,1,55,0,0
178253,-111.111111111111,4,2,1,5,0,0
178708,-111.111111111111,4,2,1,55,0,0
178798,-111.111111111111,4,2,1,5,0,0
178889,-111.111111111111,4,2,1,55,0,0
179162,-111.111111111111,4,2,1,5,0,0
179253,-111.111111111111,4,2,1,55,0,0
179344,-111.111111111111,4,2,1,5,0,0
179617,-111.111111111111,4,2,1,55,0,0
181344,-111.111111111111,4,2,1,5,0,0
181435,-111.111111111111,4,2,1,55,0,0
181526,-111.111111111111,4,2,1,5,0,0
181980,-111.111111111111,4,2,1,55,0,0
182435,-111.111111111111,4,2,1,5,0,0
182526,-111.111111111111,4,2,1,55,0,0
182617,-111.111111111111,4,2,1,5,0,0
182889,-111.111111111111,4,2,1,55,0,0
183526,-111.111111111111,4,2,1,5,0,0
183617,-111.111111111111,4,2,1,55,0,0
183708,-111.111111111111,4,2,1,5,0,0
183980,-111.111111111111,4,2,1,55,0,0
185435,-204.081632653061,4,2,1,60,0,0
187617,-181.818181818182,4,2,1,50,0,0
188708,-153.846153846154,4,2,1,45,0,0
189798,-142.857142857143,4,2,1,50,0,0
190889,-166.666666666667,4,2,1,45,0,0
191889,-166.666666666667,4,2,1,5,0,0
191980,-238.095238095238,4,2,1,40,0,0
193980,-238.095238095238,4,2,1,5,0,0
194162,363.636363636364,4,2,1,80,1,0
194162,-142.857142857143,4,2,1,40,0,0
197071,-111.111111111111,4,2,1,40,0,0
197435,-142.857142857143,4,2,1,40,0,0
199980,-111.111111111111,4,2,1,40,0,0
200344,-142.857142857143,4,2,1,40,0,0
202889,-111.111111111111,4,2,1,40,0,0
203253,-142.857142857143,4,2,1,40,0,0
203708,-142.857142857143,4,2,1,5,0,0
203798,-142.857142857143,4,2,1,40,0,0
204071,-142.857142857143,4,2,1,5,0,0
204162,-117.647058823529,4,2,1,40,0,0
204708,-153.846153846154,4,2,1,40,0,0
204980,-153.846153846154,4,2,1,5,0,0
205071,-142.857142857143,4,2,1,60,0,0
205798,-80,4,2,1,70,0,0
206071,-80,4,2,1,5,0,0
206162,-90.9090909090909,4,2,1,70,0,0
207526,-90.9090909090909,4,2,1,5,0,0
207617,-90.9090909090909,4,2,1,70,0,0
207889,-90.9090909090909,4,2,1,5,0,0
207980,-90.9090909090909,4,2,1,70,0,0
208617,-90.9090909090909,4,2,1,5,0,0
208708,-90.9090909090909,4,2,1,70,0,0
210253,-90.9090909090909,4,2,1,5,0,0
210344,-90.9090909090909,4,2,1,70,0,0
211617,-80,4,2,1,70,0,0
211889,-80,4,2,1,5,0,0
211980,-90.9090909090909,4,2,1,70,0,0
213344,-90.9090909090909,4,2,1,5,0,0
213435,-90.9090909090909,4,2,1,70,0,0
213708,-90.9090909090909,4,2,1,5,0,0
213798,-90.9090909090909,4,2,1,70,0,0
214435,-90.9090909090909,4,2,1,5,0,0
214526,-90.9090909090909,4,2,1,70,0,0
217434,-83.3333333333333,4,2,1,75,0,1
220344,-76.9230769230769,4,2,1,75,0,1
220708,-83.3333333333333,4,2,1,75,0,1
223253,-76.9230769230769,4,2,1,75,0,1
223617,-83.3333333333333,4,2,1,75,0,1
227344,-83.3333333333333,4,2,1,5,0,1
227435,-83.3333333333333,4,2,1,75,0,1
229071,-76.9230769230769,4,2,1,75,0,1
229435,-83.3333333333333,4,2,1,75,0,1
234889,-166.666666666667,4,2,1,65,0,0
235980,-90.9090909090909,4,2,1,70,0,0
237798,-71.4285714285714,4,2,1,75,0,1
238162,-83.3333333333333,4,2,1,75,0,1
238980,-83.3333333333333,4,2,1,5,0,1
239071,-83.3333333333333,4,2,1,75,0,1
240708,-76.9230769230769,4,2,1,75,0,1
241071,-83.3333333333333,4,2,1,75,0,1
243617,-76.9230769230769,4,2,1,75,0,1
243980,-83.3333333333333,4,2,1,75,0,1
249435,-76.9230769230769,4,2,1,75,0,1
249798,-83.3333333333333,4,2,1,75,0,1
255252,-125,4,2,1,65,0,0
256525,-83.3333333333333,4,2,1,75,0,1
258162,-67.5675675675676,4,2,1,80,0,1
258708,-67.5675675675676,4,2,2,80,0,1
259253,-67.5675675675676,4,2,1,80,0,1
259798,-90.9090909090909,4,2,1,80,0,1
260071,-90.9090909090909,4,2,1,5,0,1
260162,-90.9090909090909,4,2,1,80,0,1
261071,-166.666666666667,4,2,1,50,0,0
262344,-100,4,2,1,75,0,0
262798,-100,4,2,1,5,0,0
262889,-90.9090909090909,4,2,1,75,0,0
263162,-90.9090909090909,4,2,1,5,0,0
263253,-83.3333333333333,4,2,1,75,0,0
263526,-83.3333333333333,4,2,1,5,0,0
263617,-76.9230769230769,4,2,1,75,0,0
263889,-76.9230769230769,4,2,1,5,0,0
263980,-142.857142857143,4,2,1,60,0,0
266344,-142.857142857143,4,2,1,5,0,0

[Colours]
Combo1 : 213,181,194
Combo2 : 119,100,164
Combo3 : 170,134,154
Combo4 : 196,218,221

[HitObjects]
40,270,708,6,0,P|92:234|174:250,1,132.999995941162,2|0,0:0|0:0,0:0:0:0:
250,300,1253,2,0,P|285:328|320:334,1,66.4999979705811,2|0,0:0|0:0,0:0:0:0:
169,320,1617,5,2,0:0:0:0:
169,320,1798,1,0,0:0:0:0:
239,210,1980,6,0,B|289:167|257:101|257:101|241:133,1,132.999995941162,2|0,0:0|0:0,0:0:0:0:
318,52,2526,1,0,0:0:0:0:
241,112,2708,2,0,P|206:130|181:161,1,66.4999979705811,2|0,0:0|0:0,0:0:0:0:
42,127,3071,5,0,0:0:0:0:
7,95,3253,1,0,0:0:0:0:
13,48,3435,1,0,0:0:0:0:
48,17,3617,6,0,P|106:49|206:9,1,170.999994781494,2|0,0:0|0:0,0:0:0:0:
143,128,4162,2,0,P|124:158|122:206,1,66.4999979705811,2|0,0:0|0:0,0:0:0:0:
224,92,4526,5,2,0:0:0:0:
224,92,4708,1,0,0:0:0:0:
119,188,4889,6,0,P|148:242|226:259,1,132.999995941162,2|0,0:0|0:0,0:0:0:0:
284,223,5435,1,0,0:0:0:0:
131,277,5617,2,0,P|106:298|90:345,1,66.4999979705811,2|0,0:0|0:0,0:0:0:0:
282,316,5980,5,0,0:0:0:0:
319,344,6162,1,2,0:0:0:0:
364,331,6344,1,2,0:0:0:0:
364,331,6435,1,2,0:0:0:0:
364,331,6526,6,0,B|422:300|398:267|398:267|376:297|415:347|458:368,1,190,2|0,0:0|0:0,0:0:0:0:
475,250,7071,2,0,P|501:206|501:181,1,66.4999979705811,2|0,0:0|0:0,0:0:0:0:
435,119,7435,5,2,0:0:0:0:
435,119,7617,1,0,0:0:0:0:
328,201,7798,6,0,P|272:184|240:119,1,132.999995941162,2|0,0:0|0:0,0:0:0:0:
242,215,8344,1,0,0:0:0:0:
240,120,8526,2,0,P|247:86|271:59,1,66.4999979705811,2|0,0:0|0:0,0:0:0:0:
462,32,8889,5,0,0:0:0:0:
425,61,9071,1,0,0:0:0:0:
426,107,9253,1,0,0:0:0:0:
458,140,9435,6,0,B|405:139|363:176|366:210|366:210|391:190|389:162,1,170.999994781494,2|0,0:0|0:0,0:0:0:0:
310,107,9980,2,0,P|292:45|211:13,1,132.999995941162,2|0,0:0|0:0,0:0:0:0:
153,29,10526,1,0,0:0:0:0:
286,158,10708,6,0,P|311:99|267:24,1,132.999995941162,2|0,0:0|0:0,0:0:0:0:
377,32,11253,1,0,0:0:0:0:
227,99,11435,2,0,P|190:116|174:147,1,66.4999979705811,2|0,0:0|0:0,0:0:0:0:
22,235,11798,5,0,0:0:0:0:
97,228,11980,1,2,0:0:0:0:
155,291,12162,1,2,0:0:0:0:
155,291,12253,1,2,0:0:0:0:
155,291,12344,6,0,B|211:305|266:263|266:228|266:228|235:253|236:276,1,190,2|0,0:0|0:0,0:0:0:0:
317,322,12889,2,0,P|347:349|398:355,1,76,2|0,0:0|0:0,0:0:0:0:
240,365,13253,5,2,0:0:0:0:
302,307,13435,1,0,0:0:0:0:
380,356,13617,6,0,P|429:345|475:247,1,152,2|0,0:0|0:0,0:0:0:0:
380,146,14162,1,0,0:0:0:0:
311,191,14344,2,0,P|267:170|248:141,1,76,2|0,0:0|0:0,0:0:0:0:
202,81,14708,5,2,0:0:0:0:
196,207,14889,1,0,0:0:0:0:
325,92,15071,1,2,0:0:0:0:
325,92,15162,1,2,0:0:0:0:
325,92,15253,6,0,B|350:55|426:51|453:74|453:74|429:86|396:68,1,190,2|0,0:0|0:0,0:0:0:0:
455,201,15798,2,0,P|482:171|496:121,1,76,2|0,0:0|0:0,0:0:0:0:
355,198,16162,5,2,0:0:0:0:
405,261,16344,1,0,0:0:0:0:
279,278,16526,6,0,B|224:292|188:342|188:342|214:295,2,152,2|0|0,0:0|0:0|0:0,0:0:0:0:
220,159,17435,5,2,0:0:0:0:
141,223,17617,1,2,0:0:0:0:
43,199,17798,1,2,0:0:0:0:
76,275,17980,5,2,0:0:0:0:
76,275,18071,1,2,0:0:0:0:
76,275,18162,6,0,B|70:310|107:322|107:322|107:278|40:260|-12:282,1,190,2|0,0:0|0:0,0:0:0:0:
114,151,18708,6,0,P|145:121|158:85,1,76,2|0,0:0|0:0,0:0:0:0:
77,75,19071,2,0,P|52:39|19:20,1,76,2|0,0:0|0:0,0:0:0:0:
209,18,19435,6,0,P|272:37|305:123,1,152,2|0,0:0|0:0,0:0:0:0:
280,223,19980,1,0,0:0:0:0:
280,223,20162,2,0,P|253:250|201:262,1,76,2|0,0:0|0:0,0:0:0:0:
390,353,20526,5,2,0:0:0:0:
403,334,20617,1,2,0:0:0:0:
403,311,20708,1,2,0:0:0:0:
388,284,20799,5,2,0:0:0:0:
371,260,20890,1,2,0:0:0:0:
371,231,20981,1,2,0:0:0:0:
388,206,21071,6,0,B|450:125|362:122|391:42|446:32|476:117|396:111,1,199.499993911743,2|0,0:0|0:0,0:0:0:0:
332,146,21617,6,0,P|292:120|276:80,1,76,2|0,0:0|0:0,0:0:0:0:
206,27,21980,2,0,P|163:5|120:11,1,76,2|0,0:0|0:0,0:0:0:0:
137,245,22344,5,2,0:0:0:0:
128,257,22435,5,2,0:0:0:0:
112,254,22526,5,2,0:0:0:0:
91,233,22617,5,2,0:0:0:0:
105,201,22708,5,2,0:0:0:0:
141,167,22798,5,2,0:0:0:0:
156,120,22889,5,2,0:0:0:0:
132,77,22980,5,2,0:0:0:0:
75,68,23071,5,2,0:0:0:0:
37,115,23162,5,2,0:0:0:0:
63,170,23253,6,0,P|122:185|208:149,1,152,2|0,0:0|0:0,0:0:0:0:
91,329,23798,1,0,0:0:0:0:
159,288,23980,6,0,P|256:275|324:324,1,170.999994781494,2|0,0:0|0:0,0:0:0:0:
399,344,24526,1,2,0:0:0:0:
264,239,24708,2,0,P|229:189|274:76,1,170.999994781494,2|0,0:0|0:0,0:0:0:0:
328,260,25253,6,0,P|270:244|231:128,1,170.999994781494,2|0,0:0|0:0,0:0:0:0:
372,76,25798,2,0,P|416:57|439:15,1,85.4999973907472,2|0,0:0|0:0,0:0:0:0:
320,10,26162,5,2,0:0:0:0:
288,89,26344,1,2,0:0:0:0:
204,83,26526,1,0,0:0:0:0:
138,134,26708,1,2,0:0:0:0:
138,134,26798,1,2,0:0:0:0:
138,134,26889,6,0,B|67:183|99:271|99:271|116:241,1,170.999994781494,2|0,0:0|0:0,0:0:0:0:
18,171,27435,1,2,0:0:0:0:
100,270,27617,2,0,P|174:239|219:145,1,170.999994781494,2|0,0:0|0:0,0:0:0:0:
262,315,28162,6,0,P|214:249|226:145,1,170.999994781494,2|0,0:0|0:0,0:0:0:0:
317,203,28708,2,0,P|360:227|406:226,1,85.4999973907472,2|0,0:0|0:0,0:0:0:0:
467,272,29071,5,2,0:0:0:0:
506,205,29253,1,0,0:0:0:0:
493,128,29435,1,0,0:0:0:0:
439,72,29617,1,2,0:0:0:0:
439,72,29708,1,2,0:0:0:0:
439,72,29798,6,0,P|343:60|305:2,2,170.999994781494,2|0|0,0:0|0:0|0:0,0:0:0:0:
301,133,30708,1,2,0:0:0:0:
301,133,30798,1,2,0:0:0:0:
301,133,30889,2,0,P|269:171|261:212,1,85.4999973907472,2|0,0:0|0:0,0:0:0:0:
196,105,31253,6,0,P|111:17|56:21,1,170.999994781494,2|0,0:0|0:0,0:0:0:0:
16,86,31798,1,0,0:0:0:0:
183,177,31980,2,0,P|174:56|129:23,1,170.999994781494,2|0,0:0|0:0,0:0:0:0:
265,44,32526,1,0,0:0:0:0:
113,129,32708,6,0,P|54:163|26:231,1,128.249996086121,2|0,0:0|0:0,0:0:0:0:
26,228,33071,2,0,P|37:276|71:311,1,85.4999973907472,2|0,0:0|0:0,0:0:0:0:
29,124,33435,1,0,0:0:0:0:
121,227,33617,2,0,P|168:218|206:172,1,85.4999973907472,2|0,0:0|0:0,0:0:0:0:
325,83,33980,6,0,P|371:99|426:216,1,170.999994781494,2|0,0:0|0:0,0:0:0:0:
439,290,34526,5,2,0:0:0:0:
295,242,34708,5,2,0:0:0:0:
359,312,34889,1,2,0:0:0:0:
298,266,35071,5,2,0:0:0:0:
338,305,35253,1,2,0:0:0:0:
300,297,35435,1,2,0:0:0:0:
220,321,35617,6,0,B|146:319|158:267|158:267|188:300|160:352|133:372,1,190,2|0,0:0|0:0,0:0:0:0:
82,308,36162,1,2,0:0:0:0:
180,192,36344,2,0,P|223:128|190:32,1,170.999994781494,2|0,0:0|0:0,0:0:0:0:
113,208,36889,6,0,P|186:187|223:91,1,170.999994781494,2|0,0:0|0:0,0:0:0:0:
76,135,37435,2,0,P|42:161|21:222,1,85.4999973907472,2|0,0:0|0:0,0:0:0:0:
40,44,37798,5,2,0:0:0:0:
110,12,37980,1,0,0:0:0:0:
186,16,38162,1,2,0:0:0:0:
258,64,38344,1,2,0:0:0:0:
258,64,38435,1,2,0:0:0:0:
258,64,38526,6,0,B|306:94|357:76|376:56|376:56|342:52|327:85,1,170.999994781494,2|0,0:0|0:0,0:0:0:0:
317,31,39071,1,2,0:0:0:0:
243,150,39253,2,0,P|219:211|256:316,1,170.999994781494,2|0,0:0|0:0,0:0:0:0:
359,314,39798,1,2,0:0:0:0:
359,314,39889,1,2,0:0:0:0:
359,314,39980,6,0,P|410:328|435:354,1,85.4999973907472,2|0,0:0|0:0,0:0:0:0:
248,308,40344,2,0,P|224:262|219:207,1,85.4999973907472,2|0,0:0|0:0,0:0:0:0:
324,98,40708,5,2,0:0:0:0:
250,155,40889,1,0,0:0:0:0:
225,62,41071,5,2,0:0:0:0:
336,202,41253,1,0,0:0:0:0:
173,311,41435,6,0,B|123:311|78:259|87:216|87:216|105:246|98:271,1,190,2|0,0:0|0:0,0:0:0:0:
61,339,41980,1,0,0:0:0:0:
181,236,42162,2,0,P|215:195|222:161,1,85.4999973907472,2|0,0:0|0:0,0:0:0:0:
146,159,42526,2,0,P|127:109|101:85,1,85.4999973907472,2|0,0:0|0:0,0:0:0:0:
55,28,42889,5,2,0:0:0:0:
64,154,43071,1,0,0:0:0:0:
186,61,43253,6,0,P|265:86|353:42,1,170.999994781494,2|0,0:0|0:0,0:0:0:0:
422,7,43798,1,0,0:0:0:0:
478,122,43980,5,2,0:0:0:0:
420,178,44162,1,0,0:0:0:0:
478,230,44344,6,0,B|531:287|498:374|498:374|476:327,1,170.999994781494,2|0,0:0|0:0,0:0:0:0:
383,287,44889,1,2,0:0:0:0:
321,336,45071,1,2,0:0:0:0:
247,319,45253,1,2,0:0:0:0:
151,356,45435,6,0,B|112:336|103:275|119:255|119:255|129:275|111:303,1,156.750004783631,2|0,0:0|0:0,0:0:0:0:
186,212,45798,6,0,B|246:200|255:162|250:134|250:134|231:160|240:185,1,142.5,2|0,0:0|0:0,0:0:0:0:
185,89,46162,6,0,B|132:81|123:43|127:15|127:15|139:33|132:59,1,128.249996086121,2|0,0:0|0:0,0:0:0:0:
54,85,46526,6,0,B|2:107|9:156|9:156|36:132,1,114,2|0,0:0|0:0,0:0:0:0:
105,170,46889,6,0,B|115:199|160:222|160:222|134:219,1,99.7499969558717,2|0,0:0|0:0,0:0:0:0:
58,278,47253,6,0,B|93:237|187:236|211:281|211:281|149:274|152:195,1,285,2|0,0:0|0:0,0:0:0:0:
152,200,48708,5,2,0:0:0:0:
46,67,49071,5,2,0:0:0:0:
110,123,49435,1,0,0:0:0:0:
194,114,49798,1,0,0:0:0:0:
336,28,50162,5,2,0:0:0:0:
400,87,50526,5,0,0:0:0:0:
400,87,50708,2,0,P|449:172|399:257,1,190,2|0,0:0|0:0,0:0:0:0:
293,290,51617,6,0,B|295:266|255:258|255:258|273:313|326:308,1,148.200004974976,2|0,0:0|0:0,0:0:0:0:
308,170,52162,2,0,P|294:123|203:63,1,148.200004974976,2|0,0:0|0:0,0:0:0:0:
162,127,52708,5,2,0:0:0:0:
109,186,52889,5,0,0:0:0:0:
59,245,53071,5,2,0:0:0:0:
2,192,53435,1,2,0:0:0:0:
76,350,53798,5,2,0:0:0:0:
159,287,53980,1,2,0:0:0:0:
242,341,54162,1,2,0:0:0:0:
319,302,54344,1,0,0:0:0:0:
386,351,54526,5,2,0:0:0:0:
386,351,54708,1,2,0:0:0:0:
455,296,54889,5,2,0:0:0:0:
475,203,55071,1,2,0:0:0:0:
422,99,55253,1,0,0:0:0:0:
317,46,55435,1,2,0:0:0:0:
317,46,55980,6,0,B|276:107|347:112|345:192|291:250|207:165|281:115|297:149,1,222.300007462464,2|0,0:0|0:0,0:0:0:0:
212,99,56708,5,0,0:0:0:0:
140,118,56889,1,2,0:0:0:0:
112,186,57071,1,2,0:0:0:0:
5,16,57435,5,2,0:0:0:0:
72,64,57617,1,0,0:0:0:0:
12,0,57798,5,2,0:0:0:0:
85,53,57980,1,2,0:0:0:0:
178,17,58344,5,2,0:0:0:0:
240,61,58526,1,2,0:0:0:0:
312,36,58708,1,0,0:0:0:0:
402,88,58889,6,0,P|426:131|420:194,1,95,6|0,3:2|0:0,0:0:0:0:
423,187,59132,2,0,L|410:234,2,31.6666666666667,8|8|8,0:0|0:0|0:0,0:0:0:0:
357,297,59435,5,8,0:3:0:0:
411,353,59617,5,2,0:0:0:0:
443,269,59798,5,8,0:0:0:0:
293,358,59980,1,8,0:0:0:0:
176,256,60162,1,0,3:0:0:0:
176,256,60253,1,0,3:0:0:0:
176,256,60344,6,0,P|236:260|324:127,1,227.999993041992,6|0,3:2|0:0,0:0:0:0:
301,69,60798,1,2,0:0:0:0:
301,69,60889,2,0,P|257:26|192:18,1,113.999996520996,10|0,0:0|0:0,0:0:0:0:
159,181,61253,2,0,P|103:216|89:287,1,113.999996520996,0|0,3:0|0:0,0:0:0:0:
75,96,61617,6,0,B|33:68|40:-4|40:-4|101:-7|136:51,1,227.999993041992,2|0,3:2|0:0,0:0:0:0:
274,179,62162,2,0,P|315:225|370:238,1,113.999996520996,8|0,0:0|0:0,0:0:0:0:
430,195,62526,5,2,0:0:0:0:
344,314,62708,1,0,3:0:0:0:
263,170,62889,1,8,0:0:0:0:
350,86,63162,5,2,0:0:0:0:
358,94,63253,6,0,B|430:98|482:56|485:15|485:15|449:32|445:76,1,237.5,6|0,3:2|0:0,0:0:0:0:
312,8,63798,2,0,P|263:33|235:84,1,113.999996520996,10|0,0:0|0:0,0:0:0:0:
352,205,64162,2,0,P|401:180|429:129,1,113.999996520996,2|0,3:2|0:0,0:0:0:0:
199,196,64526,6,0,B|150:229|137:313|175:386|175:386|187:348,1,227.999993041992,2|0,3:2|0:0,0:0:0:0:
365,328,65071,2,0,P|308:284|263:273,1,113.999996520996,10|0,0:0|0:0,0:0:0:0:
107,165,65435,5,8,0:3:0:0:
250,71,65617,1,8,0:3:0:0:
166,20,65798,5,8,0:0:0:0:
281,197,65980,1,8,0:0:0:0:
80,263,66162,6,0,B|-8:284|-8:372|-8:372|45:338|34:289,1,246.999988693238,6|0,3:2|0:0,0:0:0:0:
190,256,66708,2,0,P|249:235|287:176,1,113.999996520996,10|0,0:0|0:0,0:0:0:0:
337,134,67071,1,2,0:0:0:0:
451,291,67253,1,8,0:0:0:0:
490,220,67435,6,0,P|519:162|451:21,1,227.999993041992,2|0,3:2|0:0,0:0:0:0:
409,201,67980,2,0,P|346:243|335:312,1,113.999996520996,10|0,0:0|0:0,0:0:0:0:
367,344,68344,5,2,0:0:0:0:
255,251,68526,1,0,3:0:0:0:
419,191,68708,1,8,0:0:0:0:
347,132,68980,5,2,0:0:0:0:
338,125,69071,6,0,B|250:73|289:-13|289:-13|340:-3|354:39,1,246.999988693238,6|0,3:2|0:0,0:0:0:0:
231,161,69617,2,0,P|171:208|126:209,1,113.999996520996,10|0,0:0|0:0,0:0:0:0:
347,279,69980,2,0,B|384:318|429:310|429:310|401:279|360:293,1,142.5,0|0,3:0|0:0,0:0:0:0:
326,265,70344,6,0,B|260:266|208:322|209:374|209:374|247:351|239:307,1,237.5,2|0,3:2|0:0,0:0:0:0:
395,206,70889,2,0,P|444:164|456:104,1,113.999996520996,8|0,0:0|0:0,0:0:0:0:
263,29,71253,5,8,0:0:0:0:
371,126,71435,1,8,0:0:0:0:
418,31,71617,5,8,0:3:0:0:
242,146,71798,1,8,0:3:0:0:
433,269,71980,6,0,B|474:280|498:223|417:182|314:209|303:300,1,246.999988693238,6|8,3:2|0:0,0:0:0:0:
423,184,72526,1,2,0:0:0:0:
334,357,72708,2,0,P|387:376|449:356,1,113.999996520996,0|0,3:0|0:0,0:0:0:0:
297,214,73071,5,8,0:0:0:0:
180,359,73253,1,2,0:0:0:0:
180,359,73344,1,0,0:0:0:0:
180,359,73435,6,0,P|128:332|109:277,1,113.999996520996,2|0,0:2|0:0,0:2:0:0:
233,138,73798,1,8,0:0:0:0:
279,48,73980,2,0,B|295:48|303:20|303:20|259:22|248:66,1,113.999996520996,2|0,0:0|0:0,0:0:0:0:
115,130,74344,2,0,P|162:179|177:229,1,113.999996520996,2|10,0:2|0:2,0:0:0:0:
353,307,74708,1,0,3:0:0:0:
353,307,74798,1,0,3:0:0:0:
353,307,74889,6,0,B|391:354|458:348|458:348|458:286|402:252,1,227.999993041992,2|0,3:2|0:0,0:0:0:0:
223,315,75435,2,0,P|171:353|99:354,1,113.999996520996,8|0,0:0|0:0,0:0:0:0:
184,241,75798,5,2,3:2:0:0:
290,361,75980,1,8,0:0:0:0:
382,230,76162,6,0,B|441:196|452:124|434:86|434:86|414:123|438:170,1,227.999993041992,2|0,3:2|0:0,0:0:0:0:
477,263,76708,1,8,0:0:0:0:
351,152,76889,1,8,0:0:0:0:
351,152,76980,1,8,0:0:0:0:
351,152,77071,5,8,0:0:0:0:
251,204,77253,5,8,0:3:0:0:
162,162,77435,5,8,0:3:0:0:
123,86,77617,5,8,0:3:0:0:
141,65,77798,5,6,3:2:0:0:
86,9,78162,1,0,0:2:0:0:
16,44,78526,1,0,0:2:0:0:
224,44,78889,1,8,0:0:0:0:
361,187,79071,6,0,B|410:196|482:147|483:104|483:104|448:116|445:167,1,227.999993041992,6|0,3:2|0:0,0:0:0:0:
317,115,79617,2,0,P|279:163|279:235,1,113.999996520996,10|0,0:0|0:0,0:0:0:0:
331,274,79889,1,8,0:0:0:0:
331,274,79980,5,8,0:3:0:0:
256,336,80162,5,8,0:3:0:0:
185,298,80344,5,8,0:3:0:0:
68,362,80617,5,2,0:0:0:0:
61,355,80708,6,0,B|-4:306|36:199|36:199|54:233,1,190,6|0,3:2|0:0,0:0:0:0:
115,141,81253,2,0,P|162:111|182:60,1,95,8|2,0:0|0:0,0:0:0:0:
114,17,81617,2,0,P|67:47|47:98,1,95,0|2,3:2|0:0,0:0:0:0:
111,225,81980,6,0,B|146:265|224:253|241:231|241:231|205:224|179:259,1,190,10|0,0:0|3:0,0:0:0:0:
91,308,82435,1,2,0:0:0:0:
80,309,82526,2,0,P|29:330|7:368,1,95,2|8,0:0|0:0,0:0:0:0:
179,325,82889,5,0,0:0:0:0:
261,305,83071,1,0,3:0:0:0:
320,359,83253,1,8,0:0:0:0:
423,296,83435,1,0,3:0:0:0:
423,296,83526,1,0,3:0:0:0:
423,296,83617,6,0,P|459:241|431:112,1,190,2|0,3:2|0:0,0:0:0:0:
345,172,84162,2,0,P|298:206|279:253,1,95,10|0,0:0|0:0,0:0:0:0:
440,123,84526,2,0,P|391:88|331:83,1,95,2|0,3:2|0:0,0:0:0:0:
222,149,84889,6,0,B|188:186|131:172|131:172|136:110|191:86,1,190,8|0,0:0|3:0,0:0:0:0:
279,261,85435,2,0,B|302:317|379:317|379:317|344:276|301:282,1,209.000006378174,6|0,3:2|0:0,0:0:0:0:
165,345,85980,5,8,0:3:0:0:
271,253,86162,1,8,0:3:0:0:
121,144,86344,1,8,0:3:0:0:
121,144,86435,1,8,0:3:0:0:
121,144,86526,6,0,B|51:107|73:22|73:22|124:18|148:60,1,227.999993041992,6|0,3:2|0:0,0:0:0:0:
201,184,87071,2,0,P|160:223|110:234,1,95,10|0,0:0|0:0,0:0:0:0:
238,110,87435,1,0,3:0:0:0:
346,222,87617,1,2,0:0:0:0:
417,177,87798,6,0,B|468:130|461:75|461:75|422:103|427:142,1,190,8|0,0:0|3:0,0:0:0:0:
346,222,88344,2,0,P|386:255|447:256,1,95
499,300,88617,5,2,0:0:0:0:
500,321,88708,5,2,0:0:0:0:
491,341,88798,5,2,0:0:0:0:
480,360,88889,5,2,3:2:0:0:
372,347,89071,5,10,0:0:0:0:
367,332,89162,2,0,B|333:300|304:312|304:312|314:342,1,95,2|0,0:0|0:0,0:0:0:0:
223,341,89435,6,0,B|161:280|197:187|197:187|222:221,1,190,6|0,3:2|0:0,0:0:0:0:
98,296,89980,2,0,P|53:259|40:217,1,95,10|0,0:0|0:0,0:0:0:0:
220,212,90344,2,0,P|265:238|285:280,1,95,2|0,3:2|0:0,0:0:0:0:
100,139,90708,6,0,B|61:93|75:50|75:50|141:48|169:113,1,190,10|0,0:0|3:0,0:0:0:0:
325,31,91253,1,8,0:0:0:0:
257,101,91435,1,8,0:0:0:0:
257,101,91526,1,8,0:0:0:0:
257,101,91617,5,8,0:3:0:0:
325,173,91798,5,8,0:3:0:0:
269,237,91980,5,8,0:3:0:0:
330,293,92162,5,8,0:3:0:0:
317,315,92344,6,0,B|358:271|449:265|474:305|474:305|434:307|407:270,1,237.5,6|8,3:2|0:0,0:0:0:0:
419,325,92889,1,0,0:0:0:0:
462,166,93071,2,0,P|490:124|499:84,1,85.4999973907472,2|0,3:2|0:0,0:0:0:0:
350,207,93435,1,8,0:0:0:0:
304,140,93617,6,0,P|252:95|149:94,1,170.999994781494,2|0,0:0|3:0,0:0:0:0:
35,47,94162,2,0,B|4:31|8:0|8:0|29:13|33:37,1,85.4999973907472,8|0,0:0|0:0,0:0:0:0:
51,163,94526,5,2,3:2:0:0:
5,228,94708,1,0,0:0:0:0:
18,312,94889,1,8,0:0:0:0:
87,361,95071,1,0,3:0:0:0:
87,361,95162,1,0,3:0:0:0:
87,361,95253,6,0,P|130:333|280:348,1,199.499993911743,2|8,3:2|0:0,0:0:0:0:
346,368,95798,1,0,0:0:0:0:
180,290,95980,2,0,P|145:240|141:206,1,85.4999973907472,2|0,3:2|0:0,0:0:0:0:
264,121,96344,5,8,0:0:0:0:
136,139,96526,1,0,3:2:0:0:
192,87,96708,1,0,0:0:0:0:
173,13,96889,1,0,3:0:0:0:
276,130,97071,6,0,P|324:149|404:120,1,128.249996086121,8|0,0:0|0:0,0:0:0:0:
460,74,97435,5,2,3:2:0:0:
511,142,97617,1,0,0:0:0:0:
483,222,97798,1,10,0:0:0:0:
483,222,97980,1,0,0:0:0:0:
451,60,98162,6,0,P|405:33|292:50,1,170.999994781494,6|8,3:2|0:0,0:0:0:0:
227,91,98708,1,0,0:0:0:0:
318,220,98889,2,0,P|357:178|363:139,1,85.4999973907472,0|0,3:2|0:0,0:0:0:0:
220,310,99253,1,10,0:0:0:0:
154,255,99435,1,0,3:0:0:0:
154,255,99526,1,0,3:0:0:0:
154,255,99617,6,0,P|136:183|173:116,1,128.249996086121,2|0,3:2|0:0,0:0:0:0:
227,91,99980,2,0,B|271:54|271:54|234:65,1,85.4999973907472,8|0,0:0|0:0,0:0:0:0:
121,40,100344,2,0,B|76:3|76:3|113:14,1,85.4999973907472,2|0,3:2|0:0,0:0:0:0:
48,130,100708,1,8,0:0:0:0:
6,204,100889,1,0,0:0:0:0:
97,294,101071,6,0,P|146:267|170:189,1,128.249996086121,2|0,3:2|0:0,0:0:0:0:
167,195,101435,2,0,P|188:246|231:277,1,85.4999973907472,8|0,0:0|0:0,0:0:0:0:
352,300,101798,5,0,3:0:0:0:
314,370,101980,1,0,0:0:0:0:
429,331,102162,1,8,0:0:0:0:
306,235,102344,6,0,B|242:186|269:103|269:103|286:142,1,190,2|0,3:2|0:0,0:0:0:0:
489,94,102889,5,10,0:0:0:0:
411,68,103071,2,0,P|365:28|360:-1,1,85.4999973907472,2|0,3:2|3:2,0:2:0:0:
497,110,103435,5,8,0:3:0:0:
431,187,103617,5,8,0:3:0:0:
485,256,103798,5,8,0:3:0:0:
424,307,103980,6,0,B|372:305|320:262|324:218|324:218|361:232|366:278,1,209.000006378174,6|8,3:2|0:0,0:0:0:0:
341,310,104526,1,0,0:0:0:0:
217,355,104708,5,2,3:2:0:0:
153,307,104889,1,2,0:0:0:0:
76,329,105071,1,10,0:0:0:0:
162,294,105253,6,0,P|191:247|166:121,1,170.999994781494,0|0,3:2|3:0,0:0:0:0:
289,83,105798,2,0,P|333:59|351:23,1,85.4999973907472,8|0,0:0|0:0,0:0:0:0:
187,62,106162,5,2,3:2:0:0:
83,3,106344,1,0,0:0:0:0:
199,68,106526,1,8,0:0:0:0:
128,118,106798,5,2,0:0:0:0:
119,123,106889,6,0,B|47:171|68:254|68:254|94:222,1,170.999994781494,2|8,3:2|0:0,0:0:0:0:
155,212,107435,1,0,0:0:0:0:
247,324,107617,2,0,B|319:365|319:365|281:314,1,128.249996086121,2|0,3:2|0:0,0:0:0:0:
277,252,107980,1,8,0:0:0:0:
149,359,108162,1,0,3:2:0:0:
93,297,108344,6,0,P|73:247|87:173,1,128.249996086121,2|0,0:0|0:0,0:0:0:0:
99,170,108708,2,0,P|133:193|150:232,1,85.4999973907472,10|0,0:0|0:0,0:0:0:0:
201,72,109071,1,2,3:2:0:0:
201,72,109253,1,0,0:0:0:0:
275,116,109435,2,0,P|308:93|334:46,1,85.4999973907472,10|0,0:0|0:0,0:0:0:0:
261,1,109798,6,0,B|321:16|380:93|380:93|358:32,1,209.000006378174,6|8,3:2|0:0,0:0:0:0:
454,36,110344,1,0,0:0:0:0:
379,92,110526,2,0,P|354:136|348:188,1,85.4999973907472,0|0,3:0|0:0,0:0:0:0:
375,290,110889,2,0,P|400:333|442:364,1,85.4999973907472,10|0,0:0|0:0,0:0:0:0:
261,230,111253,6,0,B|194:234|168:171|168:171|198:183,1,128.249996086121,2|0,3:2|0:0,0:0:0:0:
235,125,111617,1,10,0:2:0:0:
200,56,111798,1,0,0:2:0:0:
131,19,111980,1,0,3:2:0:0:
54,33,112162,1,0,0:2:0:0:
69,159,112344,6,0,B|103:125|103:125|79:139,1,71.25,10|0,0:0|0:0,0:0:0:0:
59,168,112708,6,0,B|79:221|148:246|179:233|179:233|148:210|106:227,1,199.499993911743,2|8,3:2|0:0,0:0:0:0:
139,143,113253,1,0,0:0:0:0:
46,274,113435,2,0,P|5:320|-1:357,1,85.4999973907472,2|0,3:2|0:0,0:0:0:0:
179,234,113798,2,0,P|220:188|226:151,1,85.4999973907472,10|0,0:0|0:0,0:0:0:0:
59,168,114162,6,0,P|33:103|53:24,1,128.249996086121,2|0,3:2|0:0,0:0:0:0:
109,7,114526,1,14,0:0:0:0:
256,119,114708,1,8,0:0:0:0:
256,119,114798,1,8,0:0:0:0:
256,119,114889,5,8,0:0:0:0:
349,185,115071,5,8,0:3:0:0:
437,173,115253,5,8,0:3:0:0:
493,113,115435,5,8,0:3:0:0:
388,22,115617,6,0,B|351:107|410:108|447:200|394:265|290:192|377:140,1,285,6|0,3:2|0:0,0:0:0:0:
244,192,116889,1,2,0:0:0:0:
244,192,116980,1,2,0:0:0:0:
244,192,117071,6,0,B|176:195|99:81|121:17|121:17|167:54|149:137,1,341.999989562989,6|0,3:2|0:0,0:0:0:0:
153,112,118526,6,0,B|79:135|37:228|65:299|65:299|139:290|155:195,1,370.499983039857,6|8,3:2|0:3,0:0:0:0:
255,284,119798,1,2,0:0:0:0:
255,284,119889,1,2,0:0:0:0:
255,284,119980,6,0,B|365:288|324:201|441:210,1,199.499993911743,6|8,3:2|0:0,0:0:0:0:
430,209,120889,5,8,0:3:0:0:
484,130,121071,5,8,0:3:0:0:
431,68,121253,5,2,0:0:0:0:
431,68,121344,1,2,0:0:0:0:
431,68,121435,6,0,B|388:45|333:50|333:50|391:37,1,152,6|0,3:2|0:0,0:0:0:0:
267,118,121980,2,0,P|236:168|266:261,1,152,8|0,0:0|0:0,0:0:0:0:
425,343,122526,1,10,0:0:0:0:
349,314,122708,1,0,3:0:0:0:
349,314,122798,1,0,3:0:0:0:
349,314,122889,6,0,B|299:310|269:346|264:371|264:371|287:357|290:325,1,152,2|0,0:0|0:0,0:0:0:0:
423,245,123435,2,0,L|447:89,1,152,8|0,0:0|3:0,0:0:0:0:
294,16,123980,1,10,0:0:0:0:
222,82,124162,1,2,0:0:0:0:
222,82,124253,1,2,0:0:0:0:
222,82,124344,6,0,P|152:77|124:29,1,114,2|0,3:2|0:0,0:0:0:0:
149,111,124708,2,0,P|119:153|88:162,1,76,8|0,0:0|0:0,0:0:0:0:
232,240,125071,2,0,B|318:244|291:182|383:193,1,152,2|0,0:0|0:0,0:0:0:0:
487,68,125617,1,8,0:0:0:0:
423,25,125798,6,0,P|372:22|313:106,1,152,2|8,0:0|0:0,0:0:0:0:
451,236,126344,1,8,0:0:0:0:
451,236,126435,1,8,0:0:0:0:
451,236,126526,1,8,0:0:0:0:
321,185,126708,1,8,0:3:0:0:
347,314,126889,5,8,0:3:0:0:
436,125,127071,1,8,0:0:0:0:
212,132,127253,6,0,P|166:123|119:-20,1,190,6|8,3:2|0:0,0:0:0:0:
53,200,127798,6,0,P|41:223|26:238,1,47.5,2|0,3:2|0:0,0:0:0:0:
67,192,127980,2,0,P|123:203|156:240,1,95,10|0,0:3|3:0,0:0:0:0:
217,268,128253,5,2,0:0:0:0:
217,268,128344,6,0,L|278:258,1,47.5,12|0,0:0|0:0,0:0:0:0:
331,208,128526,6,0,L|392:198,1,47.5,2|0,0:0|0:0,0:0:0:0:
462,241,128708,6,0,L|486:236,1,23.75,8|8,0:0|0:0,0:0:0:0:
488,226,129253,6,0,L|446:235,1,23.75,8|8,0:3|0:3,0:0:0:0:
383,33,129617,5,8,0:0:0:0:
256,149,129798,1,8,0:0:0:0:
187,106,129980,1,0,3:0:0:0:
187,106,130071,1,0,3:0:0:0:
187,106,130162,6,0,P|133:158|149:314,1,227.999993041992,6|8,3:2|0:0,0:0:0:0:
78,72,130708,2,0,B|37:62|31:28|31:28|62:33|68:66,1,113.999996520996,2|0,0:0|3:0,0:0:0:0:
243,165,131071,2,0,B|283:155|289:121|289:121|258:126|252:159,1,113.999996520996,2|8,0:0|0:0,0:0:0:0:
35,247,131435,6,0,B|91:231|155:277|158:323|158:323|117:299|112:263,1,227.999993041992,2|0,3:2|3:0,0:0:0:0:
159,178,131980,2,0,P|210:146|241:80,1,113.999996520996,8|0,0:0|0:0,0:0:0:0:
214,23,132344,5,2,3:2:0:0:
327,96,132526,1,0,0:0:0:0:
469,183,132708,1,8,0:0:0:0:
368,225,132980,5,2,0:0:0:0:
358,229,133071,6,0,B|274:271|292:355|292:355|343:315|322:252,1,246.999988693238,6|8,3:2|0:0,0:0:0:0:
282,174,133617,2,0,P|237:143|171:132,1,113.999996520996,2|0,0:0|3:0,0:0:0:0:
410,291,133980,2,0,P|455:322|521:333,1,113.999996520996,2|8,0:0|0:0,0:0:0:0:
213,356,134344,6,0,B|95:365|128:264|-7:282,1,227.999993041992,2|0,0:0|3:0,0:0:0:0:
174,171,134889,2,0,B|226:155|233:131|233:131|198:139|191:161,1,113.999996520996,10|0,0:0|0:0,0:0:0:0:
129,95,135253,5,2,3:2:0:0:
251,222,135435,1,0,0:0:0:0:
347,77,135617,1,8,0:0:0:0:
421,122,135889,5,2,0:0:0:0:
429,129,135980,6,0,P|459:193|417:360,1,246.999988693238,6|8,3:2|0:0,0:0:0:0:
347,173,136526,2,0,P|288:139|254:78,1,113.999996520996,2|0,0:0|3:0,0:0:0:0:
194,39,136889,1,2,0:0:0:0:
42,165,137071,1,8,0:0:0:0:
104,219,137253,6,0,P|168:200|288:316,1,227.999993041992,2|0,3:2|3:0,0:0:0:0:
66,319,137798,2,0,P|10:278|2:223,1,113.999996520996,8|0,0:0|0:0,0:0:0:0:
157,52,138162,5,2,3:2:0:0:
225,105,138344,1,0,0:0:0:0:
36,142,138526,5,8,0:0:0:0:
74,64,138708,1,0,0:0:0:0:
207,209,138889,6,0,B|251:264|334:260|364:234|364:234|324:228|286:267,1,227.999993041992,2|8,3:2|0:0,0:0:0:0:
183,298,139435,1,0,3:0:0:0:
183,298,139526,1,0,3:0:0:0:
183,298,139617,2,0,B|135:357|135:357|149:307,1,113.999996520996,2|0,3:2|0:0,0:0:0:0:
301,152,139980,6,0,L|293:88,1,56.9999982604981,10|0,0:0|0:0,0:0:0:0:
209,23,140162,6,0,P|127:42|88:182,1,227.999993041992,2|0,3:2|3:0,0:0:0:0:
282,279,140708,1,10,0:0:0:0:
178,185,140889,1,0,3:0:0:0:
178,185,140980,1,0,3:0:0:0:
178,185,141071,5,8,0:0:0:0:
157,267,141253,5,10,0:3:0:0:
272,150,141435,5,8,0:3:0:0:
434,173,141617,5,8,0:3:0:0:
477,346,141798,6,0,B|340:339|408:233|231:232,1,256.50000097847,6|8,3:2|0:0,0:0:0:0:
138,100,142344,1,0,3:0:0:0:
138,100,142435,1,0,3:0:0:0:
138,100,142526,2,0,P|172:49|225:31,1,113.999996520996,2|0,3:2|0:0,0:0:0:0:
74,199,142889,1,8,0:0:0:0:
229,215,143071,1,0,3:0:0:0:
167,263,143253,6,0,P|250:231|303:103,1,227.999993041992,2|8,0:0|0:0,0:0:0:0:
413,244,143798,2,0,B|436:285|475:283|475:283|469:260|434:257,1,113.999996520996,2|0,0:0|3:0,0:0:0:0:
273,323,144162,2,0,B|250:364|211:362|211:362|217:339|252:336,1,113.999996520996,2|8,0:0|0:0,0:0:0:0:
248,151,144526,1,0,3:0:0:0:
248,151,144617,1,0,3:0:0:0:
248,151,144708,6,0,P|244:63|307:144,1,227.999993041992,2|8,3:2|0:0,0:0:0:0:
317,201,145253,1,0,0:0:0:0:
169,295,145435,1,0,3:0:0:0:
87,228,145617,1,2,0:0:0:0:
253,262,145798,1,8,0:0:0:0:
322,307,145980,6,0,P|374:274|505:360,1,227.999993041992,2|0,3:2|3:0,0:0:0:0:
323,204,146526,1,12,0:0:0:0:
405,144,146708,1,8,0:0:0:0:
405,144,146798,1,8,0:0:0:0:
405,144,146889,5,8,0:0:0:0:
327,24,147071,5,8,0:3:0:0:
224,10,147253,5,8,0:3:0:0:
141,36,147435,5,8,0:3:0:0:
127,52,147617,5,6,3:2:0:0:
76,110,147980,1,0,0:0:0:0:
126,169,148344,1,0,0:0:0:0:
42,262,148708,1,8,0:0:0:0:
138,181,148889,6,0,B|271:182|210:82|366:102,1,227.999993041992,6|0,3:2|0:0,0:0:0:0:
489,265,149435,5,14,0:0:0:0:
358,100,149617,1,0,3:2:0:0:
482,182,149798,5,8,0:0:0:0:
350,180,149980,1,0,3:2:0:0:
397,251,150162,6,0,B|365:345|232:400|183:351|173:312|173:312|205:256|273:286,1,398.999987823487,14|0,0:0|0:0,0:0:0:0:
176,74,159253,6,0,L|173:37,1,33.2499989852906,10|0,0:0|0:0,0:0:0:0:
306,154,159616,6,0,L|303:117,1,33.2499989852906,10|0,0:0|0:0,0:0:0:0:
169,316,160162,1,8,0:0:0:0:
169,316,160253,1,8,0:0:0:0:
169,316,160344,6,0,L|162:211,1,99.7499969558717,10|0,0:0|0:0,0:0:0:0:
162,208,160708,6,0,L|155:162,1,33.2499989852906,10|0,0:0|0:0,0:0:0:0:
338,353,161253,1,8,0:0:0:0:
338,353,161344,1,8,0:0:0:0:
338,353,161435,6,0,L|331:248,1,99.7499969558717,10|0,0:0|0:0,0:0:0:0:
334,242,161799,6,0,L|335:197,1,33.2499989852906,10|0,0:0|0:0,0:0:0:0:
151,151,162344,1,8,0:0:0:0:
151,151,162435,1,8,0:0:0:0:
151,151,162526,6,0,L|144:46,1,99.7499969558717,10|0,0:0|0:0,0:0:0:0:
144,44,162889,6,0,L|147:2,1,33.2499989852906,10|0,0:0|0:0,0:0:0:0:
225,89,163071,6,0,L|228:47,1,33.2499989852906,8|0,0:0|0:0,0:0:0:0:
69,142,163253,6,0,L|62:58,1,66.4999979705811,8|8,0:0|0:0,0:0:0:0:
64,66,163526,1,8,0:0:0:0:
64,66,163617,6,0,L|64:24,1,33.2499989852906,10|0,0:0|0:0,0:0:0:0:
195,204,163980,6,0,L|195:162,1,33.2499989852906,10|0,0:0|0:0,0:0:0:0:
53,355,164526,1,8,0:0:0:0:
53,355,164617,1,8,0:0:0:0:
53,355,164708,6,0,L|46:250,1,99.7499969558717,10|0,0:0|0:0,0:0:0:0:
49,244,165072,6,0,L|51:197,1,33.2499989852906,10|0,0:0|0:0,0:0:0:0:
270,187,165617,1,8,0:0:0:0:
270,187,165708,1,8,0:0:0:0:
270,187,165799,6,0,L|277:82,1,99.7499969558717,10|0,0:0|0:0,0:0:0:0:
274,76,166163,6,0,L|270:29,1,33.2499989852906,10|0,0:0|0:0,0:0:0:0:
184,258,166708,1,8,0:0:0:0:
184,258,166798,1,8,0:0:0:0:
184,258,166889,6,0,L|182:218,1,33.2499989852906,10|0,0:0|0:0,0:0:0:0:
357,341,167253,6,0,L|359:301,1,33.2499989852906,10|0,0:0|0:0,0:0:0:0:
275,167,167617,6,0,B|320:141|320:141|300:142,1,71.25,2|0,0:0|0:0,0:0:0:0:
263,177,167980,6,0,B|364:166|309:102|400:89,1,170.999994781494,6|8,3:2|0:0,0:0:0:0:
479,255,168889,1,8,0:0:0:0:
479,255,168980,1,8,0:0:0:0:
479,255,169071,6,0,P|424:213|352:228,1,114,2|0,3:2|0:0,0:0:0:0:
371,217,169435,6,0,P|347:237|339:259,1,38,10|0,0:0|0:0,0:0:0:0:
198,358,169980,1,8,0:0:0:0:
198,358,170071,1,8,0:0:0:0:
198,358,170162,6,0,P|156:303|173:231,1,114,2|0,3:2|0:0,0:0:0:0:
162,249,170526,6,0,P|178:228|202:217,1,38,10|0,0:0|0:0,0:0:0:0:
88,212,170708,5,8,0:0:0:0:
41,151,170889,1,8,0:0:0:0:
87,89,171071,1,8,0:0:0:0:
49,21,171253,1,10,0:0:0:0:
49,21,171617,5,10,0:0:0:0:
205,132,171980,5,8,0:0:0:0:
191,124,172071,5,8,0:0:0:0:
195,110,172162,5,8,0:0:0:0:
209,115,172253,5,8,0:0:0:0:
214,125,172344,6,0,P|256:96|341:105,1,114,2|0,3:2|0:0,0:0:0:0:
327,98,172708,6,0,P|349:118|359:137,1,38,10|0,0:0|0:0,0:0:0:0:
481,270,173071,5,0,3:2:0:0:
408,238,173253,1,8,0:2:0:0:
337,282,173435,6,0,P|280:301|227:274,1,114,0|0,3:2|0:0,0:0:0:0:
223,273,173798,6,0,P|214:254|214:230,1,38,10|0,0:0|0:0,0:0:0:0:
90,94,174162,5,8,0:0:0:0:
62,112,174252,5,8,0:0:0:0:
71,144,174343,5,8,0:0:0:0:
103,145,174434,5,8,0:0:0:0:
115,115,174526,6,0,P|79:150|85:234,1,114,2|0,3:2|0:0,0:0:0:0:
77,224,174889,6,0,P|95:242|111:252,1,38,10|0,0:0|0:0,0:0:0:0:
285,161,175253,5,10,0:0:0:0:
214,62,175435,1,8,0:0:0:0:
273,11,175617,1,0,3:2:0:0:
395,92,175798,5,8,0:0:0:0:
395,92,175889,1,8,0:0:0:0:
395,92,175980,1,10,0:0:0:0:
410,183,176162,1,8,0:0:0:0:
426,274,176344,1,8,0:0:0:0:
311,293,176617,5,2,0:0:0:0:
303,289,176708,6,0,B|241:290|196:336|200:373|200:373|229:357|229:311,1,199.499993911743,6|8,3:2|0:0,0:0:0:0:
107,145,177617,1,8,0:0:0:0:
107,145,177708,1,8,0:0:0:0:
107,145,177798,6,0,B|73:95|111:39|111:39|123:77,1,128.249996086121,2|0,3:0|0:0,0:0:0:0:
129,57,178162,6,0,P|147:74|159:100,1,42.7499986953736,10|0,0:0|0:0,0:0:0:0:
277,218,178708,6,0,P|285:237|300:256,1,42.7499986953736,8|0,0:0|0:0,0:0:0:0:
308,261,178889,6,0,P|378:271|436:231,1,128.249996086121,2|0,3:2|0:0,0:0:0:0:
433,236,179253,6,0,P|443:211|449:180,1,42.7499986953736,10|0,0:0|0:0,0:0:0:0:
363,25,179617,5,8,0:0:0:0:
341,58,179707,1,8,0:0:0:0:
368,87,179798,1,8,0:0:0:0:
403,70,179889,1,8,0:0:0:0:
395,31,179980,2,0,P|369:66|367:118,1,85.4999973907472,10|8,0:0|0:0,0:0:0:0:
263,174,180344,5,8,0:0:0:0:
194,250,180526,1,8,0:0:0:0:
94,223,180708,1,8,0:0:0:0:
22,267,180889,1,8,0:0:0:0:
22,267,180980,1,8,0:0:0:0:
22,267,181071,6,0,B|-12:317|26:373|26:373|38:335,1,128.249996086121,2|0,3:2|0:0,0:0:0:0:
44,357,181435,6,0,P|62:340|74:314,1,42.7499986953736,10|0,0:0|0:0,0:0:0:0:
243,150,181980,1,8,0:0:0:0:
243,150,182071,1,8,0:0:0:0:
243,150,182162,6,0,B|284:105|255:44|255:44|237:80,1,128.249996086121,2|0,3:2|0:0,0:0:0:0:
235,57,182526,6,0,P|214:70|198:94,1,42.7499986953736,10|0,0:0|0:0,0:0:0:0:
96,205,182889,5,8,0:0:0:0:
62,177,182979,1,8,0:0:0:0:
76,136,183070,1,8,0:0:0:0:
119,134,183161,1,8,0:0:0:0:
137,172,183253,6,0,P|65:179|3:128,1,128.249996086121,2|0,3:2|0:0,0:0:0:0:
11,142,183617,6,0,P|3:118|5:92,1,42.7499986953736,10|0,0:0|0:0,0:0:0:0:
158,29,183980,5,8,0:0:0:0:
198,50,184071,1,8,0:0:0:0:
243,32,184162,1,8,0:0:0:0:
281,58,184253,1,8,0:0:0:0:
328,46,184344,5,10,0:0:0:0:
425,103,184526,1,8,0:0:0:0:
462,211,184708,1,8,0:0:0:0:
424,297,184889,5,8,0:3:0:0:
356,348,185071,5,8,0:3:0:0:
282,320,185253,5,8,0:3:0:0:
259,331,185435,6,0,B|209:395|118:371|118:371|196:360|233:321|261:240|162:158|75:218|68:305,1,512.049995312042,6|0,3:2|0:0,0:0:0:0:
71,292,187617,6,0,B|23:261|-9:201|37:145|37:145|92:159|91:213,1,261.250007972718,6|0,3:2|0:0,0:0:0:0:
216,197,188708,6,0,B|285:162|318:84|269:29|269:29|201:50|210:124,1,308.749985866547,6|0,3:2|0:0,0:0:0:0:
209,104,189798,6,0,P|234:171|366:225,1,199.499993911743,10|8,0:0|0:3,0:0:0:0:
447,347,190708,5,2,0:0:0:0:
447,347,190798,1,2,0:0:0:0:
447,347,190889,6,0,B|488:265|422:263|380:160|440:86|557:169|456:229,1,313.49999043274,10|0,2:3|0:0,0:0:0:0:
462,226,191980,6,0,B|369:239|289:182|233:127|244:51|244:51|299:90|293:162,1,438.899986605835,6|0,3:2|0:0,0:0:0:0:
203,209,194162,6,0,P|144:200|93:135,1,132.999995941162,2|0,0:0|0:0,0:0:0:0:
152,77,194708,2,0,P|132:110|101:127,1,66.4999979705811,2|0,0:0|0:0,0:0:0:0:
99,13,195071,5,2,0:0:0:0:
99,13,195253,1,0,0:0:0:0:
232,83,195435,6,0,P|276:110|362:67,1,132.999995941162,2|0,0:0|0:0,0:0:0:0:
299,152,195980,1,0,0:0:0:0:
349,86,196162,2,0,P|362:48|356:19,1,66.4999979705811,2|0,0:0|0:0,0:0:0:0:
210,95,196526,5,0,0:0:0:0:
198,146,196708,1,0,0:0:0:0:
185,197,196889,1,0,0:0:0:0:
168,247,197071,6,0,L|191:62,1,170.999994781494,2|0,0:0|0:0,0:0:0:0:
298,151,197617,2,0,P|337:180|359:187,1,66.4999979705811,2|0,0:0|0:0,0:0:0:0:
259,79,197980,5,2,0:0:0:0:
259,79,198162,1,0,0:0:0:0:
354,186,198344,6,0,P|408:179|454:102,1,132.999995941162,2|0,0:0|0:0,0:0:0:0:
401,63,198889,1,0,0:0:0:0:
447,189,199071,2,0,P|475:224|472:320,1,132.999995941162,2|0,0:0|0:0,0:0:0:0:
354,360,199617,1,2,0:0:0:0:
291,309,199798,1,2,0:0:0:0:
291,309,199889,1,2,0:0:0:0:
291,309,199980,6,0,B|238:307|197:346|195:377|195:377|219:361|223:331,1,170.999994781494,2|0,0:0|0:0,0:0:0:0:
218,236,200526,2,0,P|199:205|170:186,1,66.4999979705811,2|0,0:0|0:0,0:0:0:0:
199,314,200889,5,2,0:0:0:0:
199,314,201071,1,0,0:0:0:0:
308,230,201253,6,0,P|345:205|450:222,1,132.999995941162,2|0,0:0|0:0,0:0:0:0:
500,147,201798,1,0,0:0:0:0:
479,282,201980,2,0,P|451:256|442:220,1,66.4999979705811,2|0,0:0|0:0,0:0:0:0:
390,94,202344,5,0,0:0:0:0:
348,60,202526,1,0,0:0:0:0:
294,56,202708,1,0,0:0:0:0:
245,77,202889,6,0,P|303:80|371:-2,1,170.999994781494,2|2,0:0|0:0,0:0:0:0:
167,144,203435,2,0,P|138:175|122:234,1,99.7499969558717,2|0,0:0|0:0,0:0:0:0:
129,242,203798,2,0,P|171:236|221:200,1,99.7499969558717,2|0,0:0|0:0,0:0:0:0:
168,125,204162,6,0,P|120:100|105:-6,1,161.500003080368,2|0,0:0|0:0,0:0:0:0:
31,129,204708,6,0,B|28:157|0:173|0:173|1:150|21:140,1,92.6249957599642,6|0,0:0|0:0,0:0:0:0:
96,176,205071,5,8,0:0:0:0:
38,326,205253,1,8,0:3:0:0:
188,384,205435,1,8,0:3:0:0:
258,334,205617,1,0,3:0:0:0:
258,334,205708,1,0,3:0:0:0:
258,334,205798,6,0,P|315:349|414:272,1,178.125,6|0,3:2|0:0,0:0:0:0:
412,277,206162,2,0,P|407:224|371:177,1,104.500003189087,2|0,0:0|0:0,0:0:0:0:
239,77,206526,2,0,P|188:49|166:0,1,104.500003189087,10|0,0:2|0:0,0:0:0:0:
362,51,206889,1,8,0:0:0:0:
242,186,207071,1,0,3:0:0:0:
242,186,207162,1,0,3:0:0:0:
242,186,207253,6,0,B|205:215|199:259|213:288|213:288|224:262|211:244,1,156.750004783631,2|0,0:0|0:0,0:0:0:0:
147,180,207617,2,0,B|138:142|84:141|84:141|81:186|121:211,1,156.750004783631,2|0,3:2|0:0,0:0:0:0:
242,286,207980,6,0,B|263:336|327:340|327:340|341:263|292:237,1,209.000006378174,10|0,0:0|0:0,0:0:0:0:
105,325,208526,2,0,B|94:308|100:292|100:292|107:303|101:312,1,52.2500015945435,0|0,3:0|0:0,0:0:0:0:
191,376,208708,6,0,B|73:368|124:289|-9:289,1,209.000006378174,6|0,3:2|0:0,0:0:0:0:
169,160,209253,1,0,3:0:0:0:
169,160,209344,1,0,3:0:0:0:
169,160,209435,2,0,P|221:121|234:74,1,104.500003189087,10|0,0:2|0:0,0:0:0:0:
59,191,209798,1,8,0:0:0:0:
202,286,209980,6,0,P|258:257|351:273,1,156.750004783631,2|0,3:2|0:0,0:0:0:0:
412,326,210344,5,2,0:0:0:0:
463,259,210526,1,0,0:0:0:0:
429,182,210708,1,0,3:0:0:0:
288,147,210889,5,10,0:0:0:0:
343,226,211071,1,0,0:0:0:0:
422,171,211253,1,2,0:0:0:0:
367,92,211435,1,0,0:0:0:0:
274,156,211617,6,0,L|91:126,1,178.125,6|0,3:2|0:0,0:0:0:0:
37,79,211980,2,0,B|2:55|9:20|9:20|38:39|23:66,1,104.500003189087,2|0,0:0|0:0,0:0:0:0:
16,235,212344,2,0,B|-2:251|7:273|7:273|78:254|87:176,1,156.750004783631,10|0,0:2|0:0,0:0:0:0:
95,118,212708,1,8,0:0:0:0:
209,249,212889,1,0,3:2:0:0:
209,249,212980,1,0,3:2:0:0:
209,249,213071,6,0,P|135:272|107:360,1,156.750004783631,2|0,0:0|0:0,0:0:0:0:
266,278,213435,2,0,P|194:248|116:297,1,156.750004783631,2|0,3:2|0:0,0:0:0:0:
315,362,213798,6,0,P|367:325|377:187,1,209.000006378174,8|0,0:0|3:0,0:0:0:0:
229,54,214344,2,0,B|211:22|211:22|229:32,1,52.2500015945435,8|0,0:0|0:0,0:0:0:0:
306,93,214526,6,0,B|247:47|184:55|163:77|163:77|190:86|225:58,1,209.000006378174,2|0,3:2|0:0,0:0:0:0:
430,129,215071,2,0,P|471:89|484:36,1,104.500003189087,2|8,0:0|0:0,0:0:0:0:
269,235,215435,2,0,P|324:250|376:235,1,104.500003189087,2|8,0:0|0:0,0:0:0:0:
164,69,215798,6,0,B|82:85|76:158|76:158|130:136|119:83,1,209.000006378174,2|8,3:2|0:0,0:0:0:0:
294,22,216344,5,6,3:2:0:0:
333,55,216434,1,2,0:0:0:0:
349,104,216525,1,2,0:0:0:0:
338,154,216616,1,2,0:0:0:0:
309,197,216708,5,8,0:3:0:0:
299,209,216798,5,8,0:3:0:0:
309,217,216889,5,8,0:3:0:0:
318,207,216980,5,8,0:3:0:0:
348,184,217071,5,0,3:2:0:0:
403,188,217162,1,0,3:2:0:0:
449,214,217253,1,0,3:2:0:0:
474,263,217344,1,0,3:2:0:0:
414,309,217434,6,0,L|420:73,1,227.999993041992,6|8,3:2|0:0,0:0:0:0:
239,111,217980,2,0,P|196:65|191:14,1,113.999996520996,2|0,0:0|3:0,0:0:0:0:
403,188,218344,2,0,P|342:201|295:180,1,113.999996520996,2|8,0:0|0:0,0:0:0:0:
71,197,218708,5,2,0:0:0:0:
30,263,218889,1,0,3:0:0:0:
197,179,219071,5,2,0:0:0:0:
159,113,219253,1,8,0:0:0:0:
125,274,219435,5,2,0:0:0:0:
81,340,219617,1,0,3:0:0:0:
147,384,219798,1,0,0:0:0:0:
191,318,219980,1,8,0:0:0:0:
274,363,220253,5,2,0:0:0:0:
279,353,220344,6,0,B|297:286|355:270|355:270|360:262|360:262|357:271|357:271|388:325|353:380,1,246.999988693238,6|8,3:2|0:0,0:0:0:0:
268,184,220889,2,0,B|265:162|241:153|241:153|247:190|286:202,1,113.999996520996,2|0,0:0|3:0,0:0:0:0:
467,84,221253,2,0,B|470:61|494:52|494:52|488:89|450:101,1,113.999996520996,2|8,0:0|0:0,0:0:0:0:
412,307,221617,6,0,B|425:372|496:380|496:380|521:308|465:263,1,227.999993041992,2|0,3:2|0:0,0:0:0:0:
376,124,222162,2,0,P|332:79|323:24,1,113.999996520996,10|0,0:0|0:0,0:0:0:0:
187,196,222526,5,8,0:3:0:0:
303,100,222708,1,8,0:3:0:0:
335,237,222889,5,8,0:0:0:0:
194,70,223071,1,8,0:0:0:0:
69,280,223253,6,0,P|24:232|68:61,1,246.999988693238,6|8,3:2|0:0,0:0:0:0:
150,269,223798,2,0,P|204:234|226:185,1,113.999996520996,2|0,0:0|3:0,0:0:0:0:
57,70,224162,2,0,P|109:53|167:63,1,113.999996520996,2|8,0:0|0:0,0:0:0:0:
412,156,224526,5,2,0:0:0:0:
365,64,224708,1,2,0:0:0:0:
287,172,224889,5,2,3:2:0:0:
235,258,225071,1,8,0:0:0:0:
404,384,225253,5,2,0:0:0:0:
342,316,225435,1,0,3:2:0:0:
356,225,225617,1,0,0:0:0:0:
428,169,225798,1,8,0:0:0:0:
476,256,225980,5,0,3:0:0:0:
483,271,226071,1,0,3:0:0:0:
492,285,226162,6,0,L|456:59,1,227.999993041992,2|8,3:2|0:0,0:0:0:0:
277,103,226708,1,0,3:0:0:0:
277,103,226798,1,0,3:0:0:0:
277,103,226889,2,0,P|224:68|201:14,1,113.999996520996,2|0,3:2|0:0,0:0:0:0:
326,213,227253,6,0,B|319:231|298:241|298:241|302:223|322:222,1,56.9999982604981,8|0,0:0|0:0,0:0:0:0:
394,135,227435,6,0,B|452:121|525:166|525:209|525:209|491:198|486:156,1,227.999993041992,2|0,3:2|3:0,0:0:0:0:
330,366,227980,1,8,0:0:0:0:
408,280,228162,1,0,3:0:0:0:
408,280,228253,1,0,3:0:0:0:
408,280,228344,1,2,3:2:0:0:
351,201,228526,5,8,0:3:0:0:
249,159,228708,5,8,0:3:0:0:
145,232,228889,5,8,0:3:0:0:
234,365,229071,6,0,L|272:105,1,246.999988693238,6|8,3:2|0:0,0:0:0:0:
341,37,229617,1,0,0:0:0:0:
156,105,229798,2,0,P|108:65|93:7,1,113.999996520996,2|0,3:2|0:0,0:0:0:0:
265,154,230162,1,8,0:0:0:0:
133,256,230344,1,0,3:2:0:0:
179,335,230526,6,0,P|234:359|354:248,1,227.999993041992,2|8,0:0|0:0,0:0:0:0:
140,237,231071,2,0,P|154:312|183:338,1,113.999996520996,2|0,0:0|3:0,0:0:0:0:
354,267,231435,2,0,P|349:212|313:169,1,113.999996520996,2|8,0:0|0:0,0:0:0:0:
90,116,231798,1,0,3:0:0:0:
90,116,231889,1,0,3:0:0:0:
90,116,231980,6,0,B|224:112|165:20|308:20,1,227.999993041992,2|8,3:2|0:0,0:0:0:0:
409,136,232526,2,0,P|452:182|505:190,1,113.999996520996,2|0,0:0|3:2,0:0:0:0:
487,102,232889,1,2,0:0:0:0:
395,256,233071,1,8,0:0:0:0:
282,111,233253,6,0,B|222:118|154:66|159:23|159:23|192:38|192:80,1,227.999993041992,0|0,3:2|3:2,0:0:0:0:
102,178,233798,1,8,0:0:0:0:
225,282,233980,1,8,0:0:0:0:
225,282,234071,1,8,0:0:0:0:
225,282,234162,1,8,0:0:0:0:
57,359,234344,5,8,0:3:0:0:
125,278,234526,5,8,0:3:0:0:
81,203,234708,5,8,0:3:0:0:
97,184,234889,5,6,3:2:0:0:
176,209,235253,1,0,0:0:0:0:
237,159,235617,1,0,0:0:0:0:
161,20,235980,1,8,0:0:0:0:
255,159,236162,6,0,B|336:227|428:172|428:172|377:153,1,209.000006378174,6|0,3:2|0:0,0:0:0:0:
245,62,236708,5,8,0:0:0:0:
172,107,236889,1,8,0:0:0:0:
148,212,237071,1,8,0:0:0:0:
217,331,237253,1,8,0:0:0:0:
371,365,237435,1,8,0:0:0:0:
483,244,237617,1,8,0:0:0:0:
428,182,237798,6,0,B|387:157|422:72|355:66|355:66|368:112|463:111,1,265.999991882324,6|8,3:2|0:0,0:0:0:0:
297,179,238344,1,0,3:0:0:0:
297,179,238435,1,0,3:0:0:0:
297,179,238526,2,0,P|243:145|225:88,1,113.999996520996,0|0,3:2|0:0,0:0:0:0:
181,275,238889,6,0,P|157:297|143:324,1,56.9999982604981,8|0,0:0|0:0,0:0:0:0:
150,199,239071,6,0,B|123:155|38:146|1:169|1:169|50:178|81:152,1,227.999993041992,2|0,3:2|3:0,0:0:0:0:
254,320,239617,2,0,P|307:350|364:344,1,113.999996520996,8|0,0:0|0:0,0:0:0:0:
450,201,239980,5,2,3:2:0:0:
510,132,240162,1,0,0:0:0:0:
475,48,240344,1,8,0:0:0:0:
331,108,240526,1,0,3:0:0:0:
331,108,240617,1,0,3:0:0:0:
331,108,240708,6,0,B|186:98|256:1|94:6,1,246.999988693238,6|8,3:2|0:0,0:0:0:0:
34,137,241253,2,0,B|17:144|15:165|15:165|59:159|58:109,1,113.999996520996,2|0,0:0|3:0,0:0:0:0:
251,286,241617,5,2,0:0:0:0:
174,230,241798,1,8,0:0:0:0:
68,340,241980,6,0,P|124:293|281:314,1,227.999993041992,2|0,3:2|3:0,0:0:0:0:
64,224,242526,2,0,P|27:175|25:103,1,113.999996520996,10|0,0:0|0:0,0:0:0:0:
160,26,242889,5,0,3:0:0:0:
261,12,243071,1,2,0:0:0:0:
337,74,243253,1,8,0:0:0:0:
231,160,243435,1,0,3:0:0:0:
231,160,243526,1,0,3:0:0:0:
231,160,243617,6,0,B|156:204|183:296|183:296|240:289|256:233,1,246.999988693238,6|8,3:2|0:0,0:0:0:0:
128,148,244162,2,0,P|85:98|31:90,1,113.999996520996,2|0,0:0|3:0,0:0:0:0:
251,246,244526,2,0,P|273:198|256:130,1,113.999996520996,2|8,0:0|0:0,0:0:0:0:
32,282,244889,5,2,3:2:0:0:
66,357,245071,1,2,0:0:0:0:
162,222,245253,5,2,3:2:0:0:
80,216,245435,1,8,0:0:0:0:
148,373,245617,5,2,0:0:0:0:
197,306,245799,1,0,3:0:0:0:
334,214,245980,5,2,0:0:0:0:
424,194,246162,1,8,0:0:0:0:
488,252,246344,1,2,0:0:0:0:
397,349,246526,6,0,L|412:108,1,227.999993041992,2|8,3:2|0:0,0:0:0:0:
244,27,247071,2,0,P|184:51|156:104,1,113.999996520996,2|0,0:0|3:0,0:0:0:0:
43,211,247435,5,2,0:0:0:0:
39,194,247526,5,2,0:0:0:0:
34,177,247617,6,2,L|47:108,1,56.9999982604981,10|2,0:0|0:0,0:0:0:0:
172,227,247798,5,6,3:2:0:0:
158,263,247889,5,2,0:0:0:0:
149,291,247980,5,2,0:0:0:0:
142,312,248071,5,2,0:0:0:0:
135,330,248162,5,2,3:2:0:0:
130,343,248253,5,2,0:0:0:0:
124,358,248344,6,0,P|180:383|230:365,1,113.999996520996,10|0,0:0|0:0,0:0:0:0:
403,173,248708,5,8,0:0:0:0:
316,255,248889,1,8,0:0:0:0:
447,292,249071,5,8,0:3:0:0:
287,129,249253,1,8,0:3:0:0:
158,314,249435,6,0,B|112:320|44:262|54:227|54:227|89:240|68:320,1,246.999988693238,6|8,3:2|0:0,0:0:0:0:
181,146,249980,2,0,B|198:139|205:121|205:121|160:118|151:171,1,113.999996520996,2|0,0:0|3:0,0:0:0:0:
262,296,250344,1,2,0:0:0:0:
262,296,250435,1,2,0:0:0:0:
262,296,250526,1,8,0:0:0:0:
393,185,250708,1,0,3:0:0:0:
393,185,250798,1,0,3:0:0:0:
393,185,250889,6,0,P|427:128|363:-11,1,227.999993041992,2|8,3:2|0:0,0:0:0:0:
310,200,251435,2,0,P|373:274|412:276,1,113.999996520996,2|0,0:0|3:0,0:0:0:0:
409,96,251798,2,0,P|377:30|328:5,1,113.999996520996,2|8,0:0|0:0,0:0:0:0:
162,109,252162,1,0,3:0:0:0:
162,109,252253,1,0,3:0:0:0:
162,109,252344,6,0,B|108:105|51:37|63:0|63:0|95:25|88:59,1,227.999993041992,2|8,3:2|0:0,0:0:0:0:
276,169,252889,2,0,P|316:210|315:269,1,113.999996520996,0|0,0:0|3:0,0:0:0:0:
82,307,253253,5,2,0:0:0:0:
178,273,253435,1,8,0:0:0:0:
265,362,253617,6,0,B|130:361|187:262|46:278,1,227.999993041992,2|0,3:2|0:0,0:0:0:0:
135,93,254162,1,12,0:0:0:0:
223,45,254344,1,8,0:0:0:0:
223,45,254435,1,8,0:0:0:0:
223,45,254526,1,8,0:0:0:0:
192,192,254708,5,8,0:3:0:0:
130,110,254889,5,8,0:3:0:0:
51,144,255071,5,8,0:3:0:0:
4,81,255253,5,6,3:2:0:0:
4,81,256344,1,8,0:0:0:0:
149,36,256526,6,0,P|216:13|355:70,1,227.999993041992,6|0,3:2|0:0,0:0:0:0:
402,203,257071,2,0,B|416:196|430:222|430:222|390:229|361:196,1,113.999996520996,10|0,0:0|0:0,0:0:0:0:
276,167,257344,5,10,0:0:0:0:
219,199,257435,5,10,0:0:0:0:
196,247,257526,5,2,0:0:0:0:
205,292,257617,5,2,3:2:0:0:
225,318,257708,5,2,0:0:0:0:
246,332,257798,5,8,0:3:0:0:
268,335,257889,5,8,0:3:0:0:
282,333,257980,5,8,0:3:0:0:
291,326,258071,5,8,0:3:0:0:
283,320,258162,6,0,B|246:235|305:234|342:142|289:77|185:150|273:200,1,281.200006865235,6|8,3:2|0:0,0:0:0:0:
143,368,258708,6,0,B|84:296|140:279|150:180|81:132|1:231|100:255,1,281.200006865235,6|8,3:2|0:0,0:0:0:0:
394,376,259253,6,0,B|452:304|396:287|386:188|455:140|535:239|436:263,1,281.200006865235,6|0,3:2|0:0,0:0:0:0:
479,62,259798,6,0,L|319:27,1,156.750004783631,8|0,0:0|0:0,0:0:0:0:
249,16,260162,5,8,0:3:0:0:
176,85,260344,5,8,0:3:0:0:
243,147,260526,5,8,0:3:0:0:
189,205,260708,5,8,0:3:0:0:
214,225,260889,5,8,0:3:0:0:
202,249,261071,5,6,3:2:0:0:
248,311,261435,1,0,0:0:0:0:
186,357,261798,1,0,0:0:0:0:
140,295,262162,1,0,0:0:0:0:
326,272,262344,6,0,B|359:232|443:229|475:266|475:266|438:286|398:260,1,237.5,6|0,3:2|0:0,0:0:0:0:
329,176,262889,6,0,B|299:156|306:106|306:106|360:124|349:172,1,156.750004783631,10|0,0:3|0:0,0:0:0:0:
312,280,263253,6,0,B|305:326|255:339|255:339|240:286|299:265,1,170.999994781494,14|0,2:3|0:0,0:0:0:0:
227,189,263617,6,0,B|212:145|158:113|121:126|121:126|146:146|182:129,1,185.249991519928,10|0,0:3|0:0,0:0:0:0:
95,209,263980,5,6,3:2:0:0:
256,192,264071,12,0,266344,0:0:0:0:
