osu file format v14

[General]
AudioFilename: audio.mp3
AudioLeadIn: 0
PreviewTime: 49028
Countdown: 0
SampleSet: Soft
StackLeniency: 0.7
Mode: 0
LetterboxInBreaks: 0
WidescreenStoryboard: 0

[Editor]
DistanceSpacing: 1
BeatDivisor: 4
GridSize: 32
TimelineZoom: 2.3

[Metadata]
Title:ARCADIA ~Rakuen ni Fuku Kaze~
TitleUnicode:ARCADIA~楽園に吹く風~
Artist:canoue
ArtistUnicode:canoue
Creator:Kazato Asa
Version:Schwert
Source:アルカディアスの戦姫
Tags:Shizuku- Lasse Kowari Battle Princess of Arcadias no Ikusahime apollosoft nippon ichi software MANYO 日山尚 Hiyama Nao 霜月はるか Shimotsuki Haruka Shimotsukin シモツキン ルチカ Lucicca ed ending full version video game japanese
BeatmapID:2404339
BeatmapSetID:1151885

[Difficulty]
HPDrainRate:6
CircleSize:4
OverallDifficulty:9
ApproachRate:9.3
SliderMultiplier:1.76
SliderTickRate:1

[Events]
//Background and Video events
0,0,"80906465_p0.jpg",0,0
//Break Periods
2,146085,153560
2,165085,167274
//Storyboard Layer 0 (Background)
//Storyboard Layer 1 (Fail)
//Storyboard Layer 2 (Pass)
//Storyboard Layer 3 (Foreground)
//Storyboard Layer 4 (Overlay)
//Storyboard Sound Samples

[TimingPoints]
514,342.857142857143,4,2,1,50,1,0
514,-100,4,2,1,50,0,0
1028,-125,4,2,1,50,0,0
2056,-111.111111111111,4,2,1,50,0,0
3942,-100,4,2,1,50,0,0
4628,-76.9230769230769,4,2,1,70,0,0
6256,-76.9230769230769,4,2,1,5,0,0
6342,-76.9230769230769,4,2,1,70,0,0
7971,-76.9230769230769,4,2,1,5,0,0
8056,-100,4,2,1,70,0,0
8399,-71.4285714285714,4,2,1,70,0,0
8656,-71.4285714285714,4,2,1,5,0,0
8742,-71.4285714285714,4,2,1,70,0,0
9685,-71.4285714285714,4,2,1,5,0,0
9771,-71.4285714285714,4,2,1,70,0,0
10456,-83.3333333333333,4,2,1,70,0,0
16971,-100,4,2,1,60,0,0
19628,-100,4,2,1,5,0,0
19714,-100,4,2,1,60,0,0
20999,-100,4,2,1,5,0,0
21085,-100,4,2,1,60,0,0
22371,-100,4,2,1,5,0,0
22456,-100,4,2,1,60,0,0
25114,-100,4,2,1,5,0,0
25199,-100,4,2,1,60,0,0
27856,-100,4,2,1,5,0,0
27942,-100,4,2,1,60,0,0
33942,-90.9090909090909,4,2,1,60,0,0
34456,-100,4,2,1,60,0,0
36085,-100,4,2,1,5,0,0
36171,-100,4,2,1,60,0,0
38828,-100,4,2,1,5,0,0
38914,-100,4,2,1,60,0,0
42942,-100,4,2,1,5,0,0
43028,-100,4,2,1,60,0,0
49714,-125,4,2,1,60,0,0
49885,-71.4285714285714,4,2,1,70,0,1
50142,-71.4285714285714,4,2,1,5,0,1
50228,-71.4285714285714,4,2,1,70,0,1
50399,-76.9230769230769,4,2,1,70,0,1
51856,-76.9230769230769,4,2,1,5,0,1
51942,-83.3333333333333,4,2,1,70,0,1
55371,-76.9230769230769,4,2,1,70,0,1
55628,-76.9230769230769,4,2,1,5,0,1
55714,-76.9230769230769,4,2,1,70,0,1
58028,-76.9230769230769,4,2,1,5,0,1
58114,-76.9230769230769,4,2,1,70,0,1
59571,-76.9230769230769,4,2,1,5,0,1
59656,-76.9230769230769,4,2,1,70,0,1
61114,-76.9230769230769,4,2,1,5,0,1
61199,-76.9230769230769,4,2,1,70,0,1
62056,-74.0740740740741,4,2,1,70,0,1
62571,-76.9230769230769,4,2,1,70,0,1
63514,-76.9230769230769,4,2,1,5,0,1
63599,-76.9230769230769,4,2,1,70,0,1
63771,-100,4,2,1,70,0,1
64114,-76.9230769230769,4,2,1,70,0,1
64628,-66.6666666666667,4,2,1,70,0,1
64885,-66.6666666666667,4,2,1,5,0,1
64971,-76.9230769230769,4,2,1,70,0,1
65571,-76.9230769230769,4,2,1,5,0,1
65656,-76.9230769230769,4,2,1,70,0,1
65742,-76.9230769230769,4,2,1,5,0,1
65828,-76.9230769230769,4,2,1,70,0,1
65914,-76.9230769230769,4,2,1,5,0,1
65999,-76.9230769230769,4,2,1,70,0,1
66342,-125,4,2,1,70,0,1
66599,-125,4,2,1,5,0,1
66685,-66.6666666666667,4,2,1,70,0,1
66942,-66.6666666666667,4,2,1,5,0,1
67028,-100,4,2,1,70,0,1
67114,-100,4,2,1,5,0,1
67199,-125,4,2,1,70,0,1
67542,-76.9230769230769,4,2,1,70,0,1
68314,-76.9230769230769,4,2,1,5,0,1
68399,-76.9230769230769,4,2,1,70,0,1
73028,-76.9230769230769,4,2,1,70,0,0
73885,-125,4,2,1,70,0,0
74142,-125,4,2,1,5,0,0
74228,-125,4,2,1,70,0,0
74828,-125,4,2,1,5,0,0
74914,-125,4,2,1,70,0,0
75085,-76.9230769230769,4,2,1,70,0,0
75599,-83.3333333333333,4,2,1,70,0,0
75771,-76.9230769230769,4,2,1,70,0,0
76542,-76.9230769230769,4,2,1,5,0,0
76628,-76.9230769230769,4,2,1,70,0,0
78256,-76.9230769230769,4,2,1,5,0,0
78342,-76.9230769230769,4,2,1,70,0,0
80314,-76.9230769230769,4,2,1,5,0,0
80399,-76.9230769230769,4,2,1,70,0,0
80571,-83.3333333333333,4,2,1,70,0,0
83056,-83.3333333333333,4,2,1,5,0,0
83142,-83.3333333333333,4,2,1,70,0,0
83228,-83.3333333333333,4,2,1,5,0,0
83314,-83.3333333333333,4,2,1,70,0,0
85542,-100,4,2,1,60,0,0
88199,-100,4,2,1,5,0,0
88285,-100,4,2,1,60,0,0
89571,-100,4,2,1,5,0,0
89656,-100,4,2,1,60,0,0
90942,-100,4,2,1,5,0,0
91028,-100,4,2,1,60,0,0
93685,-100,4,2,1,5,0,0
93771,-100,4,2,1,60,0,0
96428,-100,4,2,1,5,0,0
96514,-100,4,2,1,60,0,0
99171,-100,4,2,1,5,0,0
99256,-100,4,2,1,60,0,0
101914,-100,4,2,1,5,0,0
101999,-100,4,2,1,60,0,0
104656,-100,4,2,1,5,0,0
104742,-100,4,2,1,60,0,0
107399,-100,4,2,1,5,0,0
107485,-100,4,2,1,60,0,0
111514,-100,4,2,1,5,0,0
111599,-100,4,2,1,60,0,0
118456,-71.4285714285714,4,2,1,70,0,1
118714,-71.4285714285714,4,2,1,5,0,1
118799,-71.4285714285714,4,2,1,70,0,1
118971,-76.9230769230769,4,2,1,70,0,1
120428,-76.9230769230769,4,2,1,5,0,1
120514,-83.3333333333333,4,2,1,70,0,1
123942,-76.9230769230769,4,2,1,70,0,1
124199,-76.9230769230769,4,2,1,5,0,1
124285,-76.9230769230769,4,2,1,70,0,1
126599,-76.9230769230769,4,2,1,5,0,1
126685,-76.9230769230769,4,2,1,70,0,1
128142,-76.9230769230769,4,2,1,5,0,1
128228,-76.9230769230769,4,2,1,70,0,1
129685,-76.9230769230769,4,2,1,5,0,1
129771,-76.9230769230769,4,2,1,70,0,1
132085,-76.9230769230769,4,2,1,5,0,1
132171,-76.9230769230769,4,2,1,70,0,1
132342,-100,4,2,1,70,0,1
132685,-76.9230769230769,4,2,1,70,0,1
133199,-66.6666666666667,4,2,1,70,0,1
133456,-66.6666666666667,4,2,1,5,0,1
133542,-76.9230769230769,4,2,1,70,0,1
134142,-76.9230769230769,4,2,1,5,0,1
134228,-76.9230769230769,4,2,1,70,0,1
134314,-76.9230769230769,4,2,1,5,0,1
134399,-76.9230769230769,4,2,1,70,0,1
134485,-76.9230769230769,4,2,1,5,0,1
134571,-76.9230769230769,4,2,1,70,0,1
134914,-125,4,2,1,70,0,1
135171,-125,4,2,1,5,0,1
135256,-66.6666666666667,4,2,1,70,0,1
135514,-66.6666666666667,4,2,1,5,0,1
135599,-100,4,2,1,70,0,1
135685,-100,4,2,1,5,0,1
135771,-125,4,2,1,70,0,1
136114,-76.9230769230769,4,2,1,70,0,1
136885,-76.9230769230769,4,2,1,5,0,1
136971,-76.9230769230769,4,2,1,70,0,1
141599,-76.9230769230769,4,2,1,70,0,0
142456,-100,4,2,1,70,0,0
143142,-100,4,2,1,50,0,0
154114,-125,4,2,1,50,0,0
167828,-83.3333333333333,4,2,1,70,0,0
168085,-83.3333333333333,4,2,1,5,0,0
168171,-83.3333333333333,4,2,1,70,0,0
170571,-125,4,2,1,70,0,0
173228,-125,4,2,1,5,0,0
173314,-125,4,2,1,70,0,0
174514,-100,4,2,1,70,0,0
176056,-76.9230769230769,4,2,1,70,0,1
176314,-76.9230769230769,4,2,1,5,0,1
176399,-76.9230769230769,4,2,1,70,0,1
177256,-74.0740740740741,4,2,1,70,0,1
177771,-76.9230769230769,4,2,1,70,0,1
178714,-76.9230769230769,4,2,1,5,0,1
178799,-76.9230769230769,4,2,1,70,0,1
178971,-100,4,2,1,70,0,1
179314,-76.9230769230769,4,2,1,70,0,1
179828,-66.6666666666667,4,2,1,70,0,1
180085,-66.6666666666667,4,2,1,5,0,1
180171,-76.9230769230769,4,2,1,70,0,1
180771,-76.9230769230769,4,2,1,5,0,1
180856,-76.9230769230769,4,2,1,70,0,1
180942,-76.9230769230769,4,2,1,5,0,1
181028,-76.9230769230769,4,2,1,70,0,1
181114,-76.9230769230769,4,2,1,5,0,1
181199,-76.9230769230769,4,2,1,70,0,1
181542,-125,4,2,1,70,0,1
181799,-125,4,2,1,5,0,1
181885,-66.6666666666667,4,2,1,70,0,1
182142,-66.6666666666667,4,2,1,5,0,1
182228,-100,4,2,1,70,0,1
182314,-100,4,2,1,5,0,1
182399,-125,4,2,1,70,0,1
182742,-76.9230769230769,4,2,1,70,0,1
183514,-76.9230769230769,4,2,1,5,0,1
183599,-76.9230769230769,4,2,1,70,0,1
189771,-71.4285714285714,4,2,1,70,0,1
190028,-71.4285714285714,4,2,1,5,0,1
190114,-71.4285714285714,4,2,1,70,0,1
190285,-76.9230769230769,4,2,1,70,0,1
191742,-76.9230769230769,4,2,1,5,0,1
191828,-83.3333333333333,4,2,1,70,0,1
195256,-76.9230769230769,4,2,1,70,0,1
195514,-76.9230769230769,4,2,1,5,0,1
195599,-76.9230769230769,4,2,1,70,0,1
197914,-76.9230769230769,4,2,1,5,0,1
197999,-76.9230769230769,4,2,1,70,0,1
199456,-76.9230769230769,4,2,1,5,0,1
199542,-76.9230769230769,4,2,1,70,0,1
200999,-76.9230769230769,4,2,1,5,0,1
201085,-76.9230769230769,4,2,1,70,0,1
201942,-74.0740740740741,4,2,1,70,0,1
202799,-76.9230769230769,4,2,1,70,0,1
203399,-76.9230769230769,4,2,1,5,0,1
203485,-76.9230769230769,4,2,1,70,0,1
204514,-66.6666666666667,4,2,1,70,0,1
204771,-66.6666666666667,4,2,1,5,0,1
204856,-76.9230769230769,4,2,1,70,0,1
205456,-76.9230769230769,4,2,1,5,0,1
205542,-76.9230769230769,4,2,1,70,0,1
205628,-76.9230769230769,4,2,1,5,0,1
205714,-76.9230769230769,4,2,1,70,0,1
205799,-76.9230769230769,4,2,1,5,0,1
205885,-76.9230769230769,4,2,1,70,0,1
206228,-125,4,2,1,70,0,1
206485,-125,4,2,1,5,0,1
206571,-62.5,4,2,1,70,0,1
206828,-62.5,4,2,1,5,0,1
206914,-100,4,2,1,70,0,1
206999,-100,4,2,1,5,0,1
207085,-125,4,2,1,70,0,1
207428,-76.9230769230769,4,2,1,70,0,1
208199,-76.9230769230769,4,2,1,5,0,1
208285,-76.9230769230769,4,2,1,70,0,1
212914,-76.9230769230769,4,2,1,70,0,0
213771,-125,4,2,1,70,0,0
214028,-125,4,2,1,5,0,0
214114,-125,4,2,1,70,0,0
214714,-125,4,2,1,5,0,0
214799,-125,4,2,1,70,0,0
214971,-76.9230769230769,4,2,1,70,0,0
215485,-83.3333333333333,4,2,1,70,0,0
216171,-76.9230769230769,4,2,1,70,0,0
216428,-76.9230769230769,4,2,1,5,0,0
216514,-76.9230769230769,4,2,1,70,0,0
218142,-76.9230769230769,4,2,1,5,0,0
218228,-76.9230769230769,4,2,1,70,0,0
219856,-76.9230769230769,4,2,1,5,0,0
219942,-76.9230769230769,4,2,1,70,0,0
220199,-76.9230769230769,4,2,1,5,0,0
220285,-76.9230769230769,4,2,1,70,0,0
220371,-76.9230769230769,4,2,1,5,0,0
220456,-83.3333333333333,4,2,1,70,0,0
222942,-83.3333333333333,4,2,1,5,0,0
223028,-83.3333333333333,4,2,1,70,0,0
223114,-83.3333333333333,4,2,1,5,0,0
223199,-83.3333333333333,4,2,1,70,0,0
225428,-125,4,2,1,70,0,0
226799,347.826086956522,4,2,1,70,1,0
226799,-125,4,2,1,70,0,0
227146,357.142857142857,4,2,1,70,1,0
227146,-125,4,2,1,70,0,0
227324,361.44578313253,4,2,1,70,1,0
227324,-125,4,2,1,70,0,0
227685,350.877192982456,4,2,1,70,1,0
227685,-125,4,2,1,70,0,0
227860,335.195530726257,4,2,1,70,1,0
227860,-125,4,2,1,70,0,0
228027,318.725099601594,4,2,1,70,1,0
228027,-125,4,2,1,70,0,0
228186,345.821325648415,4,2,1,70,1,0
228186,-125,4,2,1,70,0,0
228704,344.827586206897,4,2,1,70,1,0
228704,-125,4,2,1,70,0,0
228876,330.578512396694,4,2,1,70,1,0
228876,-123.456790123457,4,2,1,70,0,0
229041,320,4,2,1,70,1,0
229041,-123.456790123457,4,2,1,70,0,0
229361,379.746835443038,4,2,1,70,1,0
229361,-125,4,2,1,70,0,0
229550,360.360360360361,4,2,1,70,1,0
229550,-124.223602484472,4,2,1,70,0,0
229910,357.142857142858,4,2,1,70,1,0
229910,-125,4,2,1,70,0,0
230267,361.445783132531,4,2,1,70,1,0
230267,-125,4,2,1,70,0,0
230628,300,4,2,1,70,1,0
230628,-125,4,2,1,70,0,0
230778,342.857142857143,4,2,1,35,1,0
230778,-166.666666666667,4,2,1,35,0,0
230863,-166.666666666667,4,2,1,15,0,0
231635,-125,4,2,2,10,0,0
232320,-125,4,2,2,10,0,0
233006,-125,4,2,2,10,0,0
233692,-125,4,2,2,5,0,0
234378,-125,4,2,2,5,0,0
235063,-166.666666666667,4,2,2,5,0,0

[Colours]
Combo1 : 237,198,139
Combo2 : 142,197,230
Combo3 : 224,210,160
Combo4 : 142,215,207

[HitObjects]
461,184,342,5,2,2:0:0:0:
461,184,428,1,2,2:0:0:0:
461,184,514,2,0,B|424:191|424:191|421:196|421:196|377:205,1,88,2|0,2:0|2:0,2:2:0:0:
240,238,856,5,0,2:0:0:0:
281,167,1028,2,0,P|329:214|314:279,1,140.8,2|0,2:1|2:0,2:2:0:0:
249,319,1542,2,0,B|195:304|195:304|180:285|180:285|121:268,1,140.8,2|0,2:0|2:0,2:2:0:0:
138,352,2056,2,0,B|222:301|160:278|239:237,1,158.399995166016,2|0,2:1|2:0,2:2:0:0:
100,180,2571,2,0,B|106:213|106:213|110:215|110:215|118:255,2,79.1999975830079,2|0|0,2:0|2:0|2:0,2:2:0:0:
77,27,3085,6,0,P|94:156|196:74,1,316.799990332032,2|0,2:0|2:0,2:2:0:0:
122,87,3942,6,2,B|219:66|219:66|249:21|249:21|357:0,1,264,2|0,2:2|3:1,2:1:0:0:
505,158,4628,6,0,L|448:148,1,57.1999973815919,4|0,3:1|2:0,2:2:0:0:
330,130,4799,1,8,2:0:0:0:
330,130,4885,1,8,2:0:0:0:
330,130,4971,1,8,2:0:0:0:
312,373,5142,6,0,L|368:363,1,57.1999973815919,4|0,3:2|2:0,2:2:0:0:
487,345,5314,1,8,2:0:0:0:
487,345,5399,1,8,2:0:0:0:
487,345,5485,1,8,2:0:0:0:
330,130,5656,5,8,2:0:0:0:
285,154,5742,1,8,2:0:0:0:
267,201,5828,1,0,1:0:0:0:
281,249,5914,1,0,1:0:0:0:
310,265,5999,6,0,B|245:277|245:277|223:313|223:313|159:325,1,171.599992144776,4|0,3:2|2:0,2:2:0:0:
86,299,6342,1,8,2:0:0:0:
95,86,6514,6,0,B|59:77|46:51|46:51|-8:95|5:169|61:183,1,228.799989526368,4|0,3:1|2:0,2:2:0:0:
231,138,7028,2,0,B|260:145|260:145|263:149|263:149|284:153,1,57.1999973815919,8|0,2:0|2:0,2:2:0:0:
447,104,7199,6,0,B|323:72|357:172|230:137,1,228.799989526368,4|0,3:2|2:0,2:2:0:0:
86,299,7714,2,0,P|166:281|226:338,1,171.599992144776,8|0,2:0|2:0,2:2:0:0:
257,369,8056,2,0,L|279:283,1,88,0|0,3:0|3:0,2:2:0:0:
77,27,8399,2,0,B|48:24|21:7|21:7|55:127,1,184.799994360352,8|0,2:0|2:0,2:2:0:0:
47,157,8742,5,6,3:1:0:0:
175,202,8914,2,0,B|222:186|222:186|237:168|237:168|284:152,1,123.199996240234,2|8,0:1|2:0,2:2:0:0:
480,233,9256,5,2,2:1:0:0:
456,319,9428,2,0,B|385:295|385:295|362:268|362:268|291:244,1,184.799994360352,2|0,3:1|2:0,2:2:0:0:
291,244,9771,1,8,2:0:0:0:
55,127,9942,6,0,B|79:97|79:97|129:77|166:93|166:93|195:137|189:176|189:176|175:202,1,246.399992480469,4|0,3:1|3:0,2:2:0:0:
43,360,10456,2,0,B|32:313|32:313|22:306|22:306|13:261,1,105.599996777344,8|0,2:0|2:0,2:2:0:0:
174,202,10799,5,2,3:2:0:0:
291,244,10971,1,0,2:0:0:0:
457,51,11142,1,2,3:2:0:0:
409,29,11228,1,0,1:0:0:0:
359,41,11314,1,0,1:0:0:0:
327,82,11399,1,0,1:0:0:0:
337,108,11485,6,0,B|267:97|267:97|236:48|236:48|155:31,1,211.199993554688,4|8,3:1|2:0,2:2:0:0:
13,261,11999,2,0,P|113:263|160:175,1,211.199993554688,2|0,3:2|3:0,2:2:0:0:
13,261,12514,1,8,2:0:0:0:
257,369,12685,6,0,P|268:345|268:319,1,52.7999983886719,0|0,3:0|3:0,0:0:0:0:
250,243,12856,2,0,B|365:226|312:325|440:302,1,211.199993554688,10|2,2:0|3:2,2:2:0:0:
250,243,13371,1,8,2:0:0:0:
367,130,13542,2,0,P|405:163|399:214,1,105.599996777344,2|0,2:0|3:0,2:2:0:0:
250,243,13885,2,0,L|191:234,1,52.7999983886719,2|0,3:2|2:0,2:2:0:0:
34,206,14056,1,0,1:0:0:0:
34,206,14142,1,0,1:0:0:0:
35,207,14228,6,0,B|61:225|64:261|64:261|143:298|196:236,1,211.199993554688,4|8,3:1|2:0,2:2:0:0:
152,21,14742,2,0,B|93:34|93:34|126:181,1,211.199993554688,6|0,3:2|3:0,2:2:0:0:
269,239,15256,2,0,B|314:255|314:255|317:263|317:263|363:280,1,105.599996777344,8|0,2:0|2:0,2:2:0:0:
512,152,15599,6,0,B|454:142|417:109|417:109|411:164|367:199,1,211.199993554688,4|8,3:1|2:0,2:2:0:0:
465,230,16114,1,0,3:0:0:0:
489,37,16285,1,4,3:1:0:0:
444,11,16371,1,0,1:0:0:0:
392,10,16456,1,0,1:0:0:0:
347,36,16542,1,0,1:0:0:0:
321,81,16628,1,0,1:0:0:0:
465,230,16799,1,0,3:0:0:0:
257,369,16971,6,0,B|209:370|169:385|169:385|126:357|137:310,1,176,4|10,3:2|2:0,2:2:0:0:
269,239,17485,2,0,B|308:253|308:253|312:259|312:259|349:271,1,88,2|0,2:0|3:0,2:2:0:0:
417,107,17828,1,2,3:2:0:0:
512,161,17999,2,0,B|473:175|473:175|469:181|469:181|431:193,1,88,8|2,2:0|3:2,2:2:0:0:
306,52,18342,6,0,B|355:57|390:32|390:32|390:78|422:111,1,176,2|10,3:2|2:0,2:2:0:0:
306,52,18856,1,0,2:0:0:0:
149,161,19028,5,2,3:2:0:0:
31,134,19199,1,2,3:2:0:0:
5,316,19371,2,0,B|63:299|63:299|71:290|71:290|128:275,1,132,10|0,2:0|2:0,2:2:0:0:
162,288,19714,6,0,P|220:348|304:334,1,176,2|10,3:2|2:0,2:2:0:0:
268,184,20228,2,0,B|258:224|258:224|252:228|252:228|244:267,2,88,0|2|0,3:0|2:0|3:0,2:2:0:0:
189,92,20742,2,0,B|142:107|142:107|130:131|130:131|76:146,1,132,10|0,2:0|2:0,2:2:0:0:
39,21,21085,6,0,B|101:40|101:40|117:72|117:72|189:92,1,176,2|10,3:2|2:0,2:2:0:0:
380,144,21599,2,0,P|404:108|395:66,1,88,2|0,2:0|3:0,2:2:0:0:
272,0,21942,5,2,3:2:0:0:
394,66,22114,2,0,B|347:81|347:81|335:105|335:105|281:120,1,132,10|0,2:0|2:0,2:2:0:0:
189,92,22456,6,0,B|81:61|81:61|71:88|40:110,1,176,4|10,3:2|2:2,2:2:0:0:
133,320,22971,2,0,B|185:315|214:289|214:289|217:338|251:366,1,176,2|0,3:2|3:0,2:2:0:0:
280,119,23485,2,0,P|252:151|244:194,1,88,10|0,2:0|2:0,2:2:0:0:
348,325,23828,6,0,B|414:309|414:309|441:276|441:276|503:257,1,176,0|8,3:0|2:0,2:2:0:0:
367,203,24342,1,0,3:0:0:0:
503,256,24514,6,0,P|515:215|502:173,1,88,2|0,2:0|3:0,2:2:0:0:
421,42,24856,2,0,B|338:69|338:69|299:46,1,132,10|0,2:0|2:0,2:2:0:0:
263,72,25199,6,0,B|227:37|179:38|179:38|154:69|106:68,1,176,4|8,3:2|2:0,2:2:0:0:
183,223,25714,2,0,P|189:179|201:137,1,88,4|0,3:2|3:2,3:3:0:0:
58,378,26056,2,0,P|51:334|39:292,1,88,2|10,3:2|2:0,3:3:0:0:
232,360,26399,6,0,P|315:333|402:322,1,176,4|2,3:2|3:2,2:2:0:0:
271,235,26914,1,8,2:0:0:0:
468,376,27085,6,0,P|488:337|482:294,1,88,2|0,2:0|3:0,2:2:0:0:
407,113,27428,1,2,3:2:0:0:
507,184,27599,2,0,B|464:177|464:177|431:200|431:200|383:193,1,132,8|0,2:0|2:0,2:2:0:0:
346,217,27942,6,0,P|288:170|303:79,1,176,4|8,3:1|2:0,2:2:0:0:
101,24,28456,2,0,B|65:31|65:31|62:37|62:37|18:46,1,88,2|0,2:0|3:0,2:2:0:0:
181,150,28799,2,0,B|218:157|218:157|221:163|221:163|264:172,1,88,2|8,2:0|2:0,2:2:0:0:
131,377,29142,6,0,P|84:308|0:313,1,176,2|0,2:0|3:0,2:2:0:0:
162,235,29656,2,0,P|169:191|180:149,1,88,10|0,2:0|2:0,2:2:0:0:
19,46,29999,5,2,2:0:0:0:
50,139,30171,1,0,3:0:0:0:
217,59,30342,2,0,P|260:66|302:77,1,88,10|0,2:0|2:0,2:2:0:0:
480,20,30685,6,8,P|401:47|396:130,1,176,2|8,3:2|2:0,2:2:0:0:
482,294,31199,2,0,B|413:279|413:279|394:254|394:254|322:236,1,176,2|0,2:0|3:0,2:2:0:0:
232,360,31714,6,0,P|273:346|317:341,1,88,10|0,2:2|2:0,2:2:0:0:
194,137,32056,2,0,P|180:178|175:222,1,88,2|0,3:2|2:0,2:2:0:0:
123,367,32399,2,0,P|100:286|18:274,1,176,10|2,2:0|2:0,2:2:0:0:
175,223,32914,1,0,3:0:0:0:
19,273,33085,2,0,P|57:292|100:288,1,88,10|0,2:0|2:0,2:2:0:0:
297,170,33428,6,8,B|358:197|358:197|367:222|367:222|442:256,1,176,4|10,3:2|2:0,2:2:0:0:
444,168,33942,2,0,B|393:159|368:200|368:200|352:259|288:251,1,193.600005908203,0|0,3:0|3:0,2:2:0:0:
197,61,34456,2,0,B|212:67|212:67|193:136,1,88,10|0,2:0|2:0,2:2:0:0:
250,365,34799,6,0,B|245:343|245:343|120:370|120:370|114:345,1,176,0|10,3:0|2:0,2:2:0:0:
25,169,35314,2,0,P|63:186|78:227,1,88,0|2,3:0|2:0,2:2:0:0:
193,136,35656,5,0,3:0:0:0:
114,345,35828,2,0,P|169:312|230:331,1,132,10|0,2:0|2:0,2:2:0:0:
250,365,36171,6,0,B|316:351|316:351|353:370|353:370|418:355,1,176,6|10,3:2|2:0,2:2:0:0:
448,189,36685,2,0,B|403:179|403:179|330:207|365:283,1,176,6|0,3:2|3:0,3:3:0:0:
365,282,37199,2,0,P|383:244|370:203,1,88,10|0,2:0|2:0,2:2:0:0:
190,80,37542,6,0,B|121:98|121:98|105:129|105:129|38:148,1,176,4|10,3:2|2:0,2:2:0:0:
176,236,38056,1,0,1:0:0:0:
191,218,38142,1,0,1:0:0:0:
186,195,38228,1,2,1:2:0:0:
212,381,38399,1,0,3:0:0:0:
365,282,38571,2,0,B|414:301|414:301|425:325|425:325|479:349,1,132,8|0,2:0|2:0,2:2:0:0:
505,237,38914,6,0,P|447:298|364:281,1,176,6|10,3:2|2:0,2:2:0:0:
286,128,39428,1,0,3:0:0:0:
364,281,39599,2,0,P|372:237|380:194,1,88,2|0,2:0|3:2,3:3:0:0:
302,41,39942,2,0,P|293:84|285:127,1,88,10|2,2:0|3:2,3:3:0:0:
176,236,40285,6,0,P|93:216|62:137,1,176,2|10,3:2|2:0,2:2:0:0:
34,284,40799,2,0,P|91:222|175:235,1,176,2|0,3:2|3:0,2:2:0:0:
245,384,41314,2,0,P|253:340|261:297,1,88,10|0,2:0|2:0,3:3:0:0:
284,127,41656,6,0,B|325:100|368:127|368:127|384:168|435:173,1,176,2|8,3:2|2:0,2:2:0:0:
484,23,42171,2,0,P|451:51|441:93,1,88,0|2,3:0|2:0,2:2:0:0:
409,348,42514,1,0,3:0:0:0:
479,308,42685,2,0,P|428:270|364:280,1,132,10|0,2:0|2:0,2:2:0:0:
328,252,43028,6,0,P|269:312|185:298,1,176,2|8,3:2|2:0,2:2:0:0:
81,183,43542,1,0,1:0:0:0:
81,183,43628,1,0,1:0:0:0:
81,183,43714,1,0,1:0:0:0:
238,221,43885,1,8,3:0:0:0:
194,43,44056,2,0,P|185:86|178:129,1,88,8|2,2:0|3:2,3:3:0:0:
137,384,44399,5,4,3:1:0:0:
81,183,44571,1,2,3:2:0:0:
238,221,44742,1,10,2:0:0:0:
33,315,44914,1,0,3:0:0:0:
278,367,45085,5,10,2:0:0:0:
177,129,45256,1,0,3:0:0:0:
447,217,45428,1,10,2:0:0:0:
199,320,45599,5,0,3:0:0:0:
199,320,45685,1,0,3:0:0:0:
199,320,45771,1,10,2:0:0:0:
465,370,45942,1,0,3:0:0:0:
366,116,46114,6,0,P|355:158|347:201,1,88,10|0,2:0|3:0,2:2:0:0:
198,320,46456,2,0,P|190:276|180:234,1,88,10|0,2:0|3:0,2:2:0:0:
54,61,46799,2,0,P|43:103|35:146,1,88,10|0,2:0|3:0,2:2:0:0:
19,185,47056,1,0,3:0:0:0:
23,189,47142,5,14,2:0:0:0:
59,351,47314,1,0,3:0:0:0:
134,146,47485,5,10,2:0:0:0:
198,320,47656,1,0,3:0:0:0:
228,75,47828,5,10,2:0:0:0:
370,243,47999,1,0,3:0:0:0:
298,0,48171,5,10,2:0:0:0:
512,130,48342,1,10,2:0:0:0:
459,37,49542,5,0,1:0:0:0:
456,46,49628,1,0,1:0:0:0:
453,55,49714,2,0,L|418:62,1,35.2,0|0,1:0|1:0,2:2:0:0:
281,30,49885,6,0,B|317:37|336:23|336:23|383:39|392:100|363:132,1,184.799994360352,4|0,3:1|2:0,2:2:0:0:
344,160,50228,1,8,2:0:0:0:
188,190,50399,6,0,B|227:185|244:141|244:141|240:237|319:255,1,228.799989526368,2|0,2:0|3:0,2:2:0:0:
281,30,50914,1,8,2:0:0:0:
318,255,51085,6,0,B|189:215|236:320|102:282,1,228.799989526368,4|0,3:2|3:0,2:2:0:0:
32,25,51599,6,0,B|78:15|78:15|149:48|117:117,1,171.599992144776,10|0,2:0|2:0,2:2:0:0:
95,129,51942,2,0,P|80:80|110:38,1,105.599996777344,2|0,3:2|3:0,2:2:0:0:
215,61,52285,2,0,P|229:109|199:151,1,105.599996777344,10|2,2:0|3:2,2:2:0:0:
102,282,52628,5,6,3:1:0:0:
199,151,52799,2,0,B|243:157|243:157|253:171|253:171|296:177,1,105.599996777344,0|10,3:0|2:0,2:2:0:0:
496,39,53142,2,0,B|443:46|394:11|394:11|389:66|349:101,1,211.199993554688,4|0,3:2|3:0,2:2:0:0:
199,151,53656,6,0,B|234:119|276:132|276:132|310:197|383:175,1,211.199993554688,14|0,2:0|2:0,2:2:0:0:
496,39,54171,1,0,3:0:0:0:
478,204,54342,2,0,P|434:175|383:175,1,105.599996777344,10|0,2:0|2:0,2:2:0:0:
255,369,54685,1,2,3:2:0:0:
200,149,54856,1,0,3:0:0:0:
104,305,55028,5,0,1:0:0:0:
125,300,55114,1,0,1:0:0:0:
176,291,55199,5,0,1:0:0:0:
197,286,55285,1,0,1:0:0:0:
249,274,55371,6,0,B|314:292|314:292|336:327|336:327|405:350,1,171.599992144776,6|0,3:2|2:0,2:2:0:0:
452,356,55714,1,10,2:0:0:0:
498,184,55885,2,0,B|448:166|448:166|393:192|393:192|401:253|341:286,1,228.799989526368,2|0,3:2|3:0,2:2:0:0:
266,78,56399,1,8,2:0:0:0:
341,285,56571,6,0,B|333:322|333:322|186:296|186:296|180:338,1,228.799989526368,6|0,3:2|3:0,3:3:0:0:
34,168,57085,1,10,2:0:0:0:
156,342,57256,5,0,1:0:0:0:
170,344,57342,1,0,1:0:0:0:
180,336,57428,2,0,P|207:287|194:232,1,114.399994763184,2|0,2:0|3:0,2:2:0:0:
44,30,57771,2,0,B|101:48|101:48|123:83|123:83|189:105,1,171.599992144776,10|0,2:0|2:0,2:2:0:0:
268,73,58114,5,14,2:0:0:0:
34,168,58285,1,10,2:0:0:0:
34,168,58628,5,10,2:0:0:0:
180,337,58799,1,10,2:0:0:0:
180,337,59142,5,10,2:0:0:0:
34,168,59314,2,0,B|102:153|102:153|120:125|120:125|187:111,1,171.599992144776,12|0,2:0|2:0,2:2:0:0:
215,104,59656,1,0,3:0:0:0:
400,166,59828,1,8,2:0:0:0:
335,7,59999,2,0,L|323:63,1,57.1999973815919,0|0,3:0|3:0,2:2:0:0:
339,204,60171,5,0,1:0:0:0:
373,194,60256,1,0,1:0:0:0:
411,203,60342,1,0,1:0:0:0:
437,236,60428,1,0,1:0:0:0:
447,312,60514,5,8,3:0:0:0:
426,307,60599,1,8,3:0:0:0:
363,291,60685,5,0,3:0:0:0:
342,286,60771,1,0,3:0:0:0:
281,306,60856,6,0,B|217:321|173:281|173:281|189:313|182:335,1,171.599992144776,4|0,3:2|2:0,2:2:0:0:
171,360,61199,1,10,2:0:0:0:
200,149,61371,2,0,B|136:147|94:106|94:106|97:174|53:206,1,228.799989526368,2|0,3:2|3:0,2:2:0:0:
63,20,61885,1,8,2:0:0:0:
54,205,62056,6,0,B|41:140|94:106|94:106|167:95|200:149,1,237.600000906372,4|0,3:2|3:0,2:2:0:0:
370,276,62571,6,0,B|389:270|389:270|397:260|397:260|420:252,1,57.1999973815919,10|0,2:0|2:0,2:2:0:0:
250,173,62742,2,0,B|231:167|231:167|223:157|223:157|199:149,1,57.1999973815919,2|0,2:0|2:0,2:2:0:0:
354,43,62914,2,0,B|383:79|383:79|365:145,1,114.399994763184,2|0,3:2|3:0,2:2:0:0:
411,382,63256,6,0,P|351:325|270:342,1,171.599992144776,8|0,2:0|2:0,2:2:0:0:
255,367,63599,5,6,3:1:0:0:
129,175,63771,2,0,P|85:176|52:204,1,88,0|8,3:0|2:0,2:2:0:0:
51,203,64114,6,0,P|158:224|222:136,1,228.799989526368,6|0,3:2|3:0,2:2:0:0:
453,28,64628,2,0,B|477:52|513:52|513:52|549:129|496:172,1,198.000007553101,12|0,2:1|2:0,2:2:0:0:
465,189,64971,6,0,B|423:176|423:176|414:159|414:159|365:144,1,114.399994763184,0|0,2:0|3:0,2:2:0:0:
198,8,65314,2,0,B|135:27|135:27|121:53|121:53|48:75,1,171.599992144776,10|0,2:0|3:0,2:2:0:0:
1,183,65656,6,0,P|24:199|52:202,1,57.1999973815919,6|0,3:2|2:0,2:2:0:0:
221,137,65828,2,0,P|192:140|169:156,1,57.1999973815919,0|0,3:0|2:0,2:2:0:0:
131,347,65999,5,10,2:0:0:0:
160,299,66085,1,0,1:0:0:0:
213,280,66171,1,0,1:0:0:0:
267,297,66256,1,0,1:0:0:0:
285,318,66342,6,0,B|333:308|333:308|340:296|340:296|381:289,1,105.6,4|0,3:2|2:0,2:2:0:0:
459,384,66685,6,0,B|381:367|381:367|361:332|361:332|285:317,1,198.000007553101,14|0,2:1|2:0,2:2:0:0:
211,180,67028,2,0,L|220:137,1,44,0|0,3:0|2:0,2:2:0:0:
313,18,67199,6,0,L|298:86,1,70.4,2|8,3:2|2:0,2:2:0:0:
284,316,67542,6,0,B|363:335|414:287|414:287|375:317|383:369,1,228.799989526368,4|0,3:1|3:0,2:2:0:0:
211,180,68056,2,0,B|150:191|150:191|135:222|135:222|61:238,1,171.599992144776,14|0,2:0|2:0,2:2:0:0:
1,123,68399,2,0,B|50:134|50:134|55:145|55:145|104:157,1,114.399994763184,8|0,2:3|3:0,2:2:0:0:
211,180,68656,1,8,2:0:0:0:
232,185,68742,1,8,2:0:0:0:
442,118,68914,1,0,3:0:0:0:
300,18,69085,5,14,2:1:0:0:
366,244,69256,1,2,3:2:0:0:
106,158,69428,1,10,2:0:0:0:
172,384,69599,1,2,3:2:0:0:
317,158,69771,5,10,2:0:0:0:
61,237,69942,1,0,3:0:0:0:
341,331,70114,1,10,2:0:0:0:
262,70,70285,5,0,3:0:0:0:
262,70,70371,1,0,3:0:0:0:
262,70,70456,1,10,2:0:0:0:
200,296,70628,1,0,3:2:0:0:
82,8,70799,6,0,P|154:90|261:69,1,228.799989526368,10|10,2:0|2:0,2:2:0:0:
470,142,71314,1,0,3:0:0:0:
285,253,71485,1,10,2:0:0:0:
339,12,71656,5,0,3:0:0:0:
339,12,71742,1,0,3:0:0:0:
339,12,71828,1,14,2:2:0:0:
435,248,71999,1,0,3:0:0:0:
119,179,72171,1,10,2:0:0:0:
433,54,72342,1,0,3:0:0:0:
254,344,72514,5,10,2:0:0:0:
214,8,72685,1,0,3:0:0:0:
435,248,72856,1,10,2:0:0:0:
119,179,73028,5,2,1:2:0:0:
214,8,73885,6,0,B|234:15|234:15|211:98,1,105.6,2|0,3:2|2:0,2:2:0:0:
119,179,74228,5,0,1:0:0:0:
146,145,74314,1,0,1:0:0:0:
191,125,74399,1,0,1:0:0:0:
240,127,74485,1,0,1:0:0:0:
269,143,74571,2,0,B|316:131|316:131|321:124|321:124|367:111,1,105.6,4|0,3:2|2:0,2:2:0:0:
397,104,74914,1,10,2:0:0:0:
489,258,75085,6,0,B|480:269|479:291|479:291|413:331|341:264|370:197,1,228.799989526368,4|0,3:1|2:0,2:2:0:0:
99,5,75599,2,0,B|112:16|112:16|102:50,1,52.7999983886719,8|0,2:0|2:0,2:2:0:0:
25,87,75771,6,0,B|153:64|94:161|239:126,1,228.799989526368,4|0,3:2|2:0,2:2:0:0:
130,357,76285,6,0,B|116:326|80:316|80:316|64:251|119:232,1,171.599992144776,8|0,2:0|2:0,2:2:0:0:
130,240,76628,2,0,P|88:277|32:274,1,114.399994763184,0|0,3:0|3:0,2:2:0:0:
157,26,76971,5,8,2:0:0:0:
196,50,77056,1,0,1:0:0:0:
212,91,77142,1,0,1:0:0:0:
200,125,77228,1,0,1:0:0:0:
184,137,77314,6,0,L|240:126,1,57.1999973815919,6|0,3:1|0:0,0:0:0:0:
411,72,77485,2,0,B|364:60|364:60|358:52|358:52|304:36,1,114.399994763184,2|8,0:1|2:0,2:2:0:0:
25,87,77828,5,2,2:1:0:0:
38,194,77999,2,0,B|108:176|108:176|117:164|117:164|198:140,1,171.599992144776,2|0,3:1|2:0,2:2:0:0:
240,125,78342,1,8,2:0:0:0:
370,195,78514,6,0,B|391:225|391:264|391:264|363:303|316:307|316:307|285:296|265:267,1,228.799989526368,4|0,3:1|3:0,2:2:0:0:
401,87,79028,2,0,B|391:133|391:133|382:140|382:140|369:194,1,114.399994763184,8|0,2:0|2:0,2:2:0:0:
246,363,79371,5,2,3:2:0:0:
197,140,79542,1,0,2:0:0:0:
7,242,79714,1,2,3:2:0:0:
26,294,79799,1,0,1:0:0:0:
77,316,79885,1,0,1:0:0:0:
128,293,79971,1,0,1:0:0:0:
137,271,80056,6,0,B|146:235|146:235|76:173|76:173|88:133,1,171.599992144776,4|0,3:1|0:0,2:2:0:0:
0,54,80399,6,0,B|2:72|2:72|40:65,1,57.1999973815919,8|0,2:0|0:0,0:0:0:0:
130,0,80571,2,0,B|172:5|172:5|220:30|220:30|244:102|200:134,1,211.199993554688,2|0,3:2|3:0,2:2:0:0:
130,0,81085,1,8,2:0:0:0:
199,134,81256,2,0,L|249:120,1,52.7999983886719,0|0,3:0|3:0,0:0:0:0:
351,20,81428,6,0,B|347:2|347:2|430:17|430:17|397:120,1,211.199993554688,10|2,2:0|3:2,2:2:0:0:
427,291,81942,1,8,2:0:0:0:
485,184,82114,2,0,B|438:194|438:194|431:202|431:202|384:211,1,105.599996777344,2|0,2:0|3:0,2:2:0:0:
246,363,82456,2,0,B|199:353|199:353|192:345|192:345|145:335,1,105.599996777344,2|0,3:2|1:0,2:2:0:0:
31,220,82799,6,0,B|67:242|79:282|79:282|103:251|146:246,1,158.399995166016,4|0,3:1|0:0,2:2:0:0:
159,236,83142,2,0,P|141:218|116:209,1,52.7999983886719,8|0,2:0|0:0,0:0:0:0:
24,38,83314,6,0,B|30:74|30:74|169:47|169:47|175:79,1,211.199993554688,6|0,3:2|3:0,2:2:0:0:
306,163,83828,2,0,B|337:158|337:158|364:128|364:128|396:120,1,105.599996777344,8|0,2:0|2:0,2:2:0:0:
498,370,84171,6,0,B|443:341|427:293|427:293|397:331|333:328,1,211.199993554688,4|8,3:1|2:0,2:2:0:0:
452,203,84685,1,0,3:0:0:0:
333,328,84856,5,4,3:1:0:0:
308,282,84942,1,0,1:0:0:0:
263,255,85028,1,0,1:0:0:0:
211,255,85114,1,0,1:0:0:0:
165,280,85199,1,0,1:0:0:0:
2,218,85371,1,0,3:0:0:0:
175,79,85542,6,0,B|211:123|262:111|262:111|288:80|331:80,1,176,4|10,3:2|2:0,2:2:0:0:
411,194,86056,2,0,B|377:184|377:184|372:175|372:175|331:164,1,88,2|0,2:0|3:0,2:2:0:0:
218,340,86399,5,2,3:2:0:0:
131,284,86571,2,0,B|165:274|165:274|170:265|170:265|210:254,1,88,8|2,2:0|3:2,2:2:0:0:
331,164,86914,6,0,B|380:169|415:144|415:144|415:190|447:223,1,176,2|10,3:2|2:0,2:2:0:0:
331,164,87428,1,0,2:0:0:0:
308,282,87599,5,2,3:2:0:0:
391,309,87771,1,2,3:2:0:0:
331,164,87942,2,0,B|274:179|274:179|266:188|266:188|208:205,1,132,10|0,2:0|2:0,2:2:0:0:
108,139,88285,6,0,B|157:152|157:152|201:218|136:259,1,176,2|10,3:2|2:0,2:2:0:0:
82,357,88799,2,0,B|42:347|42:347|38:341|38:341|-1:333,2,88,0|2|0,3:0|2:0|3:0,2:2:0:0:
207,205,89314,2,0,B|254:220|254:220|266:244|266:244|320:259,1,132,10|0,2:0|2:0,2:2:0:0:
352,287,89656,6,0,B|406:275|406:275|381:156,1,176,2|10,3:2|2:0,2:2:0:0:
423,18,90171,2,0,P|447:54|438:96,1,88,2|0,2:0|3:0,2:2:0:0:
299,153,90514,1,2,3:2:0:0:
173,17,90685,2,0,B|165:7|165:7|121:21|121:21|109:93,1,132,10|0,2:0|2:0,2:2:0:0:
48,177,91028,6,0,B|91:148|139:172|139:172|164:210|207:204,1,176,4|10,3:2|2:2,2:2:0:0:
174,361,91542,2,0,P|95:338|96:256,1,176,2|0,3:2|3:0,2:2:0:0:
204,124,92056,2,0,B|221:145|221:145|206:203,1,88,10|0,2:0|2:0,2:2:0:0:
174,361,92399,6,0,B|200:340|243:340|243:340|274:380|334:373,1,176,0|8,3:0|2:0,2:2:0:0:
400,250,92914,1,0,3:0:0:0:
334,373,93085,2,0,B|327:337|327:337|321:333|321:333|313:289,1,88,2|0,2:0|3:0,2:2:0:0:
485,146,93428,2,0,B|423:164|423:164|378:113,1,132,10|0,2:0|2:0,2:2:0:0:
353,77,93771,6,0,B|254:52|254:52|212:70|225:111,1,176,6|10,3:2|2:0,2:2:0:0:
225,111,94285,2,0,P|230:68|207:32,1,88,6|0,3:2|3:2,3:3:0:0:
108,55,94628,2,0,P|102:97|125:133,1,88,2|10,3:2|2:0,3:3:0:0:
174,361,94971,6,0,B|130:337|122:293|122:293|96:328|47:334,1,176,4|2,3:2|3:2,2:2:0:0:
139,215,95485,1,8,2:0:0:0:
265,328,95656,2,0,B|274:317|274:317|341:346,1,88,2|0,2:0|3:0,2:2:0:0:
417,198,95999,1,2,3:2:0:0:
465,273,96171,2,0,B|455:299|455:299|357:261,1,132,8|0,2:0|2:0,2:2:0:0:
265,328,96514,6,0,B|279:283|279:283|234:213|234:213|246:169,1,176,4|8,3:1|2:0,2:2:0:0:
123,31,97028,2,0,B|87:38|87:38|84:44|84:44|40:53,1,88,2|0,2:0|3:0,2:2:0:0:
246,169,97371,2,0,B|253:133|253:133|259:130|259:130|268:86,1,88,2|8,2:0|2:0,2:2:0:0:
174,361,97714,6,0,P|127:292|43:297,1,176,2|0,2:0|3:0,2:2:0:0:
165,118,98228,2,0,P|153:160|147:203,1,88,10|0,2:0|2:0,2:2:0:0:
174,361,98571,5,2,2:0:0:0:
267,335,98742,1,0,3:0:0:0:
385,197,98914,2,0,B|447:211|447:211|476:236|465:272,1,132,10|0,2:0|0:0,2:2:0:0:
464,272,99256,6,8,P|417:200|443:119,1,176,2|8,3:2|2:0,2:2:0:0:
277,3,99771,2,0,B|208:18|208:18|189:43|189:43|117:61,1,176,2|0,2:0|3:0,2:2:0:0:
248,171,100285,6,0,P|252:127|267:85,1,88,10|0,2:2|2:0,2:2:0:0:
50,33,100628,2,0,P|64:74|69:118,1,88,2|0,3:2|2:0,2:2:0:0:
196,269,100971,2,0,P|113:281|91:362,1,176,10|2,2:0|2:0,2:2:0:0:
196,269,101485,1,0,3:0:0:0:
310,348,101656,2,0,B|297:371|297:371|401:349,1,132,10|0,2:0|0:0,2:2:0:0:
468,288,101999,6,8,B|403:303|403:303|390:327|390:327|310:347,1,176,4|10,3:2|2:0,2:2:0:0:
62,215,102514,2,0,P|144:202|195:268,1,176,2|0,3:2|3:0,2:2:0:0:
62,215,103028,2,0,B|47:209|47:209|66:140,1,88,10|0,2:0|2:0,2:2:0:0:
267,85,103371,6,0,B|273:110|273:110|398:83|398:83|403:105,1,176,0|10,3:0|2:0,2:2:0:0:
267,85,103885,1,0,3:0:0:0:
452,164,104056,2,0,P|477:128|477:86,1,88,2|0,2:0|3:0,0:0:0:0:
512,268,104399,2,0,P|448:257|398:297,1,132,10|0,2:0|2:0,2:2:0:0:
386,340,104742,6,0,B|320:326|320:326|283:345|283:345|218:330,1,176,6|10,3:2|2:0,2:2:0:0:
69,118,105256,2,0,B|110:105|110:105|189:130|168:207,1,176,6|0,3:2|3:0,3:3:0:0:
168,206,105771,2,0,P|143:171|149:129,1,88,10|0,2:0|2:0,2:2:0:0:
223,8,106114,6,0,B|268:23|268:23|238:148,1,176,4|10,3:2|2:0,2:2:0:0:
194,369,106628,1,0,1:0:0:0:
85,230,106799,2,0,B|122:220|122:220|125:214|125:214|167:206,1,88,2|0,1:2|3:0,0:0:0:0:
238,148,107056,5,0,1:0:0:0:
259,143,107142,2,0,B|315:157|315:157|320:166|320:166|382:179,1,132,0|0,1:0|2:0,2:2:0:0:
414,210,107485,6,0,P|479:157|461:76,1,176,6|10,3:2|2:0,2:2:0:0:
286,128,107999,1,0,3:0:0:0:
394,310,108171,2,0,P|437:301|480:294,1,88,2|0,2:0|3:2,3:3:0:0:
286,128,108514,2,0,P|277:171|269:214,1,88,10|2,2:0|3:2,3:3:0:0:
200,303,108856,6,0,P|117:283|86:204,1,176,2|10,3:2|2:0,2:2:0:0:
154,116,109371,2,0,P|237:136|268:215,1,176,2|0,3:2|3:0,2:2:0:0:
154,116,109885,2,0,P|162:72|170:29,1,88,10|0,2:0|2:0,3:3:0:0:
418,177,110228,6,0,B|373:144|326:168|326:168|311:208|267:213,1,176,2|8,3:2|2:0,2:2:0:0:
77,85,110742,2,0,P|120:87|153:115,1,88,0|2,3:0|2:0,2:2:0:0:
188,283,111085,1,0,3:0:0:0:
0,235,111256,6,0,L|131:210,1,132,10|0,2:0|2:0,2:2:0:0:
188,283,111599,6,0,B|235:274|235:274|306:311|306:311|353:301,1,176,2|8,3:2|2:0,2:2:0:0:
512,284,112114,1,0,1:0:0:0:
512,284,112199,1,0,1:0:0:0:
512,284,112285,1,0,1:0:0:0:
321,221,112456,1,8,3:0:0:0:
462,88,112628,2,0,P|453:131|446:174,1,88,8|2,2:0|3:2,3:3:0:0:
278,367,112971,5,4,3:1:0:0:
223,128,113142,1,2,3:2:0:0:
429,254,113314,1,10,2:0:0:0:
188,283,113485,1,0,3:0:0:0:
261,35,113656,5,10,2:0:0:0:
321,221,113828,1,0,3:0:0:0:
114,157,113999,1,10,2:0:0:0:
163,380,114171,5,0,3:0:0:0:
163,380,114256,1,0,3:0:0:0:
163,380,114342,1,10,2:0:0:0:
223,128,114514,1,0,3:0:0:0:
353,300,114685,6,0,P|311:289|268:281,1,88,10|0,2:0|3:0,2:2:0:0:
27,175,115028,2,0,P|71:167|113:157,1,88,10|0,2:0|3:0,2:2:0:0:
334,13,115371,2,0,P|323:55|315:98,1,88,10|0,2:0|3:0,2:2:0:0:
306,120,115628,1,0,3:0:0:0:
310,124,115714,5,14,2:0:0:0:
104,39,115885,1,0,3:0:0:0:
289,200,116056,5,10,2:0:0:0:
46,126,116228,1,0,3:0:0:0:
272,290,116399,5,10,2:0:0:0:
14,224,116571,1,0,3:0:0:0:
296,384,116742,5,10,2:0:0:0:
17,332,116914,1,10,2:0:0:0:
205,78,117085,5,0,3:1:0:0:
228,114,117171,1,0,1:0:0:0:
267,132,117256,1,0,3:0:0:0:
310,124,117342,1,0,1:0:0:0:
326,101,117428,6,0,L|318:57,1,44,12|0,1:0|1:0,2:2:0:0:
436,210,117599,2,0,L|428:254,1,44,0|0,1:0|1:0,2:2:0:0:
291,308,117771,5,4,3:2:0:0:
249,320,117856,1,0,1:0:0:0:
207,308,117942,1,0,1:0:0:0:
177,277,118028,1,0,1:0:0:0:
205,220,118114,5,8,1:0:0:0:
226,215,118199,1,8,1:0:0:0:
268,205,118285,5,8,1:0:0:0:
289,200,118371,1,8,1:0:0:0:
338,191,118456,6,0,B|347:160|347:160|327:118|327:118|305:111|305:111|285:64|285:64|298:35,1,184.799994360352,4|0,3:1|2:0,2:2:0:0:
311,15,118799,1,10,2:0:0:0:
510,270,118971,6,0,B|485:215|419:227|419:227|394:291|323:278,1,228.799989526368,2|0,2:0|3:0,2:2:0:0:
134,178,119485,1,8,2:0:0:0:
224,321,119656,6,0,B|213:371|213:371|249:346|249:346|225:214,1,228.799989526368,4|0,3:2|3:0,2:2:0:0:
227,33,120171,6,0,B|178:27|147:5|147:5|145:45|109:79,1,171.599992144776,10|0,2:0|2:0,2:2:0:0:
37,139,120514,2,0,B|82:154|82:154|92:165|92:165|133:177,1,105.599996777344,0|0,3:0|3:0,2:2:0:0:
324,278,120856,2,0,B|369:263|369:263|379:252|379:252|420:239,1,105.599996777344,8|2,2:0|3:2,2:2:0:0:
396,49,121199,5,4,3:1:0:0:
303,179,121371,2,0,B|277:175|277:175|289:96,1,105.599996777344,0|8,3:0|2:0,2:2:0:0:
289,96,121714,2,0,P|191:116|135:34,1,211.199993554688,4|0,3:2|3:0,2:2:0:0:
55,303,122228,6,0,B|70:355|70:355|223:320,1,211.199993554688,14|0,2:0|2:0,2:2:0:0:
338,191,122742,1,0,3:0:0:0:
407,281,122914,6,0,B|360:274|360:274|349:279|349:279|303:272,1,105.599996777344,8|0,2:0|2:0,2:2:0:0:
54,218,123256,1,2,3:2:0:0:
224,116,123428,1,0,3:0:0:0:
103,15,123599,5,0,1:0:0:0:
108,36,123685,1,0,1:0:0:0:
117,87,123771,5,0,1:0:0:0:
122,108,123856,1,0,1:0:0:0:
134,161,123942,6,0,B|144:228|144:228|130:259|130:259|140:328,1,171.599992144776,4|0,3:2|2:0,2:2:0:0:
148,373,124285,1,8,2:0:0:0:
341,190,124456,6,0,B|363:147|411:147|411:147|448:163|448:163|480:224|443:256,1,228.799989526368,2|0,3:2|3:0,2:2:0:0:
341,190,124971,1,8,2:0:0:0:
343,354,125142,6,0,B|275:337|275:337|246:254|246:254|173:236,1,228.799989526368,4|0,3:2|3:0,3:3:0:0:
54,218,125656,1,10,2:0:0:0:
138,347,125828,1,0,1:0:0:0:
152,349,125914,1,0,1:0:0:0:
162,341,125999,2,0,P|189:292|176:237,1,114.399994763184,2|0,3:2|3:0,2:2:0:0:
227,33,126342,6,0,B|284:51|284:51|306:86|306:86|372:108,1,171.599992144776,10|0,2:0|2:0,2:2:0:0:
451,76,126685,1,14,2:0:0:0:
407,281,126856,1,10,2:0:0:0:
407,281,127199,5,10,2:0:0:0:
176,237,127371,1,10,2:0:0:0:
176,237,127714,5,10,2:0:0:0:
31,383,127885,2,0,B|99:368|99:368|117:340|117:340|184:326,1,171.599992144776,12|0,2:0|2:0,2:2:0:0:
241,313,128228,1,0,3:0:0:0:
15,246,128399,1,8,2:0:0:0:
187,181,128571,2,0,L|175:237,1,57.1999973815919,0|0,3:0|3:0,2:2:0:0:
364,356,128742,5,0,1:0:0:0:
398,366,128828,1,0,1:0:0:0:
436,357,128914,1,0,1:0:0:0:
462,324,128999,1,0,1:0:0:0:
433,244,129085,5,8,3:0:0:0:
412,239,129171,1,8,3:0:0:0:
358,226,129256,5,0,3:0:0:0:
337,221,129342,1,0,3:0:0:0:
283,208,129428,6,0,B|223:192|176:235|176:235|191:207|186:180,1,171.599992144776,4|0,3:2|2:0,2:2:0:0:
186,180,129771,1,10,2:0:0:0:
7,361,129942,6,0,B|24:288|105:281|105:281|133:320|185:318,1,228.799989526368,2|0,3:2|3:0,2:2:0:0:
283,208,130456,1,8,2:0:0:0:
63,267,130628,6,0,B|36:235|36:235|43:175|43:175|58:161|58:161|63:101|63:101|25:74,1,228.799989526368,4|0,3:2|3:0,2:2:0:0:
25,74,131142,6,0,B|51:68|51:68|54:62|54:62|78:57,1,57.1999973815919,10|0,2:0|2:0,2:2:0:0:
230,191,131314,2,0,B|256:196|256:196|259:202|259:202|283:208,1,57.1999973815919,2|0,2:0|2:0,2:2:0:0:
235,9,131485,2,0,P|189:41|188:96,1,114.399994763184,2|0,3:2|3:0,2:2:0:0:
444,218,131828,6,0,P|384:161|303:178,1,171.599992144776,8|0,2:0|2:0,2:2:0:0:
282,207,132171,5,4,3:1:0:0:
140,370,132342,2,0,B|134:392|134:392|69:378,1,88,0|8,3:0|2:0,2:2:0:0:
70,378,132685,6,0,P|134:290|240:312,1,228.799989526368,6|0,3:2|3:0,2:2:0:0:
465,189,133199,2,0,B|415:158|415:158|438:295,1,198.000007553101,12|0,2:1|2:0,2:2:0:0:
443,318,133542,6,0,B|401:305|401:305|392:288|392:288|343:273,1,114.399994763184,2|0,2:0|3:0,2:2:0:0:
38,163,133885,2,0,B|101:144|101:144|115:118|115:118|188:96,1,171.599992144776,10|0,2:0|3:0,2:2:0:0:
289,27,134228,6,0,P|273:50|270:78,1,57.1999973815919,6|0,3:2|2:0,2:2:0:0:
300,197,134399,2,0,P|315:173|318:145,1,57.1999973815919,0|0,3:0|2:0,2:2:0:0:
460,326,134571,5,10,2:0:0:0:
431,278,134656,1,0,1:0:0:0:
378,259,134742,1,0,1:0:0:0:
324,276,134828,1,0,1:0:0:0:
306,297,134914,6,0,B|258:287|258:287|251:275|251:275|210:268,1,105.6,4|0,3:2|2:0,2:2:0:0:
131,364,135256,6,0,B|209:347|209:347|229:312|229:312|305:297,1,198.000007553101,12|0,2:1|2:0,2:2:0:0:
300,197,135599,2,0,L|309:154,1,44,0|0,3:0|2:0,2:2:0:0:
203,27,135771,6,0,L|188:95,1,70.4,2|8,3:2|2:0,2:2:0:0:
10,226,136114,6,0,B|43:197|43:197|113:208|113:208|164:260|125:309,1,228.799989526368,4|0,3:1|3:0,2:2:0:0:
300,197,136628,2,0,B|363:213|363:213|378:244|378:244|448:260,1,171.599992144776,14|0,2:0|2:0,2:2:0:0:
487,145,136971,2,0,B|438:156|438:156|433:167|433:167|384:179,1,114.399994763184,8|0,2:3|3:0,2:2:0:0:
300,197,137228,1,8,2:0:0:0:
279,202,137314,1,8,2:0:0:0:
82,121,137485,1,0,3:0:0:0:
227,23,137656,5,14,2:1:0:0:
154,244,137828,1,2,3:2:0:0:
382,179,137999,1,10,2:0:0:0:
82,121,138171,1,2,3:2:0:0:
284,298,138342,5,10,2:0:0:0:
227,23,138514,1,0,3:0:0:0:
51,236,138685,1,10,2:0:0:0:
307,115,138856,5,0,3:0:0:0:
307,115,138942,1,0,3:0:0:0:
307,115,139028,1,10,2:0:0:0:
94,7,139199,1,0,3:2:0:0:
154,244,139371,6,0,B|193:190|260:201|260:201|290:251|352:242,1,228.799989526368,10|10,2:0|2:0,2:2:0:0:
511,42,139885,1,0,3:0:0:0:
307,115,140056,1,10,2:0:0:0:
483,256,140228,5,0,3:0:0:0:
483,256,140314,1,0,3:0:0:0:
483,256,140399,1,14,2:2:0:0:
387,0,140571,1,0,3:0:0:0:
257,200,140742,1,10,2:0:0:0:
512,126,140914,1,0,3:0:0:0:
272,0,141085,5,10,2:0:0:0:
351,242,141256,1,0,3:0:0:0:
68,177,141428,1,10,2:0:0:0:
307,115,141599,5,2,1:2:0:0:
147,355,142456,6,0,B|125:331|125:331|139:277,1,88,2|0,3:2|1:0,2:2:0:0:
146,254,142714,1,0,1:0:0:0:
146,254,142799,2,0,L|103:264,1,44,0|0,1:0|1:0,2:2:0:0:
25,187,142971,2,0,L|67:176,1,44,0|0,1:0|1:0,2:2:0:0:
257,200,143142,5,4,3:2:0:0:
256,192,143228,12,2,145885,2:0:0:0:
275,236,154114,6,0,B|329:224|329:224|349:198|349:198|400:186,1,140.8,4|0,3:2|2:0,2:2:0:0:
288,132,154628,2,0,B|261:126|261:126|251:113|251:113|225:107,1,70.4,2|0,1:2|2:0,2:2:0:0:
225,107,155142,6,0,P|293:112|344:67,1,140.8,2|0,1:2|2:0,2:2:0:0:
344,67,155656,2,0,B|340:52|340:52|285:60,1,70.4,2|0,3:2|2:0,2:2:0:0:
121,3,155999,1,0,3:0:0:0:
121,3,156171,2,0,B|155:16|155:16|128:116,1,140.8,2|0,1:2|2:0,2:2:0:0:
103,235,156685,1,2,1:2:0:0:
103,235,156856,6,0,B|100:220|100:220|45:229,1,70.4,0|0,3:0|2:0,2:2:0:0:
79,355,157199,1,0,2:0:0:0:
79,355,157371,2,0,B|114:347|114:347|177:378|177:378|210:368,1,140.8,2|0,1:2|2:0,2:2:0:0:
275,236,157885,6,0,P|342:236|378:292,1,140.8,2|0,3:2|3:0,2:2:0:0:
378,292,158399,2,0,P|343:234|374:174,1,140.8,2|0,1:2|3:0,2:2:0:0:
411,166,158828,1,0,3:0:0:0:
411,166,158914,2,0,L|479:181,1,70.4,2|0,1:2|2:0,2:2:0:0:
496,103,159256,2,0,L|428:88,1,70.4,0|0,1:0|2:0,2:2:0:0:
218,32,159599,6,0,B|254:12|254:12|226:107,1,140.8,2|0,3:2|2:0,2:2:0:0:
135,222,160114,2,0,B|56:208|93:171|14:157,1,140.8,2|0,1:2|2:0,2:2:0:0:
0,314,160628,2,0,B|-1:301|-1:301|55:291,1,70.4,0|0,3:0|3:0,2:2:0:0:
135,222,160971,6,0,B|160:219|160:219|179:332,2,140.8,0|0|0,3:0|3:0|1:0,2:2:0:0:
135,222,161999,2,0,P|162:243|196:242,1,70.4,2|0,2:0|2:0,2:2:0:0:
373,174,162342,6,0,B|426:195|426:195|437:212|437:212|496:233,1,140.8,0|0,3:0|3:0,2:2:0:0:
511,55,162856,2,0,P|456:94|462:161,1,140.8,0|0,1:0|3:0,2:2:0:0:
386,345,163371,5,8,2:3:0:0:
297,328,163542,1,0,3:0:0:0:
196,242,163714,5,8,2:0:0:0:
280,212,167828,6,0,B|246:193|246:193|283:79,1,158.399995166016,6|0,3:2|2:0,2:2:0:0:
295,48,168171,1,10,2:0:0:0:
441,299,168342,2,0,B|406:250|348:270|348:270|317:318|255:300,1,211.199993554688,4|8,3:2|2:0,2:2:0:0:
14,157,168856,6,0,B|64:121|70:70|70:70|97:114|160:114,1,211.199993554688,4|8,3:2|2:0,2:2:0:0:
322,21,169371,1,8,2:3:0:0:
325,24,169456,1,8,2:3:0:0:
329,28,169542,1,8,2:3:0:0:
280,212,169714,1,0,3:0:0:0:
474,135,169885,5,8,2:0:0:0:
410,317,170056,1,8,2:3:0:0:
410,317,170142,1,8,2:3:0:0:
410,317,170228,2,0,L|398:265,1,52.7999983886719,0|0,3:0|3:0,2:2:0:0:
268,160,170399,2,0,L|279:211,1,52.7999983886719,0|0,3:0|3:0,2:2:0:0:
229,351,170571,6,0,P|170:315|102:330,1,140.8,4|2,3:1|2:0,2:2:0:0:
102,330,171085,1,0,3:0:0:0:
14,157,171256,2,0,B|71:174|71:174|83:196|83:196|136:212,1,140.8,8|2,2:0|2:0,2:2:0:0:
277,66,171771,1,8,2:0:0:0:
276,65,171942,6,0,P|207:64|159:113,1,140.8,8|2,2:3|3:2,2:2:0:0:
276,65,172456,2,0,B|286:69|286:69|305:13,1,70.4,0|8,3:0|2:0,2:2:0:0:
460,126,172799,1,0,3:0:0:0:
460,126,172971,2,0,B|439:120|439:120|393:146|393:146|363:138,1,105.6,10|0,2:0|2:0,2:2:0:0:
338,131,173314,5,10,2:0:0:0:
279,338,173485,1,10,2:0:0:0:
279,338,173828,5,10,2:0:0:0:
496,282,173999,1,10,2:0:0:0:
496,282,174342,5,10,2:0:0:0:
227,160,174514,2,0,B|156:175|156:175|140:206|140:206|74:225,1,176,12|0,2:0|3:0,2:2:0:0:
290,272,175028,1,8,2:0:0:0:
219,70,175199,1,0,3:0:0:0:
98,331,175371,5,8,2:0:0:0:
128,299,175456,1,8,2:0:0:0:
170,291,175542,1,8,2:0:0:0:
210,308,175628,1,8,2:0:0:0:
251,350,175714,5,0,1:0:0:0:
256,329,175799,1,0,1:0:0:0:
285,293,175885,5,0,1:0:0:0:
290,272,175971,1,0,1:0:0:0:
319,236,176056,6,0,B|384:253|384:253|405:286|405:286|468:306,1,171.599992144776,4|0,3:2|2:0,2:2:0:0:
467,305,176399,1,10,2:0:0:0:
370,141,176571,6,0,B|306:139|264:98|264:98|267:166|223:198,1,228.799989526368,2|0,3:2|3:0,2:2:0:0:
226,0,177085,1,8,2:0:0:0:
224,197,177256,6,0,B|226:140|226:140|264:98|264:98|325:98|325:98|370:141,1,237.600000906372,4|0,3:2|3:0,2:2:0:0:
285,293,177771,6,0,B|266:287|266:287|258:277|258:277|235:269,1,57.1999973815919,10|0,2:0|2:0,2:2:0:0:
64,133,177942,2,0,B|45:139|45:139|37:149|37:149|13:157,1,57.1999973815919,2|0,2:0|2:0,2:2:0:0:
98,331,178114,2,0,B|127:295|127:295|109:229,1,114.399994763184,2|0,3:2|3:0,2:2:0:0:
226,0,178456,6,0,P|286:57|367:40,1,171.599992144776,8|0,2:0|2:0,2:2:0:0:
394,18,178799,5,4,3:1:0:0:
502,230,178971,2,0,B|499:248|499:248|431:238,1,88,0|10,3:0|2:0,2:2:0:0:
431,239,179314,6,0,B|382:226|348:250|348:250|303:207|303:207|277:232|227:221,1,228.799989526368,6|0,3:2|3:0,2:2:0:0:
34,58,179828,6,0,B|115:45|115:45|178:89|138:143,1,198.000007553101,12|0,2:1|2:0,2:2:0:0:
111,153,180171,2,0,P|95:108|135:55,1,114.399994763184,0|0,2:0|3:0,2:2:0:0:
287,304,180514,2,0,B|224:323|224:323|210:349|210:349|137:371,1,171.599992144776,8|0,2:0|3:0,2:2:0:0:
112,357,180856,6,0,L|123:300,1,57.1999973815919,6|0,3:2|2:0,2:2:0:0:
111,153,181028,2,0,L|100:210,1,57.1999973815919,0|0,3:0|2:0,2:2:0:0:
227,221,181199,5,10,2:0:0:0:
256,173,181285,1,0,1:0:0:0:
309,154,181371,1,0,1:0:0:0:
363,171,181456,1,0,1:0:0:0:
381,192,181542,6,0,B|429:182|429:182|436:170|436:170|477:163,1,105.6,4|0,3:2|2:0,2:2:0:0:
486,304,181885,6,0,B|408:287|408:287|388:252|388:252|312:237,1,198.000007553101,12|0,2:1|2:0,2:2:0:0:
303,254,182228,2,0,L|312:297,1,44,0|0,3:0|2:0,2:2:0:0:
136,371,182399,6,0,L|121:303,1,70.4,2|8,3:2|2:0,2:2:0:0:
17,94,182742,6,0,B|41:33|108:21|147:66|147:66|116:86|112:120,1,228.799989526368,4|0,3:1|3:0,2:2:0:0:
339,77,183256,2,0,B|278:88|278:88|263:119|263:119|189:135,1,171.599992144776,14|0,2:0|2:0,2:2:0:0:
111,119,183599,2,0,P|121:177|166:210,1,114.399994763184,8|0,2:3|3:0,2:2:0:0:
241,208,183856,1,8,2:0:0:0:
262,204,183942,1,8,2:0:0:0:
485,163,184114,1,0,3:0:0:0:
339,77,184285,5,14,2:1:0:0:
393,310,184456,1,2,3:2:0:0:
163,209,184628,1,10,2:0:0:0:
404,142,184799,1,2,3:2:0:0:
219,7,184971,5,10,2:0:0:0:
298,240,185142,1,0,3:0:0:0:
36,161,185314,1,10,2:0:0:0:
129,327,185485,5,0,3:0:0:0:
129,327,185571,1,0,3:0:0:0:
129,327,185656,1,10,2:0:0:0:
192,108,185828,1,0,3:2:0:0:
378,302,185999,6,0,B|330:311|284:336|284:336|219:314|207:241,1,228.799989526368,10|10,2:0|2:0,2:2:0:0:
470,142,186514,1,0,3:0:0:0:
283,7,186685,1,10,2:0:0:0:
298,240,186856,5,0,3:0:0:0:
298,240,186942,1,0,3:0:0:0:
298,240,187028,1,14,2:2:0:0:
46,172,187199,1,0,3:0:0:0:
331,100,187371,1,10,2:0:0:0:
146,335,187542,1,0,3:0:0:0:
159,40,187714,5,10,2:0:0:0:
328,272,187885,1,0,3:0:0:0:
46,172,188056,1,10,2:0:0:0:
331,100,188228,1,2,1:2:0:0:
146,335,188399,5,4,3:1:0:0:
110,306,188485,1,0,1:0:0:0:
102,262,188571,1,0,1:0:0:0:
127,225,188656,1,0,1:0:0:0:
143,220,188742,2,0,L|197:238,1,57.1999973815919,0|0,1:0|2:0,2:2:0:0:
375,351,188914,5,4,3:1:0:0:
402,363,188999,1,0,1:0:0:0:
435,357,189085,1,0,1:0:0:0:
468,324,189171,1,0,1:0:0:0:
476,280,189256,1,0,1:0:0:0:
453,240,189342,1,0,1:0:0:0:
427,232,189428,5,0,1:0:0:0:
386,193,189514,1,0,1:0:0:0:
378,138,189599,1,0,1:0:0:0:
408,90,189685,1,0,1:0:0:0:
488,77,189771,6,0,B|428:63|428:63|400:26|400:26|324:13,1,184.799994360352,4|0,3:1|2:0,2:2:0:0:
289,9,190114,1,8,2:0:0:0:
64,48,190285,6,0,B|96:41|120:3|120:3|120:87|189:134,1,228.799989526368,2|0,2:0|3:0,2:2:0:0:
64,48,190799,1,8,2:0:0:0:
12,193,190971,6,0,B|142:156|87:268|225:227,1,228.799989526368,4|0,3:2|3:0,2:2:0:0:
347,28,191485,2,0,B|364:20|364:20|404:29|404:29|377:137,1,171.599992144776,10|0,2:0|2:0,2:2:0:0:
377,137,191828,2,0,B|412:128|412:128|423:113|423:113|472:100,1,105.599996777344,0|0,3:0|3:0,2:2:0:0:
319,264,192171,2,0,B|284:255|284:255|273:240|273:240|224:227,1,105.599996777344,8|2,2:0|3:2,2:2:0:0:
423,353,192514,5,4,3:1:0:0:
223,226,192685,2,0,P|171:226|131:259,1,105.599996777344,0|8,3:0|2:0,2:2:0:0:
16,112,193028,6,0,B|71:123|108:82|108:82|108:142|155:175,1,211.199993554688,4|0,3:2|3:0,2:2:0:0:
321,331,193542,2,0,B|375:337|422:355|422:355|483:333|466:270,1,211.199993554688,14|0,2:0|2:0,2:2:0:0:
399,132,194056,1,0,3:0:0:0:
466,270,194228,2,0,P|424:299|421:351,1,105.599996777344,8|0,2:0|2:0,2:2:0:0:
223,226,194571,1,2,3:2:0:0:
399,132,194742,1,0,3:0:0:0:
268,65,194914,5,0,1:0:0:0:
247,60,194999,1,0,1:0:0:0:
202,43,195085,5,0,1:0:0:0:
181,48,195171,1,0,1:0:0:0:
147,91,195256,6,0,B|82:73|82:73|60:38|60:38|0:18,1,171.599992144776,4|0,3:2|2:0,2:2:0:0:
1,19,195599,1,8,2:0:0:0:
223,226,195771,6,0,B|174:206|174:206|121:226|121:226|109:300|54:318,1,228.799989526368,2|0,3:2|3:0,2:2:0:0:
223,226,196285,1,8,2:0:0:0:
367,360,196456,6,0,B|442:320|436:218|436:218|462:235|468:268,1,228.799989526368,4|0,3:2|3:0,3:3:0:0:
325,185,196971,2,0,B|281:197|281:197|277:208|277:208|222:225,1,114.399994763184,10|2,2:0|2:0,0:0:0:0:
0,167,197314,1,2,3:2:0:0:
149,43,197485,1,0,3:0:0:0:
72,257,197656,6,0,B|131:277|131:277|151:322|151:322|207:341,1,171.599992144776,10|0,2:0|2:0,2:2:0:0:
281,370,197999,5,14,2:0:0:0:
219,139,198171,1,10,2:0:0:0:
219,139,198514,5,10,2:0:0:0:
467,209,198685,1,10,2:0:0:0:
467,209,199028,5,10,2:0:0:0:
222,225,199199,2,0,B|163:205|163:205|143:160|143:160|86:140,1,171.599992144776,12|0,2:0|2:0,2:2:0:0:
55,128,199542,1,0,3:0:0:0:
209,26,199714,2,0,P|247:65|242:120,1,114.399994763184,8|0,2:0|3:0,2:2:0:0:
207,341,200056,5,0,1:0:0:0:
233,308,200142,1,0,1:0:0:0:
271,299,200228,1,0,1:0:0:0:
305,309,200314,1,0,1:0:0:0:
352,340,200399,5,8,3:0:0:0:
373,335,200485,1,8,3:0:0:0:
426,321,200571,5,0,3:0:0:0:
447,316,200656,1,0,3:0:0:0:
501,303,200742,6,0,B|513:285|513:285|499:230|499:230|482:222|482:222|470:174|470:174|481:152,1,171.599992144776,4|0,3:2|2:0,2:2:0:0:
481,151,201085,1,10,2:0:0:0:
378,251,201256,2,0,B|314:249|272:208|272:208|275:276|231:308,1,228.799989526368,2|0,3:2|3:0,2:2:0:0:
221,75,201771,1,8,2:0:0:0:
231,308,201942,6,0,B|216:251|259:224|259:224|272:208|272:208|293:211|293:211|345:204|378:251,1,237.600000906372,4|0,3:2|3:0,2:2:0:0:
408,90,202456,6,0,B|401:104|401:104|359:93,1,59.400000226593,10|0,2:0|2:0,2:2:0:0:
221,75,202628,2,0,B|214:60|214:60|172:72,1,59.400000226593,2|0,2:0|2:0,2:2:0:0:
70,164,202799,2,0,B|46:151|46:151|65:66,1,114.399994763184,2|0,3:2|3:0,2:2:0:0:
84,346,203142,6,0,P|150:295|232:307,1,171.599992144776,8|0,2:0|2:0,2:2:0:0:
271,350,203485,1,4,3:1:0:0:
390,168,203656,2,0,B|446:155|446:155|469:206,1,114.399994763184,2|8,3:2|2:0,2:2:0:0:
469,206,203999,2,0,P|359:205|306:110,1,228.799989526368,6|0,3:2|3:0,2:2:0:0:
31,71,204514,6,0,B|71:69|107:53|107:53|170:84|149:152,1,198.000007553101,14|0,2:1|2:0,2:2:0:0:
132,166,204856,2,0,P|106:117|125:65,1,114.399994763184,0|0,2:0|3:0,2:2:0:0:
232,307,205199,2,0,B|212:286|208:255|208:255|159:217|101:247,1,171.599992144776,8|0,2:0|3:0,2:2:0:0:
96,272,205542,2,0,P|114:293|140:305,1,57.1999973815919,6|0,3:2|2:0,2:2:0:0:
306,110,205714,2,0,P|280:122|261:143,1,57.1999973815919,0|0,3:0|2:0,2:2:0:0:
232,307,205885,5,10,2:0:0:0:
253,302,205971,1,0,1:0:0:0:
316,286,206056,5,0,1:0:0:0:
337,281,206142,1,0,1:0:0:0:
386,272,206228,6,0,B|423:283|423:283|435:308|435:308|471:321,1,105.6,4|0,3:2|2:0,2:2:0:0:
503,237,206571,6,0,B|465:237|437:267|437:267|426:326|426:326|404:360|361:359,1,211.2,12|0,2:1|2:0,2:2:0:0:
316,286,206914,6,0,L|327:243,1,44,0|0,3:0|2:0,2:2:0:0:
279,75,207085,6,0,L|261:143,1,70.4,2|8,3:2|2:0,2:2:0:0:
140,305,207428,6,0,B|92:306|54:331|54:331|-16:304|2:218,1,228.799989526368,4|0,3:1|3:0,2:2:0:0:
31,71,207942,2,0,B|38:109|38:109|168:84,1,171.599992144776,14|0,2:0|2:0,2:2:0:0:
260,143,208285,2,0,B|264:117|264:117|351:134,1,114.399994763184,8|0,2:3|3:0,2:2:0:0:
429,150,208542,1,8,2:0:0:0:
450,154,208628,1,8,2:0:0:0:
283,255,208799,5,0,1:0:0:0:
283,255,208885,1,0,1:0:0:0:
283,255,208971,1,14,2:1:0:0:
481,340,209142,1,2,3:2:0:0:
350,133,209314,1,10,2:0:0:0:
297,370,209485,1,2,3:2:0:0:
179,163,209656,5,10,2:0:0:0:
420,242,209828,1,0,3:0:0:0:
361,8,209999,1,10,2:0:0:0:
283,255,210171,5,0,3:0:0:0:
283,255,210256,1,0,3:0:0:0:
283,255,210342,1,10,2:0:0:0:
107,70,210514,1,0,3:2:0:0:
82,328,210685,6,0,B|132:260|201:293|201:293|221:339|276:339,1,228.799989526368,10|10,2:0|2:0,2:2:0:0:
472,181,211199,1,0,3:0:0:0:
283,255,211371,1,10,2:0:0:0:
490,326,211542,5,0,3:0:0:0:
490,326,211628,1,0,3:0:0:0:
490,326,211714,1,14,2:2:0:0:
449,68,211885,1,0,3:0:0:0:
283,255,212056,1,10,2:0:0:0:
472,181,212228,1,0,3:0:0:0:
196,79,212399,5,10,2:0:0:0:
428,256,212571,1,0,3:0:0:0:
158,367,212742,1,10,2:0:0:0:
369,100,212914,1,2,1:2:0:0:
369,100,213771,6,0,B|359:130|359:130|288:108,1,105.6,2|0,3:2|2:0,2:2:0:0:
196,79,214114,1,0,1:0:0:0:
232,97,214199,1,0,1:0:0:0:
251,134,214285,1,0,1:0:0:0:
244,174,214371,1,0,1:0:0:0:
229,192,214456,6,0,B|181:180|181:180|178:173|178:173|130:162,1,105.6,4|0,3:2|2:0,2:2:0:0:
107,157,214799,1,8,2:0:0:0:
41,320,214971,2,0,B|26:349|26:349|105:384|162:314|128:249,1,228.799989526368,4|0,3:1|2:0,2:2:0:0:
288,108,215485,2,0,B|298:115|298:115|285:153,1,52.7999983886719,8|0,2:0|2:0,2:2:0:0:
442,226,215656,6,0,B|396:178|341:211|341:211|305:253|250:230,1,211.199993554688,4|0,3:2|2:0,2:2:0:0:
168,74,216171,2,0,B|116:65|116:65|62:108|90:171,1,171.599992144776,8|0,2:0|2:0,2:2:0:0:
25,228,216514,2,0,P|81:219|128:249,1,114.399994763184,0|0,3:0|3:0,2:2:0:0:
403,334,216856,1,8,2:0:0:0:
441,311,216942,1,0,1:0:0:0:
457,268,217028,1,0,1:0:0:0:
442,226,217114,1,0,1:0:0:0:
424,214,217199,5,6,3:1:0:0:
228,292,217371,2,0,B|188:282|188:282|170:260|170:260|126:247,1,114.399994763184,2|8,0:1|2:0,2:2:0:0:
34,335,217714,5,2,2:1:0:0:
2,196,217885,2,0,B|62:181|62:181|89:148|89:148|153:129,1,171.599992144776,2|0,3:1|2:0,2:2:0:0:
188,121,218228,1,8,2:0:0:0:
403,334,218399,6,0,B|458:354|458:354|508:316|511:252|511:252|475:216,1,228.799989526368,4|0,3:1|3:0,2:2:0:0:
316,46,218914,2,0,B|306:92|306:92|297:99|297:99|284:153,1,114.399994763184,8|0,2:0|2:0,2:2:0:0:
246,363,219256,5,2,3:2:0:0:
34,335,219428,1,0,3:0:0:0:
34,335,219514,1,0,3:0:0:0:
34,335,219599,2,0,B|19:289|19:289|47:222|47:222|31:173,1,171.599992144776,2|0,3:2|1:0,0:0:0:0:
31,173,219942,6,0,B|55:190|55:190|125:169|125:169|135:131|164:113,1,171.599992144776,4|0,3:1|2:0,2:2:0:0:
72,48,220285,6,0,B|55:53|55:53|64:91,1,57.1999973815919,8|0,2:0|2:0,2:2:0:0:
164,113,220456,2,0,B|206:109|206:109|252:144|252:144|274:211|226:242,1,211.199993554688,4|0,3:2|3:0,2:2:0:0:
164,113,220971,2,0,B|157:94|157:94|199:43|199:43|192:24,1,105.599996777344,8|0,2:0|2:0,2:2:0:0:
35,249,221314,5,0,3:2:0:0:
35,249,221485,2,0,B|98:222|144:260|144:260|155:307|210:321,1,211.199993554688,8|0,2:0|3:0,2:2:0:0:
210,321,221999,2,0,P|238:277|229:226,1,105.599996777344,8|0,2:0|3:0,2:2:0:0:
316,46,222342,2,0,P|307:97|335:140,1,105.599996777344,8|0,2:0|3:0,2:2:0:0:
501,279,222685,6,0,B|472:248|472:248|360:274,1,158.399995166016,4|0,3:1|2:0,2:2:0:0:
359,274,223028,2,0,L|368:222,1,52.7999983886719,8|0,2:0|2:0,2:2:0:0:
316,46,223199,6,0,B|308:82|308:82|169:55|169:55|163:87,1,211.199993554688,4|0,3:2|3:0,2:2:0:0:
35,249,223714,2,0,B|66:244|66:244|93:214|93:214|125:206,1,105.599996777344,8|0,2:0|2:0,2:2:0:0:
420,384,224056,6,0,B|365:355|349:307|349:307|319:345|255:342,1,211.199993554688,4|8,3:2|2:0,2:2:0:0:
368,222,224571,1,0,3:0:0:0:
316,46,224742,5,4,3:2:0:0:
281,57,224828,1,0,1:0:0:0:
257,85,224914,1,0,1:0:0:0:
250,121,224999,1,0,1:0:0:0:
262,155,225085,6,0,L|314:146,1,52.7999983886719,0|0,3:0|3:0,2:2:0:0:
420,212,225256,2,0,L|368:221,1,52.7999983886719,0|0,3:0|3:0,2:2:0:0:
255,342,225428,6,0,B|175:325|175:325|151:288|151:288|67:270,1,211.2,4|2,3:1|2:0,2:2:0:0:
227,243,226114,2,0,P|265:186|249:120,1,140.8,0|2,2:0|2:0,2:2:0:0:
79,33,226628,5,0,2:0:0:0:
79,33,226714,1,0,2:0:0:0:
79,33,226799,2,0,B|95:72|95:72|192:53,1,140.8,2|0,2:0|2:0,2:2:0:0:
255,241,227324,2,0,B|271:202|271:202|368:221,1,140.8,2|0,2:0|2:0,2:2:0:0:
432,86,227860,2,0,L|363:100,1,70.4,0|0,2:0|2:0,2:2:0:0:
255,241,228186,6,0,B|217:226|212:191|212:191|188:222|150:223,1,140.8,2|0,0:0|0:0,0:0:0:0:
60,52,228704,1,2,0:0:0:0:
60,52,228876,2,0,B|104:75|104:75|83:163,1,140.8,0|2,2:0|2:0,2:2:0:0:
45,259,229550,6,0,B|133:284|168:215|168:215|208:215|245:264|222:319,1,281.6,0|2,2:2|2:2,2:2:0:0:
432,86,230628,5,0,2:0:0:0:
455,168,230778,2,2,B|479:250|479:250|402:302|332:262|287:190|287:190|190:63|-48:63|-151:242|-68:522|216:484|296:355|249:214|168:215|168:215|133:284|46:260,1,1319.9999597168,2|0,2:2|2:0,2:1:0:0:
