osu file format v14

[General]
AudioFilename: audio.mp3
AudioLeadIn: 0
PreviewTime: 49028
Countdown: 0
SampleSet: Soft
StackLeniency: 0.7
Mode: 0
LetterboxInBreaks: 0
WidescreenStoryboard: 1

[Editor]
Bookmarks:16971,38914,49885,74571,85542,107485,118456,142456,142542,142628,154114,167828,176056,176142,176228,189771,213771,225428
DistanceSpacing: 0.2
BeatDivisor: 4
GridSize: 32
TimelineZoom: 2.1

[Metadata]
Title:ARCADIA ~Rakuen ni Fuku Kaze~
TitleUnicode:ARCADIA~楽園に吹く風~
Artist:canoue
ArtistUnicode:canoue
Creator:Kazato Asa
Version:Lasse's Expert
Source:アルカディアスの戦姫
Tags:Shizuku- Lasse Kowari Battle Princess of Arcadias no Ikusahime apollosoft nippon ichi software MANYO 日山尚 Hiyama Nao 霜月はるか Shimotsuki Haruka Shimotsukin シモツキン ルチカ Lucicca ed ending full version video game japanese
BeatmapID:2409795
BeatmapSetID:1151885

[Difficulty]
HPDrainRate:6
CircleSize:4.2
OverallDifficulty:8.6
ApproachRate:9.2
SliderMultiplier:1.7
SliderTickRate:1

[Events]
//Background and Video events
0,0,"80906465_p0.jpg"
//Break Periods
2,146085,153544
2,165285,167258
//Storyboard Layer 0 (Background)
//Storyboard Layer 1 (Fail)
//Storyboard Layer 2 (Pass)
//Storyboard Layer 3 (Foreground)
//Storyboard Layer 4 (Overlay)
//Storyboard Sound Samples

[TimingPoints]
514,342.857142857143,4,2,34,50,1,0
514,-133.333333333333,4,2,34,50,0,0
3085,-125,4,2,34,50,0,0
3942,-111.111111111111,4,2,34,50,0,0
4628,-100,4,2,34,60,0,0
5999,-90.9090909090909,4,2,34,65,0,0
8656,-90.9090909090909,4,2,34,65,0,0
8742,-90.9090909090909,4,2,34,65,0,0
15856,-90.9090909090909,4,2,34,50,0,0
15942,-90.9090909090909,4,2,34,65,0,0
16628,-125,4,2,34,60,0,0
16971,-111.111111111111,4,2,34,55,0,0
18599,-111.111111111111,4,2,34,40,0,0
18685,-111.111111111111,4,2,34,55,0,0
19628,-111.111111111111,4,2,34,40,0,0
19714,-111.111111111111,4,2,34,55,0,0
22714,-111.111111111111,4,2,34,40,0,0
22799,-111.111111111111,4,2,34,55,0,0
25114,-111.111111111111,4,2,34,40,0,0
25199,-111.111111111111,4,2,34,55,0,0
29571,-111.111111111111,4,2,34,40,0,0
29656,-111.111111111111,4,2,34,55,0,0
30599,-111.111111111111,4,2,34,40,0,0
30685,-111.111111111111,4,2,34,55,0,0
31971,-111.111111111111,4,2,34,40,0,0
32056,-111.111111111111,4,2,34,55,0,0
33342,-111.111111111111,4,2,34,40,0,0
33428,-111.111111111111,4,2,34,55,0,0
36085,-100,4,2,34,55,0,0
36171,-100,4,2,34,60,0,0
36942,-100,4,2,34,45,0,0
37028,-100,4,2,34,60,0,0
38828,-100,4,2,34,45,0,0
38914,-100,4,2,34,60,0,0
42942,-100,4,2,34,45,0,0
43028,-100,4,2,34,60,0,0
44399,-90.9090909090909,4,2,34,65,0,0
44656,-90.9090909090909,4,2,34,50,0,0
44742,-90.9090909090909,4,2,34,65,0,0
47142,-90.9090909090909,4,2,34,67,0,0
49542,-133.333333333333,4,2,34,62,0,0
49885,-83.3333333333333,4,2,34,70,0,1
65914,-83.3333333333333,4,2,34,70,0,1
65999,-83.3333333333333,4,2,34,70,0,1
69085,-76.9230769230769,4,2,34,72,0,1
73028,-90.9090909090909,4,2,34,55,0,0
73885,-125,4,2,34,55,0,0
74142,-125,4,2,34,30,0,0
74228,-133.333333333333,4,2,34,60,0,0
74571,-90.9090909090909,4,2,34,65,0,0
84428,-90.9090909090909,4,2,34,50,0,0
84514,-90.9090909090909,4,2,34,65,0,0
85199,-125,4,2,34,60,0,0
85542,-111.111111111111,4,2,34,55,0,0
87171,-111.111111111111,4,2,34,40,0,0
87256,-111.111111111111,4,2,34,55,0,0
88199,-111.111111111111,4,2,34,40,0,0
88285,-111.111111111111,4,2,34,55,0,0
91285,-111.111111111111,4,2,34,40,0,0
91371,-111.111111111111,4,2,34,55,0,0
93685,-111.111111111111,4,2,34,40,0,0
93771,-111.111111111111,4,2,34,55,0,0
98142,-111.111111111111,4,2,34,40,0,0
98228,-111.111111111111,4,2,34,55,0,0
99171,-111.111111111111,4,2,34,40,0,0
99256,-111.111111111111,4,2,34,55,0,0
100542,-111.111111111111,4,2,34,40,0,0
100628,-111.111111111111,4,2,34,55,0,0
101914,-111.111111111111,4,2,34,40,0,0
101999,-111.111111111111,4,2,34,55,0,0
104656,-100,4,2,34,55,0,0
104742,-100,4,2,34,60,0,0
105514,-100,4,2,34,45,0,0
105599,-100,4,2,34,60,0,0
106371,-100,4,2,34,45,0,0
106456,-100,4,2,34,60,0,0
107399,-100,4,2,34,60,0,0
107485,-100,4,2,34,60,0,0
107742,-100,4,2,34,45,0,0
107828,-100,4,2,34,60,0,0
111514,-100,4,2,34,45,0,0
111599,-100,4,2,34,60,0,0
112971,-90.9090909090909,4,2,34,65,0,0
115542,-90.9090909090909,4,2,34,67,0,0
117085,-90.9090909090909,4,2,34,65,0,0
117599,-90.9090909090909,4,2,34,64,0,0
118114,-90.9090909090909,4,2,34,66,0,0
118456,-83.3333333333333,4,2,34,70,0,1
134485,-83.3333333333333,4,2,34,70,0,1
134571,-83.3333333333333,4,2,34,70,0,1
137656,-76.9230769230769,4,2,34,72,0,1
141599,-90.9090909090909,4,2,34,50,0,0
142456,-111.111111111111,4,2,34,50,0,0
142799,-111.111111111111,4,2,34,55,0,0
143142,-90.9090909090909,4,2,34,58,0,0
143228,-90.9090909090909,4,2,34,20,0,0
145885,-90.9090909090909,4,2,99,28,0,0
154114,-142.857142857143,4,2,34,45,0,0
162342,-166.666666666667,4,2,34,48,0,0
162685,-166.666666666667,4,2,34,20,0,0
162856,-166.666666666667,4,2,34,48,0,0
163199,-166.666666666667,4,2,34,50,0,0
163714,-166.666666666667,4,2,34,48,0,0
164056,-166.666666666667,4,2,34,45,0,0
164571,-166.666666666667,4,2,34,40,0,0
164742,-166.666666666667,4,2,34,5,0,0
165085,-166.666666666667,4,2,99,40,0,0
167828,-90.9090909090909,4,2,34,65,0,0
170571,-125,4,2,34,65,0,0
174514,-90.9090909090909,4,2,34,65,0,0
176056,-83.3333333333333,4,2,34,70,0,1
181114,-83.3333333333333,4,2,34,70,0,1
181199,-83.3333333333333,4,2,34,70,0,1
184285,-76.9230769230769,4,2,34,72,0,1
189599,-111.111111111111,4,2,34,70,0,0
189771,-76.9230769230769,4,2,34,72,0,1
205799,-76.9230769230769,4,2,34,72,0,1
205885,-76.9230769230769,4,2,34,72,0,1
208971,-71.4285714285714,4,2,34,74,0,1
212914,-90.9090909090909,4,2,34,70,0,0
213771,-125,4,2,34,50,0,0
214028,-125,4,2,34,30,0,0
214114,-133.333333333333,4,2,34,60,0,0
214456,-90.9090909090909,4,2,34,65,0,0
222599,-90.9090909090909,4,2,34,50,0,0
222685,-90.9090909090909,4,2,34,65,0,0
224314,-90.9090909090909,4,2,34,50,0,0
224399,-90.9090909090909,4,2,34,65,0,0
225085,-125,4,2,34,60,0,0
225428,-333.333333333333,4,2,99,55,0,0
226799,347.826086956522,4,2,99,55,1,0
226799,-100,4,2,99,55,0,0
227146,357.142857142857,4,2,99,55,1,0
227146,-100,4,2,99,55,0,0
227324,361.44578313253,4,2,99,55,1,0
227324,-100,4,2,99,55,0,0
227685,350.877192982456,4,2,99,55,1,0
227685,-100,4,2,99,55,0,0
227860,335.195530726257,4,2,99,55,1,0
227860,-100,4,2,99,55,0,0
228027,318.725099601594,4,2,99,55,1,0
228027,-100,4,2,99,55,0,0
228186,345.821325648415,4,2,99,55,1,0
228186,-100,4,2,99,55,0,0
228704,344.827586206897,4,2,99,55,1,0
228704,-100,4,2,99,55,0,0
228876,330.578512396694,4,2,99,55,1,0
228876,-100,4,2,99,55,0,0
229041,320,4,2,99,55,1,0
229041,-100,4,2,99,55,0,0
229361,379.746835443038,4,2,99,55,1,0
229361,-100,4,2,99,55,0,0
229550,360.360360360361,4,2,99,55,1,0
229550,-100,4,2,99,55,0,0
229910,357.142857142858,4,2,99,55,1,0
229910,-100,4,2,99,55,0,0
230267,361.445783132531,4,2,99,55,1,0
230267,-100,4,2,99,55,0,0
230628,300,4,2,99,55,1,0
230628,-100,4,2,99,55,0,0
230778,342.857142857143,4,2,99,55,1,0
230778,-100,4,2,99,55,0,0
231635,-125,4,2,34,60,0,0
232320,-125,4,2,34,50,0,0
233006,-125,4,2,34,40,0,0
233692,-125,4,2,34,30,0,0
234378,-125,4,2,34,20,0,0
235063,-125,4,2,34,5,0,0

[Colours]
Combo1 : 237,198,139
Combo2 : 142,197,230
Combo3 : 224,210,160
Combo4 : 142,215,207

[HitObjects]
45,328,342,5,0,0:0:0:0:
45,328,428,1,0,0:0:0:0:
45,328,514,2,0,B|77:324|77:324|129:351|129:351|176:346,1,127.500004863739,2|0,0:0|0:0,0:0:0:0:
258,383,1028,2,0,P|242:324|265:249,1,127.500004863739,2|0,0:0|0:0,0:0:0:0:
379,335,1542,2,0,P|395:276|372:201,1,127.500004863739,2|0,0:0|0:0,0:0:0:0:
291,145,2056,2,0,B|158:134,1,127.500004863739,2|0,0:0|0:0,0:0:0:0:
164,148,2571,2,0,B|291:137,1,127.500004863739,2|0,0:0|0:0,0:0:0:0:
398,69,3085,6,0,B|423:86|430:113|430:113|339:38|211:47,1,272,2|0,0:0|0:0,0:0:0:0:
87,136,3942,6,0,B|60:147|33:120|33:120|95:80|85:17|85:17|61:29|58:75,1,229.499992996216,2|0,0:0|0:0,0:0:0:0:
187,186,4628,6,0,P|233:173|296:175,1,85,14|8,0:1|0:0,0:0:0:0:
269,171,4885,1,8,0:0:0:0:
269,171,4971,1,8,0:0:0:0:
413,296,5142,6,0,P|367:283|304:285,1,85,14|8,0:1|0:0,0:0:0:0:
331,281,5399,1,8,0:0:0:0:
331,281,5485,1,8,0:0:0:0:
194,351,5656,5,8,0:0:0:0:
186,322,5742,1,8,0:0:0:0:
182,360,5828,1,8,0:3:0:0:
174,331,5914,1,8,0:3:0:0:
170,369,5999,6,0,B|101:359|101:359|79:316|79:316|1:306,1,187.000005706787,14|8,0:1|0:0,0:0:0:0:
186,172,6514,2,0,P|179:93|266:5,1,187.000005706787,14|8,0:1|0:1,0:0:0:0:
511,103,7028,6,0,B|510:144|476:154|476:154|419:121|362:118,1,187.000005706787,14|0,0:0|0:0,0:0:0:0:
503,276,7542,1,8,0:1:0:0:
424,286,7714,2,0,B|393:325|393:325|438:327,1,93.5000028533936,10|0,0:0|0:0,0:0:0:0:
236,381,8056,2,0,B|280:378|280:378|250:339,1,93.5000028533936,10|8,0:1|0:1,0:0:0:0:
124,228,8399,2,0,B|79:230|79:230|109:269,1,93.5000028533936,10|8,0:0|0:0,0:0:0:0:
118,279,8656,1,8,0:0:0:0:
127,287,8742,5,14,0:1:0:0:
62,142,8914,2,0,B|53:125|53:125|59:74|59:74|39:41,1,93.5000028533936,2|8,0:0|0:0,0:0:0:0:
210,201,9256,5,14,0:1:0:0:
266,87,9428,2,0,B|275:70|275:70|270:27|270:27|288:-13,1,93.5000028533936,2|8,0:0|0:1,0:0:0:0:
475,152,9771,5,14,0:2:0:0:
475,152,9942,2,0,B|465:79|465:79|397:169,1,187.000005706787,2|0,0:0|3:1,0:0:0:0:
398,176,10371,1,0,3:0:0:0:
399,183,10456,1,0,3:2:0:0:
400,190,10542,1,0,3:0:0:0:
401,197,10628,1,0,3:0:0:0:
403,204,10714,1,0,3:0:0:0:
404,211,10799,2,0,B|393:228|379:240|379:240|370:220|381:186,1,93.5000028533936,10|8,0:1|0:1,0:0:0:0:
330,0,11142,5,8,0:0:0:0:
334,20,11228,1,8,0:0:0:0:
334,41,11314,1,8,0:3:0:0:
329,62,11399,1,8,0:3:0:0:
320,81,11485,6,0,B|286:95|286:95|258:38|206:21|206:21|158:45,1,187.000005706787,14|8,0:1|0:0,0:0:0:0:
126,177,11999,2,0,P|30:189|21:285,1,187.000005706787,14|8,0:1|0:1,0:0:0:0:
138,384,12514,5,14,0:0:0:0:
201,334,12685,1,2,3:0:0:0:
201,334,12771,1,0,3:0:0:0:
201,334,12856,2,0,L|213:219,1,93.5000028533936,8|8,0:0|0:1,0:0:0:0:
360,384,13199,2,0,L|350:269,1,93.5000028533936,2|8,0:0|0:0,0:0:0:0:
498,326,13542,2,0,L|509:210,1,93.5000028533936,2|8,0:0|0:1,0:0:0:0:
412,43,13885,5,10,0:0:0:0:
352,167,14056,1,8,0:0:0:0:
352,167,14142,1,8,0:0:0:0:
352,167,14228,2,0,B|350:189|373:207|373:207|404:140|339:81,1,187.000005706787,14|8,0:1|0:0,0:0:0:0:
175,28,14742,2,0,B|149:76|89:76|89:76|83:25|47:7,1,187.000005706787,14|8,0:1|0:1,0:0:0:0:
54,169,15256,2,0,P|21:208|37:271,1,93.5000028533936,10|0,0:0|0:0,0:0:0:0:
146,338,15599,6,0,B|183:312|231:328|231:328|241:353|262:366,1,140.25000428009,14|0,0:1|0:0,0:0:0:0:
276,380,15942,2,0,L|376:363,1,93.5000028533936,8|8,0:0|0:1,0:0:0:0:
512,265,16285,5,8,0:3:0:0:
478,289,16371,5,8,0:3:0:0:
437,286,16456,5,8,0:0:0:0:
408,256,16542,5,8,0:0:0:0:
407,214,16628,6,0,P|420:176|405:134,1,68,8|8,0:0|0:1,0:0:0:0:
341,21,16971,6,0,B|320:61|320:61|205:19,1,152.999995330811,14|8,0:1|0:0,0:0:0:0:
108,76,17485,2,0,B|76:81|76:81|113:43,1,76.4999976654053,2|0,0:0|0:0,0:0:0:0:
220,169,17828,2,0,B|252:174|252:174|215:136,1,76.4999976654053,10|8,0:1|0:0,0:0:0:0:
18,149,18171,5,2,0:0:0:0:
76,198,18342,2,0,B|141:186|121:239|187:254,1,114.749996498108,8|0,0:1|0:0,0:0:0:0:
177,262,18685,2,0,B|208:257|208:257|219:260|219:260|268:254,1,76.4999976654053,10|0,0:0|0:0,0:0:0:0:
404,222,19028,5,2,0:0:0:0:
404,222,19199,1,8,0:1:0:0:
485,367,19371,2,0,P|498:310|466:252,1,114.749996498108,10|0,0:0|0:0,0:0:0:0:
404,222,19714,6,0,B|368:246|368:246|393:129,1,152.999995330811,10|8,0:1|0:0,0:0:0:0:
433,17,20228,2,0,P|470:27|473:133,1,152.999995330811,2|8,0:0|0:1,0:1:0:0:
347,55,20742,2,0,B|314:45|314:45|308:35|308:35|262:19,1,76.4999976654053,8|0,0:0|0:0,0:0:0:0:
143,133,21085,6,0,P|129:62|191:23,1,152.999995330811,10|8,0:1|0:0,0:0:0:0:
245,138,21599,2,0,L|231:219,1,76.4999976654053,2|0,0:0|0:0,0:0:0:0:
29,300,21942,2,0,L|15:224,1,76.4999976654053,10|8,0:1|0:0,0:0:0:0:
335,379,22456,6,0,P|278:352|197:366,1,114.749996498108,14|0,0:1|0:0,0:0:0:0:
208,361,22799,1,10,0:0:0:0:
328,284,22971,2,0,B|359:270|370:254|370:254|318:218|346:141,1,152.999995330811,2|8,0:0|0:1,0:0:0:0:
467,69,23485,6,0,P|478:141|419:183,2,152.999995330811,10|8|8,0:0|0:1|0:0,0:0:0:0:
335,8,24342,2,0,B|311:53|311:53|187:17,1,152.999995330811,2|8,0:0|0:1,0:0:0:0:
82,13,24856,2,0,B|79:43|110:71|110:71|82:72|66:51,1,114.749996498108,8|0,0:0|0:0,0:0:0:0:
67,53,25199,6,0,P|113:56|128:160,1,152.999995330811,14|8,0:1|0:0,0:0:0:0:
47,277,25714,2,0,B|57:218|57:218|42:189|42:189|52:117,1,152.999995330811,14|0,0:1|0:0,0:0:0:0:
67,53,26228,1,10,0:0:0:0:
213,148,26399,6,0,B|181:145|181:145|172:151|172:151|134:145,1,76.4999976654053,14|0,0:1|0:0,0:0:0:0:
306,20,26742,2,0,B|274:23|274:23|265:17|265:17|231:21,1,76.4999976654053,10|8,0:1|0:0,0:0:0:0:
437,132,27085,2,0,P|443:94|432:58,1,76.4999976654053,2|8,0:0|0:1,0:0:0:0:
327,195,27428,2,0,P|320:232|331:268,1,76.4999976654053,10|8,0:1|0:0,0:0:0:0:
331,268,27942,6,0,B|297:260|297:260|227:301|227:301|188:291,1,152.999995330811,14|8,0:1|0:0,0:0:0:0:
67,383,28456,2,0,P|57:331|77:278,1,76.4999976654053,2|0,0:0|0:0,0:0:0:0:
197,367,28799,2,0,P|201:329|191:292,1,76.4999976654053,10|8,0:1|0:0,0:0:0:0:
90,144,29142,5,2,0:0:0:0:
27,218,29314,2,0,B|20:237|-4:243|-4:243|-15:202|6:165,1,114.749996498108,10|0,0:1|0:0,0:0:0:0:
17,157,29656,2,0,B|42:149|42:149|57:153|57:153|105:141,1,76.4999976654053,10|0,0:0|0:0,0:0:0:0:
191,47,29999,5,2,0:0:0:0:
191,47,30171,1,8,0:1:0:0:
264,176,30342,2,0,B|277:170|287:156|287:156|297:113|260:75,1,114.749996498108,10|0,0:0|0:0,0:0:0:0:
191,47,30685,6,0,B|160:34|160:34|86:61|86:61|34:46,1,152.999995330811,10|8,0:1|0:0,0:0:0:0:
82,186,31199,2,0,P|27:202|27:307,1,152.999995330811,2|8,0:1|0:1,0:0:0:0:
139,371,31714,2,0,B|170:363|170:363|192:318|192:318|229:305,1,114.749996498108,10|0,0:0|0:0,0:0:0:0:
222,307,32056,6,0,P|253:329|310:251,2,152.999995330811,10|10|2,0:1|0:0|0:0,0:0:0:0:
147,331,32914,1,8,0:1:0:0:
200,217,33085,2,0,B|226:184|226:184|193:92,1,114.749996498108,10|0,0:0|0:0,0:0:0:0:
161,38,33428,6,0,P|176:77|278:70,1,152.999995330811,14|8,0:1|0:0,0:0:0:0:
436,9,33942,2,0,B|485:33|486:93|464:122|464:122|434:107,1,152.999995330811,2|8,0:0|0:1,0:0:0:0:
341,199,34456,2,0,B|347:166|347:166|352:161|352:161|363:108,1,76.4999976654053,8|0,0:0|0:0,0:0:0:0:
470,300,34799,6,0,B|480:323|504:327|504:327|493:267|436:248,1,152.999995330811,10|8,0:1|0:0,0:0:0:0:
291,349,35314,2,0,B|281:372|257:377|257:377|268:316|323:299,1,152.999995330811,2|8,0:0|0:1,0:0:0:0:
440,380,35828,5,10,0:0:0:0:
508,87,36171,6,0,B|491:111|491:111|464:48|402:34|402:34|388:73,1,170,14|8,0:1|0:0,0:0:0:0:
312,183,36685,2,0,B|350:210|356:261|356:261|327:327,1,127.5,14|0,0:1|0:0,0:0:0:0:
290,348,37028,2,0,B|254:337|254:337|250:333|250:333|204:322,1,85,10|8,0:1|0:0,0:0:0:0:
0,114,37542,6,0,B|97:112|31:34|139:28,1,170,14|8,0:1|0:0,0:0:0:0:
225,172,38056,1,2,3:2:0:0:
225,172,38142,1,0,3:2:0:0:
225,172,38228,2,0,B|181:187|181:187|134:148,1,85,8|8,0:1|0:1,0:0:0:0:
334,24,38571,2,0,B|308:90|371:117|371:117|392:71,1,127.5,8|0,0:0|0:0,0:0:0:0:
443,73,38914,6,0,B|460:91|460:91|474:64|456:33,1,85,14|0,0:1|0:0,0:0:0:0:
341,191,39256,2,0,P|326:232|343:285,1,85,8|0,0:0|0:0,0:0:0:0:
383,374,39599,5,2,0:0:0:0:
256,322,39771,1,8,0:1:0:0:
133,381,39942,1,8,0:0:0:0:
7,333,40114,5,2,3:2:0:0:
7,333,40199,1,0,3:0:0:0:
7,333,40285,2,0,B|38:324|44:299|44:299|-10:252|17:156,1,170,8|8,0:1|0:0,0:0:0:0:
166,113,40799,2,0,P|186:188|114:219,1,170,2|8,0:0|0:1,0:0:0:0:
3,105,41314,2,0,B|13:75|13:75|11:62|11:62|24:17,1,85,10|0,0:0|0:0,0:0:0:0:
273,4,41656,6,0,B|267:67|313:81|313:81|284:51|298:-9,1,170,10|8,0:1|0:0,0:0:0:0:
427,26,42171,1,2,0:0:0:0:
427,26,42342,2,0,B|447:11|447:11|381:31,1,85,2|8,0:0|0:1,0:0:0:0:
304,119,42685,2,0,B|322:177|267:207|267:207|246:197,1,127.5,10|0,0:0|0:0,0:0:0:0:
187,152,43028,6,0,P|183:88|68:93,1,170,14|8,0:1|0:0,0:0:0:0:
0,204,43542,1,2,3:2:0:0:
0,204,43628,1,0,3:0:0:0:
0,204,43714,1,0,3:0:0:0:
139,277,43885,1,8,0:0:0:0:
12,377,44056,2,0,B|19:349|19:349|23:342|23:342|39:290,1,85,8|8,0:0|0:1,0:0:0:0:
132,101,44399,6,0,P|178:174|233:137,1,140.25000428009,14|0,0:1|0:0,0:0:0:0:
282,119,44742,2,0,L|295:14,1,93.5000028533936,10|8,0:0|0:1,0:0:0:0:
503,220,45085,2,0,L|490:115,1,93.5000028533936,10|8,0:2|0:1,0:1:0:0:
312,276,45428,1,10,0:0:0:0:
408,296,45599,5,10,0:1:0:0:
408,296,45685,1,8,0:1:0:0:
408,296,45771,1,8,0:0:0:0:
332,180,45942,1,8,0:1:0:0:
216,256,46114,1,8,0:0:0:0:
292,372,46285,1,8,0:1:0:0:
107,288,46456,6,0,B|70:283|70:283|59:286|59:286|2:277,1,93.5000028533936,10|8,0:2|0:1,0:0:0:0:
313,169,46799,2,0,B|350:164|350:164|361:167|361:167|418:158,1,93.5000028533936,10|8,0:0|0:1,0:0:0:0:
413,164,47056,1,8,0:1:0:0:
420,167,47142,6,0,P|424:120|415:74,1,93.5000028533936,10|8,0:2|0:1,0:0:0:0:
101,195,47485,2,0,P|97:241|106:287,1,93.5000028533936,10|8,0:0|0:1,0:0:0:0:
235,100,47828,5,10,0:0:0:0:
337,269,47999,1,8,0:1:0:0:
506,168,48171,1,8,0:0:0:0:
404,0,48342,1,10,0:1:0:0:
506,311,49542,5,8,0:0:0:0:
506,311,49628,1,8,0:0:0:0:
506,311,49714,2,0,L|465:304,1,31.8750012159348,8|0,0:3|0:3,0:0:0:0:
388,359,49885,6,0,B|424:365|424:365|380:315|415:260,1,152.999995330811,14|0,0:1|0:0,0:0:0:0:
457,197,50228,1,8,0:0:0:0:
411,27,50399,2,0,B|448:83|419:150|362:154|362:154|353:127|325:115,1,203.999993774414,10|8,0:1|0:1,0:0:0:0:
333,115,50828,2,0,P|320:135|328:170,1,50.9999984436036,8|8,0:1|0:0,0:0:0:0:
179,348,51085,5,10,0:1:0:0:
272,356,51256,2,0,B|312:349|312:349|320:351|320:351|376:343,1,101.999996887207,2|8,0:0|0:1,0:0:0:0:
127,279,51599,5,10,0:0:0:0:
127,279,51771,2,0,B|80:316|90:378|90:378|48:328|85:282,1,203.999993774414,10|8,0:1|0:1,0:0:0:0:
85,286,52199,2,0,P|107:255|111:230,1,50.9999984436036,8|8,0:1|0:0,0:0:0:0:
72,7,52456,5,2,0:0:0:0:
145,60,52628,2,0,B|186:81|186:81|252:86|287:22,1,152.999995330811,14|0,0:1|0:0,0:0:0:0:
284,29,52971,1,10,0:0:0:0:
385,144,53142,2,0,B|410:199|384:251|329:268|329:268|276:224,1,203.999993774414,14|8,0:1|0:1,0:0:0:0:
112,37,53656,6,0,B|57:95|90:182|141:202|141:202|125:160|85:144|38:164,1,305.999990661621,14|8,0:0|0:1,0:0:0:0:
43,166,54256,1,8,0:1:0:0:
36,173,54342,2,0,P|20:234|39:274,1,101.999996887207,10|0,0:0|0:0,0:0:0:0:
201,384,54685,5,10,0:1:0:0:
262,208,54856,1,8,0:1:0:0:
382,348,55028,1,10,0:0:0:0:
473,280,55199,5,8,0:0:0:0:
473,280,55285,1,8,0:0:0:0:
473,280,55371,2,0,B|499:281|503:253|503:253|448:220|473:149,1,152.999995330811,14|0,0:1|0:0,0:0:0:0:
494,92,55714,1,10,0:0:0:0:
354,0,55885,2,0,B|399:51|364:121|313:138|313:138|261:85,1,203.999993774414,10|8,0:1|0:1,0:0:0:0:
281,106,56314,2,0,P|260:85|218:70,1,50.9999984436036,8|8,0:1|0:0,0:0:0:0:
0,182,56571,5,14,0:1:0:0:
33,254,56742,2,0,B|42:283|74:283|74:283|54:262|56:234,1,101.999996887207,2|8,0:0|0:1,0:0:0:0:
241,75,57085,5,10,0:0:0:0:
156,156,57256,1,2,2:2:0:0:
156,156,57342,1,2,2:2:0:0:
156,156,57428,2,0,B|141:184|108:175|108:175|119:148|159:143,1,101.999996887207,10|8,0:1|0:1,0:0:0:0:
358,283,57771,2,0,B|373:311|405:302|405:302|393:272|355:267,1,101.999996887207,10|0,0:0|0:0,0:0:0:0:
182,384,58114,5,14,0:0:0:0:
220,244,58285,1,10,0:0:0:0:
465,198,58628,5,10,0:0:0:0:
418,15,58799,1,10,0:0:0:0:
147,92,59142,5,10,0:0:0:0:
220,244,59314,2,0,B|244:280|244:280|299:206|299:206|249:118,1,203.999993774414,14|8,0:1|0:1,0:0:0:0:
259,138,59742,2,0,B|251:124|251:124|251:117|251:117|236:88,1,50.9999984436036,8|8,0:1|0:0,0:0:0:0:
26,15,59999,5,8,0:1:0:0:
29,24,60085,5,8,0:1:0:0:
32,38,60171,5,8,0:0:0:0:
30,58,60256,5,8,0:0:0:0:
18,80,60342,5,8,0:3:0:0:
5,108,60428,5,8,0:3:0:0:
9,143,60514,5,8,0:0:0:0:
37,172,60599,5,8,0:0:0:0:
81,180,60685,5,8,0:0:0:0:
124,153,60771,5,8,0:0:0:0:
147,103,60856,6,0,B|161:39|114:20|114:20|129:44|125:76,1,152.999995330811,14|0,0:1|0:0,0:0:0:0:
52,62,61199,1,10,0:0:0:0:
204,162,61371,2,0,B|220:196|264:196|264:196|220:132|268:76,1,203.999993774414,10|8,0:1|0:1,0:0:0:0:
277,71,61799,2,0,B|301:64|301:64|303:61|303:61|345:48,1,50.9999984436036,8|8,0:1|0:0,0:0:0:0:
512,338,62056,5,14,0:1:0:0:
439,308,62228,2,0,B|425:269|425:269|427:247|427:247|411:207,1,101.999996887207,2|8,0:0|0:1,0:0:0:0:
329,58,62571,1,10,0:0:0:0:
329,58,62742,2,0,B|366:73|366:73|381:132|317:190|259:142,1,203.999993774414,10|8,0:1|0:1,0:0:0:0:
257,139,63171,2,0,L|239:86,1,50.9999984436036,8|8,0:1|0:0,0:0:0:0:
0,306,63428,5,2,0:0:0:0:
69,353,63599,2,0,B|94:384|128:374|128:374|60:344|73:259,1,203.999993774414,14|8,0:1|0:0,0:0:0:0:
257,139,64114,2,0,B|313:182|293:264|239:284|239:284|216:268,1,203.999993774414,14|8,0:1|0:1,0:0:0:0:
18,75,64628,6,0,B|27:162|101:179|162:142|162:142|158:80|218:46,1,305.999990661621,14|8,0:0|0:1,0:0:0:0:
220,47,65228,1,8,0:1:0:0:
230,45,65314,2,0,B|247:62|274:56|274:56|267:24|228:27,1,101.999996887207,8|0,0:0|0:0,0:0:0:0:
51,169,65656,5,10,0:1:0:0:
51,169,65828,1,8,0:1:0:0:
193,265,65999,5,8,0:0:0:0:
225,254,66085,1,8,0:0:0:0:
257,243,66171,1,8,0:1:0:0:
376,384,66342,6,0,B|371:361|359:341|359:341|350:295|381:290|384:240|384:240|366:223|357:196,1,203.999993774414,14|8,0:1|0:0,0:0:0:0:
388,17,66856,2,0,P|405:107|494:86,1,203.999993774414,10|8,0:1|0:1,0:0:0:0:
501,79,67285,2,0,L|494:24,1,50.9999984436036,8|8,0:1|0:0,0:0:0:0:
357,196,67542,6,0,B|395:255|357:320|304:328|304:328|268:289,1,203.999993774414,14|8,0:1|0:1,0:0:0:0:
147,186,68056,2,0,B|192:179|192:179|202:182|202:182|249:175,1,101.999996887207,10|0,0:0|0:0,0:0:0:0:
59,42,68399,2,0,B|104:35|104:35|114:38|114:38|161:31,1,101.999996887207,10|8,0:1|0:0,0:0:0:0:
165,40,68656,1,8,0:0:0:0:
172,47,68742,2,0,B|217:40|217:40|227:43|227:43|274:36,1,101.999996887207,10|8,0:0|0:1,0:0:0:0:
462,0,69085,5,14,0:0:0:0:
360,227,69256,1,8,0:1:0:0:
471,261,69428,5,10,0:0:0:0:
367,38,69599,1,8,0:1:0:0:
220,156,69771,5,8,0:0:0:0:
282,237,69942,2,0,B|327:270|327:270|360:226,1,110.499994941712,10|8,0:1|0:0,0:0:0:0:
186,61,70285,5,10,0:1:0:0:
186,61,70371,1,8,0:1:0:0:
186,61,70456,1,8,0:0:0:0:
154,272,70628,1,10,0:1:0:0:
2,176,70799,2,0,B|104:164|104:164|112:169|112:169|221:156,2,220.999989883423,10|8|8,0:0|0:0|0:0,0:0:0:0:
252,383,71656,5,10,0:1:0:0:
252,383,71742,1,8,0:1:0:0:
252,383,71828,1,12,0:0:0:0:
298,172,71999,1,8,0:1:0:0:
384,323,72171,5,10,0:0:0:0:
243,87,72342,1,8,0:1:0:0:
215,241,72514,5,10,0:0:0:0:
357,0,72685,1,10,0:1:0:0:
357,0,72771,1,8,0:1:0:0:
357,0,72856,1,8,0:0:0:0:
492,348,73028,5,14,0:1:0:0:
492,348,73885,6,0,B|513:360|513:360|520:317|476:286,1,102,2|0,0:0|0:0,0:0:0:0:
414,263,74228,2,0,L|385:274,2,31.8750012159348,8|8|8,0:0|0:0|0:1,0:0:0:0:
501,64,74571,6,0,B|488:115|488:115|333:74,1,187.000005706787,14|8,0:1|0:0,0:0:0:0:
239,182,75085,2,0,P|207:99|267:8,1,187.000005706787,14|8,0:1|0:1,0:0:0:0:
368,203,75599,6,0,B|400:215|412:245|412:245|414:315|352:381,1,187.000005706787,14|0,0:0|0:0,0:0:0:0:
168,261,76114,1,8,0:1:0:0:
105,334,76285,2,0,B|88:356|88:382|88:382|115:378|122:347,1,93.5000028533936,10|0,0:0|0:0,0:0:0:0:
62,180,76628,2,0,B|56:156|31:155|31:155|31:181|48:203,1,93.5000028533936,10|8,0:1|0:1,0:0:0:0:
168,261,76971,5,8,0:0:0:0:
200,243,77056,1,8,0:0:0:0:
237,245,77142,1,8,0:0:0:0:
271,260,77228,1,8,0:0:0:0:
292,291,77314,5,14,0:1:0:0:
236,162,77485,2,0,B|227:145|227:145|235:100|235:100|213:61,1,93.5000028533936,2|8,0:0|0:2,0:0:0:0:
428,233,77828,5,14,0:1:0:0:
488,133,77999,2,0,B|497:116|497:116|492:73|492:73|510:30,1,93.5000028533936,2|8,0:0|0:1,0:0:0:0:
314,138,78342,5,14,0:0:0:0:
314,138,78514,2,0,B|358:163|358:163|393:145|418:83|377:45,1,187.000005706787,10|0,0:1|3:0,0:0:0:0:
372,41,78942,1,0,3:0:0:0:
365,37,79028,1,0,3:0:0:0:
358,34,79114,1,0,3:0:0:0:
351,32,79199,1,0,3:0:0:0:
343,32,79285,1,0,3:0:0:0:
336,33,79371,2,0,B|303:26|303:26|287:34|287:34|230:24,1,93.5000028533936,10|8,0:1|0:1,0:0:0:0:
61,124,79714,5,8,0:0:0:0:
58,101,79799,1,8,0:0:0:0:
60,78,79885,1,8,0:0:0:0:
68,56,79971,1,8,0:0:0:0:
79,36,80056,6,0,B|113:20|185:30|181:122|181:122|169:110|145:93,1,187.000005706787,14|8,0:1|0:0,0:0:0:0:
33,252,80571,2,0,B|15:255|6:266|6:266|36:314|106:331|150:282,1,187.000005706787,14|8,0:1|0:1,0:0:0:0:
351,179,81085,5,14,0:0:0:0:
285,224,81256,1,2,3:2:0:0:
285,224,81342,1,0,3:0:0:0:
285,224,81428,2,0,B|238:231|238:231|190:209,1,93.5000028533936,8|8,0:0|0:1,0:0:0:0:
345,99,81771,2,0,B|362:54|362:54|405:24,1,93.5000028533936,2|8,0:1|0:0,0:0:0:0:
423,213,82114,2,0,B|452:250|452:250|457:302,1,93.5000028533936,2|8,0:0|0:1,0:0:0:0:
285,224,82456,2,0,B|238:231|238:231|196:211,1,93.5000028533936,10|0,0:0|0:0,0:0:0:0:
17,138,82799,6,0,B|13:166|-7:178|-7:178|-22:148|-9:80|41:61,1,187.000005706787,14|8,0:1|0:0,0:0:0:0:
222,0,83314,2,0,B|224:78|306:75|306:75|323:43|363:29,1,187.000005706787,10|8,0:1|0:1,0:0:0:0:
499,136,83828,2,0,P|500:88|469:54,1,93.5000028533936,10|0,0:0|0:0,0:0:0:0:
324,199,84171,6,0,B|299:231|301:274|329:305|329:305|293:277,1,140.25000428009,14|0,0:1|0:0,0:0:0:0:
295,282,84514,2,0,P|268:271|200:266,1,93.5000028533936,10|0,0:0|0:0,0:0:0:0:
6,360,84856,5,8,0:3:0:0:
40,384,84942,5,8,0:3:0:0:
81,381,85028,5,8,0:0:0:0:
110,351,85114,5,8,0:0:0:0:
111,309,85199,6,0,B|98:279|98:279|110:222,1,68,8|8,0:0|0:1,0:0:0:0:
179,167,85542,6,0,B|200:187|230:187|230:187|264:151|317:150,1,152.999995330811,14|8,0:1|0:0,0:0:0:0:
469,215,86056,2,0,B|482:230|498:227|498:227|488:204|465:200,1,76.4999976654053,2|0,0:0|0:1,0:0:0:0:
312,240,86399,2,0,B|289:243|279:266|279:266|295:269|308:254,1,76.4999976654053,10|8,0:1|0:2,0:1:0:0:
466,201,86742,5,2,0:0:0:0:
411,146,86914,2,0,P|394:91|411:29,1,114.749996498108,10|0,0:1|0:0,0:0:0:0:
406,36,87256,2,0,B|379:62|379:62|329:56,1,76.4999976654053,10|0,0:0|0:0,0:0:0:0:
201,9,87599,5,2,0:0:0:0:
201,9,87771,1,8,0:1:0:0:
167,161,87942,2,0,P|201:99|256:113,1,114.749996498108,10|0,0:0|0:0,0:0:0:0:
306,129,88285,6,0,B|323:138|336:158|336:158|380:105|334:49,1,152.999995330811,10|8,0:1|0:0,0:0:0:0:
266,197,88799,2,0,B|248:223|244:239|244:239|249:300|306:350,1,152.999995330811,2|8,0:1|0:1,0:0:0:0:
388,384,89314,1,8,0:0:0:0:
388,384,89485,1,0,0:0:0:0:
287,332,89656,6,0,P|254:378|173:352,1,152.999995330811,10|8,0:1|0:0,0:0:0:0:
116,243,90171,2,0,L|126:165,1,76.4999976654053,2|0,0:0|0:0,0:0:0:0:
6,296,90514,2,0,L|16:218,1,76.4999976654053,10|8,0:1|0:0,0:0:0:0:
246,20,91028,6,0,P|302:37|357:21,1,114.749996498108,14|0,0:1|0:0,0:0:0:0:
368,15,91371,1,10,0:0:0:0:
466,88,91542,2,0,B|483:146|438:176|438:176|445:156|436:124,1,152.999995330811,2|8,0:0|0:1,0:0:0:0:
272,55,92056,6,0,P|277:121|358:150,2,152.999995330811,10|8|8,0:0|0:1|0:0,0:0:0:0:
126,0,92914,2,0,B|153:20|153:20|159:92|82:124,1,152.999995330811,2|8,0:0|0:1,0:0:0:0:
22,258,93428,2,0,B|9:210|51:186|51:186|29:210|38:235,1,114.749996498108,10|0,0:0|0:0,0:0:0:0:
107,238,93771,6,0,P|180:222|186:140,1,152.999995330811,14|8,0:1|0:0,0:0:0:0:
265,0,94285,2,0,B|246:64|281:92|281:92|274:64|292:35,1,152.999995330811,14|0,0:1|0:0,0:0:0:0:
376,0,94799,1,10,0:0:0:0:
466,127,94971,6,0,B|435:123|435:123|424:129|424:129|383:125,1,76.4999976654053,14|0,0:1|0:0,0:0:0:0:
281,223,95314,2,0,B|312:220|312:220|323:225|323:225|361:222,1,76.4999976654053,10|8,0:1|0:0,0:0:0:0:
492,308,95656,2,0,B|465:305|465:305|450:310|450:310|414:306,1,76.4999976654053,2|8,0:0|0:1,0:0:0:0:
329,384,95999,1,10,0:1:0:0:
218,271,96171,1,2,1:2:0:0:
220,280,96256,1,0,1:0:0:0:
223,289,96342,1,0,1:0:0:0:
225,298,96428,1,0,1:0:0:0:
228,307,96514,6,0,B|271:320|271:320|299:272|299:272|272:198,1,152.999995330811,14|8,0:1|0:0,0:0:0:0:
174,155,97028,2,0,L|78:143,1,76.4999976654053,2|0,0:0|0:0,0:0:0:0:
203,38,97371,2,0,L|299:26,1,76.4999976654053,10|8,0:1|0:0,0:0:0:0:
421,119,97714,5,2,0:0:0:0:
488,186,97885,2,0,B|500:197|520:204|520:204|532:158|507:130,1,114.749996498108,10|0,0:1|0:0,0:0:0:0:
496,120,98228,2,0,B|470:117|470:117|457:124|457:124|408:118,1,76.4999976654053,10|0,0:0|0:0,0:0:0:0:
253,98,98571,5,2,0:0:0:0:
253,98,98742,1,8,0:1:0:0:
327,154,98914,2,0,B|353:173|353:173|328:134|342:94,1,114.749996498108,10|0,0:0|0:0,0:0:0:0:
390,31,99256,6,0,B|427:16|467:56|451:106|451:106|421:119,1,152.999995330811,10|8,0:1|0:0,0:0:0:0:
253,98,99771,2,0,P|198:114|234:208,1,152.999995330811,2|8,0:0|0:1,0:0:0:0:
308,314,100285,2,0,B|326:321|326:321|357:251|357:251|377:257,1,114.749996498108,8|0,0:0|0:0,0:0:0:0:
375,256,100628,6,0,P|406:278|470:205,2,152.999995330811,10|10|2,0:1|0:0|0:0,0:0:0:0:
304,311,101485,1,8,0:1:0:0:
266,196,101656,2,0,B|258:164|258:164|268:126|268:126|252:71,1,114.749996498108,10|0,0:0|0:0,0:0:0:0:
219,11,101999,6,0,P|216:58|115:59,1,152.999995330811,14|8,0:1|0:0,0:0:0:0:
40,151,102514,2,0,B|18:173|18:173|-2:151|-10:92|44:58,1,152.999995330811,2|8,0:0|0:1,0:0:0:0:
129,157,103028,2,0,B|135:190|135:190|138:198|138:198|148:250,1,76.4999976654053,10|0,0:0|0:0,0:0:0:0:
34,348,103371,6,0,B|19:370|-5:374|-5:374|2:312|58:296,1,152.999995330811,10|8,0:1|0:0,0:0:0:0:
227,384,103885,1,2,0:0:0:0:
280,327,104056,2,0,P|281:283|261:248,1,76.4999976654053,2|8,0:0|0:1,0:0:0:0:
111,133,104399,5,10,0:0:0:0:
439,64,104742,6,0,B|425:83|425:83|408:14|336:6|336:6|343:11|354:23,1,170,14|8,0:1|0:0,0:0:0:0:
272,148,105256,2,0,P|265:204|182:191,1,127.5,14|0,0:1|0:0,0:0:0:0:
190,204,105599,2,0,B|180:173|180:173|181:161|181:161|165:108,1,85,10|8,0:1|0:0,0:0:0:0:
367,310,106114,6,0,P|374:366|457:353,1,127.5,14|0,0:1|0:0,0:0:0:0:
449,366,106456,2,0,B|459:335|459:335|458:323|458:323|474:270,1,85,10|0,0:0|0:0,0:0:0:0:
371,182,106799,2,0,B|415:188|415:188|447:162,1,85,10|8,0:1|0:0,0:0:0:0:
453,158,107056,1,8,0:0:0:0:
457,150,107142,2,0,B|447:119|447:119|448:107|448:107|432:54,1,85,8|8,0:0|0:1,0:0:0:0:
257,7,107485,6,0,P|233:60|163:34,1,127.5,14|0,0:1|0:0,0:0:0:0:
163,42,107828,2,0,P|124:24|81:26,1,85,10|0,0:0|0:0,0:0:0:0:
0,177,108171,5,2,0:0:0:0:
141,145,108342,1,8,0:1:0:0:
205,273,108514,1,8,0:0:0:0:
84,341,108685,5,2,3:2:0:0:
84,341,108771,1,0,3:2:0:0:
84,341,108856,2,0,B|31:313|31:313|83:190,1,170,8|8,0:1|0:0,0:0:0:0:
187,78,109371,2,0,B|154:114|161:166|222:182|222:182|236:166|261:154,1,170,2|8,0:0|0:1,0:0:0:0:
343,86,109885,2,0,P|349:47|329:1,1,85,10|0,0:0|0:0,0:0:0:0:
247,161,110228,6,0,B|242:213|287:238|287:238|299:283|267:309,1,170,10|8,0:1|0:0,0:0:0:0:
146,380,110742,1,2,0:1:0:0:
145,379,110914,2,0,P|130:341|134:299,1,85,2|8,0:0|0:1,0:0:0:0:
101,131,111256,2,0,B|115:181|61:215|61:215|47:193,1,127.5,10|0,0:0|0:0,0:0:0:0:
36,181,111599,6,0,P|21:133|108:45,1,170,10|8,0:1|0:0,0:0:0:0:
251,10,112114,1,2,3:2:0:0:
251,10,112199,1,0,3:0:0:0:
251,10,112285,1,8,0:1:0:0:
171,159,112456,1,8,0:1:0:0:
277,238,112628,2,0,B|284:210|284:210|288:203|288:203|287:198|287:198|301:149,1,85,8|0,0:0|0:0,0:0:0:0:
469,69,112971,6,0,P|424:79|384:58,1,93.5000028533936,14|8,0:2|0:1,0:0:0:0:
214,168,113314,2,0,P|258:178|298:157,1,93.5000028533936,10|8,0:0|0:1,0:0:0:0:
473,284,113656,2,0,P|428:294|388:273,1,93.5000028533936,10|8,0:0|0:1,0:0:0:0:
299,156,113999,1,10,0:0:0:0:
274,254,114171,5,10,0:1:0:0:
274,254,114256,1,8,0:1:0:0:
274,254,114342,1,8,0:0:0:0:
395,183,114514,1,8,0:1:0:0:
323,59,114685,1,8,0:0:0:0:
201,131,114856,1,8,0:1:0:0:
62,101,115028,6,0,P|48:52|68:3,1,93.5000028533936,10|8,0:0|0:1,0:0:0:0:
60,12,115285,1,8,0:1:0:0:
60,12,115371,1,8,0:0:0:0:
208,139,115542,5,10,0:1:0:0:
208,139,115628,1,8,0:1:0:0:
208,139,115714,2,0,P|222:188|202:237,1,93.5000028533936,14|8,0:0|0:1,0:0:0:0:
4,384,116056,2,0,P|-10:335|10:286,1,93.5000028533936,10|8,0:0|0:1,0:0:0:0:
208,139,116399,5,10,0:0:0:0:
314,314,116571,1,8,0:1:0:0:
489,209,116742,1,8,0:0:0:0:
383,34,116914,1,10,0:1:0:0:
313,162,117085,5,8,0:0:0:0:
309,170,117171,1,8,0:3:0:0:
217,28,117342,5,8,0:1:0:0:
230,5,117428,1,12,0:0:0:0:
124,151,117599,5,8,0:1:0:0:
102,160,117685,1,8,0:1:0:0:
78,159,117771,1,8,0:1:0:0:
55,154,117856,1,8,0:1:0:0:
32,146,117942,2,0,P|20:117|27:85,1,46.7500014266968,14|0,0:0|0:0,0:0:0:0:
204,3,118114,5,8,0:0:0:0:
217,28,118199,5,8,0:0:0:0:
246,51,118285,5,8,0:0:0:0:
292,56,118371,5,8,0:0:0:0:
343,35,118456,6,0,B|378:-11|438:14|438:14|411:12|391:24,1,152.999995330811,14|0,0:1|0:0,0:0:0:0:
429,88,118799,1,8,0:0:0:0:
319,218,118971,2,0,B|287:233|258:228|258:228|211:160|274:86,1,203.999993774414,10|8,0:1|0:1,0:0:0:0:
274,93,119399,2,0,P|289:112|280:135,1,50.9999984436036,8|8,0:1|0:0,0:0:0:0:
44,320,119656,5,14,0:1:0:0:
23,245,119828,2,0,B|13:206|13:206|14:197|14:197|0:145,1,101.999996887207,2|8,0:0|0:1,0:0:0:0:
169,0,120171,5,10,0:0:0:0:
184,110,120342,2,0,P|141:140|97:32,1,203.999993774414,10|8,0:1|0:1,0:0:0:0:
98,34,120771,2,0,L|154:26,1,50.9999984436036,8|8,0:1|0:0,0:0:0:0:
296,166,121028,5,2,0:0:0:0:
383,119,121199,2,0,B|413:100|413:100|427:67|412:16|360:11,1,152.999995330811,14|0,0:1|0:0,0:0:0:0:
354,15,121542,1,10,0:0:0:0:
296,166,121714,2,0,B|254:249|315:308|315:308|294:291|270:288,1,203.999993774414,14|8,0:1|0:1,0:0:0:0:
75,350,122228,6,0,B|58:390|1:391|-46:365|-55:286|-20:209|64:191,1,305.999990661621,14|8,0:0|0:1,0:0:0:0:
65,192,122828,1,8,0:1:0:0:
74,194,122914,2,0,B|108:199|108:199|119:208|119:208|186:219,1,101.999996887207,10|0,0:0|0:0,0:0:0:0:
298,344,123256,5,10,0:1:0:0:
364,153,123428,1,8,0:1:0:0:
494,304,123599,1,10,0:0:0:0:
389,384,123771,5,8,0:0:0:0:
389,384,123856,1,8,0:0:0:0:
389,384,123942,2,0,B|395:329|395:329|380:291|380:291|390:231,1,152.999995330811,14|0,0:1|0:0,0:0:0:0:
393,225,124285,1,10,0:0:0:0:
492,99,124456,2,0,B|498:131|488:158|457:171|457:171|481:139|489:100|459:65,1,203.999993774414,10|8,0:1|0:1,0:0:0:0:
452,59,124885,2,0,P|421:43|381:38,1,50.9999984436036,8|8,0:1|0:0,0:0:0:0:
172,69,125142,5,14,0:1:0:0:
214,146,125314,2,0,B|225:175|250:187|250:187|250:170|226:144,1,101.999996887207,2|8,0:0|0:1,0:0:0:0:
163,48,125656,5,10,0:0:0:0:
102,167,125828,1,2,2:2:0:0:
102,167,125914,1,2,2:2:0:0:
102,167,125999,2,0,B|90:196|65:208|65:208|65:191|85:169,1,101.999996887207,10|8,0:1|0:1,0:0:0:0:
227,277,126342,2,0,B|239:306|264:318|264:318|264:301|244:279,1,101.999996887207,10|0,0:0|0:0,0:0:0:0:
14,115,126685,5,14,0:0:0:0:
27,290,126856,1,10,0:0:0:0:
212,384,127199,5,10,0:0:0:0:
245,157,127371,1,10,0:0:0:0:
404,31,127714,5,10,0:0:0:0:
467,184,127885,2,0,B|499:222|499:222|550:132|476:75,1,203.999993774414,14|8,0:1|0:1,0:0:0:0:
475,77,128314,2,0,B|452:71|452:71|447:73|447:73|425:68,1,50.9999984436036,8|8,0:1|0:0,0:0:0:0:
203,225,128571,5,8,0:1:0:0:
209,232,128656,5,8,0:1:0:0:
215,246,128742,5,8,0:0:0:0:
218,267,128828,5,8,0:0:0:0:
213,292,128914,5,8,0:3:0:0:
207,325,128999,5,8,0:3:0:0:
223,359,129085,5,8,0:0:0:0:
257,380,129171,5,8,0:0:0:0:
302,379,129256,5,8,0:0:0:0:
342,338,129342,5,8,0:0:0:0:
351,281,129428,6,0,B|352:221|319:196|319:196|342:220|340:251,1,152.999995330811,14|0,0:1|0:0,0:0:0:0:
268,250,129771,1,10,0:0:0:0:
423,358,129942,2,0,B|462:374|462:374|505:366|543:287|481:235,1,203.999993774414,10|8,0:1|0:1,0:0:0:0:
481,235,130371,2,0,B|460:228|460:228|452:230|452:230|432:224,1,50.9999984436036,8|8,0:1|0:0,0:0:0:0:
231,21,130628,5,14,0:1:0:0:
287,123,130799,2,0,B|311:146|311:146|271:79,1,101.999996887207,2|8,0:0|0:1,0:0:0:0:
75,16,131142,1,10,0:0:0:0:
75,16,131314,2,0,B|22:56|29:141|74:163|74:163|92:160|113:148,1,203.999993774414,10|8,0:1|0:1,0:0:0:0:
114,150,131742,2,0,P|123:123|121:96,1,50.9999984436036,8|8,0:1|0:0,0:0:0:0:
0,339,131999,5,2,0:0:0:0:
123,384,132171,2,0,B|172:375|201:308|158:247|158:247|164:268|156:283,1,203.999993774414,14|8,0:1|0:0,0:0:0:0:
366,375,132685,2,0,P|454:363|432:265,1,203.999993774414,14|8,0:1|0:1,0:0:0:0:
251,178,133199,6,0,B|209:228|152:188|138:153|138:153|183:110|194:38|129:0,1,305.999990661621,14|8,0:0|0:1,0:0:0:0:
131,7,133799,1,8,0:1:0:0:
121,9,133885,2,0,B|108:35|69:38|69:38|83:9|107:7,1,101.999996887207,8|0,0:0|0:0,0:0:0:0:
370,109,134228,5,10,0:1:0:0:
370,109,134399,1,8,0:1:0:0:
251,178,134571,5,8,0:0:0:0:
227,154,134656,1,8,0:0:0:0:
196,139,134742,1,8,0:2:0:0:
162,137,134828,1,8,0:0:0:0:
130,146,134914,6,0,B|77:191|80:269|112:301|112:301|102:273|106:243,1,203.999993774414,14|8,0:1|0:0,0:0:0:0:
354,250,135428,2,0,P|365:323|249:313,1,203.999993774414,10|8,0:1|0:1,0:0:0:0:
256,323,135856,2,0,L|254:268,1,50.9999984436036,8|8,0:1|0:0,0:0:0:0:
63,39,136114,6,0,B|12:87|41:163|93:163|93:163|132:143,1,203.999993774414,14|8,0:1|0:1,0:0:0:0:
263,236,136628,2,0,B|269:195|269:195|267:188|267:188|274:134,1,101.999996887207,10|0,0:0|0:0,0:0:0:0:
512,0,136971,5,8,2:3:0:0:
431,140,137142,1,0,1:0:0:0:
428,123,137228,1,0,1:0:0:0:
425,106,137314,1,0,1:0:0:0:
422,89,137399,1,0,1:0:0:0:
419,73,137485,1,0,1:0:0:0:
416,56,137571,1,0,1:0:0:0:
413,39,137656,5,14,0:0:0:0:
281,142,137828,1,8,0:1:0:0:
301,312,137999,5,10,0:0:0:0:
281,142,138171,1,8,0:1:0:0:
97,61,138342,5,8,0:0:0:0:
281,142,138514,2,0,B|330:159|330:159|383:107,1,110.499994941712,10|8,0:1|0:0,0:0:0:0:
220,16,138856,5,10,0:1:0:0:
220,16,138942,1,8,0:1:0:0:
220,16,139028,1,8,0:0:0:0:
134,202,139199,1,10,0:1:0:0:
294,330,139371,2,0,B|396:318|396:318|404:323|404:323|513:310,2,220.999989883423,10|8|8,0:0|0:0|0:0,0:0:0:0:
13,384,140228,5,10,0:1:0:0:
13,384,140314,1,8,0:1:0:0:
13,384,140399,1,12,0:0:0:0:
102,189,140571,1,8,0:1:0:0:
169,324,140742,5,10,0:0:0:0:
88,83,140914,1,8,0:1:0:0:
31,250,141085,5,10,0:0:0:0:
142,4,141256,1,10,0:1:0:0:
142,4,141342,1,8,0:1:0:0:
142,4,141428,1,8,0:0:0:0:
294,330,141599,5,14,0:1:0:0:
294,330,142456,6,0,L|332:338,2,38.2499988327027,2|0|0,0:0|0:0|0:0,0:0:0:0:
221,247,142799,5,8,0:0:0:0:
221,247,142885,1,8,0:0:0:0:
221,247,142971,2,0,B|214:212|214:212|218:192|218:192|210:142,1,76.4999976654053,0|14,0:1|0:1,0:0:0:0:
256,192,143228,12,0,145885,0:0:0:0:
4,294,154114,6,0,B|24:267|74:265|74:265|51:279|39:303,1,118.999996368408,14|0,0:1|0:0,0:0:0:0:
104,333,154628,2,0,P|145:352|206:298,1,118.999996368408,10|0,0:0|0:0,0:0:0:0:
243,256,155142,2,0,L|236:185,2,59.4999981842042,2|8|8,0:0|0:1|0:1,0:0:0:0:
306,321,155656,6,0,P|349:357|404:339,1,118.999996368408,2|8,0:0|0:1,0:0:0:0:
460,290,156171,2,0,L|472:222,1,59.4999981842042,10|0,0:0|0:0,0:0:0:0:
477,237,156514,2,0,L|466:295,1,59.4999981842042,2|0,0:0|0:0,0:0:0:0:
399,351,156856,6,0,B|353:343|353:343|327:353|327:353|277:344,1,118.999996368408,10|0,0:1|0:0,0:1:0:0:
231,280,157371,2,0,P|257:227|254:168,1,118.999996368408,10|0,0:0|0:0,0:0:0:0:
208,112,157885,2,0,B|187:130|183:155|183:155|176:140,1,59.4999981842042,2|8,0:0|0:1,0:0:0:0:
125,85,158228,6,0,P|77:52|22:69,1,118.999996368408,14|0,0:1|0:0,0:0:0:0:
88,153,158742,1,14,0:1:0:0:
30,201,158914,2,0,P|12:220|0:254,1,59.4999981842042,10|0,0:0|0:0,0:0:0:0:
7,255,159256,2,0,P|16:227|36:205,1,59.4999981842042,2|0,0:0|0:0,0:0:0:0:
103,146,159599,6,0,P|153:175|211:168,1,118.999996368408,10|0,0:1|0:0,0:0:0:0:
240,250,160114,2,0,P|290:220|348:227,1,118.999996368408,8|0,0:0|0:0,0:0:0:0:
411,291,160628,1,2,0:0:0:0:
411,291,160799,1,8,0:1:0:0:
474,217,160971,6,0,B|495:161|495:161|465:98,1,118.999996368408,10|0,0:1|0:0,0:0:0:0:
435,44,161485,1,8,0:1:0:0:
378,118,161656,2,0,P|343:126|308:128,1,59.4999981842042,8|0,0:0|0:0,0:0:0:0:
263,48,161999,2,0,P|228:40|193:38,1,59.4999981842042,2|0,0:0|0:0,0:0:0:0:
83,64,162342,6,0,B|74:97|40:97|40:97|34:46|93:10,1,152.999995330811,14|8,0:1|0:0,0:0:0:0:
204,149,163199,1,8,0:3:0:0:
128,192,163371,1,4,0:3:0:0:
115,277,163542,1,4,0:3:0:0:
210,359,163714,5,10,0:0:0:0:
210,359,164056,2,0,L|215:294,1,50.9999984436036,2|0,0:0|0:0,0:0:0:0:
307,183,164571,2,0,B|344:232|347:296|284:314|291:269|311:262,1,152.999995330811,2|0,0:0|0:0,0:0:0:0:
501,314,167828,6,0,B|434:290|393:344|393:344|421:339,1,140.25000428009,14|0,0:1|0:2,0:2:0:0:
417,348,168171,1,10,0:0:0:0:
471,230,168342,2,0,P|500:165|444:40,1,187.000005706787,14|8,0:1|0:0,0:0:0:0:
268,8,168856,6,0,B|264:46|227:61|227:61|173:32|102:32,1,187.000005706787,14|2,0:1|0:0,0:0:0:0:
34,149,169371,1,10,0:1:0:0:
34,149,169456,1,10,0:1:0:0:
34,149,169542,2,0,P|25:79|39:46,1,93.5000028533936,10|8,0:0|0:1,0:1:0:0:
169,179,169885,5,10,0:1:0:0:
60,274,170056,1,8,0:1:0:0:
176,360,170228,1,8,0:0:0:0:
206,342,170314,1,8,0:0:0:0:
240,335,170399,1,8,0:0:0:0:
275,340,170485,1,8,0:0:0:0:
306,355,170571,6,0,P|361:383|445:347,1,136,14|0,0:1|0:0,0:0:0:0:
438,373,171085,1,8,0:1:0:0:
493,283,171256,2,0,P|479:226|493:130,1,136,8|0,0:0|0:0,0:0:0:0:
455,45,171771,6,0,B|444:73|415:87|415:87|340:58,1,136,10|8,0:1|0:0,0:0:0:0:
273,95,172285,2,0,P|263:56|287:12,1,68,2|8,0:0|0:1,0:0:0:0:
340,143,172628,1,10,0:2:0:0:
340,143,172799,1,10,0:1:0:0:
244,171,172971,2,0,L|160:151,1,68,10|0,0:0|0:0,0:0:0:0:
77,60,173314,5,10,0:0:0:0:
25,254,173485,1,10,0:0:0:0:
224,52,173828,5,10,0:0:0:0:
256,268,173999,1,10,0:0:0:0:
434,12,174342,5,10,0:0:0:0:
512,223,174514,2,0,B|409:178|437:273|335:229,1,187.000005706787,14|8,0:1|0:1,0:0:0:0:
183,162,175028,5,8,0:0:0:0:
375,119,175199,1,8,0:1:0:0:
246,0,175371,5,8,0:0:0:0:
243,22,175456,1,8,0:0:0:0:
229,41,175542,1,8,0:0:0:0:
207,48,175628,1,8,0:0:0:0:
185,43,175714,2,0,P|158:23|132:23,1,46.7500014266968,8|0,0:1|0:0,0:0:0:0:
28,46,175885,5,8,0:3:0:0:
52,72,175971,5,8,0:3:0:0:
55,115,176056,6,0,P|20:161|37:274,1,152.999995330811,14|0,0:1|0:0,0:0:0:0:
48,322,176399,1,10,0:0:0:0:
205,384,176571,2,0,B|252:365|239:301|239:301|194:266|212:204,1,203.999993774414,10|8,0:1|0:1,0:0:0:0:
219,201,176999,2,0,B|243:194|243:194|245:191|245:191|287:181,1,50.9999984436036,8|8,0:1|0:0,0:0:0:0:
512,52,177256,5,10,0:1:0:0:
438,80,177428,2,0,B|395:69|395:69|385:58|385:58|338:48,1,101.999996887207,2|8,0:0|0:1,0:0:0:0:
152,104,177771,1,10,0:0:0:0:
152,104,177942,2,0,B|203:147|267:89|252:30|252:30|216:1,1,203.999993774414,10|8,0:1|0:1,0:0:0:0:
212,5,178371,2,0,P|209:34|219:58,1,50.9999984436036,8|8,0:1|0:0,0:0:0:0:
379,253,178628,5,10,0:1:0:0:
451,315,178799,2,0,B|474:332|506:334|506:334|544:248|481:190,1,203.999993774414,14|8,0:1|0:0,0:0:0:0:
360,52,179314,2,0,B|393:111|353:180|305:184|305:184|328:162|320:126,1,203.999993774414,14|8,0:1|0:1,0:0:0:0:
112,0,179828,6,0,B|34:86|97:163|97:163|120:129,1,203.999993774414,10|8,0:0|0:1,0:0:0:0:
200,269,180342,1,8,0:1:0:0:
200,269,180428,1,8,0:1:0:0:
200,269,180514,2,0,P|220:212|198:165,1,101.999996887207,8|0,0:0|0:0,0:0:0:0:
48,331,180856,5,12,0:1:0:0:
48,331,181028,1,8,0:1:0:0:
206,378,181199,5,10,0:0:0:0:
234,356,181285,1,8,0:0:0:0:
269,352,181371,1,8,0:0:0:0:
463,384,181542,6,0,B|453:394|428:383|428:383|481:348|491:282|455:235,1,203.999993774414,14|8,0:1|0:0,0:0:0:0:
344,41,182056,2,0,B|384:125|298:168|298:168|282:151|252:134,1,203.999993774414,10|8,0:1|0:1,0:0:0:0:
251,130,182485,2,0,L|235:71,1,50.9999984436036,8|8,0:1|0:0,0:0:0:0:
32,237,182742,6,0,B|-17:328|70:378|70:378|88:361|116:344,1,203.999993774414,14|8,0:1|0:1,0:0:0:0:
239,257,183256,2,0,B|199:249|199:249|186:254|186:254|137:246,1,101.999996887207,10|0,0:0|0:0,0:0:0:0:
256,56,183599,5,8,0:0:0:0:
352,135,183771,1,0,1:0:0:0:
374,146,183856,1,0,1:0:0:0:
399,152,183942,1,0,1:0:0:0:
424,152,184028,1,0,1:0:0:0:
449,145,184114,1,0,1:0:0:0:
408,31,184285,5,14,0:2:0:0:
339,273,184456,1,8,0:1:0:0:
292,42,184628,5,10,0:0:0:0:
339,273,184799,1,8,0:1:0:0:
195,106,184971,5,10,0:0:0:0:
338,272,185142,2,0,P|386:300|441:301,1,110.499994941712,10|8,0:1|0:0,0:0:0:0:
202,113,185485,5,10,0:1:0:0:
202,113,185571,1,8,0:1:0:0:
202,113,185656,2,0,P|208:32|171:-25,1,110.499994941712,8|8,0:2|0:1,0:0:0:0:
40,182,185999,2,0,P|34:263|71:320,1,110.499994941712,10|8,0:0|0:1,0:0:0:0:
176,384,186342,5,10,0:0:0:0:
274,279,186514,1,8,0:1:0:0:
384,377,186685,1,10,0:0:0:0:
461,236,186856,5,10,0:1:0:0:
461,236,186942,1,8,0:1:0:0:
461,236,187028,1,12,0:0:0:0:
384,377,187199,1,8,0:1:0:0:
296,147,187371,5,10,0:0:0:0:
461,236,187542,1,8,0:1:0:0:
419,0,187714,5,10,0:0:0:0:
296,147,187885,1,8,0:1:0:0:
213,25,188056,5,10,0:0:0:0:
213,25,188142,1,10,0:0:0:0:
213,25,188228,1,10,0:0:0:0:
94,178,188399,5,10,0:0:0:0:
80,147,188485,1,10,0:0:0:0:
89,115,188571,1,10,0:1:0:0:
230,216,188742,5,0,1:0:0:0:
217,249,188828,1,0,1:0:0:0:
224,288,188914,1,0,1:0:0:0:
210,323,188999,1,0,1:0:0:0:
216,359,189085,5,0,1:0:0:0:
258,335,189171,5,0,1:0:0:0:
305,330,189256,5,0,1:0:0:0:
352,340,189342,5,0,1:0:0:0:
398,351,189428,5,0,1:0:0:0:
447,344,189514,5,0,1:0:0:0:
489,322,189599,6,0,L|483:278,1,38.2499988327027,10|0,0:3|0:0,0:0:0:0:
494,210,189771,6,0,B|441:202|412:253|412:253|430:206|385:157,1,165.749992412568,14|0,0:1|0:0,0:0:0:0:
363,131,190114,1,10,0:0:0:0:
246,231,190285,2,0,B|222:251|179:233|183:184|183:184|252:138|221:72,1,220.999989883423,10|8,0:1|0:1,0:0:0:0:
220,73,190714,2,0,P|199:44|166:31,1,55.2499974708558,8|8,0:1|0:0,0:0:0:0:
0,301,190971,5,14,0:1:0:0:
78,338,191142,2,0,B|117:332|117:332|127:336|127:336|188:328,1,110.499994941712,2|8,0:0|0:1,0:0:0:0:
338,246,191485,5,10,0:0:0:0:
417,344,191656,2,0,B|440:382|490:370|490:370|514:303|461:240,1,220.999989883423,2|8,0:0|0:1,0:0:0:0:
455,234,192085,2,0,B|441:215|441:215|442:207|442:207|425:175,1,55.2499974708558,8|8,0:1|0:0,0:0:0:0:
260,18,192342,5,2,0:0:0:0:
172,173,192514,2,0,B|152:186|152:186|118:128|153:87|192:70,1,165.749992412568,14|0,0:1|0:0,0:0:0:0:
201,75,192856,1,10,0:0:0:0:
260,220,193028,2,0,B|200:295|257:364|257:364|293:367|310:330,1,220.999989883423,14|8,0:1|0:1,0:0:0:0:
424,180,193542,6,0,B|451:235|501:238|501:238|554:208|554:127|531:57|462:34,1,331.499984825135,14|8,0:0|0:1,0:0:0:0:
471,38,194142,1,8,0:1:0:0:
460,33,194228,2,0,B|422:28|422:28|406:33|406:33|341:24,1,110.499994941712,8|0,0:0|0:0,0:0:0:0:
159,87,194571,5,10,0:1:0:0:
330,174,194742,1,8,0:1:0:0:
220,291,194914,1,8,0:0:0:0:
222,263,194999,1,8,0:0:0:0:
225,236,195085,1,8,0:0:0:0:
228,208,195171,1,8,0:0:0:0:
230,181,195256,6,0,B|257:142|257:142|217:16,1,165.749992412568,14|0,0:1|0:0,0:0:0:0:
215,19,195599,1,10,0:0:0:0:
111,101,195771,2,0,B|76:134|59:195|89:238|89:238|94:205|82:188|63:175,1,220.999989883423,10|8,0:1|0:1,0:0:0:0:
57,170,196199,2,0,P|25:159|-14:158,1,55.2499974708558,8|8,0:1|0:0,0:0:0:0:
217,378,196456,5,14,0:1:0:0:
283,280,196628,2,0,B|307:257|307:224|307:224|287:235|276:269,1,110.499994941712,2|8,0:0|0:1,0:0:0:0:
356,137,196971,5,10,0:0:0:0:
437,300,197142,1,2,3:2:0:0:
437,300,197228,1,0,3:0:0:0:
437,300,197314,2,0,B|444:326|464:337|464:337|464:304|440:281,1,110.499994941712,10|8,0:1|0:1,0:0:0:0:
352,118,197656,2,0,B|328:141|328:174|328:174|348:163|355:137,1,110.499994941712,10|0,0:0|0:0,0:0:0:0:
473,36,197999,5,14,0:0:0:0:
214,0,198171,1,10,0:0:0:0:
93,158,198514,5,10,0:0:0:0:
352,118,198685,1,14,0:0:0:0:
512,384,199028,5,10,0:2:0:0:
290,341,199199,2,0,B|227:310|227:310|277:142,1,220.999989883423,14|8,0:1|0:1,0:0:0:0:
274,155,199628,2,0,P|275:119|262:83,1,55.2499974708558,8|8,0:1|0:0,0:0:0:0:
0,21,199885,5,8,0:1:0:0:
10,33,199971,5,8,0:1:0:0:
18,49,200056,5,8,0:0:0:0:
22,71,200142,5,8,0:0:0:0:
16,98,200228,5,8,0:3:0:0:
1,134,200314,5,8,0:3:0:0:
14,176,200399,5,8,0:0:0:0:
50,209,200485,5,8,0:0:0:0:
104,213,200571,5,8,0:0:0:0:
151,174,200656,5,8,0:0:0:0:
162,114,200742,6,0,B|176:64|176:64|145:24|145:24|161:60|146:94,1,165.749992412568,14|0,0:1|0:0,0:0:0:0:
78,65,201085,1,10,0:0:0:0:
247,175,201256,2,0,B|264:183|274:199|274:199|259:111|331:58|331:58|322:75|322:104,1,220.999989883423,10|8,0:1|0:1,0:0:0:0:
323,91,201685,2,0,P|326:125|344:156,1,55.2499974708558,8|8,0:1|0:0,0:0:0:0:
512,347,201942,5,14,0:1:0:0:
474,266,202114,2,0,B|462:237|462:237|466:197|466:197|447:147,1,110.499994941712,2|8,0:0|0:1,0:0:0:0:
324,0,202456,1,10,0:0:0:0:
324,0,202628,2,0,B|374:56|336:138|285:144|285:144|225:94,1,220.999989883423,10|8,0:1|0:1,0:0:0:0:
243,111,203056,2,0,P|236:75|220:44,1,55.2499974708558,8|8,0:1|0:0,0:0:0:0:
0,230,203314,5,10,0:1:0:0:
67,337,203485,2,0,B|101:401|183:362|183:362|143:330|152:282,1,220.999989883423,14|8,0:1|0:0,0:0:0:0:
243,112,203999,2,0,B|209:169|243:241|313:226|313:226|315:200|338:179,1,220.999989883423,14|8,0:1|0:1,0:0:0:0:
481,3,204514,6,0,B|550:79|522:186|463:226|463:226|455:176|406:152,1,331.499984825135,14|8,0:2|0:1,0:0:0:0:
411,157,205114,1,8,0:1:0:0:
400,154,205199,2,0,B|372:194|334:186|334:186|322:163|302:144,1,110.499994941712,8|0,0:0|0:0,0:0:0:0:
182,52,205542,5,10,0:1:0:0:
136,254,205714,1,8,0:0:0:0:
136,254,205799,1,8,0:0:0:0:
136,254,205885,1,8,0:0:0:0:
0,122,206056,5,8,0:0:0:0:
35,136,206142,5,8,0:0:0:0:
73,133,206228,6,0,B|191:100|152:204|284:163,1,220.999989883423,14|8,0:1|0:0,0:0:0:0:
472,59,206742,2,0,B|507:155|435:198|435:198|431:171|406:141,1,220.999989883423,10|8,0:1|0:1,0:0:0:0:
400,136,207171,2,0,P|363:118|338:119,1,55.2499974708558,8|8,0:1|0:0,0:0:0:0:
147,252,207428,6,0,B|104:309|134:372|194:380|194:380|253:353,1,220.999989883423,14|8,0:1|0:1,0:0:0:0:
447,384,207942,2,0,B|437:347|437:347|443:327|443:327|429:265,1,110.499994941712,10|0,0:0|0:0,0:0:0:0:
349,117,208285,5,10,0:1:0:0:
258,275,208456,1,8,0:1:0:0:
234,48,208628,1,8,0:0:0:0:
234,48,208714,1,8,0:0:0:0:
234,48,208799,1,8,0:3:0:0:
120,136,208971,5,14,0:2:0:0:
349,117,209142,1,8,0:1:0:0:
107,149,209314,5,10,0:0:0:0:
367,203,209485,1,8,0:1:0:0:
95,165,209656,5,10,0:0:0:0:
347,287,209828,2,0,B|406:301|406:301|448:244,1,118.999996368408,10|8,0:1|0:0,0:0:0:0:
240,55,210171,5,10,0:1:0:0:
240,55,210256,1,8,0:1:0:0:
240,55,210342,1,8,0:0:0:0:
168,291,210514,1,2,0:0:0:0:
21,174,210685,2,0,B|74:136|144:150|116:182|188:205|252:154,2,237.999992736817,10|8|8,0:0|0:0|0:0,0:0:0:0:
248,376,211542,5,10,0:1:0:0:
248,376,211628,1,8,0:1:0:0:
248,376,211714,1,12,0:0:0:0:
245,158,211885,1,8,0:1:0:0:
113,320,212056,5,10,0:0:0:0:
244,78,212228,1,8,0:1:0:0:
388,294,212399,5,10,0:0:0:0:
241,0,212571,1,8,0:1:0:0:
241,0,212656,1,8,0:1:0:0:
241,0,212742,1,10,0:2:0:0:
95,347,212914,5,14,0:1:0:0:
95,347,213771,6,0,B|106:364|67:382|57:327|89:288,1,102,2|0,0:0|0:0,0:0:0:0:
149,249,214114,2,0,L|166:276,2,31.8750012159348,8|8|8,0:0|0:0|0:3,0:0:0:0:
23,75,214456,6,0,B|28:107|54:121|54:121|109:84|176:82,1,187.000005706787,14|8,0:1|0:0,0:0:0:0:
297,183,214971,2,0,B|324:179|346:140|346:140|342:74|293:21,1,187.000005706787,14|8,0:1|0:1,0:0:0:0:
194,224,215485,2,0,B|126:293|163:375|163:375|167:360|172:355,1,187.000005706787,10|0,0:0|0:0,0:0:0:0:
376,277,215999,1,8,0:1:0:0:
445,335,216171,2,0,B|466:355|462:383|462:383|436:378|428:348,1,93.5000028533936,8|0,0:0|0:0,0:0:0:0:
276,285,216514,2,0,B|255:305|259:333|259:333|285:328|289:308,1,93.5000028533936,10|8,0:1|0:1,0:0:0:0:
392,191,216856,5,8,0:0:0:0:
379,158,216942,1,8,0:0:0:0:
375,123,217028,1,8,0:0:0:0:
382,89,217114,1,8,0:0:0:0:
398,58,217199,5,14,0:1:0:0:
251,93,217371,2,0,B|220:89|220:89|199:100|199:100|134:89,1,93.5000028533936,2|8,0:0|0:0,0:0:0:0:
423,33,217714,5,14,0:1:0:0:
399,216,217885,2,0,B|404:249|404:249|395:272|395:272|403:333,1,93.5000028533936,2|8,0:0|0:1,0:0:0:0:
456,19,218228,5,14,0:2:0:0:
456,19,218399,2,0,B|494:71|459:132|405:125|405:125|363:83,1,187.000005706787,10|0,0:1|3:0,0:0:0:0:
373,93,218828,1,0,3:0:0:0:
365,87,218914,1,0,3:0:0:0:
357,81,218999,1,0,3:0:0:0:
349,75,219085,1,0,3:0:0:0:
340,70,219171,1,0,3:0:0:0:
331,66,219256,2,0,B|298:59|298:59|281:69|281:69|225:57,1,93.5000028533936,10|8,0:1|0:1,0:1:0:0:
233,56,219514,2,0,P|229:37|213:8,1,46.7500014266968,8|8,0:1|0:0,0:0:0:0:
40,135,219771,5,8,0:3:0:0:
40,135,219856,1,8,0:3:0:0:
40,135,219942,2,0,B|-23:209|32:272|32:272|63:245,1,187.000005706787,14|8,0:1|0:0,0:0:0:0:
292,241,220456,2,0,B|328:327|259:364|259:364|224:345|222:309,1,187.000005706787,14|8,0:1|0:1,0:0:0:0:
298,137,220971,5,10,0:0:0:0:
386,194,221142,1,2,3:2:0:0:
386,194,221228,1,0,3:0:0:0:
386,194,221314,2,0,P|429:201|476:165,1,93.5000028533936,8|8,0:1|0:2,0:0:0:0:
298,137,221656,2,0,P|282:96|227:73,1,93.5000028533936,2|8,0:0|0:1,0:0:0:0:
292,241,221999,2,0,P|264:274|272:333,1,93.5000028533936,10|0,0:0|0:0,0:0:0:0:
385,193,222342,2,0,P|452:191|479:130,1,140.25000428009,10|0,0:0|0:0,0:0:0:0:
512,50,222685,6,0,B|500:106|435:99|435:99|445:43|389:12,1,187.000005706787,14|8,0:1|0:0,0:0:0:0:
297,137,223199,2,0,B|267:175|263:221|283:262|283:262|283:225|262:196,1,187.000005706787,14|8,0:1|0:1,0:0:0:0:
149,111,223714,1,10,0:0:0:0:
47,266,223885,5,2,3:2:0:0:
47,266,223971,1,0,3:2:0:0:
47,266,224056,2,0,B|27:280|27:280|-4:260|-5:218|15:171,1,140.25000428009,12|0,0:1|0:0,0:0:0:0:
61,116,224399,2,0,P|106:127|149:110,1,93.5000028533936,10|0,0:0|0:0,0:0:0:0:
390,61,224742,5,8,0:0:0:0:
360,25,224828,5,8,0:0:0:0:
315,16,224914,5,8,0:3:0:0:
276,40,224999,5,8,0:3:0:0:
263,85,225085,6,0,B|238:116|238:116|246:84,1,68,4|4,0:3|0:3,0:3:0:0:
484,0,225428,5,12,0:1:0:0:
