osu file format v14

[General]
AudioFilename: audio.mp3
AudioLeadIn: 0
PreviewTime: -1
Countdown: 1
SampleSet: Soft
StackLeniency: 0.7
Mode: 0
LetterboxInBreaks: 0
WidescreenStoryboard: 0

[Editor]
Bookmarks: 20041,53144,80731,130386,141432,143846,146087,152455,153156,174524,218674,235225,240743
DistanceSpacing: 2
BeatDivisor: 8
GridSize: 4
TimelineZoom: 2.5

[Metadata]
Title:crystallized
TitleUnicode:crystallized
Artist:camellia
ArtistUnicode:camellia
Creator:Keada
Version:Shatter
Source:
Tags:
BeatmapID:1489916
BeatmapSetID:704308

[Difficulty]
HPDrainRate:6
CircleSize:4.5
OverallDifficulty:8.5
ApproachRate:9.2
SliderMultiplier:1.6
SliderTickRate:1

[Events]
//Background and Video events
0,0,"Shatter.jpg",0,0
//Break Periods
2,130598,140862
//Storyboard Layer 0 (Background)
//Storyboard Layer 1 (Fail)
//Storyboard Layer 2 (Pass)
//Storyboard Layer 3 (Foreground)
//Storyboard Sound Samples

[TimingPoints]
9019,344.827586206897,4,2,0,20,1,0
31087,-83.3333333333333,4,2,1,70,0,0
53156,-133.333333333333,4,2,1,70,0,0
53846,-62.5,4,2,1,70,0,0
54536,-105.263157894737,4,2,1,70,0,0
56260,-62.5,4,2,1,70,0,0
56950,-62.5,4,2,0,70,0,0
57294,-86.9565217391304,4,2,1,70,0,0
59019,-105.263157894737,4,2,1,70,0,0
59363,-62.5,4,2,1,70,0,0
59708,-105.263157894737,4,2,1,70,0,0
60053,-74.0740740740742,4,2,1,70,0,0
61777,-105.263157894737,4,2,1,70,0,0
62467,-105.263157894737,4,2,2,70,0,0
64881,-62.5,4,2,1,70,0,0
65570,-105.263157894737,4,2,1,70,0,0
67984,-62.5,4,2,1,70,0,0
68329,-86.9565217391306,4,2,1,70,0,0
70053,-62.5,4,2,1,70,0,0
70398,-105.263157894737,4,2,1,70,0,0
71087,-74.0740740740742,4,2,1,70,0,0
72639,-86.9565217391306,4,2,1,70,0,0
74881,-68.9655172413793,4,2,1,70,0,0
75225,-105.263157894737,4,2,2,70,0,0
86260,-74.0740740740742,4,2,2,85,0,1
90053,-60.6060606060606,4,2,2,85,0,1
90398,-74.0740740740742,4,2,2,85,0,1
91432,-57.1428571428571,4,2,2,85,0,1
91777,-74.0740740740742,4,2,2,85,0,1
94881,-57.1428571428571,4,2,2,85,0,1
95570,-74.0740740740742,4,2,2,85,0,1
96260,-50,4,2,2,85,0,1
97467,-74.0740740740742,4,2,2,85,0,1
101432,-74.0740740740742,4,2,2,85,0,1
102467,-57.1428571428571,4,2,2,85,0,1
102812,-200,4,2,2,85,0,1
102898,-200,4,2,2,5,0,1
103156,-74.0740740740742,4,2,2,85,0,1
104881,-51.2820512820513,4,2,2,85,0,1
105225,-57.1428571428571,4,2,2,85,0,1
105570,-74.0740740740742,4,2,2,85,0,1
106605,-86.9565217391304,4,2,2,85,0,1
108329,-200,4,2,2,70,0,0
109019,-90.9090909090909,4,2,2,70,0,0
110398,-200,4,2,2,70,0,0
111432,-200,4,2,0,70,0,0
111777,-133.333333333333,4,2,2,70,0,0
112467,-90.9090909090909,4,2,2,70,0,0
113846,-200,4,2,2,70,0,0
114536,-90.9090909090909,4,2,2,70,0,0
115915,-133.333333333333,4,2,2,70,0,0
116605,-60.6060606060605,4,2,2,70,0,0
116950,-50,4,2,2,70,0,0
119363,-133.333333333333,4,2,2,70,0,0
120053,-90.9090909090909,4,2,2,70,0,0
121087,-133.333333333333,4,2,2,70,0,0
121605,-50,4,2,2,70,0,0
122122,-133.333333333333,4,2,2,70,0,0
122467,-60.6060606060605,4,2,2,70,0,0
123501,-133.333333333333,4,2,2,70,0,0
124191,-90.9090909090909,4,2,2,70,0,0
124881,-133.333333333333,4,2,2,70,0,0
125570,-90.9090909090909,4,2,2,70,0,0
126950,-133.333333333333,4,2,2,70,0,0
141432,-133.333333333333,4,2,0,70,0,0
141519,-133.333333333333,4,2,2,70,0,0
143846,-133.333333333333,4,2,0,70,0,0
144277,-133.333333333333,4,2,2,70,0,0
146087,-133.333333333333,4,2,0,70,0,0
147036,-133.333333333333,4,2,2,70,0,0
153156,-60.6060606060605,4,2,2,70,0,0
153846,-133.333333333333,4,2,2,70,0,0
155570,-60.6060606060605,4,2,2,70,0,0
156605,-133.333333333333,4,2,2,70,0,0
158674,-50,4,2,2,70,0,0
159019,-133.333333333333,4,2,2,70,0,0
161087,-50,4,2,2,70,0,0
161346,-90.9090909090909,4,2,2,70,0,0
163501,-133.333333333333,4,2,2,70,0,0
174536,-68.9655172413793,4,2,2,70,0,1
179708,-50,4,2,2,70,0,1
180053,-68.9655172413793,4,2,2,70,0,1
183156,-50,4,2,2,70,0,1
183501,-68.9655172413793,4,2,2,70,0,1
184536,-50,4,2,2,70,0,1
185053,-153.846153846154,4,2,2,70,0,1
185570,-68.9655172413793,4,2,2,70,0,1
190743,-50,4,2,2,70,0,1
191087,-68.9655172413793,4,2,2,70,0,1
193501,-50,4,2,2,70,0,1
193846,-68.9655172413793,4,2,2,70,0,1
195225,-80,4,2,2,70,0,1
195915,-68.9655172413793,4,2,2,70,0,0
196605,-68.9655172413793,4,2,2,70,0,1
201777,-50,4,2,2,70,0,1
202122,-68.9655172413793,4,2,2,70,0,1
205225,-50,4,2,2,70,0,1
205570,-68.9655172413793,4,2,2,70,0,1
206605,-50,4,2,2,70,0,1
207639,-68.9655172413793,4,2,2,70,0,1
212812,-50,4,2,2,70,0,1
213156,-68.9655172413793,4,2,2,70,0,1
218674,-100,4,2,2,70,0,0

[Colours]
Combo1 : 109,170,243
Combo2 : 0,0,255

[HitObjects]
144,112,20053,6,0,L|160:192,1,80,2|0,0:0|0:0,0:0:0:0:
168,208,20312,1,0,0:0:0:0:
168,208,20398,1,0,0:0:0:0:
352,190,20570,1,0,0:0:0:0:
352,190,20656,1,0,0:0:0:0:
352,190,20743,2,0,L|368:112,1,80
316,264,21087,5,0,0:0:0:0:
272,108,21260,1,0,0:0:0:0:
424,224,21432,5,0,0:0:0:0:
468,68,21605,1,0,0:0:0:0:
260,200,21777,5,0,0:0:0:0:
368,80,21950,1,0,0:0:0:0:
368,80,22036,1,0,0:0:0:0:
368,80,22122,2,0,P|376:120|364:164,1,80
260,200,22381,1,0,0:0:0:0:
251,207,22467,2,0,P|212:202|180:179,1,80
36,44,22812,6,0,B|48:84|48:84|32:132,1,80,2|0,0:0|0:0,0:0:0:0:
28,312,23156,2,0,B|15:275|15:275|27:235,1,80
128,112,23501,5,0,0:0:0:0:
160,268,23674,1,0,0:0:0:0:
212,23,23846,5,0,0:0:0:0:
180,179,24019,1,0,0:0:0:0:
344,20,24191,6,0,B|380:20|380:20|384:24|384:24|436:24,1,80,2|0,0:0|0:0,0:0:0:0:
480,80,24450,1,0,0:0:0:0:
480,80,24536,2,0,P|492:112|480:156,1,80
412,196,24794,1,0,0:0:0:0:
412,196,24881,2,0,P|384:200|364:196,1,40,2|0,0:0|0:0,0:0:0:0:
284,124,25053,2,0,P|303:122|323:126,1,40
404,272,25225,1,0,0:0:0:0:
212,172,25398,5,0,0:0:0:0:
212,172,25484,1,0,0:0:0:0:
212,172,25570,2,0,L|204:88,1,80,2|0,0:0|0:0,0:0:0:0:
404,272,25915,2,0,L|396:351,1,80
184,248,26260,1,0,0:0:0:0:
328,116,26432,2,0,L|332:216,1,80
132,188,26777,1,0,0:0:0:0:
308,40,26950,6,0,P|347:37|381:57,1,80
412,128,27294,1,0,0:0:0:0:
196,112,27467,2,0,L|184:28,1,80
280,120,27812,1,0,0:0:0:0:
116,116,27984,2,0,L|104:32,1,80
40,120,28243,1,0,0:0:0:0:
40,120,28329,6,0,P|52:168|84:188,1,80,2|0,0:0|0:0,0:0:0:0:
260,204,28674,1,0,0:0:0:0:
192,36,28846,1,0,0:0:0:0:
189,55,28932,1,0,0:0:0:0:
186,75,29019,1,0,0:0:0:0:
183,95,29105,1,0,0:0:0:0:
181,115,29191,1,0,0:0:0:0:
324,256,29363,2,0,P|339:219|334:180,1,80
120,172,29708,5,2,0:0:0:0:
320,112,29881,1,0,0:0:0:0:
284,316,30053,1,0,0:0:0:0:
156,104,30225,1,2,0:0:0:0:
156,104,30312,2,0,L|200:96,1,40
100,244,30484,1,2,0:0:0:0:
100,244,30570,2,0,L|60:236,1,40
80,64,30743,1,2,0:0:0:0:
204,224,30915,5,2,0:0:0:0:
208,231,31001,1,2,0:0:0:0:
225,250,31087,6,0,P|269:266|329:242,1,95.9999970703126,6|0,0:0|0:0,0:0:0:0:
504,172,31432,2,0,P|458:159|413:175,1,95.9999970703126,8|0,0:0|0:0,0:0:0:0:
412,152,31691,1,0,0:0:0:0:
408,128,31777,1,0,0:0:0:0:
404,104,31863,1,0,0:0:0:0:
400,80,31950,2,0,L|452:80,1,47.9999985351563,2|0,0:0|0:0,0:0:0:0:
332,188,32122,2,0,B|292:192|292:192|240:172,1,95.9999970703126,8|0,0:0|0:0,0:0:0:0:
104,32,32467,5,2,0:0:0:0:
296,20,32639,2,0,L|300:128,1,95.9999970703126,2|0,0:0|0:0,0:0:0:0:
136,268,32984,1,8,0:0:0:0:
113,275,33070,1,0,0:0:0:0:
89,275,33156,1,0,0:0:0:0:
66,267,33243,1,0,0:0:0:0:
48,252,33329,2,0,P|40:224|40:200,1,47.9999985351563,2|0,0:0|0:0,0:0:0:0:
208,220,33501,2,0,L|216:328,1,95.9999970703126,8|0,0:0|0:0,0:0:0:0:
288,344,33760,1,0,0:0:0:0:
288,344,33846,5,2,0:0:0:0:
392,184,34019,1,0,0:0:0:0:
204,148,34191,1,8,0:0:0:0:
407,259,34363,1,0,0:0:0:0:
429,252,34450,1,0,0:0:0:0:
449,238,34536,1,0,0:0:0:0:
462,218,34622,1,0,0:0:0:0:
467,194,34708,2,0,P|468:164|456:136,1,47.9999985351563,2|0,0:0|0:0,0:0:0:0:
312,136,34881,2,0,B|296:180|296:180|308:236,1,95.9999970703126,8|0,0:0|0:0,0:0:0:0:
480,80,35225,5,2,0:0:0:0:
288,60,35398,1,2,0:0:0:0:
429,252,35570,1,8,0:0:0:0:
368,44,35743,1,0,0:0:0:0:
348,8,35829,2,0,L|412:4,2,47.9999985351563,2|0|0,0:0|0:0|0:0,0:0:0:0:
288,60,36087,1,2,0:0:0:0:
104,48,36260,2,0,B|148:32|148:32|200:48,1,95.9999970703126,8|0,0:0|0:0,0:0:0:0:
272,232,36605,6,0,B|176:240|176:240|128:204,1,143.999995605469,2|0,0:0|0:0,0:0:0:0:
152,192,36950,2,0,P|160:232|112:268,1,95.9999970703126,8|0,0:0|0:0,0:0:0:0:
52,284,37208,1,0,0:0:0:0:
48,260,37294,1,0,0:0:0:0:
45,236,37381,1,0,0:0:0:0:
41,212,37467,2,0,L|37:160,1,47.9999985351563,2|0,0:0|0:0,0:0:0:0:
104,48,37639,2,0,P|96:96|120:152,1,95.9999970703126,8|0,0:0|0:0,0:0:0:0:
244,192,37984,5,2,0:0:0:0:
320,16,38156,2,0,B|272:4|272:4|220:24,1,95.9999970703126,2|0,0:0|0:0,0:0:0:0:
348,176,38501,1,8,0:0:0:0:
371,175,38587,1,0,0:0:0:0:
395,174,38674,1,0,0:0:0:0:
419,173,38760,1,0,0:0:0:0:
444,172,38846,2,0,P|452:144|448:116,1,47.9999985351563,2|0,0:0|0:0,0:0:0:0:
251,96,39019,2,0,L|243:192,1,95.9999970703126,8|0,0:0|0:0,0:0:0:0:
480,352,39363,5,2,0:0:0:0:
296,292,39536,1,2,0:0:0:0:
444,172,39708,1,8,0:0:0:0:
317,363,39881,1,0,0:0:0:0:
293,366,39967,1,0,0:0:0:0:
269,362,40053,1,0,0:0:0:0:
249,351,40139,1,0,0:0:0:0:
234,332,40225,2,0,P|222:296|226:272,1,47.9999985351563,2|0,0:0|0:0,0:0:0:0:
292,196,40398,2,0,L|296:308,1,95.9999970703126,8|0,0:0|0:0,0:0:0:0:
76,324,40743,5,8,0:0:0:0:
152,96,40915,1,2,0:0:0:0:
152,96,41087,1,2,0:0:0:0:
148,336,41260,1,8,0:0:0:0:
140,344,41346,2,0,L|64:340,1,47.9999985351563
32,192,41519,1,8,0:0:0:0:
40,184,41605,2,0,L|116:188,1,47.9999985351563,2|0,0:0|0:0,0:0:0:0:
248,272,41777,2,0,P|270:231|267:183,1,95.9999970703126,8|0,0:0|0:0,0:0:0:0:
212,104,42036,1,8,0:0:0:0:
200,96,42122,5,2,0:0:0:0:
260,24,42294,1,0,0:0:0:0:
268,184,42467,2,0,L|164:180,1,95.9999970703126,8|0,0:0|0:0,0:0:0:0:
170,153,42725,1,0,0:0:0:0:
171,129,42812,1,0,0:0:0:0:
182,108,42898,1,0,0:0:0:0:
200,96,42984,2,0,L|253:99,1,47.9999985351563,2|0,0:0|0:0,0:0:0:0:
314,255,43156,2,0,P|262:271|218:251,1,95.9999970703126,8|0,0:0|0:0,0:0:0:0:
432,100,43501,5,2,0:0:0:0:
268,184,43674,2,0,L|260:72,1,95.9999970703126,2|0,0:0|0:0,0:0:0:0:
452,180,44019,1,8,0:0:0:0:
450,203,44105,1,0,0:0:0:0:
448,227,44191,1,0,0:0:0:0:
446,251,44277,1,0,0:0:0:0:
445,275,44363,2,0,L|497:275,1,47.9999985351563,2|0,0:0|0:0,0:0:0:0:
328,352,44536,2,0,P|301:312|304:265,1,95.9999970703126,8|0,0:0|0:0,0:0:0:0:
404,100,44881,5,2,0:0:0:0:
376,292,45053,1,0,0:0:0:0:
324,56,45225,1,8,0:0:0:0:
360,216,45398,1,0,0:0:0:0:
341,200,45484,1,0,0:0:0:0:
319,191,45570,1,0,0:0:0:0:
295,191,45656,1,0,0:0:0:0:
272,200,45743,2,0,P|244:208|216:200,1,47.9999985351563,2|0,0:0|0:0,0:0:0:0:
80,88,45915,2,0,L|188:80,1,95.9999970703126,8|0,0:0|0:0,0:0:0:0:
216,280,46260,5,2,0:0:0:0:
216,280,46432,1,2,0:0:0:0:
252,92,46605,1,8,0:0:0:0:
392,224,46777,1,0,0:0:0:0:
392,224,46863,1,2,0:0:0:0:
392,224,46950,2,0,P|400:256|388:288,1,47.9999985351563
324,104,47122,2,0,P|321:80|329:57,1,47.9999985351563,2|0,0:0|0:0,0:0:0:0:
476,208,47294,2,0,B|488:244|488:244|472:316,1,95.9999970703126,8|0,0:0|0:0,0:0:0:0:
288,332,47639,6,0,B|236:288|256:232|256:232|272:280,1,143.999995605469,2|0,0:0|0:0,0:0:0:0:
204,352,47984,2,0,P|160:360|116:328,1,95.9999970703126,8|0,0:0|0:0,0:0:0:0:
110,310,48243,1,0,0:0:0:0:
108,286,48329,1,0,0:0:0:0:
106,262,48415,1,0,0:0:0:0:
105,238,48501,2,0,L|157:234,1,47.9999985351563,2|0,0:0|0:0,0:0:0:0:
16,284,48674,2,0,P|3:238|17:192,1,95.9999970703126,8|0,0:0|0:0,0:0:0:0:
172,76,49019,5,2,0:0:0:0:
80,152,49191,1,0,0:0:0:0:
240,256,49363,1,2,0:0:0:0:
80,152,49536,1,8,0:0:0:0:
103,152,49622,1,0,0:0:0:0:
127,153,49708,1,0,0:0:0:0:
151,154,49794,1,0,0:0:0:0:
175,154,49881,1,2,0:0:0:0:
348,240,50053,1,8,0:0:0:0:
324,48,50225,1,2,0:0:0:0:
240,256,50398,5,2,0:0:0:0:
242,244,50484,1,2,0:0:0:0:
244,232,50570,1,2,0:0:0:0:
246,220,50656,1,2,0:0:0:0:
248,208,50743,5,2,0:0:0:0:
266,193,50829,1,2,0:0:0:0:
277,172,50915,1,2,0:0:0:0:
279,148,51001,1,2,0:0:0:0:
272,124,51087,5,2,0:0:0:0:
263,89,51174,1,2,0:0:0:0:
274,56,51260,1,2,0:0:0:0:
302,34,51346,1,2,0:0:0:0:
338,31,51432,5,2,0:0:0:0:
303,63,51518,1,2,0:0:0:0:
257,72,51604,1,2,0:0:0:0:
213,55,51690,1,2,0:0:0:0:
186,16,51777,6,0,L|162:16,7,23.9999992675781,2|0|0|0|0|0|0|0,0:0|0:0|0:0|0:0|0:0|0:0|0:0|0:0,0:0:0:0:
80,20,52122,2,0,L|40:16,7,23.9999992675781
128,84,52467,1,0,0:0:0:0:
128,84,53156,6,0,B|116:160|116:160|136:200|136:200|116:296,1,210.000008010865,6|0,0:0|0:0,0:0:0:0:
60,211,53846,2,0,P|202:307|31:323,1,448
117,286,54536,6,0,B|272:280,1,151.999995941162,6|0,0:0|0:0,0:0:0:0:
152,116,55053,2,0,B|-3:110,1,151.999995941162,6|0,0:0|0:0,0:0:0:0:
284,200,55570,2,0,B|384:196|384:196|408:212|408:212|448:240|512:228|528:180,1,265.999992897034,6|0,0:0|0:0,0:0:0:0:
456,92,56260,2,0,P|449:122|460:152,1,64
424,28,56432,2,0,P|397:44|384:73,1,64
316,52,56605,2,0,P|309:82|320:112,1,64
256,144,56777,2,0,P|272:170|301:183,1,64
240,52,56950,1,2,0:0:0:0:
222,26,57036,1,2,0:0:0:0:
191,36,57122,1,2,0:0:0:0:
191,68,57208,1,2,0:0:0:0:
222,78,57294,6,0,B|96:52|96:52|24:84,1,184.000003509522,6|0,0:0|0:0,0:0:0:0:
304,248,57812,2,0,B|430:274|430:274|480:251,1,184.000003509522,6|0,0:0|0:0,0:0:0:0:
184,152,58329,2,0,B|156:212|68:204|68:204|156:212|184:284,1,276.000005264282,6|0,0:0|0:0,0:0:0:0:
256,192,59019,2,0,B|267:162|267:162|254:135|254:135|268:110|256:92,1,75.9999979705811
136,84,59363,6,0,B|104:60|68:72|68:72|56:92|56:92|84:88|100:104,1,128
72,272,59708,6,0,B|102:283|102:283|129:270|129:270|154:284|184:272,1,113.999996955872
356,267,60053,6,0,B|385:200|356:112|356:112|360:152|344:184,1,216.000000823975,6|0,0:0|0:0,0:0:0:0:
4,324,60570,6,0,B|-25:257|4:169|4:169|0:209|16:241,1,216.000000823975,6|0,0:0|0:0,0:0:0:0:
312,344,61087,6,0,B|213:335|221:236|221:236|213:335|96:328,1,324.000001235962,6|0,0:0|0:0,0:0:0:0:
190,157,61777,2,0,B|218:145|248:147|248:147|272:163|272:163|302:149|338:161,1,151.999995941162
367,224,62294,1,2,0:0:0:0:
240,56,62467,2,0,B|268:52|288:60|288:60|308:52|308:52|336:64|368:52,1,113.999996955872,8|0,0:0|0:0,0:0:0:0:
427,48,62812,6,0,B|443:80|443:80|415:180,1,113.999996955872,6|0,0:0|0:0,0:0:0:0:
367,224,63156,2,0,P|339:192|339:144,1,75.9999979705811,8|0,0:0|0:0,0:0:0:0:
507,168,63501,2,0,P|500:204|474:232,1,75.9999979705811,0|2,0:0|0:0,0:0:0:0:
391,80,63846,2,0,P|427:71|462:84,1,75.9999979705811,8|0,0:0|0:0,0:0:0:0:
380,328,64191,6,0,B|340:324|316:340|316:340|300:316|276:304|276:304|232:320|196:320|196:320|176:288|124:284,1,265.999992897034,6|0,0:0|0:0,0:0:0:0:
108,216,64881,6,0,P|104:152|136:216,1,192
74,356,65225,2,0,L|80:292,1,64
56,340,65398,2,0,L|62:276,1,64
236,148,65570,6,0,B|293:150|293:150|319:174|319:174|409:181,1,151.999995941162,6|0,0:0|0:0,0:0:0:0:
144,288,66087,2,0,B|86:285|86:285|60:261|60:261|-29:254,1,151.999995941162,6|0,0:0|0:0,0:0:0:0:
378,179,66605,2,0,B|375:236|375:236|351:262|351:262|360:296|349:328|319:335|276:328|276:328|312:312|312:284,1,265.999992897034,6|0,0:0|0:0,0:0:0:0:
280,216,67294,2,0,B|256:216|228:192|228:192|204:208|176:196|176:196|160:168|132:160|132:160|96:184|52:180|24:132,1,265.999992897034
81,42,67984,6,0,P|92:71|88:102,1,64
16,288,68156,2,0,P|12:256|23:227,1,64
160,88,68329,6,0,B|300:80|300:80|248:112,1,184.000003509522,6|0,0:0|0:0,0:0:0:0:
111,329,68846,6,0,B|-26:300|-26:300|15:287,1,184.000003509522,6|0,0:0|0:0,0:0:0:0:
348,64,69363,2,0,B|368:152|368:152|340:224|340:224|364:336,1,276.000005264282,6|0,0:0|0:0,0:0:0:0:
428,264,70053,6,0,P|344:241|256:304,1,192
252,324,70398,6,0,B|252:296|244:276|244:276|264:252|264:252|244:224|236:196|236:196|248:160|276:140|276:140|256:112|216:124,1,265.999992897034
136,128,71087,6,0,B|96:288|96:288|144:228,1,216.000000823975,6|0,0:0|0:0,0:0:0:0:
388,96,71605,6,0,B|428:256|428:256|380:196,1,216.000000823975,6|0,0:0|0:0,0:0:0:0:
76,44,72122,6,0,P|177:34|230:122,1,216.000000823975,6|0,0:0|0:0,0:0:0:0:
232,204,72639,1,2,0:0:0:0:
344,36,72812,6,0,L|360:248,1,184.000003509522,8|0,0:0|0:0,0:0:0:0:
232,204,73329,1,2,0:0:0:0:
414,16,73501,6,0,L|430:228,1,184.000003509522,8|0,0:0|0:0,0:0:0:0:
232,204,74019,1,2,0:0:0:0:
484,0,74191,6,0,L|500:212,1,184.000003509522,8|0,0:0|0:0,0:0:0:0:
232,204,74708,1,2,0:0:0:0:
472,260,74881,2,0,P|492:308|440:264,1,174.000005310059,8|0,0:0|0:0,0:0:0:0:
459,293,75225,6,0,L|368:288,1,75.9999979705811,6|0,0:0|0:0,0:0:0:0:
232,204,75570,2,0,L|323:199,1,75.9999979705811,8|0,0:0|0:0,0:0:0:0:
452,152,75915,1,2,0:0:0:0:
336,52,76087,1,0,0:0:0:0:
308,200,76260,2,0,L|300:296,1,75.9999979705811,8|0,0:0|0:0,0:0:0:0:
452,152,76605,6,0,L|445:76,1,75.9999979705811,2|0,0:0|0:0,0:0:0:0:
292,124,76950,1,8,0:0:0:0:
292,124,77122,1,0,0:0:0:0:
415,223,77294,2,0,P|451:236|487:226,1,75.9999979705811,2|0,0:0|0:0,0:0:0:0:
324,56,77639,2,0,P|287:46|252:58,1,75.9999979705811,8|0,0:0|0:0,0:0:0:0:
136,224,77984,5,2,0:0:0:0:
120,72,78156,1,0,0:0:0:0:
196,268,78329,5,8,0:0:0:0:
212,116,78501,1,0,0:0:0:0:
128,300,78674,5,2,0:0:0:0:
112,148,78846,1,0,0:0:0:0:
296,208,79019,2,0,L|200:200,1,75.9999979705811,8|0,0:0|0:0,0:0:0:0:
44,78,79363,6,0,L|140:70,1,75.9999979705811,2|0,0:0|0:0,0:0:0:0:
264,24,79708,1,8,0:0:0:0:
264,24,79881,1,0,0:0:0:0:
372,128,80053,2,0,L|276:120,1,75.9999979705811,2|0,0:0|0:0,0:0:0:0:
180,24,80398,1,8,0:0:0:0:
180,24,80570,1,0,0:0:0:0:
180,252,80743,5,8,0:0:0:0:
292,240,80915,1,2,0:0:0:0:
128,104,81087,5,8,0:0:0:0:
62,241,81260,1,2,0:0:0:0:
244,300,81432,5,8,0:0:0:0:
99,178,81605,1,2,0:0:0:0:
216,372,81777,5,8,0:0:0:0:
428,284,81950,1,2,0:0:0:0:
220,116,82122,5,8,0:0:0:0:
144,372,82294,1,2,0:0:0:0:
268,52,82467,5,8,0:0:0:0:
344,308,82639,1,2,0:0:0:0:
196,44,82812,5,8,0:0:0:0:
203,310,82984,1,2,0:0:0:0:
184,32,83156,5,8,0:0:0:0:
367,225,83329,1,2,0:0:0:0:
84,216,83501,5,10,0:0:0:0:
110,242,83587,1,2,0:0:0:0:
147,247,83673,1,2,0:0:0:0:
179,229,83759,1,2,0:0:0:0:
194,194,83845,1,10,0:0:0:0:
209,160,83932,1,2,0:0:0:0:
240,142,84018,1,2,0:0:0:0:
278,147,84104,1,2,0:0:0:0:
304,173,84191,6,2,P|320:177|332:173,1,18.9999994926453
314,167,84277,2,2,P|330:166|341:159,1,18.9999994926453
323,159,84363,2,2,P|338:154|347:145,1,18.9999994926453
330,148,84450,2,2,P|344:139|349:128,1,18.9999994926453
334,137,84536,2,2,P|345:125|347:112,1,18.9999994926453,10|2,0:0|0:0,0:0:0:0:
334,124,84622,2,2,P|342:109|341:96,1,18.9999994926453
332,112,84708,2,2,P|336:96|331:84,1,18.9999994926453
326,102,84794,2,2,P|325:85|318:74,1,18.9999994926453
316,88,84881,5,10,0:0:0:0:
316,88,85743,5,8,0:0:0:0:
288,30,85829,1,8,0:0:0:0:
225,16,85915,1,2,0:0:0:0:
174,56,86001,1,2,0:0:0:0:
174,121,86087,1,2,0:0:0:0:
225,161,86174,1,0,0:0:0:0:
288,147,86260,5,6,0:0:0:0:
84,220,86432,1,0,0:0:0:0:
320,292,86605,1,8,0:0:0:0:
240,92,86777,1,0,0:0:0:0:
168,296,86950,1,0,0:0:0:0:
368,148,87122,1,2,0:0:0:0:
144,44,87294,1,8,0:0:0:0:
228,244,87467,1,0,0:0:0:0:
356,72,87639,5,0,0:0:0:0:
112,120,87812,1,2,0:0:0:0:
328,240,87984,5,8,0:0:0:0:
84,192,88156,1,0,0:0:0:0:
284,112,88329,1,0,0:0:0:0:
212,316,88501,1,2,0:0:0:0:
212,316,88587,1,0,0:0:0:0:
212,316,88674,1,8,0:0:0:0:
192,100,88846,1,0,0:0:0:0:
444,196,89019,5,2,0:0:0:0:
176,224,89191,1,2,0:0:0:0:
368,68,89363,2,0,L|384:144,1,54.0000002059937,8|0,0:0|0:0,0:0:0:0:
367,164,89536,2,0,L|356:112,1,54.0000002059937
92,240,89708,2,0,L|76:316,1,54.0000002059937
92,336,89881,2,0,L|103:283,1,54.0000002059937,2|0,0:0|0:0,0:0:0:0:
244,32,90053,5,8,0:0:0:0:
296,252,90225,1,0,0:0:0:0:
110,140,90398,2,0,B|201:142|201:142|180:156,1,108.000000411987,0|2,0:0|0:0,0:0:0:0:
100,304,90743,1,8,0:0:0:0:
48,287,90829,1,0,0:0:0:0:
48,233,90915,1,0,0:0:0:0:
100,216,91001,1,0,0:0:0:0:
131,260,91087,1,0,0:0:0:0:
68,291,91174,1,0,0:0:0:0:
18,242,91260,1,2,0:0:0:0:
50,179,91346,1,0,0:0:0:0:
119,190,91432,6,0,P|48:196|123:163,1,210.000002002716,8|0,0:0|0:0,0:0:0:0:
186,261,91777,1,6,0:0:0:0:
280,208,91950,1,0,0:0:0:0:
186,153,92122,1,8,0:0:0:0:
336,356,92294,1,0,0:0:0:0:
364,252,92467,1,0,0:0:0:0:
259,279,92639,1,2,0:0:0:0:
512,320,92812,1,8,0:0:0:0:
458,226,92984,1,0,0:0:0:0:
403,320,93156,5,0,0:0:0:0:
464,80,93329,1,2,0:0:0:0:
336,356,93501,5,8,0:0:0:0:
275,116,93674,1,0,0:0:0:0:
512,320,93846,5,0,0:0:0:0:
272,252,94019,1,2,0:0:0:0:
272,252,94105,1,0,0:0:0:0:
272,252,94191,1,8,0:0:0:0:
464,80,94363,1,0,0:0:0:0:
336,356,94536,5,2,0:0:0:0:
344,88,94708,1,2,0:0:0:0:
216,360,94881,6,0,P|160:352|232:332,1,210.000002002716,12|0,0:0|0:0,0:0:0:0:
192,328,95225,2,0,L|88:316,1,70.000000667572
340,284,95398,2,0,L|409:275,1,70.000000667572,2|0,0:0|0:0,0:0:0:0:
124,232,95570,6,0,P|100:188|120:136,1,108.000000411987,8|0,0:0|0:0,0:0:0:0:
336,192,95915,2,0,L|160:180,1,162.000000617981
188,140,96260,6,0,B|248:144|248:144|272:160|272:160|348:164,1,160,8|2,0:0|0:0,0:0:0:0:
356,128,96605,6,0,B|285:124|285:124|261:108|261:108|201:104,1,160,0|2,0:0|0:0,0:0:0:0:
119,136,96863,1,2,0:0:0:0:
75,192,96950,2,0,L|79:96,1,80,8|0,0:0|0:0,0:0:0:0:
40,88,97122,2,0,L|43:167,1,80,2|0,0:0|0:0,0:0:0:0:
160,328,97294,5,6,0:0:0:0:
268,320,97467,1,0,0:0:0:0:
376,308,97639,1,8,0:0:0:0:
248,136,97812,5,0,0:0:0:0:
208,230,97984,1,0,0:0:0:0:
160,328,98156,1,2,0:0:0:0:
376,308,98329,5,8,0:0:0:0:
308,224,98501,1,0,0:0:0:0:
248,136,98674,5,0,0:0:0:0:
268,320,98846,1,2,0:0:0:0:
396,124,99019,5,8,0:0:0:0:
376,308,99191,1,0,0:0:0:0:
176,168,99363,5,0,0:0:0:0:
376,20,99536,1,2,0:0:0:0:
436,260,99708,1,8,0:0:0:0:
236,112,99881,1,0,0:0:0:0:
500,4,100053,5,2,0:0:0:0:
508,284,100225,1,2,0:0:0:0:
252,188,100398,6,0,L|328:180,1,54.0000002059937,8|0,0:0|0:0,0:0:0:0:
336,216,100570,2,0,L|260:208,1,54.0000002059937
112,232,100743,6,0,L|58:226,1,54.0000002059937
28,260,100915,2,0,L|81:254,1,54.0000002059937,2|0,0:0|0:0,0:0:0:0:
324,300,101087,1,8,0:0:0:0:
348,84,101260,1,0,0:0:0:0:
148,160,101432,2,0,P|132:120|136:88,1,54.0000002059937
360,96,101605,2,0,P|356:122|343:146,1,54.0000002059937,2|0,0:0|0:0,0:0:0:0:
292,320,101777,5,8,0:0:0:0:
278,320,101863,1,0,0:0:0:0:
265,320,101949,1,0,0:0:0:0:
251,320,102035,1,0,0:0:0:0:
236,320,102122,5,0,0:0:0:0:
184,303,102208,1,0,0:0:0:0:
184,249,102295,1,2,0:0:0:0:
236,232,102381,1,0,0:0:0:0:
267,276,102467,6,0,P|331:260|255:256,1,210.000002002716,8|0,0:0|0:0,0:0:0:0:
392,304,102812,6,0,P|420:304|452:288,1,60,2|0,0:0|0:0,0:0:0:0:
512,124,103156,5,12,0:0:0:0:
272,55,103329,2,0,P|248:103|260:155,1,108.000000411987
500,124,103674,1,2,0:0:0:0:
272,254,103846,2,0,P|248:206|260:154,1,108.000000411987,8|0,0:0|0:0,0:0:0:0:
488,124,104191,5,0,0:0:0:0:
296,348,104363,2,0,P|243:349|200:316,1,108.000000411987,2|8,0:0|0:0,0:0:0:0:
476,124,104708,1,0,0:0:0:0:
272,254,104881,2,0,L|184:240,1,78.0000002975464
368,284,105053,2,0,L|445:296,1,78.0000002975464
112,352,105225,6,0,B|88:304|112:260|112:260|136:216|112:147,1,210.000002002716,8|0,0:0|0:0,0:0:0:0:
44,44,105570,5,6,0:0:0:0:
252,180,105743,1,2,0:0:0:0:
32,212,105915,2,0,B|28:172|28:172|12:156|12:156|8:84,1,108.000000411987,8|0,0:0|0:0,0:0:0:0:
252,180,106260,2,0,B|260:212|260:212|256:244,1,54.0000002059937
112,149,106432,2,0,B|109:128|109:128|117:96,1,54.0000002059937,2|0,0:0|0:0,0:0:0:0:
313,125,106605,6,0,B|335:212|335:212|320:284,1,138.000002632141,8|0,0:0|0:0,0:0:0:0:
264,308,106950,5,2,0:0:0:0:
264,308,107122,1,2,0:0:0:0:
236,100,107294,1,8,0:0:0:0:
184,320,107467,1,2,0:0:0:0:
296,52,107639,1,10,0:0:0:0:
296,52,108329,6,0,B|308:88|308:88|308:112|308:112|320:132|320:132|312:160|316:187,1,140,6|0,0:0|0:0,0:0:0:0:
348,264,109019,1,8,0:0:0:0:
304,261,109105,1,0,0:0:0:0:
260,258,109191,1,0,0:0:0:0:
216,255,109277,1,0,0:0:0:0:
172,253,109363,2,0,L|248:256,1,44.0000013427735
316,187,109536,5,2,0:0:0:0:
272,184,109622,1,0,0:0:0:0:
228,181,109708,1,0,0:0:0:0:
184,178,109794,1,0,0:0:0:0:
140,176,109881,2,0,L|215:178,1,44.0000013427735
288,112,110053,5,2,0:0:0:0:
244,109,110139,1,0,0:0:0:0:
200,106,110225,1,0,0:0:0:0:
156,103,110312,1,0,0:0:0:0:
112,101,110398,6,0,B|88:128|88:128|104:164|104:164|88:196|100:236,1,140,12|0,0:0|0:0,0:0:0:0:
136,300,111087,6,0,B|144:304|144:304|153:301|153:301|161:305|161:305|169:302|169:302|177:306|177:306|186:303|186:303|195:308|195:308|204:304|204:304|212:308,1,80,2|2,0:0|0:0,0:0:0:0:
240,317,111777,6,0,P|272:293|212:309,1,210.000008010865,12|0,0:0|0:0,0:0:0:0:
332,332,112467,6,0,P|347:291|341:248,1,88.000002685547,2|0,0:0|0:0,0:0:0:0:
256,104,112812,2,0,P|250:147|265:187,1,88.000002685547,0|2,0:0|0:0,0:0:0:0:
408,216,113070,1,2,0:0:0:0:
408,216,113156,2,0,L|504:216,1,88.000002685547,8|0,0:0|0:0,0:0:0:0:
256,104,113501,1,8,0:0:0:0:
208,308,113674,1,2,0:0:0:0:
364,136,113846,6,0,B|372:116|372:116|364:96|368:84|368:84|379:78|388:63|388:63|358:54|358:54|332:24,1,140,6|0,0:0|0:0,0:0:0:0:
272,36,114536,1,8,0:0:0:0:
239,65,114622,1,0,0:0:0:0:
197,76,114708,1,0,0:0:0:0:
154,66,114794,1,0,0:0:0:0:
121,39,114881,2,0,P|116:16|120:-8,1,44.0000013427735
296,112,115053,5,2,0:0:0:0:
294,156,115139,1,0,0:0:0:0:
272,194,115225,1,0,0:0:0:0:
236,217,115312,1,0,0:0:0:0:
192,221,115398,2,0,P|171:208|157:188,1,44.0000013427735
380,128,115570,5,2,0:0:0:0:
409,160,115656,1,0,0:0:0:0:
421,202,115743,1,0,0:0:0:0:
411,244,115829,1,0,0:0:0:0:
383,278,115915,6,0,B|287:278|287:278|287:291|287:291|176:290,1,210.000008010865,10|0,0:0|0:0,0:0:0:0:
104,288,116605,6,0,P|44:252|116:272,1,198.000001888275,2|0,0:0|0:0,0:0:0:0:
97,300,116950,6,0,P|37:264|117:284,1,240,2|0,0:0|0:0,0:0:0:0:
160,368,117294,1,10,0:0:0:0:
184,208,117467,1,0,0:0:0:0:
288,280,117639,1,0,0:0:0:0:
264,120,117812,1,0,0:0:0:0:
240,360,117984,5,10,0:0:0:0:
336,156,118156,1,0,0:0:0:0:
112,156,118329,1,0,0:0:0:0:
416,252,118501,5,10,0:0:0:0:
276,76,118674,1,0,0:0:0:0:
188,280,118846,1,0,0:0:0:0:
410,132,119019,1,10,0:0:0:0:
381,93,119105,1,0,0:0:0:0:
336,108,119191,1,0,0:0:0:0:
336,156,119277,1,0,0:0:0:0:
381,170,119363,6,0,P|404:153|347:165,1,210.000008010865,2|0,0:0|0:0,0:0:0:0:
360,252,120053,6,0,L|416:256,1,44.0000013427735,12|0,0:0|0:0,0:0:0:0:
276,204,120225,2,0,L|220:208,1,44.0000013427735
368,280,120398,2,0,L|424:284,1,44.0000013427735
128,168,120570,2,0,P|109:179|99:198,1,44.0000013427735,8|0,0:0|0:0,0:0:0:0:
199,135,120743,2,0,P|189:115|170:104,1,44.0000013427735
190,212,120915,2,0,P|211:215|231:206,1,44.0000013427735,2|0,0:0|0:0,0:0:0:0:
32,176,121087,6,0,B|28:212|28:212|36:232|36:232|28:280,1,90.0000034332277,8|0,0:0|0:0,0:0:0:0:
20,340,121432,1,10,0:0:0:0:
140,116,121605,6,0,B|192:212|192:212|184:284,1,160,2|0,0:0|0:0,0:0:0:0:
120,311,121863,2,0,B|186:262|186:262|258:293,1,160,2|0,0:0|0:0,0:0:0:0:
328,332,122122,6,0,L|351:342,6,15.0000005722046,2|0|0|0|0|0|0,0:0|0:0|0:0|0:0|0:0|0:0|0:0,0:0:0:0:
328,248,122467,2,0,B|312:184|312:184|328:124|328:124|304:56,1,198.000001888275,12|0,0:0|0:0,0:0:0:0:
228,24,122812,6,0,P|220:56|236:100,1,66.0000006294251
148,120,122984,2,0,P|164:148|207:168,1,66.0000006294251
160,244,123156,2,0,P|191:252|236:236,1,66.0000006294251
259,322,123329,2,0,P|287:305|307:262,1,66.0000006294251
304,58,123501,6,0,P|304:104|328:48,1,180.000006866455,2|0,0:0|0:0,0:0:0:0:
224,28,124105,1,2,0:0:0:0:
224,28,124191,2,0,B|132:12|132:12|84:28,1,132.00000402832,8|0,0:0|0:0,0:0:0:0:
32,60,124536,2,0,P|28:88|32:108,1,44.0000013427735,8|0,0:0|0:0,0:0:0:0:
216,148,124708,2,0,P|218:126|214:104,1,44.0000013427735,2|0,0:0|0:0,0:0:0:0:
88,232,124881,6,0,B|168:220|168:220|192:236|192:236|296:220,1,210.000008010865,6|0,0:0|0:0,0:0:0:0:
412,268,125570,5,8,0:0:0:0:
414,255,125656,1,0,0:0:0:0:
404,220,125743,5,0,0:0:0:0:
402,207,125829,1,0,0:0:0:0:
416,172,125915,6,0,L|420:128,1,44.0000013427735
320,184,126087,5,2,0:0:0:0:
322,171,126173,1,0,0:0:0:0:
312,136,126260,5,0,0:0:0:0:
310,123,126346,1,0,0:0:0:0:
324,88,126432,6,0,L|328:44,1,44.0000013427735
216,136,126605,5,2,0:0:0:0:
218,123,126691,1,0,0:0:0:0:
208,88,126778,5,0,0:0:0:0:
206,75,126864,1,0,0:0:0:0:
220,36,126950,6,0,B|280:52|280:112|280:112|268:132|268:132|280:156|280:156|264:176|276:216,1,210.000008010865,12|0,0:0|0:0,0:0:0:0:
432,352,127639,5,2,0:0:0:0:
288,316,127812,1,2,0:0:0:0:
464,284,127984,5,2,0:0:0:0:
288,244,128156,1,2,0:0:0:0:
496,216,128329,5,2,0:0:0:0:
292,172,128501,1,2,0:0:0:0:
363,357,128674,5,2,0:0:0:0:
366,334,128760,1,0,0:0:0:0:
370,312,128846,1,0,0:0:0:0:
374,290,128932,1,0,0:0:0:0:
377,268,129019,1,2,0:0:0:0:
354,287,129105,1,0,0:0:0:0:
327,300,129191,1,0,0:0:0:0:
298,307,129277,1,0,0:0:0:0:
268,307,129363,1,2,0:0:0:0:
239,300,129450,1,0,0:0:0:0:
213,286,129536,1,0,0:0:0:0:
190,266,129622,1,0,0:0:0:0:
173,241,129708,1,2,0:0:0:0:
162,213,129794,1,0,0:0:0:0:
159,184,129881,5,8,0:0:0:0:
133,130,129967,1,8,0:0:0:0:
74,117,130053,1,2,0:0:0:0:
27,154,130140,1,2,0:0:0:0:
27,214,130226,1,2,0:0:0:0:
74,252,130312,1,2,0:0:0:0:
133,239,130398,5,6,0:0:0:0:
256,264,141432,6,0,B|328:208|400:276|400:276|388:212|432:184|432:184|356:140|280:128|208:180|208:180|256:100|260:28|168:-40|64:64|92:120|160:148|196:120|176:80,1,840.000032043458,2|2,0:0|0:0,0:0:0:0:
104,232,144191,6,0,B|88:272|103:317|103:317|11:333|-56:217|23:81|192:132|192:228|192:228|168:272|184:308|208:328|228:344|268:340,1,660.000025177003,2|2,0:0|0:0,0:0:0:0:
261,340,146605,1,2,0:0:0:0:
468,144,146950,6,0,L|392:124,1,60.0000022888184,2|2,0:0|0:0,0:0:0:0:
280,192,147294,2,0,L|356:172,1,60.0000022888184,2|2,0:0|0:0,0:0:0:0:
468,68,147639,6,0,L|392:48,1,60.0000022888184,2|2,0:0|0:0,0:0:0:0:
280,116,147983,2,0,L|356:96,1,60.0000022888184,2|2,0:0|0:0,0:0:0:0:
460,228,148329,5,2,0:0:0:0:
460,228,148501,1,2,0:0:0:0:
304,368,148674,1,2,0:0:0:0:
304,368,148846,1,2,0:0:0:0:
228,172,149019,1,2,0:0:0:0:
228,172,149191,1,2,0:0:0:0:
388,308,149363,1,2,0:0:0:0:
388,308,149536,1,2,0:0:0:0:
188,364,149708,5,2,0:0:0:0:
146,349,149794,1,2,0:0:0:0:
122,311,149880,1,2,0:0:0:0:
127,267,149966,1,2,0:0:0:0:
158,236,150052,1,2,0:0:0:0:
200,221,150139,1,2,0:0:0:0:
224,184,150225,1,2,0:0:0:0:
219,140,150311,1,2,0:0:0:0:
188,108,150398,5,2,0:0:0:0:
228,127,150484,1,2,0:0:0:0:
273,129,150570,1,2,0:0:0:0:
315,115,150656,1,2,0:0:0:0:
349,85,150742,1,2,0:0:0:0:
382,55,150829,1,2,0:0:0:0:
425,41,150915,1,2,0:0:0:0:
469,43,151001,1,2,0:0:0:0:
510,62,151087,2,0,P|516:72|520:84,1,15.0000005722046
508,80,151174,2,0,P|511:91|511:103,1,15.0000005722046
500,96,151260,2,0,P|500:107|497:120,1,15.0000005722046
489,109,151347,2,0,P|486:120|480:131,1,15.0000005722046
476,120,151432,2,0,P|470:130|461:139,1,15.0000005722046
458,126,151519,2,0,P|449:134|439:141,1,15.0000005722046
440,127,151605,2,0,P|429:133|417:136,1,15.0000005722046
424,124,151692,2,0,P|412:127|400:127,1,15.0000005722046
408,116,151777,5,0,0:0:0:0:
492,204,152467,6,0,B|396:244|396:168|280:208,1,210.000008010865,6|0,0:0|0:0,0:0:0:0:
340,279,153156,6,0,P|283:116|241:284,1,462.000004405975
287,205,153846,6,0,B|252:184|252:184|159:185,1,120.000004577637,6|0,0:0|0:0,0:0:0:0:
312,352,154363,2,0,B|351:363|351:363|440:338,1,120.000004577637,6|0,0:0|0:0,0:0:0:0:
332,100,154881,6,0,B|252:84|252:84|208:108|208:108|112:92,1,210.000008010865,6|0,0:0|0:0,0:0:0:0:
55,100,155570,2,0,P|62:131|85:154,1,66.0000006294251
40,212,155743,2,0,P|67:229|99:229,1,66.0000006294251
108,308,155915,2,0,P|139:301|162:278,1,66.0000006294251
228,328,156087,2,0,P|245:300|245:268,1,66.0000006294251
224,176,156260,1,0,0:0:0:0:
200,143,156346,1,0,0:0:0:0:
163,156,156433,1,0,0:0:0:0:
163,195,156519,1,0,0:0:0:0:
200,208,156605,6,0,B|296:196|296:196|272:192,1,120.000004577637,6|0,0:0|0:0,0:0:0:0:
88,176,157122,2,0,B|-8:164|-8:164|16:160,1,120.000004577637,6|0,0:0|0:0,0:0:0:0:
284,120,157639,6,0,B|448:124|448:124|400:140,1,210.000008010865,6|0,0:0|0:0,0:0:0:0:
360,196,158329,6,0,B|352:216|352:216|360:232|360:232|352:256|352:256|356:272,1,60.0000022888184
503,294,158674,6,0,B|505:268|488:240|488:240|464:228|440:240|440:240|428:264|429:295,1,160
464,264,159019,6,0,B|467:238|467:238|459:222|459:222|467:202|467:202|459:178,1,90.0000034332277
432,112,159363,6,0,L|312:104,1,120.000004577637,6|0,0:0|0:0,0:0:0:0:
128,192,159881,2,0,L|248:184,1,120.000004577637,6|0,0:0|0:0,0:0:0:0:
404,36,160398,6,0,B|236:20|236:20|280:48,1,210.000008010865,6|0,0:0|0:0,0:0:0:0:
376,164,161087,2,0,B|394:171|415:164|415:164|397:198|397:247|397:247|380:232|356:228,1,160
244,252,161346,1,0,0:0:0:0:
212,228,161432,1,0,0:0:0:0:
173,223,161518,1,0,0:0:0:0:
136,239,161605,2,0,L|123:311,1,44.0000013427735,2|0,0:0|0:0,0:0:0:0:
272,184,161777,1,8,0:0:0:0:
288,148,161863,1,0,0:0:0:0:
288,108,161949,1,0,0:0:0:0:
264,76,162035,1,0,0:0:0:0:
228,64,162122,6,0,L|336:56,1,88.000002685547,6|0,0:0|0:0,0:0:0:0:
152,148,162467,2,0,L|44:140,1,88.000002685547,8|0,0:0|0:0,0:0:0:0:
376,12,162812,2,0,P|392:48|376:104,1,88.000002685547,0|2,0:0|0:0,0:0:0:0:
64,141,163156,2,0,P|54:98|70:58,1,88.000002685547,10|0,0:0|0:0,0:0:0:0:
320,140,163501,6,0,L|328:208,1,60.0000022888184,2|0,0:0|0:0,0:0:0:0:
160,308,163846,2,0,L|167:248,1,60.0000022888184,10|0,0:0|0:0,0:0:0:0:
399,215,164191,2,0,P|393:244|371:264,1,60.0000022888184,2|0,0:0|0:0,0:0:0:0:
120,192,164536,2,0,P|145:176|174:178,1,60.0000022888184,10|0,0:0|0:0,0:0:0:0:
372,340,164881,6,0,L|304:328,1,60.0000022888184,2|0,0:0|0:0,0:0:0:0:
212,112,165225,2,0,L|280:124,1,60.0000022888184,10|0,0:0|0:0,0:0:0:0:
244,368,165570,2,0,P|236:332|244:300,1,60.0000022888184,2|0,0:0|0:0,0:0:0:0:
348,100,165915,2,0,P|351:129|343:158,1,60.0000022888184,10|0,0:0|0:0,0:0:0:0:
167,248,166260,6,0,L|103:252,1,60.0000022888184,2|0,0:0|0:0,0:0:0:0:
212,112,166605,2,0,L|276:116,1,60.0000022888184,10|0,0:0|0:0,0:0:0:0:
59,304,166950,6,0,L|-5:308,1,60.0000022888184,2|0,0:0|0:0,0:0:0:0:
252,184,167295,2,0,L|316:188,1,60.0000022888184,10|0,0:0|0:0,0:0:0:0:
32,232,167639,6,0,P|20:204|24:175,1,60.0000022888184,2|0,0:0|0:0,0:0:0:0:
252,260,167984,2,0,P|256:289|244:316,1,60.0000022888184,10|0,0:0|0:0,0:0:0:0:
60,112,168329,2,0,L|132:108,1,60.0000022888184,2|0,0:0|0:0,0:0:0:0:
176,352,168674,2,0,L|116:348,1,60.0000022888184,10|0,0:0|0:0,0:0:0:0:
272,104,169019,5,8,0:0:0:0:
200,104,169191,1,2,0:0:0:0:
296,88,169363,5,8,0:0:0:0:
179,121,169535,1,2,0:0:0:0:
320,96,169708,5,8,0:0:0:0:
152,112,169881,1,2,0:0:0:0:
328,124,170053,5,8,0:0:0:0:
144,88,170225,1,2,0:0:0:0:
320,152,170398,5,8,0:0:0:0:
156,60,170570,1,2,0:0:0:0:
344,168,170743,5,8,0:0:0:0:
116,60,170915,1,2,0:0:0:0:
344,200,171087,5,8,0:0:0:0:
128,28,171260,1,2,0:0:0:0:
320,224,171432,5,8,0:0:0:0:
156,0,171605,1,2,0:0:0:0:
208,268,171777,5,2,0:0:0:0:
175,286,171863,1,2,0:0:0:0:
138,288,171949,1,2,0:0:0:0:
104,273,172035,1,2,0:0:0:0:
81,244,172122,1,2,0:0:0:0:
114,229,172208,1,2,0:0:0:0:
134,198,172294,1,2,0:0:0:0:
132,161,172380,1,2,0:0:0:0:
124,132,172467,6,0,P|136:132|144:128,1,15.0000005722046,2|0,0:0|0:0,0:0:0:0:
131,135,172553,2,0,P|142:131|149:125,1,15.0000005722046
140,136,172639,2,0,P|150:130|155:122,1,15.0000005722046
148,135,172725,2,0,P|156:126|159:118,1,15.0000005722046
156,131,172812,2,0,P|162:120|162:111,1,15.0000005722046,2|0,0:0|0:0,0:0:0:0:
162,126,172898,2,0,P|165:114|163:105,1,15.0000005722046
168,120,172984,2,0,P|168:108|164:100,1,15.0000005722046,2|2,0:0|0:0,0:0:0:0:
171,112,173070,2,0,P|167:100|161:93,1,15.0000005722046,2|2,0:0|0:0,0:0:0:0:
156,92,173156,5,8,0:0:0:0:
156,92,174019,1,8,0:0:0:0:
97,120,174105,1,8,0:0:0:0:
82,185,174192,1,2,0:0:0:0:
123,236,174278,1,2,0:0:0:0:
189,236,174364,1,2,0:0:0:0:
230,185,174450,1,2,0:0:0:0:
216,120,174536,6,0,P|208:84|220:40,1,58.0000017700196,6|0,0:0|0:0,0:0:0:0:
360,16,174708,2,0,P|362:44|354:72,1,58.0000017700196
304,232,174881,1,2,0:0:0:0:
304,232,174967,1,0,0:0:0:0:
304,232,175053,2,0,P|296:268|304:296,1,58.0000017700196
119,292,175225,1,2,0:0:0:0:
119,292,175311,1,0,0:0:0:0:
119,292,175397,2,0,P|127:256|119:228,1,58.0000017700196
64,56,175570,5,2,0:0:0:0:
32,102,175656,1,0,0:0:0:0:
50,155,175742,1,0,0:0:0:0:
102,173,175828,1,0,0:0:0:0:
149,142,175915,2,0,P|184:128|216:128,1,58.0000017700196,2|0,0:0|0:0,0:0:0:0:
304,232,176087,2,0,P|275:228|249:215,1,58.0000017700196
200,48,176260,1,2,0:0:0:0:
200,48,176346,1,0,0:0:0:0:
200,48,176432,2,0,P|228:51|254:64,1,58.0000017700196
396,176,176605,5,2,0:0:0:0:
390,192,176691,1,0,0:0:0:0:
373,192,176777,1,0,0:0:0:0:
367,176,176863,1,0,0:0:0:0:
382,165,176950,1,2,0:0:0:0:
436,182,177036,1,0,0:0:0:0:
436,240,177122,1,0,0:0:0:0:
381,257,177208,1,0,0:0:0:0:
346,210,177294,6,0,L|336:148,1,58.0000017700196,2|0,0:0|0:0,0:0:0:0:
448,48,177467,2,0,L|438:105,1,58.0000017700196
272,248,177639,1,2,0:0:0:0:
215,259,177725,1,0,0:0:0:0:
162,239,177811,1,0,0:0:0:0:
128,193,177897,1,0,0:0:0:0:
124,136,177984,2,0,L|140:68,1,58.0000017700196,2|0,0:0|0:0,0:0:0:0:
48,248,178156,2,0,L|60:304,1,58.0000017700196
272,248,178329,5,2,0:0:0:0:
278,190,178415,1,0,0:0:0:0:
285,132,178501,1,0,0:0:0:0:
292,75,178587,1,0,0:0:0:0:
298,17,178674,2,0,L|232:12,1,58.0000017700196,2|0,0:0|0:0,0:0:0:0:
364,120,178846,2,0,L|421:115,1,58.0000017700196
185,94,179019,1,2,0:0:0:0:
161,145,179105,1,0,0:0:0:0:
172,201,179191,1,0,0:0:0:0:
214,240,179277,1,0,0:0:0:0:
272,248,179363,2,0,L|336:244,1,58.0000017700196,2|0,0:0|0:0,0:0:0:0:
185,94,179536,2,0,L|127:90,1,58.0000017700196
236,320,179708,6,0,B|268:332|268:332|296:320|296:320|328:332|328:332|356:320|356:320|392:332|392:332|428:324|428:324|462:333,1,240,2|0,0:0|0:0,0:0:0:0:
508,360,180053,6,0,L|504:280,1,58.0000017700196,2|0,0:0|0:0,0:0:0:0:
421,115,180225,2,0,L|418:172,1,58.0000017700196
356,322,180398,1,2,0:0:0:0:
304,347,180484,1,0,0:0:0:0:
247,345,180570,1,0,0:0:0:0:
197,316,180656,1,0,0:0:0:0:
167,267,180743,2,0,P|160:232|168:196,1,58.0000017700196,2|0,0:0|0:0,0:0:0:0:
361,265,180915,2,0,P|363:293|355:321,1,58.0000017700196
48,226,181087,5,2,0:0:0:0:
105,218,181173,1,0,0:0:0:0:
162,210,181259,1,0,0:0:0:0:
220,203,181345,1,0,0:0:0:0:
280,195,181432,2,0,P|290:169|290:140,1,58.0000017700196,2|0,0:0|0:0,0:0:0:0:
37,170,181605,2,0,P|37:198|47:225,1,58.0000017700196
272,312,181777,5,2,0:0:0:0:
328,300,181863,1,0,0:0:0:0:
370,261,181949,1,0,0:0:0:0:
385,206,182035,1,0,0:0:0:0:
369,151,182122,2,0,P|360:116|368:84,1,58.0000017700196,2|0,0:0|0:0,0:0:0:0:
496,192,182294,2,0,P|498:220|490:248,1,58.0000017700196
272,312,182467,5,2,0:0:0:0:
214,306,182553,1,0,0:0:0:0:
156,300,182639,1,0,0:0:0:0:
98,294,182725,1,0,0:0:0:0:
41,288,182812,2,0,L|36:216,1,58.0000017700196,2|0,0:0|0:0,0:0:0:0:
200,176,182984,2,0,L|195:233,1,58.0000017700196
48,80,183156,6,0,B|140:68|140:68|176:92|176:92|300:72,1,240,2|0,0:0|0:0,0:0:0:0:
360,52,183501,1,2,0:0:0:0:
360,66,183587,1,0,0:0:0:0:
361,80,183673,1,0,0:0:0:0:
362,95,183759,1,0,0:0:0:0:
364,112,183846,2,0,L|428:112,1,58.0000017700196,2|0,0:0|0:0,0:0:0:0:
272,188,184019,2,0,L|208:188,1,58.0000017700196
420,188,184191,6,0,P|432:212|432:244,1,58.0000017700196,2|0,0:0|0:0,0:0:0:0:
280,312,184363,1,0,0:0:0:0:
280,312,184450,1,0,0:0:0:0:
280,312,184536,2,0,B|244:304|244:304|236:308|236:308|192:296,1,80,2|0,0:0|0:0,0:0:0:0:
68,208,184708,1,0,0:0:0:0:
60,128,184794,1,0,0:0:0:0:
48,48,184881,2,0,B|80:44|80:44|92:48|92:48|136:44,1,80
208,32,185053,6,0,P|228:37|240:52,1,25.9999988098145
196,136,185225,2,0,P|184:142|172:144,1,25.9999988098145
300,116,185398,2,0,P|308:126|311:138,1,25.9999988098145
44,256,185570,5,6,0:0:0:0:
85,216,185656,1,0,0:0:0:0:
141,204,185742,1,0,0:0:0:0:
195,223,185828,1,0,0:0:0:0:
232,267,185914,1,10,0:0:0:0:
268,310,186001,1,0,0:0:0:0:
322,329,186087,1,0,0:0:0:0:
378,317,186173,1,0,0:0:0:0:
420,278,186260,6,0,L|428:216,1,58.0000017700196,2|0,0:0|0:0,0:0:0:0:
300,116,186432,2,0,L|307:173,1,58.0000017700196
424,92,186605,1,10,0:0:0:0:
394,42,186691,1,0,0:0:0:0:
346,11,186777,1,0,0:0:0:0:
289,4,186863,1,0,0:0:0:0:
235,23,186950,6,0,P|212:41|200:67,1,58.0000017700196,2|0,0:0|0:0,0:0:0:0:
300,229,187122,2,0,P|309:201|306:173,1,58.0000017700196
132,36,187294,1,10,0:0:0:0:
127,93,187380,1,0,0:0:0:0:
122,151,187466,1,0,0:0:0:0:
117,209,187552,1,0,0:0:0:0:
113,267,187639,2,0,L|184:260,1,58.0000017700196,2|0,0:0|0:0,0:0:0:0:
59,119,187812,2,0,L|1:113,1,58.0000017700196
200,340,187984,5,10,0:0:0:0:
245,306,188070,1,0,0:0:0:0:
259,251,188156,1,0,0:0:0:0:
235,200,188242,1,0,0:0:0:0:
183,176,188329,2,0,P|152:168|125:174,1,58.0000017700196,2|0,0:0|0:0,0:0:0:0:
245,306,188501,2,0,P|273:311|300:303,1,58.0000017700196
456,112,188674,5,10,0:0:0:0:
399,101,188760,1,0,0:0:0:0:
342,90,188846,1,0,0:0:0:0:
285,79,188932,1,0,0:0:0:0:
228,68,189019,2,0,L|235:139,1,58.0000017700196,2|0,0:0|0:0,0:0:0:0:
408,240,189191,2,0,L|415:168,1,58.0000017700196
236,200,189363,5,8,0:0:0:0:
205,248,189449,1,0,0:0:0:0:
213,304,189535,1,0,0:0:0:0:
256,342,189621,1,0,0:0:0:0:
312,343,189708,2,0,L|376:332,1,58.0000017700196,2|0,0:0|0:0,0:0:0:0:
160,184,189881,1,0,0:0:0:0:
160,184,189967,1,0,0:0:0:0:
160,184,190053,2,0,L|96:173,1,58.0000017700196,10|0,0:0|0:0,0:0:0:0:
350,249,190225,1,0,0:0:0:0:
350,249,190311,1,0,0:0:0:0:
350,249,190398,2,0,L|414:238,1,58.0000017700196,2|0,0:0|0:0,0:0:0:0:
160,104,190570,2,0,L|102:94,1,58.0000017700196,2|0,0:0|0:0,0:0:0:0:
388,164,190743,6,0,P|448:112|376:152,1,240,10|0,0:0|0:0,0:0:0:0:
410,131,191087,5,14,0:0:0:0:
367,93,191173,1,0,0:0:0:0:
311,93,191259,1,0,0:0:0:0:
269,131,191345,1,0,0:0:0:0:
236,212,191431,5,10,0:0:0:0:
192,249,191518,1,0,0:0:0:0:
135,254,191604,1,0,0:0:0:0:
87,225,191690,1,0,0:0:0:0:
60,144,191777,6,0,L|136:136,1,58.0000017700196,10|0,0:0|0:0,0:0:0:0:
320,292,191950,2,0,L|244:284,1,58.0000017700196
152,56,192122,5,10,0:0:0:0:
196,90,192208,1,0,0:0:0:0:
210,146,192294,1,0,0:0:0:0:
186,197,192380,1,0,0:0:0:0:
87,225,192466,5,10,0:0:0:0:
49,267,192553,1,0,0:0:0:0:
49,324,192639,1,0,0:0:0:0:
87,366,192725,1,0,0:0:0:0:
168,380,192812,6,0,L|176:312,1,58.0000017700196,10|0,0:0|0:0,0:0:0:0:
53,86,192984,2,0,L|59:143,1,58.0000017700196
240,256,193156,2,0,P|288:248|232:248,1,174.000005310059,10|0,0:0|0:0,0:0:0:0:
260,228,193501,6,0,B|448:228|448:228|360:200,1,240,10|0,0:0|0:0,0:0:0:0:
224,112,193846,6,0,P|197:100|168:102,1,58.0000017700196,10|0,0:0|0:0,0:0:0:0:
44,220,194019,2,0,P|72:221|99:210,1,58.0000017700196,10|0,0:0|0:0,0:0:0:0:
152,24,194191,6,0,P|125:34|105:56,1,58.0000017700196,10|0,0:0|0:0,0:0:0:0:
148,280,194363,2,0,P|169:260|180:233,1,58.0000017700196,10|0,0:0|0:0,0:0:0:0:
36,32,194536,6,0,L|32:100,1,58.0000017700196,10|0,0:0|0:0,0:0:0:0:
252,248,194708,2,0,L|248:190,1,58.0000017700196,10|0,0:0|0:0,0:0:0:0:
88,144,194881,1,10,0:0:0:0:
80,156,194967,2,0,L|76:224,2,58.0000017700196
152,24,195225,5,8,0:0:0:0:
173,12,195311,1,0,0:0:0:0:
198,7,195397,1,0,0:0:0:0:
222,11,195483,1,0,0:0:0:0:
245,22,195569,1,8,0:0:0:0:
267,33,195656,1,0,0:0:0:0:
291,36,195742,1,0,0:0:0:0:
316,32,195828,1,0,0:0:0:0:
338,20,195914,1,2,0:0:0:0:
338,20,196260,5,10,0:0:0:0:
368,248,196432,1,0,0:0:0:0:
36,124,196605,6,0,P|88:92|164:104,1,116.000003540039,6|0,0:0|0:0,0:0:0:0:
368,248,196950,1,10,0:0:0:0:
140,284,197122,2,0,P|108:232|120:156,1,116.000003540039,0|2,0:0|0:0,0:0:0:0:
316,0,197467,1,0,0:0:0:0:
308,180,197639,2,0,P|256:212|180:200,1,116.000003540039,8|0,0:0|0:0,0:0:0:0:
40,28,197984,5,2,0:0:0:0:
316,0,198156,2,0,L|432:3,1,116.000003540039,0|10,0:0|0:0,0:0:0:0:
368,248,198501,1,0,0:0:0:0:
124,36,198674,2,0,L|239:33,1,116.000003540039,2|0,0:0|0:0,0:0:0:0:
436,280,199019,2,0,L|320:277,1,116.000003540039,10|0,0:0|0:0,0:0:0:0:
64,136,199363,6,0,B|132:124|132:124|156:132|156:132|239:118,1,174.000005310059,2|0,0:0|0:0,0:0:0:0:
320,124,199708,2,0,P|315:152|300:177,1,58.0000017700196,10|0,0:0|0:0,0:0:0:0:
280,40,199881,2,0,P|303:23|331:16,1,58.0000017700196
234,118,200053,2,0,P|205:113|180:98,1,58.0000017700196,2|0,0:0|0:0,0:0:0:0:
392,64,200225,2,0,P|408:87|415:115,1,58.0000017700196
376,288,200398,2,0,B|296:300|296:300|244:284,1,116.000003540039,10|0,0:0|0:0,0:0:0:0:
180,98,200743,6,0,P|214:143|215:200,1,116.000003540039,2|0,0:0|0:0,0:0:0:0:
104,356,201087,1,8,0:0:0:0:
65,343,201174,1,0,0:0:0:0:
65,302,201260,1,0,0:0:0:0:
104,290,201346,1,0,0:0:0:0:
127,323,201432,1,2,0:0:0:0:
64,354,201519,1,0,0:0:0:0:
14,305,201605,1,0,0:0:0:0:
47,243,201691,1,0,0:0:0:0:
114,254,201777,6,0,P|179:240|95:228,1,240,10|0,0:0|0:0,0:0:0:0:
139,216,202122,6,0,L|259:220,1,116.000003540039,6|0,0:0|0:0,0:0:0:0:
372,176,202467,1,10,0:0:0:0:
36,116,202639,2,0,L|151:112,1,116.000003540039,0|2,0:0|0:0,0:0:0:0:
372,176,202984,1,0,0:0:0:0:
28,284,203156,2,0,L|143:287,1,116.000003540039,10|0,0:0|0:0,0:0:0:0:
372,176,203501,6,0,P|392:120|368:56,1,116.000003540039,2|0,0:0|0:0,0:0:0:0:
139,179,203846,2,0,P|123:234|143:287,1,116.000003540039,10|0,0:0|0:0,0:0:0:0:
464,184,204191,2,0,B|484:128|484:128|464:68,1,116.000003540039,2|0,0:0|0:0,0:0:0:0:
208,228,204536,2,0,L|328:240,1,116.000003540039,10|0,0:0|0:0,0:0:0:0:
240,40,204881,6,0,B|120:28|120:28|56:56,1,174.000005310059,2|0,0:0|0:0,0:0:0:0:
24,112,205225,2,0,P|-36:116|20:100,1,160,10|0,0:0|0:0,0:0:0:0:
248,124,205570,2,0,L|324:120,1,58.0000017700196,2|0,0:0|0:0,0:0:0:0:
104,168,205743,2,0,L|161:164,1,58.0000017700196
364,176,205915,2,0,P|389:125|372:71,1,116.000003540039,10|0,0:0|0:0,0:0:0:0:
160,240,206260,6,0,L|152:376,1,116.000003540039,2|0,0:0|0:0,0:0:0:0:
168,364,206605,6,0,L|180:192,1,160,10|0,0:0|0:0,0:0:0:0:
204,176,206950,6,0,B|199:216|199:216|208:268|208:268|192:335,1,160,0|10,0:0|0:0,0:0:0:0:
328,304,207294,6,0,B|328:280|328:280|272:320,2,80
480,364,207639,5,2,0:0:0:0:
456,104,207812,1,8,0:0:0:0:
391,64,207898,1,8,0:0:0:0:
320,86,207984,1,2,0:0:0:0:
288,154,208070,1,2,0:0:0:0:
317,223,208156,1,2,0:0:0:0:
388,247,208243,1,2,0:0:0:0:
453,211,208329,5,6,0:0:0:0:
232,84,208501,1,0,0:0:0:0:
236,340,208674,1,10,0:0:0:0:
376,128,208846,1,0,0:0:0:0:
68,184,209019,5,2,0:0:0:0:
316,244,209191,1,0,0:0:0:0:
240,0,209363,1,10,0:0:0:0:
184,248,209536,1,0,0:0:0:0:
488,132,209708,5,2,0:0:0:0:
236,84,209881,1,0,0:0:0:0:
324,324,210053,1,10,0:0:0:0:
368,72,210225,1,0,0:0:0:0:
140,304,210398,6,0,L|280:284,1,116.000003540039,2|0,0:0|0:0,0:0:0:0:
164,36,210743,2,0,L|96:28,1,58.0000017700196,10|0,0:0|0:0,0:0:0:0:
76,52,210915,2,0,L|144:44,1,58.0000017700196
344,180,211087,2,0,L|276:188,1,58.0000017700196,2|0,0:0|0:0,0:0:0:0:
256,164,211259,2,0,L|324:172,1,58.0000017700196
116,136,211432,2,0,L|1:119,1,116.000003540039,10|0,0:0|0:0,0:0:0:0:
400,236,211777,6,0,P|420:184|388:112,1,116.000003540039,2|0,0:0|0:0,0:0:0:0:
120,208,212122,1,8,0:0:0:0:
131,247,212208,1,0,0:0:0:0:
172,258,212294,1,0,0:0:0:0:
202,229,212380,1,0,0:0:0:0:
193,189,212466,1,2,0:0:0:0:
185,121,212553,1,0,0:0:0:0:
246,91,212639,1,0,0:0:0:0:
295,138,212725,1,0,0:0:0:0:
267,200,212812,6,0,B|279:30|279:30|323:126,1,240,10|0,0:0|0:0,0:0:0:0:
344,244,213156,5,14,0:0:0:0:
92,208,213329,1,2,0:0:0:0:
92,208,213501,1,2,0:0:0:0:
368,168,213674,5,8,0:0:0:0:
124,280,213846,1,2,0:0:0:0:
124,280,214019,1,2,0:0:0:0:
300,96,214191,5,8,0:0:0:0:
332,348,214363,1,2,0:0:0:0:
256,16,214536,5,10,0:0:0:0:
224,268,214708,1,2,0:0:0:0:
468,128,214881,5,2,0:0:0:0:
216,96,215053,1,8,0:0:0:0:
436,304,215225,5,2,0:0:0:0:
468,52,215397,1,2,0:0:0:0:
148,124,215570,5,10,0:0:0:0:
148,124,215656,1,2,0:0:0:0:
148,124,215743,1,2,0:0:0:0:
436,304,215915,6,0,B|388:276|388:276|296:296,1,116.000003540039,6|0,0:0|0:0,0:0:0:0:
184,324,216174,1,2,0:0:0:0:
160,344,216260,2,0,B|219:356|219:356|267:328,1,116.000003540039,10|0,0:0|0:0,0:0:0:0:
332,216,216519,1,2,0:0:0:0:
340,196,216605,2,0,P|344:152|328:120,1,58.0000017700196,2|0,0:0|0:0,0:0:0:0:
224,200,216777,2,0,P|218:228|224:256,1,58.0000017700196,2|0,0:0|0:0,0:0:0:0:
392,72,216950,2,0,P|337:55|283:74,1,116.000003540039,10|0,0:0|0:0,0:0:0:0:
152,196,217208,1,2,0:0:0:0:
144,216,217294,6,0,L|136:296,3,58.0000017700196,2|2|2|2,0:0|0:0|0:0|0:0,0:0:0:0:
200,120,217639,2,0,L|194:62,3,58.0000017700196,2|2|2|2,0:0|0:0|0:0|0:0,0:0:0:0:
224,256,217984,6,0,L|216:336,3,58.0000017700196,2|2|2|2,0:0|0:0|0:0|0:0,0:0:0:0:
280,140,218329,1,0,2:2:0:0:
20,360,218674,5,6,0:0:0:0:
