osu file format v14

[General]
AudioFilename: audio.mp3
AudioLeadIn: 0
PreviewTime: -1
Countdown: 0
SampleSet: None
StackLeniency: 0.3
Mode: 0
LetterboxInBreaks: 0
WidescreenStoryboard: 0

[Editor]
DistanceSpacing: 1.2
BeatDivisor: 4
GridSize: 8
TimelineZoom: 2.950003

[Metadata]
Title:PLANET//SHAPER
TitleUnicode:PLANET//SHAPER
Artist:Camellia
ArtistUnicode:かめりあ
Creator:Violet-Fox
Version:BED//ROCK
Source:
Tags:
BeatmapID:1774203
BeatmapSetID:848441

[Difficulty]
HPDrainRate:6
CircleSize:4.3
OverallDifficulty:8
ApproachRate:9.5
SliderMultiplier:1
SliderTickRate:1

[Events]
//Background and Video events
0,0,"IMG.jpg",0,0
//Break Periods
//Storyboard Layer 0 (Background)
//Storyboard Layer 1 (Fail)
//Storyboard Layer 2 (Pass)
//Storyboard Layer 3 (Foreground)
//Storyboard Sound Samples

[TimingPoints]
374,408.163265306122,4,1,0,100,1,0
2006,-200,4,2,0,5,0,0
8537,-200,4,2,0,10,0,0
22822,-200,4,2,0,20,0,0
24455,-200,4,2,0,80,0,0
24863,-25,4,3,0,30,0,0
25476,-33.3333333333333,4,3,0,30,0,0
26292,-25,4,3,0,30,0,0
27108,-28.5714285714286,4,3,0,30,0,0
27414,-33.3333333333333,4,3,0,30,0,0
27720,-50,4,3,0,30,0,0
28129,-66.6666666666667,4,3,0,80,0,0
33843,-222.222222222222,4,3,0,80,0,0
34659,-66.6666666666667,4,3,0,80,0,0
40373,-200,4,3,0,80,0,0
41190,-66.6666666666667,4,3,0,80,0,0
46904,-500,4,3,0,80,0,0
47720,-66.6666666666667,4,3,0,80,0,0
51904,-35.7142857142857,4,3,0,80,0,0
53435,-25,4,3,0,80,0,0
54251,-50,4,3,0,80,0,0
64047,-50,4,3,0,40,0,0
64455,-50,4,3,0,80,0,0
73435,-133.333333333333,4,3,0,80,0,0
73843,-50,4,3,0,80,0,0
76700,-100,4,3,0,80,0,0
80373,-40,4,3,0,80,0,0
99965,-80,4,3,0,80,0,0
100373,-40,4,3,0,80,0,0
106088,-40,4,3,0,60,0,0
106496,-40,4,3,0,40,0,0
117516,-40,4,3,0,50,0,0
117925,-40,4,3,0,60,0,0
118333,-40,4,3,0,70,0,0
118741,-40,4,3,0,80,0,0
119149,-40,4,3,0,90,0,0
119557,-40,4,3,0,100,0,0
129353,-40,4,3,0,50,0,0
130986,-40,4,3,0,100,0,0
132618,-40,4,3,0,60,0,0
152210,-40,4,3,0,80,0,0
153843,-40,4,3,0,90,0,0
155476,-40,4,3,0,100,0,0
157108,-40,4,3,0,70,0,0
158741,-40,4,3,0,100,0,0

[HitObjects]
370,114,2006,6,0,B|343:142|345:183|345:183|284:149|234:188,1,187.5
92,157,3639,6,0,B|130:138|168:142|168:142|126:185|136:242,1,187.5
266,328,5271,6,0,B|238:279|212:278|212:278|173:329|113:321,1,187.5
344,183,6904,6,0,B|359:214|368:254|368:254|312:298|351:356,1,187.5
486,227,8537,6,0,L|483:246,1,12.5
484,239,8741,1,0,0:0:0:0:
366,189,8945,6,0,L|369:208,1,12.5
368,201,9149,1,0,0:0:0:0:
262,273,9353,6,0,L|266:250,1,12.5
264,260,9557,1,0,0:0:0:0:
264,260,9659,1,0,0:0:0:0:
165,198,9761,6,0,L|169:175,1,12.5
167,185,9965,1,0,0:0:0:0:
167,186,10067,1,0,0:0:0:0:
77,110,10169,5,0,0:0:0:0:
67,100,10271,1,0,0:0:0:0:
62,86,10374,1,0,0:0:0:0:
94,51,10476,1,0,0:0:0:0:
138,33,10578,1,0,0:0:0:0:
185,34,10680,1,0,0:0:0:0:
227,55,10782,1,0,0:0:0:0:
250,96,10884,1,0,0:0:0:0:
263,147,10986,5,0,0:0:0:0:
307,191,11088,1,0,0:0:0:0:
367,206,11190,1,0,0:0:0:0:
428,196,11292,1,0,0:0:0:0:
477,152,11394,1,0,0:0:0:0:
487,86,11496,1,0,0:0:0:0:
454,29,11598,1,0,0:0:0:0:
400,2,11700,1,0,0:0:0:0:
308,28,11802,6,0,L|321:42,1,12.5
327,47,12006,1,0,0:0:0:0:
337,58,12108,1,0,0:0:0:0:
209,96,12210,6,0,L|228:96,1,12.5
235,96,12414,1,0,0:0:0:0:
250,96,12516,1,0,0:0:0:0:
167,186,12618,6,0,L|180:172,1,12.5
265,169,12822,5,0,0:0:0:0:
266,184,12925,1,0,0:0:0:0:
264,198,13027,1,0,0:0:0:0:
256,219,13129,1,0,0:0:0:0:
237,242,13231,1,0,0:0:0:0:
204,254,13333,1,0,0:0:0:0:
169,254,13435,5,0,0:0:0:0:
219,276,13537,1,0,0:0:0:0:
273,276,13639,1,0,0:0:0:0:
324,255,13741,1,0,0:0:0:0:
373,231,13843,1,0,0:0:0:0:
427,231,13945,1,0,0:0:0:0:
476,254,14047,1,0,0:0:0:0:
507,298,14149,1,0,0:0:0:0:
407,358,14251,6,0,L|424:349,1,12.5
431,348,14455,1,0,0:0:0:0:
444,343,14557,1,0,0:0:0:0:
512,239,14659,6,0,L|495:248,1,12.5
488,249,14863,1,0,0:0:0:0:
475,254,14965,1,0,0:0:0:0:
318,354,15067,6,0,L|329:342,1,12.5
336,335,15271,1,0,0:0:0:0:
346,325,15373,1,0,0:0:0:0:
373,231,15476,6,0,L|362:219,1,12.5
355,212,15680,1,0,0:0:0:0:
345,202,15782,1,0,0:0:0:0:
277,126,15884,5,0,0:0:0:0:
268,115,15986,1,0,0:0:0:0:
257,103,16088,1,0,0:0:0:0:
243,87,16190,1,0,0:0:0:0:
249,111,16292,5,0,0:0:0:0:
242,140,16394,1,0,0:0:0:0:
221,168,16496,1,0,0:0:0:0:
210,206,16598,1,0,0:0:0:0:
218,250,16700,1,0,0:0:0:0:
255,283,16802,1,0,0:0:0:0:
309,287,16904,1,0,0:0:0:0:
358,252,17006,1,0,0:0:0:0:
319,301,17108,5,0,0:0:0:0:
259,319,17210,1,0,0:0:0:0:
196,315,17312,1,0,0:0:0:0:
150,272,17414,1,0,0:0:0:0:
139,229,17516,1,0,0:0:0:0:
149,189,17618,1,0,0:0:0:0:
143,150,17720,1,0,0:0:0:0:
119,122,17822,1,0,0:0:0:0:
97,124,17925,5,0,0:0:0:0:
104,144,18027,1,0,0:0:0:0:
122,153,18129,1,0,0:0:0:0:
143,150,18231,1,0,0:0:0:0:
243,87,18333,6,0,L|261:79,1,12.5
267,77,18537,1,0,0:0:0:0:
280,74,18639,1,0,0:0:0:0:
393,162,18741,6,0,L|375:154,1,12.5
369,152,18945,1,0,0:0:0:0:
356,149,19047,1,0,0:0:0:0:
280,74,19149,5,0,0:0:0:0:
272,91,19251,1,0,0:0:0:0:
261,106,19353,1,0,0:0:0:0:
249,120,19455,1,0,0:0:0:0:
222,137,19557,5,0,0:0:0:0:
187,146,19659,1,0,0:0:0:0:
145,135,19761,1,0,0:0:0:0:
105,111,19863,1,0,0:0:0:0:
53,109,19965,1,0,0:0:0:0:
14,142,20067,1,0,0:0:0:0:
34,167,20169,5,0,0:0:0:0:
66,170,20271,1,0,0:0:0:0:
91,149,20373,1,0,0:0:0:0:
94,116,20476,1,0,0:0:0:0:
72,91,20578,1,0,0:0:0:0:
39,85,20680,1,0,0:0:0:0:
66,170,20782,6,0,L|78:189,1,12.5
79,192,20986,1,0,0:0:0:0:
85,203,21088,1,0,0:0:0:0:
72,324,21190,6,0,L|84:305,1,12.5
180,216,21394,2,0,L|192:235,1,12.5
279,322,21598,2,0,L|291:303,1,12.5
293,300,21802,1,0,0:0:0:0:
301,289,21904,1,0,0:0:0:0:
379,172,22006,2,0,L|368:191,1,12.5
180,216,22210,2,0,L|186:205,1,12.5
231,133,22414,5,0,0:0:0:0:
239,122,22516,1,0,0:0:0:0:
248,111,22618,1,0,0:0:0:0:
257,101,22720,1,0,0:0:0:0:
270,85,22822,5,0,0:0:0:0:
265,109,22925,1,0,0:0:0:0:
240,124,23027,1,0,0:0:0:0:
207,125,23129,1,0,0:0:0:0:
179,101,23231,1,0,0:0:0:0:
143,79,23333,1,0,0:0:0:0:
97,71,23435,1,0,0:0:0:0:
50,91,23537,1,0,0:0:0:0:
28,143,23639,1,0,0:0:0:0:
50,199,23741,1,0,0:0:0:0:
112,221,23843,5,0,0:0:0:0:
170,189,23945,1,0,0:0:0:0:
230,162,24047,1,0,0:0:0:0:
295,170,24149,1,0,0:0:0:0:
344,213,24251,1,0,0:0:0:0:
354,278,24353,1,0,0:0:0:0:
320,335,24455,6,0,L|315:338,1,6.25,0|0,1:0|0:0,0:0:0:0:
256,238,24863,6,0,B|476:240|531:72|284:-10|321:227,1,400
472,165,25476,2,0,B|426:130|371:140|371:140|321:155|321:155|247:133|247:133|183:159|183:159|93:116|25:175,1,450.000017166138
10,292,26292,6,0,L|111:264,1,100
294,324,26496,2,0,B|218:295|218:295|183:297|183:297|103:263,1,200
281,225,26802,2,0,B|351:254|351:254|489:198,1,200
359,67,27108,2,0,B|354:176|354:176|427:145,1,175.00000166893
247,367,27414,2,0,B|253:269|253:269|284:219,1,150.000005722046
207,61,27720,2,0,L|184:161,1,100
31,239,28129,6,0,P|52:228|80:222,1,37.5000014305115
77,141,28333,1,0,0:0:0:0:
77,141,28435,2,0,P|99:148|123:163,1,37.5000014305115
198,229,28639,1,0,0:0:0:0:
198,229,28741,2,0,P|220:221|244:206,1,37.5000014305115
314,158,28945,5,0,0:0:0:0:
323,169,29047,1,0,0:0:0:0:
332,180,29149,1,0,0:0:0:0:
341,191,29251,1,0,0:0:0:0:
350,202,29353,1,0,0:0:0:0:
359,213,29455,1,0,0:0:0:0:
368,224,29557,1,0,0:0:0:0:
377,235,29659,1,0,0:0:0:0:
435,301,29761,6,0,L|464:333,1,37.5000014305115
477,167,29965,2,0,L|448:199,1,37.5000014305115
433,45,30169,2,0,L|462:77,1,37.5000014305115
386,119,30373,5,0,0:0:0:0:
376,124,30475,1,0,0:0:0:0:
365,128,30577,1,0,0:0:0:0:
355,132,30679,1,0,0:0:0:0:
344,134,30781,1,0,0:0:0:0:
332,136,30883,1,0,0:0:0:0:
321,136,30985,1,0,0:0:0:0:
310,135,31087,1,0,0:0:0:0:
299,133,31189,1,0,0:0:0:0:
288,130,31291,1,0,0:0:0:0:
223,84,31394,6,0,P|206:75|179:68,1,37.5000014305115
127,158,31598,1,0,0:0:0:0:
127,158,31700,2,0,P|144:149|171:142,1,37.5000014305115
234,227,31904,1,0,0:0:0:0:
234,227,32006,2,0,P|217:218|190:211,1,37.5000014305115
121,279,32210,5,0,0:0:0:0:
137,299,32312,1,0,0:0:0:0:
157,316,32414,1,0,0:0:0:0:
181,327,32516,1,0,0:0:0:0:
206,334,32618,1,0,0:0:0:0:
232,335,32720,1,0,0:0:0:0:
258,330,32822,1,0,0:0:0:0:
282,320,32924,1,0,0:0:0:0:
361,281,33027,6,0,P|381:293|405:330,1,37.5000014305115
296,193,33231,1,0,0:0:0:0:
296,193,33333,2,0,P|276:205|252:242,1,37.5000014305115
374,121,33537,1,0,0:0:0:0:
374,121,33639,2,0,P|394:133|418:170,1,37.5000014305115
484,190,33843,6,0,B|475:203|475:203|466:201|466:201|463:214|463:214|455:213|455:213|451:226|451:226|441:228|441:228|441:243,1,78.7499975967408
374,121,34659,6,0,P|354:133|330:170,1,37.5000014305115
246,144,34863,1,0,0:0:0:0:
246,144,34965,2,0,P|226:132|202:95,1,37.5000014305115
120,116,35169,1,0,0:0:0:0:
120,116,35271,2,0,P|100:128|76:165,1,37.5000014305115
47,228,35476,5,0,0:0:0:0:
53,241,35578,1,0,0:0:0:0:
60,254,35680,1,0,0:0:0:0:
70,266,35782,1,0,0:0:0:0:
80,276,35884,1,0,0:0:0:0:
92,286,35986,1,0,0:0:0:0:
105,293,36088,1,0,0:0:0:0:
119,300,36190,1,0,0:0:0:0:
136,223,36292,6,0,L|102:177,1,37.5000014305115
8,151,36496,2,0,L|54:117,1,37.5000014305115
82,21,36700,2,0,L|116:67,1,37.5000014305115
166,132,36904,5,0,0:0:0:0:
173,140,37006,1,0,0:0:0:0:
180,149,37108,1,0,0:0:0:0:
187,158,37210,1,0,0:0:0:0:
194,166,37312,1,0,0:0:0:0:
201,175,37414,1,0,0:0:0:0:
208,184,37516,1,0,0:0:0:0:
215,193,37618,1,0,0:0:0:0:
222,201,37720,1,0,0:0:0:0:
229,210,37822,1,0,0:0:0:0:
283,269,37925,6,0,L|317:306,1,37.5000014305115
359,146,38129,1,0,0:0:0:0:
359,146,38231,2,0,L|325:183,1,37.5000014305115
264,41,38435,1,0,0:0:0:0:
264,41,38537,2,0,L|298:78,1,37.5000014305115
181,52,38741,5,0,0:0:0:0:
164,42,38843,1,0,0:0:0:0:
147,35,38945,1,0,0:0:0:0:
129,31,39047,1,0,0:0:0:0:
110,30,39149,1,0,0:0:0:0:
91,31,39251,1,0,0:0:0:0:
73,35,39353,1,0,0:0:0:0:
56,42,39455,1,0,0:0:0:0:
106,112,39557,6,0,L|100:156,1,37.5000014305115
35,223,39761,1,0,0:0:0:0:
35,223,39863,2,0,L|41:267,1,37.5000014305115
118,311,40067,1,0,0:0:0:0:
118,311,40169,2,0,L|112:355,1,37.5000014305115
40,260,40373,6,0,L|27:168,1,87.5
131,75,41190,6,0,L|134:137,1,37.5000014305115
140,235,41394,1,0,0:0:0:0:
245,130,41496,6,0,L|237:191,1,37.5000014305115
226,289,41700,1,0,0:0:0:0:
363,205,41802,6,0,L|344:264,1,37.5000014305115
223,326,42006,6,0,L|227:276,1,37.5000014305115
240,167,42210,1,0,0:0:0:0:
363,205,42312,6,0,L|359:155,1,37.5000014305115
346,46,42516,1,0,0:0:0:0:
242,129,42618,6,0,L|248:72,1,37.5000014305115
225,288,42822,6,0,L|231:231,1,37.5000014305115
340,307,43027,1,0,0:0:0:0:
240,167,43129,6,0,L|243:109,1,37.5000014305115
123,165,43334,1,0,0:0:0:0:
251,49,43435,6,0,L|254:-8,1,37.5000014305115
457,86,43639,6,0,L|454:123,1,37.5000014305115
408,274,43843,1,0,0:0:0:0:
388,160,43945,6,0,L|390:197,1,37.5000014305115
437,348,44149,1,0,0:0:0:0:
340,307,44251,6,0,L|337:269,1,37.5000014305115
252,148,44455,6,0,L|259:184,1,37.5000014305115
290,340,44659,1,0,0:0:0:0:
106,131,44761,6,0,L|122:164,1,37.5000014305115
192,307,44965,1,0,0:0:0:0:
0,197,45067,6,0,L|24:225,1,37.5000014305115
244,267,45271,6,0,L|204:218,1,37.5000014305115
241,80,45476,1,0,0:0:0:0:
125,351,45578,6,0,L|85:302,1,37.5000014305115
122,164,45783,1,0,0:0:0:0:
2,373,45884,6,0,L|32:318,1,37.5000014305115
56,117,46088,6,0,L|26:172,1,37.5000014305115
241,80,46292,1,0,0:0:0:0:
152,60,46394,6,0,L|101:97,1,37.5000014305115
335,104,46598,1,0,0:0:0:0:
263,51,46700,6,0,L|201:63,1,37.5000014305115
364,123,46904,6,0,L|332:102,1,35
437,211,47720,5,0,0:0:0:0:
423,253,47822,1,0,0:0:0:0:
321,215,47925,5,0,0:0:0:0:
335,257,48027,1,0,0:0:0:0:
440,203,48129,5,0,0:0:0:0:
423,253,48231,1,0,0:0:0:0:
319,207,48334,5,0,0:0:0:0:
335,257,48436,1,0,0:0:0:0:
444,193,48537,5,0,0:0:0:0:
423,253,48639,1,0,0:0:0:0:
315,197,48742,5,0,0:0:0:0:
335,257,48844,1,0,0:0:0:0:
448,181,48945,5,0,0:0:0:0:
423,253,49047,1,0,0:0:0:0:
311,185,49150,5,0,0:0:0:0:
335,257,49252,1,0,0:0:0:0:
364,325,49353,5,0,0:0:0:0:
336,344,49455,1,0,0:0:0:0:
299,352,49557,1,0,0:0:0:0:
261,347,49659,1,0,0:0:0:0:
244,338,49761,1,0,0:0:0:0:
227,329,49863,1,0,0:0:0:0:
210,319,49965,1,0,0:0:0:0:
193,311,50067,1,0,0:0:0:0:
160,301,50169,5,0,0:0:0:0:
126,303,50271,1,0,0:0:0:0:
92,306,50373,2,0,L|37:312,1,37.5000014305115
95,222,50578,5,0,0:0:0:0:
129,220,50680,1,0,0:0:0:0:
163,217,50782,2,0,L|218:211,1,37.5000014305115
335,257,50986,1,4,1:0:0:0:
159,141,51190,6,0,L|105:147,1,37.5000014305115
31,66,51394,1,0,0:0:0:0:
64,62,51496,1,0,0:0:0:0:
97,58,51598,1,0,0:0:0:0:
130,53,51700,1,0,0:0:0:0:
388,58,51904,5,0,0:0:0:0:
355,62,52006,1,0,0:0:0:0:
322,66,52108,1,0,0:0:0:0:
289,71,52210,2,0,L|249:75,1,34.9999989318848
248,158,52312,2,0,L|292:154,1,34.9999989318848
278,85,52414,2,0,L|229:91,1,34.9999989318848
237,172,52516,2,0,L|271:168,1,34.9999989318848
366,164,52618,6,0,L|458:159,1,69.9999978637696
435,160,52822,1,0,0:0:0:0:
435,160,52925,1,0,0:0:0:0:
408,259,53027,2,0,L|415:344,1,69.9999978637696
321,368,53231,2,0,L|314:278,1,69.9999978637696
237,172,53435,6,0,P|191:194|167:252,1,100
136,384,53639,2,0,P|182:362|206:304,1,100
237,172,53843,2,0,P|170:229|208:324,1,200
463,321,54251,6,0,L|399:330,1,50,0|0,1:0|0:0,0:0:0:0:
283,229,54455,2,0,L|347:220,1,50,0|0,1:0|0:0,0:0:0:0:
501,201,54659,2,0,L|393:215,1,100,8|0,1:0|0:0,0:0:0:0:
202,118,55067,5,0,0:0:0:0:
237,172,55169,1,0,0:0:0:0:
195,222,55271,1,0,0:0:0:0:
134,198,55373,1,0,0:0:0:0:
139,133,55476,1,8,0:1:0:0:
326,253,55680,6,0,L|266:219,1,50
284,57,55884,2,0,L|286:127,1,50,0|0,1:0|0:0,0:0:0:0:
429,24,56088,2,0,L|429:93,1,50,0|0,1:0|0:0,0:0:0:0:
199,1,56292,2,0,L|201:71,1,50,0|0,1:0|0:0,0:0:0:0:
225,166,56496,5,0,0:0:0:0:
175,171,56598,1,0,0:0:0:0:
158,213,56700,1,0,0:0:0:0:
108,218,56802,1,0,0:0:0:0:
76,178,56904,1,0,0:0:0:0:
26,183,57006,1,0,0:0:0:0:
76,178,57108,2,0,L|189:170,1,100,8|0,0:1|0:0,0:0:0:0:
110,306,57516,6,0,L|56:350,1,50,0|0,1:0|0:0,0:0:0:0:
200,291,57720,2,0,L|179:356,1,50,0|0,1:0|0:0,0:0:0:0:
261,234,57925,2,0,L|291:308,1,50,8|0,1:0|0:0,0:0:0:0:
360,142,58129,5,0,0:0:0:0:
299,176,58231,1,0,0:0:0:0:
261,234,58333,2,0,L|286:296,1,50
360,142,58537,2,0,L|335:80,1,50
200,291,58741,2,0,L|239:398,1,100,8|0,0:1|0:0,0:0:0:0:
433,350,59149,5,8,0:1:0:0:
436,280,59251,1,0,0:0:0:0:
439,210,59353,1,8,0:1:0:0:
443,140,59455,1,0,0:0:0:0:
447,70,59557,1,8,0:1:0:0:
433,350,59761,5,8,0:1:0:0:
436,280,59863,1,8,0:1:0:0:
440,210,59965,1,8,0:1:0:0:
444,140,60067,1,0,0:0:0:0:
447,70,60169,1,8,0:1:0:0:
444,140,60271,1,0,0:0:0:0:
439,210,60373,2,0,L|437:248,1,25,8|0,0:1|0:0,0:0:0:0:
436,280,60476,2,0,L|434:318,1,25
433,350,60578,1,0,0:0:0:0:
133,212,60782,6,0,P|152:195|179:186,1,50,0|0,1:0|0:0,0:0:0:0:
279,280,60986,2,0,P|260:263|233:254,1,50,0|0,1:0|0:0,0:0:0:0:
133,212,61190,2,0,P|156:194|262:189,1,100,8|0,1:1|0:0,0:0:0:0:
356,106,61598,5,0,0:0:0:0:
356,106,61700,1,0,0:0:0:0:
262,95,61802,1,0,0:0:0:0:
262,95,61904,1,0,0:0:0:0:
223,178,62006,1,8,0:1:0:0:
405,114,62210,6,0,L|315:98,1,50
161,18,62414,6,0,L|218:32,1,50,0|0,1:0|0:0,0:0:0:0:
344,174,62618,2,0,L|287:160,1,50,0|0,1:0|0:0,0:0:0:0:
84,200,62822,2,0,L|141:214,1,50,8|0,1:0|0:0,0:0:0:0:
300,289,63027,5,0,0:0:0:0:
231,277,63129,1,0,0:0:0:0:
161,283,63231,1,0,0:0:0:0:
97,311,63333,1,0,0:0:0:0:
49,362,63435,1,0,0:0:0:0:
112,332,63537,1,0,0:0:0:0:
179,313,63639,2,0,P|205:311|235:316,1,50,8|0,1:0|0:0,0:0:0:0:
295,334,63843,1,0,0:0:0:0:
415,348,64047,6,0,L|397:346,6,12.5
354,282,64251,6,0,L|374:280,4,12.5
465,265,64455,6,0,L|347:283,1,100,8|0,0:1|0:0,0:0:0:0:
196,192,64863,5,0,0:0:0:0:
242,210,64965,1,0,0:0:0:0:
349,175,65067,1,0,0:0:0:0:
303,157,65169,1,0,0:0:0:0:
193,103,65271,2,0,L|239:125,1,50
370,129,65476,2,0,L|348:175,1,50
256,192,65680,12,0,66700,0:0:0:0:
148,24,66904,5,0,0:0:0:0:
170,63,67006,1,0,0:0:0:0:
260,85,67108,1,0,0:0:0:0:
238,124,67210,1,0,0:0:0:0:
216,163,67312,6,0,L|178:226,1,50
50,244,67516,2,0,L|88:181,1,50
260,85,67720,2,0,L|199:190,1,100
34,37,68129,5,0,0:0:0:0:
0,97,68231,1,0,0:0:0:0:
61,131,68333,1,0,0:0:0:0:
95,70,68435,1,0,0:0:0:0:
50,244,68537,2,0,L|49:347,1,100
273,247,68945,6,0,L|271:303,1,50
260,85,69149,2,0,L|261:23,1,50
190,193,69353,2,0,L|190:257,1,50
363,66,69557,5,0,0:0:0:0:
404,102,69659,1,0,0:0:0:0:
365,169,69761,1,0,0:0:0:0:
372,223,69863,1,0,0:0:0:0:
302,251,69965,1,0,0:0:0:0:
271,296,70067,1,0,0:0:0:0:
190,243,70169,1,0,0:0:0:0:
363,66,70373,5,0,0:0:0:0:
366,316,70578,2,0,L|367:371,1,50
259,134,70782,2,0,L|260:79,1,50
480,98,70986,2,0,L|484:197,1,100
366,365,71394,5,0,0:0:0:0:
308,335,71496,1,0,0:0:0:0:
243,325,71598,1,0,0:0:0:0:
178,330,71700,1,0,0:0:0:0:
118,356,71802,1,0,0:0:0:0:
366,365,72006,5,0,0:0:0:0:
308,335,72108,2,0,L|250:305,1,50
132,273,72312,1,0,0:0:0:0:
190,243,72414,2,0,L|248:213,1,50
371,182,72618,2,0,L|313:152,1,50
217,99,72822,5,0,0:0:0:0:
152,138,72925,1,0,0:0:0:0:
95,90,73027,1,0,0:0:0:0:
123,20,73129,1,0,0:0:0:0:
197,26,73231,2,0,L|156:81,1,50
17,173,73435,6,0,L|80:173,1,56.2500021457673
190,243,73843,6,0,L|261:261,1,50
62,312,74047,2,0,L|-9:330,1,50
9,96,74251,2,0,L|92:196,1,100
210,332,74659,5,0,0:0:0:0:
272,350,74761,1,0,0:0:0:0:
334,330,74863,1,0,0:0:0:0:
396,348,74965,1,0,0:0:0:0:
457,328,75067,1,0,0:0:0:0:
149,358,75271,5,0,0:0:0:0:
316,248,75476,2,0,L|343:196,1,50
190,243,75680,2,0,L|163:295,1,50
411,170,75884,2,0,L|438:118,1,50
276,40,76088,5,0,0:0:0:0:
228,54,76190,1,0,0:0:0:0:
297,103,76292,1,0,0:0:0:0:
345,117,76394,1,0,0:0:0:0:
276,164,76496,1,0,0:0:0:0:
228,178,76598,1,0,0:0:0:0:
125,228,76700,6,0,L|77:236,1,25
22,90,76904,2,0,L|70:82,1,25
228,54,77108,2,0,L|165:66,1,50
154,69,77414,5,0,0:0:0:0:
129,74,77516,1,0,0:0:0:0:
116,145,77618,1,0,0:0:0:0:
96,161,77720,1,0,0:0:0:0:
125,228,77822,1,0,0:0:0:0:
12,177,77925,6,0,L|15:220,1,25
239,265,78129,1,0,0:0:0:0:
243,240,78231,1,0,0:0:0:0:
247,215,78333,2,0,L|258:145,1,50
438,182,78639,2,0,L|430:231,1,50
239,265,78945,2,0,L|246:215,1,50
430,231,79251,2,0,L|422:280,1,50
246,215,79557,5,0,0:0:0:0:
438,182,79659,1,0,0:0:0:0:
239,265,79761,1,0,0:0:0:0:
430,231,79863,1,0,0:0:0:0:
350,105,79965,6,0,L|343:168,1,50
346,325,80373,5,0,0:0:0:0:
290,334,80476,1,0,0:0:0:0:
234,342,80578,1,0,0:0:0:0:
178,350,80680,1,0,0:0:0:0:
122,358,80782,2,0,L|48:367,1,62.5
8,187,80986,2,0,L|32:269,1,62.5
147,210,81190,5,0,0:0:0:0:
176,162,81292,1,0,0:0:0:0:
87,141,81394,1,0,0:0:0:0:
58,93,81496,1,0,0:0:0:0:
153,28,81598,2,0,L|122:102,1,62.5
292,181,81802,2,0,L|261:107,1,62.5
226,17,82006,5,0,0:0:0:0:
226,17,82108,1,0,0:0:0:0:
351,34,82210,1,0,0:0:0:0:
351,34,82312,1,0,0:0:0:0:
267,123,82414,2,0,L|213:183,1,62.5
360,243,82618,5,0,0:0:0:0:
413,225,82720,1,0,0:0:0:0:
433,172,82822,1,0,0:0:0:0:
482,144,82925,1,0,0:0:0:0:
490,88,83027,1,0,0:0:0:0:
460,40,83129,1,0,0:0:0:0:
482,144,83231,6,0,L|487:220,1,62.5
360,243,83435,1,0,0:0:0:0:
407,273,83537,1,0,0:0:0:0:
444,314,83639,2,0,L|414:420,1,62.5
313,218,83843,2,0,L|343:112,1,62.5
211,229,84047,2,0,L|177:353,1,125
248,24,84455,5,0,0:0:0:0:
248,80,84557,1,0,0:0:0:0:
176,108,84659,1,0,0:0:0:0:
148,157,84761,1,0,0:0:0:0:
75,145,84863,2,0,L|11:175,2,62.5
325,32,85271,6,0,L|401:60,1,62.5
206,178,85476,2,0,L|130:150,1,62.5
325,32,85680,2,0,L|454:81,1,125
93,40,86088,5,0,0:0:0:0:
43,66,86190,1,0,0:0:0:0:
16,115,86292,1,0,0:0:0:0:
18,171,86394,1,0,0:0:0:0:
56,212,86496,2,0,P|89:237|119:244,1,62.5
303,301,86700,2,0,P|270:276|240:269,1,62.5
70,310,86904,6,0,L|43:377,1,62.5
182,235,87108,2,0,L|209:168,1,62.5
93,40,87312,2,0,L|66:107,1,62.5
182,235,87516,5,0,0:0:0:0:
232,260,87618,1,0,0:0:0:0:
287,268,87720,1,0,0:0:0:0:
342,257,87822,1,0,0:0:0:0:
377,212,87925,1,0,0:0:0:0:
378,155,88027,1,0,0:0:0:0:
350,106,88129,2,0,P|325:87|276:77,1,62.5
290,169,88333,5,0,0:0:0:0:
328,209,88435,1,0,0:0:0:0:
287,268,88537,1,0,0:0:0:0:
285,323,88639,1,0,0:0:0:0:
215,339,88741,1,0,0:0:0:0:
174,376,88843,1,0,0:0:0:0:
348,299,88945,6,0,L|403:253,1,62.5
489,187,89149,5,0,0:0:0:0:
456,140,89251,1,0,0:0:0:0:
406,112,89353,1,0,0:0:0:0:
350,106,89455,1,0,0:0:0:0:
297,125,89557,1,0,0:0:0:0:
260,168,89659,1,0,0:0:0:0:
248,223,89761,6,0,P|246:254|261:294,1,62.5
350,106,89965,2,0,P|352:75|337:35,1,62.5
118,80,90169,2,0,L|205:83,1,62.5
91,165,90373,5,0,0:0:0:0:
35,178,90476,1,0,0:0:0:0:
130,248,90578,5,0,0:0:0:0:
185,259,90680,1,0,0:0:0:0:
69,313,90782,1,0,0:0:0:0:
233,102,92006,5,0,0:0:0:0:
281,182,92108,1,0,0:0:0:0:
260,273,92210,1,0,0:0:0:0:
386,39,92414,5,0,0:0:0:0:
338,119,92516,1,0,0:0:0:0:
359,210,92618,1,0,0:0:0:0:
233,102,92822,5,0,0:0:0:0:
281,182,92924,1,0,0:0:0:0:
386,39,93027,1,0,0:0:0:0:
281,182,93129,1,0,0:0:0:0:
386,39,93232,1,0,0:0:0:0:
281,182,93333,1,0,0:0:0:0:
245,14,93435,6,0,L|325:27,1,62.5
281,182,93639,2,0,L|201:169,1,62.5
245,14,93843,2,0,L|389:39,1,125
485,179,94251,5,0,0:0:0:0:
449,230,94353,1,0,0:0:0:0:
387,239,94455,1,0,0:0:0:0:
346,286,94557,1,0,0:0:0:0:
284,297,94659,2,0,L|234:357,1,62.5
449,230,94863,5,0,0:0:0:0:
416,176,94965,1,0,0:0:0:0:
358,151,95067,2,0,L|272:125,1,62.5
130,257,95271,2,0,L|216:231,1,62.5
358,151,95476,2,0,L|217:108,1,125
68,63,95884,5,0,0:0:0:0:
127,81,95986,1,0,0:0:0:0:
58,140,96088,1,0,0:0:0:0:
0,158,96190,1,0,0:0:0:0:
79,219,96292,2,0,L|133:259,1,62.5
234,331,96496,5,0,0:0:0:0:
281,316,96598,1,0,0:0:0:0:
323,289,96700,2,0,L|342:220,1,62.5
255,174,96904,2,0,L|236:105,1,62.5
326,76,97108,2,0,L|345:7,1,62.5
255,174,97312,2,0,L|236:243,1,62.5
74,358,97516,5,0,0:0:0:0:
49,314,97618,1,0,0:0:0:0:
65,266,97720,1,0,0:0:0:0:
38,223,97822,1,0,0:0:0:0:
59,177,97925,2,0,L|38:105,1,62.5
216,271,98129,2,0,L|237:343,1,62.5
158,162,98333,5,0,0:0:0:0:
154,170,98435,1,0,0:0:0:0:
123,55,98537,1,0,0:0:0:0:
131,75,98639,1,0,0:0:0:0:
158,162,98741,5,0,0:0:0:0:
22,13,98945,1,0,0:0:0:0:
316,121,99149,2,0,P|295:58|220:50,1,125
22,13,99557,2,0,L|34:99,1,62.5
255,174,99761,2,0,L|243:88,1,62.5
22,13,99965,6,0,L|34:99,1,62.5
313,195,100373,6,0,L|231:165,1,62.5
371,110,100578,2,0,L|453:80,1,62.5
261,245,100782,2,0,L|165:343,1,125
468,330,101190,5,0,0:0:0:0:
507,289,101292,1,0,0:0:0:0:
512,233,101394,1,0,0:0:0:0:
479,187,101496,1,0,0:0:0:0:
425,171,101598,1,0,0:0:0:0:
372,192,101700,1,0,0:0:0:0:
344,241,101802,1,0,0:0:0:0:
350,296,101904,1,0,0:0:0:0:
425,171,102006,6,0,L|449:97,1,62.5
350,296,102210,2,0,L|326:370,1,62.5
350,109,102414,5,0,0:0:0:0:
294,115,102516,1,0,0:0:0:0:
255,192,102618,1,0,0:0:0:0:
207,222,102720,1,0,0:0:0:0:
186,313,102822,2,0,L|140:368,2,62.5
255,192,103231,5,0,0:0:0:0:
213,153,103333,1,0,0:0:0:0:
157,141,103435,2,0,L|99:186,1,62.5
255,192,103639,5,0,0:0:0:0:
208,133,103741,1,0,0:0:0:0:
138,105,103843,2,0,L|68:155,1,62.5
22,257,104047,5,0,0:0:0:0:
52,304,104149,1,0,0:0:0:0:
97,336,104251,1,0,0:0:0:0:
152,345,104353,1,0,0:0:0:0:
206,330,104455,2,0,L|274:309,1,62.5
167,230,104659,2,0,L|99:251,1,62.5
342,330,104863,6,0,L|460:287,1,125
482,157,105169,1,0,0:0:0:0:
483,123,105271,2,0,L|306:187,1,187.5
193,111,105680,2,0,L|275:85,1,62.5
483,123,105884,2,0,L|402:150,1,62.5
306,187,106088,6,0,L|315:207,12,15.625
375,29,106496,5,0,0:0:0:0:
337,23,106598,1,0,0:0:0:0:
300,30,106700,2,0,P|274:49|262:81,1,62.5
118,110,106904,5,0,0:0:0:0:
156,104,107006,1,0,0:0:0:0:
193,111,107108,2,0,P|219:130|231:162,1,62.5
381,186,107312,5,0,0:0:0:0:
343,180,107414,1,0,0:0:0:0:
306,187,107516,2,0,P|280:206|268:238,1,62.5
124,267,107720,5,0,0:0:0:0:
162,261,107822,1,0,0:0:0:0:
199,268,107924,2,0,P|225:287|237:319,1,62.5
418,352,108129,5,0,0:0:0:0:
380,358,108231,1,0,0:0:0:0:
343,351,108333,2,0,P|317:332|305:300,1,62.5
161,271,108537,5,0,0:0:0:0:
199,277,108639,1,0,0:0:0:0:
236,270,108741,2,0,P|262:251|274:219,1,62.5
424,195,108945,5,0,0:0:0:0:
386,201,109047,1,0,0:0:0:0:
349,194,109149,2,0,P|323:175|311:143,1,62.5
167,114,109353,5,0,0:0:0:0:
205,120,109455,1,0,0:0:0:0:
242,113,109557,2,0,P|268:94|280:62,1,62.5
80,27,109761,5,0,0:0:0:0:
64,61,109863,1,0,0:0:0:0:
47,94,109965,2,0,L|15:158,1,62.5
120,119,110169,5,0,0:0:0:0:
113,155,110271,1,0,0:0:0:0:
105,192,110373,2,0,L|90:262,1,62.5
177,193,110578,5,0,0:0:0:0:
180,230,110680,1,0,0:0:0:0:
181,267,110782,2,0,L|185:338,1,62.5
252,251,110986,5,0,0:0:0:0:
264,285,111088,1,0,0:0:0:0:
275,321,111190,2,0,L|297:388,1,62.5
426,371,111394,5,0,0:0:0:0:
442,337,111496,1,0,0:0:0:0:
459,304,111598,2,0,L|491:240,1,62.5
386,279,111802,5,0,0:0:0:0:
393,243,111904,1,0,0:0:0:0:
401,206,112006,2,0,L|415:135,1,62.5
329,205,112211,5,0,0:0:0:0:
326,168,112313,1,0,0:0:0:0:
325,131,112415,2,0,L|320:59,1,62.5
254,147,112619,5,0,0:0:0:0:
242,113,112721,1,0,0:0:0:0:
231,77,112823,2,0,L|208:9,1,62.5
429,19,113027,5,0,0:0:0:0:
448,51,113129,1,0,0:0:0:0:
447,88,113231,2,0,P|436:114|390:130,1,62.5
343,78,113435,5,0,0:0:0:0:
324,110,113537,1,0,0:0:0:0:
325,147,113639,2,0,P|336:173|382:189,1,62.5
430,142,113843,5,0,0:0:0:0:
449,174,113945,1,0,0:0:0:0:
448,211,114047,2,0,P|437:237|391:253,1,62.5
348,205,114251,5,0,0:0:0:0:
329,237,114353,1,0,0:0:0:0:
330,274,114455,2,0,P|341:300|387:316,1,62.5
429,359,114659,5,0,0:0:0:0:
448,327,114761,1,0,0:0:0:0:
447,290,114863,2,0,P|436:264|390:248,1,62.5
343,300,115067,5,0,0:0:0:0:
324,268,115169,1,0,0:0:0:0:
325,231,115271,2,0,P|336:205|382:189,1,62.5
430,236,115475,5,0,0:0:0:0:
449,204,115577,1,0,0:0:0:0:
448,167,115679,2,0,P|437:141|391:125,1,62.5
348,173,115883,5,0,0:0:0:0:
329,141,115985,1,0,0:0:0:0:
330,104,116087,2,0,P|341:78|387:62,1,62.5
251,15,116292,5,0,0:0:0:0:
213,18,116394,1,0,0:0:0:0:
175,22,116496,1,0,0:0:0:0:
137,26,116598,1,0,0:0:0:0:
104,44,116700,5,0,0:0:0:0:
85,76,116802,1,0,0:0:0:0:
80,113,116904,1,0,0:0:0:0:
90,149,117006,1,0,0:0:0:0:
113,177,117108,1,0,0:0:0:0:
147,192,117210,1,0,0:0:0:0:
184,193,117312,1,0,0:0:0:0:
219,182,117414,1,0,0:0:0:0:
268,177,117516,5,0,0:0:0:0:
314,195,117618,1,0,0:0:0:0:
344,234,117720,1,0,0:0:0:0:
351,283,117822,1,0,0:0:0:0:
333,330,117925,1,0,0:0:0:0:
280,364,118027,1,0,0:0:0:0:
217,363,118129,1,0,0:0:0:0:
163,330,118231,1,0,0:0:0:0:
144,270,118333,5,0,0:0:0:0:
157,208,118435,1,0,0:0:0:0:
205,169,118537,1,0,0:0:0:0:
267,161,118639,1,0,0:0:0:0:
324,185,118741,1,0,0:0:0:0:
385,198,118843,1,0,0:0:0:0:
442,174,118945,1,0,0:0:0:0:
470,118,119047,1,0,0:0:0:0:
458,56,119149,5,0,0:0:0:0:
406,20,119251,1,0,0:0:0:0:
343,14,119353,1,0,0:0:0:0:
299,58,119455,1,0,0:0:0:0:
291,120,119557,6,0,L|295:194,1,62.5
173,126,119761,1,0,0:0:0:0:
173,88,119863,1,0,0:0:0:0:
171,50,119965,2,0,L|168:-15,1,62.5
178,222,120169,2,0,L|175:157,1,62.5
49,106,120373,5,0,0:0:0:0:
49,106,120476,1,0,0:0:0:0:
109,213,120578,1,0,0:0:0:0:
109,213,120680,1,0,0:0:0:0:
49,106,120782,2,0,L|16:45,1,62.5
138,267,120986,2,0,L|105:206,1,62.5
280,249,121190,6,0,L|313:310,1,62.5
426,190,121394,1,0,0:0:0:0:
417,153,121496,1,0,0:0:0:0:
395,117,121598,2,0,L|362:56,1,62.5
479,252,121802,2,0,L|446:191,1,62.5
301,132,122006,5,0,0:0:0:0:
301,132,122108,1,0,0:0:0:0:
369,203,122210,1,0,0:0:0:0:
369,203,122312,1,0,0:0:0:0:
243,175,122414,2,0,L|316:191,1,62.5
114,146,122618,2,0,L|187:162,1,62.5
256,257,122822,6,0,L|234:341,1,62.5
301,132,123027,1,0,0:0:0:0:
272,95,123129,1,0,0:0:0:0:
259,59,123231,2,0,L|243:-1,1,62.5
159,219,123435,2,0,L|174:158,1,62.5
124,14,123639,5,0,0:0:0:0:
124,14,123741,1,0,0:0:0:0:
50,83,123843,1,0,0:0:0:0:
50,83,123945,1,0,0:0:0:0:
54,208,124047,2,0,L|51:132,1,62.5
60,338,124251,2,0,L|57:262,1,62.5
250,332,124455,6,0,L|171:308,1,62.5
375,335,124659,1,0,0:0:0:0:
354,296,124761,1,0,0:0:0:0:
315,275,124863,2,0,L|236:251,1,62.5
441,314,125067,2,0,L|362:290,1,62.5
298,188,125271,5,0,0:0:0:0:
255,178,125373,1,0,0:0:0:0:
356,123,125476,1,0,0:0:0:0:
399,133,125578,1,0,0:0:0:0:
442,221,125680,2,0,L|356:198,1,62.5
217,85,125884,2,0,L|277:101,1,62.5
118,100,126088,5,0,0:0:0:0:
77,82,126190,1,0,0:0:0:0:
36,64,126292,2,0,L|-39:33,1,62.5
185,164,126496,5,0,0:0:0:0:
140,184,126598,1,0,0:0:0:0:
94,203,126700,2,0,L|12:237,1,62.5
267,107,126904,5,0,0:0:0:0:
216,85,127006,1,0,0:0:0:0:
167,63,127108,2,0,L|76:25,1,62.5
340,153,127312,5,0,0:0:0:0:
283,178,127414,1,0,0:0:0:0:
228,202,127516,2,0,L|129:243,1,62.5
94,203,127720,5,0,0:0:0:0:
87,264,127822,1,0,0:0:0:0:
57,315,127924,2,0,L|-3:391,1,62.5
162,160,128129,5,0,0:0:0:0:
171,226,128231,1,0,0:0:0:0:
154,288,128333,2,0,L|111:386,1,62.5
216,98,128537,5,0,0:0:0:0:
243,165,128639,1,0,0:0:0:0:
243,235,128741,2,0,L|226:351,1,62.5
246,22,128945,5,0,0:0:0:0:
293,85,129047,1,0,0:0:0:0:
313,160,129149,2,0,L|326:275,1,62.5
314,323,129353,6,0,L|295:353,7,31.25
401,285,129761,6,0,L|377:253,7,31.25
456,168,130169,6,0,L|428:210,7,31.25
359,78,130578,6,0,L|371:123,8,31.25,0|0|0|0|0|0|0|0|0,0:0|0:0|0:0|0:0|0:0|0:0|0:0|0:0|1:0,0:0:0:0:
151,112,132618,6,0,L|174:181,1,62.5
241,102,132822,2,0,L|286:50,1,62.5
355,64,133027,1,0,0:0:0:0:
281,326,133333,5,0,0:0:0:0:
228,276,133435,2,0,L|279:210,1,62.5
141,257,133639,1,0,0:0:0:0:
87,307,133741,2,0,L|161:362,1,62.5
349,271,134047,6,0,L|428:274,1,62.5
498,201,134251,2,0,L|419:204,1,62.5
337,131,134455,2,0,L|416:134,1,62.5
494,52,134659,2,0,L|415:55,1,62.5
202,63,134863,5,0,0:0:0:0:
165,87,134965,2,0,L|151:169,1,62.5
27,168,135169,1,0,0:0:0:0:
17,211,135271,2,0,L|65:278,1,62.5
26,39,135476,5,0,0:0:0:0:
66,23,135578,1,0,0:0:0:0:
109,19,135680,1,0,0:0:0:0:
377,31,135884,2,0,L|292:28,1,62.5
236,142,136088,1,0,0:0:0:0:
236,185,136190,1,0,0:0:0:0:
236,228,136292,1,0,0:0:0:0:
236,228,136598,5,0,0:0:0:0:
236,185,136700,2,0,L|235:107,1,62.5
236,2,136904,2,0,L|236:43,3,31.25
249,43,137108,1,0,0:0:0:0:
473,45,137312,6,0,L|400:50,1,62.5
307,123,137516,2,0,L|348:121,2,31.25
503,114,137720,2,0,L|430:119,1,62.5
307,123,137925,2,0,L|234:128,1,62.5
497,192,138129,2,0,L|424:197,1,62.5
301,201,138334,2,0,L|228:206,1,62.5
416,286,138537,5,0,0:0:0:0:
378,288,138639,1,0,0:0:0:0:
345,291,138741,2,0,L|272:296,2,62.5
103,172,139149,6,0,P|117:202|114:263,1,62.5
99,32,139353,2,0,P|85:62|88:123,1,62.5
117,308,139557,2,0,P|105:339|60:380,1,62.5,0|0,0:0|3:0,0:0:0:0:
103,172,139863,5,0,0:0:0:0:
135,159,139965,2,0,P|150:141|162:85,1,62.5
179,13,140169,1,0,0:0:0:0:
220,25,140271,1,0,0:0:0:0:
249,56,140373,2,0,P|259:100|251:131,1,62.5
229,205,140578,2,0,P|283:207|316:188,1,62.5
397,137,140782,1,0,0:0:0:0:
397,137,140986,6,0,L|326:103,1,62.5
483,193,141190,2,0,L|409:210,1,62.5
506,316,141394,2,0,L|435:282,1,62.5
327,313,141598,1,0,0:0:0:0:
283,305,141700,2,0,L|236:352,1,62.5
121,302,141904,1,0,0:0:0:0:
77,310,142006,2,0,L|30:263,1,62.5
32,265,142210,1,0,0:0:0:0:
59,39,142414,5,0,0:0:0:0:
59,39,142516,1,0,0:0:0:0:
59,39,142618,1,0,0:0:0:0:
59,39,142720,1,0,0:0:0:0:
59,39,142822,2,0,L|116:96,1,62.5
103,83,143027,1,0,0:0:0:0:
103,83,143129,1,0,0:0:0:0:
218,190,143231,2,0,L|161:135,1,62.5
173,65,143435,2,0,L|173:25,2,31.25
173,146,143639,5,0,0:0:0:0:
188,199,143741,1,0,0:0:0:0:
224,241,143843,1,0,0:0:0:0:
276,261,143945,1,0,0:0:0:0:
332,262,144047,1,0,0:0:0:0:
386,246,144149,1,0,0:0:0:0:
427,208,144251,1,0,0:0:0:0:
224,241,144557,5,0,0:0:0:0:
498,189,144863,2,0,P|445:141|357:202,1,187.5
423,176,145271,2,0,P|399:140|371:131,1,62.5
375,299,145476,2,0,P|411:275|420:246,1,62.5
421,76,145680,6,0,L|420:-4,1,62.5
283,115,145884,2,0,L|282:195,1,62.5
343,32,146088,1,0,0:0:0:0:
289,14,146190,1,0,0:0:0:0:
232,17,146292,1,0,0:0:0:0:
182,44,146394,1,0,0:0:0:0:
160,95,146496,1,0,0:0:0:0:
160,95,146700,6,0,L|187:30,1,62.5
83,214,146904,2,0,L|56:148,1,62.5
112,348,147108,2,0,L|46:321,1,62.5
259,297,147312,1,0,0:0:0:0:
232,240,147516,6,0,L|267:315,1,62.5
160,95,147720,2,0,L|195:170,1,62.5
258,296,147925,2,0,L|232:240,1,62.5
277,117,148129,1,0,0:0:0:0:
324,132,148231,2,0,L|362:204,1,62.5
412,297,148435,1,0,0:0:0:0:
460,283,148537,2,0,L|489:227,1,62.5
487,66,148741,2,0,L|457:121,1,62.5
457,121,149047,5,0,0:0:0:0:
422,85,149149,1,0,0:0:0:0:
376,63,149251,1,0,0:0:0:0:
326,55,149353,1,0,0:0:0:0:
79,154,149557,5,0,0:0:0:0:
114,117,149659,1,0,0:0:0:0:
160,95,149761,2,0,L|195:170,1,62.5
352,111,149965,2,0,L|325:54,1,62.5
240,19,150169,1,0,0:0:0:0:
240,19,150373,5,0,0:0:0:0:
244,69,150476,1,0,0:0:0:0:
247,118,150578,2,0,L|253:192,1,62.5
160,321,150782,2,0,L|154:235,1,62.5
331,175,150986,5,0,0:0:0:0:
319,223,151088,1,0,0:0:0:0:
282,257,151190,2,0,P|257:263|214:250,1,62.5
38,69,151394,5,0,0:0:0:0:
44,118,151496,1,0,0:0:0:0:
50,167,151598,1,0,0:0:0:0:
56,216,151700,1,0,0:0:0:0:
63,265,151802,2,0,L|73:343,1,62.5
38,69,152006,2,0,L|49:157,1,62.5
155,258,152210,5,0,0:0:0:0:
182,299,152312,1,0,0:0:0:0:
221,330,152414,1,0,0:0:0:0:
267,347,152516,1,0,0:0:0:0:
316,347,152618,1,0,0:0:0:0:
364,335,152720,1,0,0:0:0:0:
404,305,152822,1,0,0:0:0:0:
427,260,152925,1,0,0:0:0:0:
434,210,153027,6,0,P|430:179|409:148,1,62.5
310,71,153231,5,0,0:0:0:0:
287,116,153334,1,0,0:0:0:0:
280,166,153436,2,0,P|284:197|305:228,1,62.5
404,305,153639,2,0,P|377:317|341:319,1,62.5
221,330,153843,5,0,0:0:0:0:
179,302,153945,1,0,0:0:0:0:
149,261,154047,1,0,0:0:0:0:
132,213,154149,1,0,0:0:0:0:
128,163,154251,1,0,0:0:0:0:
141,114,154353,1,0,0:0:0:0:
171,74,154455,1,0,0:0:0:0:
215,51,154557,1,0,0:0:0:0:
264,41,154659,6,0,P|294:43|330:64,1,62.5
397,125,154863,5,0,0:0:0:0:
353,148,154965,1,0,0:0:0:0:
304,158,155067,2,0,P|274:156|238:135,1,62.5
141,114,155271,2,0,P|111:116|75:137,1,62.5
38,219,155476,5,0,0:0:0:0:
64,261,155578,1,0,0:0:0:0:
100,295,155680,1,0,0:0:0:0:
147,311,155782,1,0,0:0:0:0:
209,306,155884,1,0,0:0:0:0:
259,269,155986,1,0,0:0:0:0:
303,225,156088,1,0,0:0:0:0:
363,209,156190,1,0,0:0:0:0:
429,225,156292,1,0,0:0:0:0:
471,286,156394,1,0,0:0:0:0:
463,360,156496,5,0,0:0:0:0:
405,311,156598,1,0,0:0:0:0:
332,293,156700,1,0,0:0:0:0:
260,316,156802,1,0,0:0:0:0:
186,329,156904,1,0,0:0:0:0:
116,301,157006,1,0,0:0:0:0:
76,237,157108,6,0,P|69:204|96:151,1,62.5
75,176,157312,1,0,0:0:0:0:
149,176,157414,2,0,P|156:146|150:116,1,62.5
149,115,157618,1,0,0:0:0:0:
75,104,157720,2,0,P|67:73|74:43,1,62.5
214,61,157925,2,0,L|285:68,1,62.5
458,70,158129,6,0,L|378:64,1,62.5
276,67,158333,5,0,0:0:0:0:
254,138,158435,1,0,0:0:0:0:
272,210,158537,1,0,0:0:0:0:
256,283,158639,1,0,0:0:0:0:
291,348,158741,6,0,L|349:300,1,62.5
201,218,158945,2,0,L|138:178,1,62.5
70,359,159149,2,0,L|106:276,1,62.5
