osu file format v14

[General]
AudioFilename: audioo.mp3
AudioLeadIn: 0
PreviewTime: 1482
Countdown: 0
SampleSet: Normal
StackLeniency: 0.7
Mode: 1
LetterboxInBreaks: 0
WidescreenStoryboard: 1

[Editor]
Bookmarks: 102958,109858,110608,138058
DistanceSpacing: 1.3
BeatDivisor: 4
GridSize: 32
TimelineZoom: 2.2

[Metadata]
Title:CAMELLO MULTIVERSE
TitleUnicode:CAMELLO MULTIVERSE
Artist:camel ytpmv
ArtistUnicode:camel ytpmv
Creator:Ognjen3800
Version:ONI
Source:東方Project
Tags:novelty malayalam മലയാളം Malayali indian chinese e_s_i_a [-e_s_i_a-] esia [-esia-] gaston_2199 音mad otomad oto-mad ytp youtube poop music video Touhou Project 東方永夜抄 ~ Imperishable Night. 東方花映塚 ~ Phantasmagoria of Flower View. シンデレラケージ ~ Kagome-Kagome Cinderella Cage お宇佐さまの素い幡 ousa-sama no shiroi hata white flag of usa shrine ウサテイ usatei iosys ビートまりお beatmario zun 上海アリス幻樂団 team shanghai alice
BeatmapID:4410448
BeatmapSetID:2097924

[Difficulty]
HPDrainRate:5
CircleSize:5
OverallDifficulty:5.5
ApproachRate:10
SliderMultiplier:1.4
SliderTickRate:1

[Events]
//Background and Video events
0,0,"maxresdefault (11).jpg",0,0
Video,-90,"camello.mp4"
//Break Periods
//Storyboard Layer 0 (Background)
//Storyboard Layer 1 (Fail)
//Storyboard Layer 2 (Pass)
//Storyboard Layer 3 (Foreground)
//Storyboard Layer 4 (Overlay)
//Storyboard Sound Samples

[TimingPoints]
-3317,300,4,1,0,65,1,0
58,-100,4,1,0,65,0,0
128,-100,4,1,0,65,0,0
1408,-100,4,1,0,80,0,0
20678,-100,4,1,0,75,0,0
27808,-100,4,1,0,80,0,0
49478,-100,4,1,0,65,0,0
68608,-100,4,1,0,60,0,0
78208,-100,4,1,0,65,0,0
87278,-100,4,1,0,67,0,0
87353,-100,4,1,0,68,0,0
87428,-100,4,1,0,69,0,0
87503,-100,4,1,0,70,0,0
87578,-100,4,1,0,72,0,0
87653,-100,4,1,0,74,0,0
87728,-100,4,1,0,76,0,0
87803,-100,4,1,0,78,0,0
87878,-100,4,1,0,80,0,0
108358,-100,4,1,0,30,0,0
109183,-100,4,1,0,50,0,0
109258,-100,4,1,0,52,0,0
109333,-100,4,1,0,54,0,0
109408,-100,4,1,0,56,0,0
109483,-100,4,1,0,85,0,1
128308,-100,4,1,0,85,0,0
128317,-100,4,1,0,50,0,0
128683,-100,4,1,0,90,0,1
143008,-100,4,1,0,75,0,1
143083,-100,4,1,0,75,0,0
147878,-100,4,1,0,85,0,0
157182,-100,4,1,0,70,0,0
158382,-100,4,1,0,50,0,0
159582,-100,4,1,0,30,0,0
160782,-100,4,1,0,10,0,0

[HitObjects]
256,192,133,5,0,0:0:0:0:
256,192,208,5,0,0:0:0:0:
256,192,283,1,8,0:0:0:0:
256,192,433,1,8,0:0:0:0:
256,192,583,1,0,0:0:0:0:
256,192,732,1,8,0:0:0:0:
256,192,882,1,0,0:0:0:0:
256,192,958,1,0,0:0:0:0:
256,192,1032,1,8,0:0:0:0:
256,192,1183,1,0,0:0:0:0:
256,192,1332,1,0,0:0:0:0:
256,192,1483,1,8,0:0:0:0:
256,192,1558,1,0,0:0:0:0:
256,192,1633,1,8,0:0:0:0:
256,192,1783,1,0,0:0:0:0:
256,192,1932,1,8,0:0:0:0:
256,192,2082,1,8,0:0:0:0:
256,192,2158,1,8,0:0:0:0:
256,192,2233,1,0,0:0:0:0:
256,192,2383,1,8,0:0:0:0:
256,192,2532,1,0,0:0:0:0:
256,192,2682,1,8,0:0:0:0:
256,192,2982,1,8,0:0:0:0:
256,192,3057,1,0,0:0:0:0:
256,192,3132,1,8,0:0:0:0:
256,192,3282,1,0,0:0:0:0:
256,192,3432,1,8,0:0:0:0:
256,192,3507,1,8,0:0:0:0:
256,192,3582,1,0,0:0:0:0:
256,192,3732,1,8,0:0:0:0:
256,192,3882,1,0,0:0:0:0:
256,192,4033,1,8,0:0:0:0:
256,192,4182,1,0,0:0:0:0:
256,192,4257,1,8,0:0:0:0:
256,192,4332,1,0,0:0:0:0:
256,192,4482,1,8,0:0:0:0:
256,192,4633,1,8,0:0:0:0:
256,192,4782,1,0,0:0:0:0:
256,192,4932,1,8,0:0:0:0:
256,192,5008,1,8,0:0:0:0:
256,192,5083,1,0,0:0:0:0:
256,192,5232,1,8,0:0:0:0:
256,192,5382,1,0,0:0:0:0:
256,192,5532,1,8,0:0:0:0:
256,192,5682,1,0,0:0:0:0:
256,192,5758,1,0,0:0:0:0:
256,192,5833,1,8,0:0:0:0:
256,192,5983,1,0,0:0:0:0:
256,192,6132,1,8,0:0:0:0:
256,192,6282,1,0,0:0:0:0:
256,192,6583,1,8,0:0:0:0:
256,192,6732,1,8,0:0:0:0:
256,192,6808,1,8,0:0:0:0:
256,192,6882,1,0,0:0:0:0:
256,192,7108,1,0,0:0:0:0:
256,192,7332,1,8,0:0:0:0:
256,192,7483,1,8,0:0:0:0:
256,192,7633,1,0,0:0:0:0:
256,192,7783,1,8,0:0:0:0:
256,192,7933,1,0,0:0:0:0:
256,192,8008,1,8,0:0:0:0:
256,192,8083,1,0,0:0:0:0:
256,192,8307,1,0,0:0:0:0:
256,192,8532,1,8,0:0:0:0:
256,192,8683,1,0,0:0:0:0:
256,192,8832,1,8,0:0:0:0:
256,192,8983,1,8,0:0:0:0:
256,192,9133,1,0,0:0:0:0:
256,192,9207,1,0,0:0:0:0:
256,192,9282,1,8,0:0:0:0:
256,192,9507,1,8,0:0:0:0:
256,192,9732,1,8,0:0:0:0:
256,192,9883,1,0,0:0:0:0:
256,192,10033,1,0,0:0:0:0:
256,192,10182,1,8,0:0:0:0:
256,192,10332,1,0,0:0:0:0:
256,192,10407,1,0,0:0:0:0:
256,192,10483,1,8,0:0:0:0:
256,192,10558,1,8,0:0:0:0:
256,192,10632,1,0,0:0:0:0:
256,192,10782,1,8,0:0:0:0:
256,192,10932,1,0,0:0:0:0:
256,192,11083,1,8,0:0:0:0:
256,192,11382,1,8,0:0:0:0:
256,192,11533,1,0,0:0:0:0:
256,192,11683,1,8,0:0:0:0:
256,192,11833,1,0,0:0:0:0:
256,192,11982,1,8,0:0:0:0:
256,192,12057,1,0,0:0:0:0:
256,192,12132,1,8,0:0:0:0:
256,192,12283,1,0,0:0:0:0:
256,192,12432,1,8,0:0:0:0:
256,192,12582,1,0,0:0:0:0:
256,192,12732,1,8,0:0:0:0:
256,192,12807,1,0,0:0:0:0:
256,192,12882,1,8,0:0:0:0:
256,192,13032,1,0,0:0:0:0:
256,192,13182,1,8,0:0:0:0:
256,192,13333,1,8,0:0:0:0:
256,192,13482,1,0,0:0:0:0:
256,192,13782,1,8,0:0:0:0:
256,192,13932,1,8,0:0:0:0:
256,192,14082,1,0,0:0:0:0:
256,192,14232,1,8,0:0:0:0:
256,192,14307,1,0,0:0:0:0:
256,192,14382,1,8,0:0:0:0:
256,192,14532,1,8,0:0:0:0:
256,192,14683,1,0,0:0:0:0:
256,192,14832,1,8,0:0:0:0:
256,192,14908,1,8,0:0:0:0:
256,192,14982,1,0,0:0:0:0:
256,192,15133,1,8,0:0:0:0:
256,192,15283,1,0,0:0:0:0:
256,192,15583,1,8,0:0:0:0:
256,192,15733,1,0,0:0:0:0:
256,192,15882,1,8,0:0:0:0:
256,192,16032,1,8,0:0:0:0:
256,192,16182,1,0,0:0:0:0:
256,192,16333,1,8,0:0:0:0:
256,192,16407,1,8,0:0:0:0:
256,192,16482,1,0,0:0:0:0:
256,192,16707,1,0,0:0:0:0:
256,192,16932,1,8,0:0:0:0:
256,192,17082,1,0,0:0:0:0:
256,192,17157,1,8,0:0:0:0:
256,192,17232,1,0,0:0:0:0:
256,192,17382,1,8,0:0:0:0:
256,192,17532,1,0,0:0:0:0:
256,192,17682,1,8,0:0:0:0:
256,192,17757,1,8,0:0:0:0:
256,192,17832,1,0,0:0:0:0:
256,192,17983,1,8,0:0:0:0:
256,192,18133,1,0,0:0:0:0:
256,192,18282,1,8,0:0:0:0:
256,192,18583,1,8,0:0:0:0:
256,192,18733,1,0,0:0:0:0:
256,192,18883,1,8,0:0:0:0:
256,192,18957,1,0,0:0:0:0:
256,192,19032,1,8,0:0:0:0:
256,192,19183,1,0,0:0:0:0:
256,192,19332,1,8,0:0:0:0:
256,192,19632,1,0,0:0:0:0:
256,192,19707,1,0,0:0:0:0:
256,192,19782,1,8,0:0:0:0:
256,192,19932,1,0,0:0:0:0:
256,192,20082,1,8,0:0:0:0:
256,192,20232,1,0,0:0:0:0:
256,192,20307,1,8,0:0:0:0:
256,192,20533,1,8,0:0:0:0:
256,192,20682,1,8,0:0:0:0:
256,192,20757,1,0,0:0:0:0:
256,192,20833,1,0,0:0:0:0:
256,192,20982,1,8,0:0:0:0:
256,192,21133,1,0,0:0:0:0:
256,192,21283,1,8,0:0:0:0:
256,192,21357,1,8,0:0:0:0:
256,192,21432,1,0,0:0:0:0:
256,192,21582,1,8,0:0:0:0:
256,192,21732,1,0,0:0:0:0:
256,192,21883,1,8,0:0:0:0:
256,192,22182,1,0,0:0:0:0:
256,192,22257,1,0,0:0:0:0:
256,192,22332,1,8,0:0:0:0:
256,192,22482,1,8,0:0:0:0:
256,192,22632,1,0,0:0:0:0:
256,192,22783,1,8,0:0:0:0:
256,192,22933,1,8,0:0:0:0:
257,192,23082,1,0,0:0:0:0:
256,192,23233,1,8,0:0:0:0:
256,192,23308,1,0,0:0:0:0:
257,192,23382,1,0,0:0:0:0:
257,192,23533,1,8,0:0:0:0:
257,192,23683,1,0,0:0:0:0:
257,192,23832,1,8,0:0:0:0:
257,192,23907,1,8,0:0:0:0:
257,192,23982,1,0,0:0:0:0:
257,192,24132,1,8,0:0:0:0:
257,192,24208,1,0,0:0:0:0:
257,192,24283,1,8,0:0:0:0:
257,192,24582,1,8,0:0:0:0:
257,192,24733,1,0,0:0:0:0:
257,192,24882,1,8,0:0:0:0:
257,192,24958,1,8,0:0:0:0:
257,192,25032,1,0,0:0:0:0:
257,192,25108,1,0,0:0:0:0:
257,192,25183,1,8,0:0:0:0:
257,192,25332,1,0,0:0:0:0:
257,192,25482,1,8,0:0:0:0:
257,192,25632,1,0,0:0:0:0:
257,192,25707,1,0,0:0:0:0:
257,192,25782,1,8,0:0:0:0:
257,192,25932,1,0,0:0:0:0:
257,192,26082,1,8,0:0:0:0:
257,192,26232,1,8,0:0:0:0:
257,192,26307,1,0,0:0:0:0:
257,192,26382,1,8,0:0:0:0:
257,192,26532,1,0,0:0:0:0:
257,192,26682,1,8,0:0:0:0:
257,192,26982,1,8,0:0:0:0:
257,192,27057,1,0,0:0:0:0:
257,192,27132,1,8,0:0:0:0:
257,192,27282,1,0,0:0:0:0:
257,192,27582,1,8,0:0:0:0:
257,192,27732,1,0,0:0:0:0:
257,192,27882,1,8,0:0:0:0:
257,192,27957,1,8,0:0:0:0:
257,192,28032,1,0,0:0:0:0:
257,192,28107,1,0,0:0:0:0:
257,192,28182,1,8,0:0:0:0:
257,192,28332,1,0,0:0:0:0:
257,192,28482,1,8,0:0:0:0:
257,192,28557,1,0,0:0:0:0:
257,192,28632,1,8,0:0:0:0:
257,192,28782,1,0,0:0:0:0:
257,192,28932,1,0,0:0:0:0:
257,192,29008,1,8,0:0:0:0:
257,192,29083,1,0,0:0:0:0:
257,192,29232,1,8,0:0:0:0:
257,192,29382,1,0,0:0:0:0:
257,192,29532,1,8,0:0:0:0:
257,192,29682,1,8,0:0:0:0:
257,192,29757,1,8,0:0:0:0:
257,192,29832,1,0,0:0:0:0:
257,192,29982,1,8,0:0:0:0:
257,192,30132,1,0,0:0:0:0:
257,192,30282,1,12,0:0:0:0:
257,192,30582,1,8,0:0:0:0:
257,192,30732,1,0,0:0:0:0:
257,192,30882,1,8,0:0:0:0:
257,192,31033,1,8,0:0:0:0:
257,192,31183,1,0,0:0:0:0:
257,192,31333,1,8,0:0:0:0:
257,192,31408,1,0,0:0:0:0:
257,192,31482,1,8,0:0:0:0:
257,192,31632,1,0,0:0:0:0:
257,192,31782,1,8,0:0:0:0:
257,192,31933,1,0,0:0:0:0:
257,192,32007,1,0,0:0:0:0:
257,192,32082,1,8,0:0:0:0:
257,192,32308,1,8,0:0:0:0:
257,192,32533,1,8,0:0:0:0:
257,192,32683,1,0,0:0:0:0:
257,192,32982,1,8,0:0:0:0:
257,192,33132,1,8,0:0:0:0:
257,192,33282,1,0,0:0:0:0:
257,192,33432,1,8,0:0:0:0:
257,192,33507,1,8,0:0:0:0:
257,192,33583,1,0,0:0:0:0:
257,192,33732,1,8,0:0:0:0:
257,192,33883,1,0,0:0:0:0:
257,192,34032,1,8,0:0:0:0:
257,192,34107,1,0,0:0:0:0:
257,192,34182,1,8,0:0:0:0:
257,192,34332,1,0,0:0:0:0:
257,192,34482,1,8,0:0:0:0:
257,192,34782,1,8,0:0:0:0:
257,192,34932,1,0,0:0:0:0:
257,192,35082,1,8,0:0:0:0:
257,192,35232,1,8,0:0:0:0:
257,192,35382,1,0,0:0:0:0:
257,192,35532,1,8,0:0:0:0:
257,192,35607,1,8,0:0:0:0:
257,192,35682,1,0,0:0:0:0:
257,192,35907,1,8,0:0:0:0:
257,192,36133,1,0,0:0:0:0:
257,192,36282,1,8,0:0:0:0:
257,192,36433,1,0,0:0:0:0:
257,192,36582,1,8,0:0:0:0:
257,192,36732,1,0,0:0:0:0:
257,192,36807,1,8,0:0:0:0:
257,192,36882,1,0,0:0:0:0:
257,192,37107,1,0,0:0:0:0:
257,192,37332,1,0,0:0:0:0:
257,192,37483,1,8,0:0:0:0:
257,192,37558,1,8,0:0:0:0:
257,192,37632,1,0,0:0:0:0:
257,192,37782,1,8,0:0:0:0:
257,192,37932,1,8,0:0:0:0:
257,192,38083,1,0,0:0:0:0:
257,192,38233,1,0,0:0:0:0:
257,192,38307,1,8,0:0:0:0:
257,192,38533,1,8,0:0:0:0:
257,192,38682,1,8,0:0:0:0:
257,192,38908,1,0,0:0:0:0:
257,192,39132,1,8,0:0:0:0:
257,192,39282,1,0,0:0:0:0:
257,192,39358,1,0,0:0:0:0:
257,192,39432,1,8,0:0:0:0:
257,192,39508,1,8,0:0:0:0:
257,192,39582,1,0,0:0:0:0:
257,192,39732,1,0,0:0:0:0:
257,192,39882,1,8,0:0:0:0:
257,192,40333,1,0,0:0:0:0:
257,192,40408,1,0,0:0:0:0:
257,192,40482,1,8,0:0:0:0:
257,192,40633,1,0,0:0:0:0:
257,192,40782,1,8,0:0:0:0:
257,192,40932,1,8,0:0:0:0:
257,192,41083,1,0,0:0:0:0:
257,192,41232,1,8,0:0:0:0:
257,192,41383,1,0,0:0:0:0:
257,192,41532,1,8,0:0:0:0:
257,192,41607,1,0,0:0:0:0:
257,192,41682,1,8,0:0:0:0:
257,192,41832,1,0,0:0:0:0:
257,192,41982,1,8,0:0:0:0:
257,192,42058,1,8,0:0:0:0:
257,192,42133,1,0,0:0:0:0:
257,192,42282,1,8,0:0:0:0:
257,192,42583,1,8,0:0:0:0:
257,192,42733,1,0,0:0:0:0:
257,192,42882,1,8,0:0:0:0:
257,192,43033,1,0,0:0:0:0:
257,192,43107,1,8,0:0:0:0:
257,192,43182,1,0,0:0:0:0:
257,192,43332,1,8,0:0:0:0:
257,192,43632,1,8,0:0:0:0:
257,192,43707,1,0,0:0:0:0:
257,192,43782,1,8,0:0:0:0:
257,192,43932,1,8,0:0:0:0:
257,192,44082,1,0,0:0:0:0:
257,192,44383,1,8,0:0:0:0:
257,192,44533,1,0,0:0:0:0:
257,192,44683,1,8,0:0:0:0:
257,192,44833,1,8,0:0:0:0:
257,192,44982,1,0,0:0:0:0:
257,192,45133,1,8,0:0:0:0:
257,192,45208,1,8,0:0:0:0:
257,192,45283,1,0,0:0:0:0:
257,192,45507,1,8,0:0:0:0:
257,192,45733,1,8,0:0:0:0:
257,192,45883,1,0,0:0:0:0:
257,192,45958,1,0,0:0:0:0:
257,192,46032,1,8,0:0:0:0:
257,192,46182,1,0,0:0:0:0:
257,192,46332,1,8,0:0:0:0:
257,192,46483,1,0,0:0:0:0:
257,192,46633,1,0,0:0:0:0:
257,192,46782,1,8,0:0:0:0:
257,192,46858,1,0,0:0:0:0:
257,192,46933,1,8,0:0:0:0:
257,192,47083,1,0,0:0:0:0:
257,192,47382,1,8,0:0:0:0:
257,192,47682,1,8,0:0:0:0:
257,192,47758,1,0,0:0:0:0:
257,192,47832,1,8,0:0:0:0:
257,192,47982,1,0,0:0:0:0:
257,192,48132,1,8,0:0:0:0:
257,192,48283,1,0,0:0:0:0:
257,192,48432,1,8,0:0:0:0:
257,192,48507,1,8,0:0:0:0:
257,192,48582,1,0,0:0:0:0:
257,192,48732,1,0,0:0:0:0:
257,192,48882,1,8,0:0:0:0:
257,192,48958,1,0,0:0:0:0:
257,192,49032,1,8,0:0:0:0:
257,192,49183,1,8,0:0:0:0:
257,192,49333,1,0,0:0:0:0:
257,192,49482,1,12,0:0:0:0:
257,192,49782,1,8,0:0:0:0:
257,192,49932,1,0,0:0:0:0:
257,192,50082,1,8,0:0:0:0:
257,192,50233,1,8,0:0:0:0:
257,192,50382,1,0,0:0:0:0:
257,192,50533,1,0,0:0:0:0:
257,192,50682,1,8,0:0:0:0:
257,192,50757,1,8,0:0:0:0:
257,192,50832,1,0,0:0:0:0:
257,192,50982,1,8,0:0:0:0:
257,192,51133,1,0,0:0:0:0:
257,192,51282,1,8,0:0:0:0:
257,192,51583,1,0,0:0:0:0:
257,192,51733,1,0,0:0:0:0:
257,192,51882,1,8,0:0:0:0:
257,192,51957,1,0,0:0:0:0:
257,192,52033,1,8,0:0:0:0:
257,192,52182,1,8,0:0:0:0:
257,192,52333,1,0,0:0:0:0:
257,192,52482,1,8,0:0:0:0:
257,192,52633,1,8,0:0:0:0:
257,192,52783,1,0,0:0:0:0:
257,192,52932,1,0,0:0:0:0:
257,192,53082,1,8,0:0:0:0:
257,192,53232,1,0,0:0:0:0:
257,192,53382,1,8,0:0:0:0:
257,192,53532,1,8,0:0:0:0:
257,192,53682,1,0,0:0:0:0:
257,192,53983,1,0,0:0:0:0:
256,192,54282,5,8,0:0:0:0:
256,192,54432,1,8,0:0:0:0:
256,192,54582,1,0,0:0:0:0:
256,192,54882,1,8,0:0:0:0:
256,192,55182,1,0,0:0:0:0:
256,192,55482,1,8,0:0:0:0:
256,192,55782,1,8,0:0:0:0:
256,192,55932,1,0,0:0:0:0:
256,192,56082,1,8,0:0:0:0:
256,192,56382,1,0,0:0:0:0:
256,192,56682,1,8,0:0:0:0:
256,192,56832,1,0,0:0:0:0:
256,192,56907,1,0,0:0:0:0:
256,192,56982,1,8,0:0:0:0:
256,192,57132,1,0,0:0:0:0:
256,192,57282,1,8,0:0:0:0:
256,192,57433,1,8,0:0:0:0:
256,192,57508,1,0,0:0:0:0:
256,192,57582,1,8,0:0:0:0:
256,192,57732,1,8,0:0:0:0:
256,192,57808,1,0,0:0:0:0:
256,192,57883,1,0,0:0:0:0:
256,192,58182,1,8,0:0:0:0:
256,192,58332,1,0,0:0:0:0:
256,192,58482,1,8,0:0:0:0:
256,192,58632,1,8,0:0:0:0:
256,192,58707,1,0,0:0:0:0:
256,192,58783,1,8,0:0:0:0:
256,192,59082,1,12,0:0:0:0:
256,192,59382,1,0,0:0:0:0:
256,192,59532,1,0,0:0:0:0:
256,192,59682,1,8,0:0:0:0:
256,192,59757,1,8,0:0:0:0:
256,192,59832,1,0,0:0:0:0:
256,192,59982,1,8,0:0:0:0:
256,192,60133,1,0,0:0:0:0:
256,192,60282,1,8,0:0:0:0:
256,192,60357,1,0,0:0:0:0:
256,192,60432,1,8,0:0:0:0:
256,192,60582,1,0,0:0:0:0:
256,192,60732,1,0,0:0:0:0:
256,192,60882,1,8,0:0:0:0:
256,192,61183,1,0,0:0:0:0:
256,192,61482,1,8,0:0:0:0:
256,192,61557,1,8,0:0:0:0:
256,192,61632,1,0,0:0:0:0:
256,192,61783,1,8,0:0:0:0:
256,192,61932,1,0,0:0:0:0:
256,192,62082,1,8,0:0:0:0:
256,192,62382,1,0,0:0:0:0:
256,192,62532,1,8,0:0:0:0:
256,192,62607,1,0,0:0:0:0:
256,192,62682,1,8,0:0:0:0:
256,192,62833,1,0,0:0:0:0:
256,192,62982,1,8,0:0:0:0:
256,192,63133,1,0,0:0:0:0:
256,192,63207,1,0,0:0:0:0:
256,192,63282,1,8,0:0:0:0:
256,192,63583,1,0,0:0:0:0:
256,192,63882,1,8,0:0:0:0:
256,192,63958,1,8,0:0:0:0:
256,192,64032,1,0,0:0:0:0:
256,192,64182,1,8,0:0:0:0:
256,192,64332,1,0,0:0:0:0:
256,192,64482,1,8,0:0:0:0:
256,192,64782,1,8,0:0:0:0:
256,192,65082,1,8,0:0:0:0:
256,192,65157,1,8,0:0:0:0:
256,192,65232,1,8,0:0:0:0:
256,192,65382,1,0,0:0:0:0:
256,192,65532,1,8,0:0:0:0:
256,192,65682,1,0,0:0:0:0:
256,192,65832,1,8,0:0:0:0:
256,192,65982,1,8,0:0:0:0:
256,192,66133,1,8,0:0:0:0:
256,192,66282,1,0,0:0:0:0:
256,192,66357,1,8,0:0:0:0:
256,192,66432,1,0,0:0:0:0:
256,192,66582,1,8,0:0:0:0:
256,192,66732,1,0,0:0:0:0:
255,195,66882,1,8,0:0:0:0:
255,195,66958,1,8,0:0:0:0:
255,195,67032,1,0,0:0:0:0:
255,195,67107,1,0,0:0:0:0:
255,195,67182,1,8,0:0:0:0:
255,195,67332,1,0,0:0:0:0:
255,195,67482,1,8,0:0:0:0:
255,195,67558,1,8,0:0:0:0:
255,195,67632,1,0,0:0:0:0:
255,195,67782,1,8,0:0:0:0:
255,195,67932,1,0,0:0:0:0:
255,195,68082,1,8,0:0:0:0:
255,195,68158,1,8,0:0:0:0:
255,195,68233,1,8,0:0:0:0:
255,195,68382,1,0,0:0:0:0:
255,195,68533,1,0,0:0:0:0:
255,195,68682,1,8,0:0:0:0:
255,195,68983,1,0,0:0:0:0:
255,195,69132,1,0,0:0:0:0:
255,195,69282,1,8,0:0:0:0:
255,195,69432,1,8,0:0:0:0:
255,195,69583,1,0,0:0:0:0:
255,195,69732,1,8,0:0:0:0:
255,195,69882,1,0,0:0:0:0:
255,195,70033,1,0,0:0:0:0:
255,195,70182,1,8,0:0:0:0:
255,195,70483,1,0,0:0:0:0:
255,195,70782,1,8,0:0:0:0:
255,195,70932,1,8,0:0:0:0:
255,195,71082,1,0,0:0:0:0:
255,195,71382,1,8,0:0:0:0:
255,195,71532,1,0,0:0:0:0:
255,195,71682,1,8,0:0:0:0:
255,195,71833,1,8,0:0:0:0:
255,195,71982,1,0,0:0:0:0:
255,195,72132,1,0,0:0:0:0:
255,195,72283,1,8,0:0:0:0:
255,195,72582,1,8,0:0:0:0:
255,195,72732,1,8,0:0:0:0:
255,195,72882,1,0,0:0:0:0:
255,195,73182,1,8,0:0:0:0:
255,195,73332,1,0,0:0:0:0:
255,195,73482,1,8,0:0:0:0:
255,195,73632,1,8,0:0:0:0:
255,195,73782,1,0,0:0:0:0:
255,195,73932,1,0,0:0:0:0:
255,195,74082,1,8,0:0:0:0:
255,195,74382,1,0,0:0:0:0:
255,195,74682,1,8,0:0:0:0:
255,195,74832,1,0,0:0:0:0:
255,195,74982,1,8,0:0:0:0:
255,195,75132,1,0,0:0:0:0:
255,195,75282,1,8,0:0:0:0:
255,195,75582,1,0,0:0:0:0:
255,195,75732,1,0,0:0:0:0:
255,195,75882,1,8,0:0:0:0:
255,195,76033,1,8,0:0:0:0:
255,195,76183,1,0,0:0:0:0:
255,195,76332,1,0,0:0:0:0:
255,195,76482,1,8,0:0:0:0:
255,195,76782,1,8,0:0:0:0:
255,195,77082,1,0,0:0:0:0:
255,195,77382,1,8,0:0:0:0:
255,195,77532,1,0,0:0:0:0:
255,195,77682,1,8,0:0:0:0:
255,195,77982,1,0,0:0:0:0:
255,195,78132,1,0,0:0:0:0:
255,195,78282,1,12,0:0:0:0:
255,195,78582,1,8,0:0:0:0:
255,195,78732,1,0,0:0:0:0:
255,195,78882,1,8,0:0:0:0:
255,195,78957,1,0,0:0:0:0:
255,195,79032,1,8,0:0:0:0:
255,195,79182,1,8,0:0:0:0:
255,195,79332,1,0,0:0:0:0:
255,195,79482,1,8,0:0:0:0:
255,195,79632,1,8,0:0:0:0:
255,195,79782,1,0,0:0:0:0:
255,195,80082,1,8,0:0:0:0:
255,195,80383,1,0,0:0:0:0:
255,195,80533,1,0,0:0:0:0:
255,195,80682,1,8,0:0:0:0:
255,195,80982,1,8,0:0:0:0:
255,195,81132,1,0,0:0:0:0:
255,195,81282,1,8,0:0:0:0:
255,195,81358,1,0,0:0:0:0:
255,195,81433,1,0,0:0:0:0:
255,195,81582,1,8,0:0:0:0:
255,195,81733,1,8,0:0:0:0:
255,195,81883,1,0,0:0:0:0:
255,195,82182,1,8,0:0:0:0:
255,195,82332,1,0,0:0:0:0:
255,195,82482,1,8,0:0:0:0:
255,195,82782,1,0,0:0:0:0:
255,195,82932,1,0,0:0:0:0:
255,195,83082,1,8,0:0:0:0:
255,195,83158,1,0,0:0:0:0:
255,195,83232,1,8,0:0:0:0:
255,195,83382,1,8,0:0:0:0:
255,195,83532,1,0,0:0:0:0:
255,195,83682,1,8,0:0:0:0:
255,195,83983,1,0,0:0:0:0:
255,195,84282,1,8,0:0:0:0:
255,195,84432,1,0,0:0:0:0:
255,195,84582,1,8,0:0:0:0:
255,195,84732,1,8,0:0:0:0:
255,195,84883,1,0,0:0:0:0:
255,195,85182,1,0,0:0:0:0:
255,195,85333,1,0,0:0:0:0:
255,195,85482,1,12,0:0:0:0:
255,195,85782,1,8,0:0:0:0:
255,195,85932,1,0,0:0:0:0:
255,195,86082,1,12,0:0:0:0:
255,195,86382,1,0,0:0:0:0:
255,195,86682,1,12,0:0:0:0:
255,195,86982,1,12,0:0:0:0:
255,195,87282,1,0,0:0:0:0:
255,195,87357,1,0,0:0:0:0:
255,195,87432,1,0,0:0:0:0:
255,195,87507,1,0,0:0:0:0:
255,195,87582,1,8,0:0:0:0:
255,195,87732,1,0,0:0:0:0:
255,195,87882,1,12,0:0:0:0:
255,195,88182,1,8,0:0:0:0:
255,195,88332,1,0,0:0:0:0:
255,195,88482,1,8,0:0:0:0:
255,195,88558,1,8,0:0:0:0:
255,195,88632,1,0,0:0:0:0:
255,195,88782,1,8,0:0:0:0:
255,195,88932,1,0,0:0:0:0:
255,195,89083,1,8,0:0:0:0:
255,195,89158,1,0,0:0:0:0:
255,195,89233,1,0,0:0:0:0:
255,195,89382,1,8,0:0:0:0:
255,195,89682,1,8,0:0:0:0:
255,195,89833,1,8,0:0:0:0:
255,195,89983,1,0,0:0:0:0:
255,195,90133,1,0,0:0:0:0:
255,195,90283,1,8,0:0:0:0:
255,195,90433,1,0,0:0:0:0:
255,195,90583,1,8,0:0:0:0:
255,195,90658,1,0,0:0:0:0:
255,195,90732,1,8,0:0:0:0:
255,195,90883,1,0,0:0:0:0:
255,195,91032,1,0,0:0:0:0:
255,195,91182,1,8,0:0:0:0:
255,195,91257,1,0,0:0:0:0:
255,195,91332,1,8,0:0:0:0:
255,195,91482,1,8,0:0:0:0:
255,195,91632,1,0,0:0:0:0:
255,195,91782,1,8,0:0:0:0:
255,195,91857,1,8,0:0:0:0:
255,195,91932,1,0,0:0:0:0:
255,195,92082,1,8,0:0:0:0:
255,195,92232,1,0,0:0:0:0:
255,195,92382,1,0,0:0:0:0:
255,195,92533,1,8,0:0:0:0:
255,195,92682,1,8,0:0:0:0:
255,195,92983,1,8,0:0:0:0:
255,195,93133,1,0,0:0:0:0:
255,195,93282,1,8,0:0:0:0:
255,195,93358,1,0,0:0:0:0:
255,195,93432,1,0,0:0:0:0:
255,195,93582,1,8,0:0:0:0:
255,195,93732,1,0,0:0:0:0:
255,195,93882,1,8,0:0:0:0:
255,195,93957,1,8,0:0:0:0:
255,195,94032,1,0,0:0:0:0:
255,195,94182,1,8,0:0:0:0:
255,195,94333,1,8,0:0:0:0:
255,195,94483,1,0,0:0:0:0:
255,195,94632,1,0,0:0:0:0:
255,195,94707,1,8,0:0:0:0:
255,195,94782,1,0,0:0:0:0:
255,195,94933,1,8,0:0:0:0:
255,195,95082,1,0,0:0:0:0:
255,195,95308,1,8,0:0:0:0:
255,195,95382,1,0,0:0:0:0:
255,195,95532,1,8,0:0:0:0:
255,195,95683,1,8,0:0:0:0:
255,195,95758,1,0,0:0:0:0:
255,195,95833,1,0,0:0:0:0:
255,195,95982,1,8,0:0:0:0:
255,195,96132,1,0,0:0:0:0:
255,195,96282,1,8,0:0:0:0:
255,195,96358,1,0,0:0:0:0:
255,195,96432,1,0,0:0:0:0:
255,195,96508,1,0,0:0:0:0:
255,195,96582,1,8,0:0:0:0:
255,195,96732,1,0,0:0:0:0:
255,195,96882,1,8,0:0:0:0:
255,195,96957,1,0,0:0:0:0:
255,195,97032,1,8,0:0:0:0:
255,195,97107,1,0,0:0:0:0:
255,195,97182,1,8,0:0:0:0:
255,195,97482,1,12,0:0:0:0:
255,195,97782,1,8,0:0:0:0:
255,195,97857,1,0,0:0:0:0:
255,195,97932,1,8,0:0:0:0:
255,195,98082,1,8,0:0:0:0:
255,195,98232,1,0,0:0:0:0:
255,195,98382,1,8,0:0:0:0:
255,195,98532,1,0,0:0:0:0:
255,195,98682,1,8,0:0:0:0:
255,195,98757,1,8,0:0:0:0:
255,195,98832,1,8,0:0:0:0:
255,195,98982,1,8,0:0:0:0:
255,195,99132,1,0,0:0:0:0:
255,195,99283,1,8,0:0:0:0:
255,195,99433,1,8,0:0:0:0:
255,195,99583,1,0,0:0:0:0:
255,195,99732,1,0,0:0:0:0:
255,195,99883,1,8,0:0:0:0:
255,195,99957,1,8,0:0:0:0:
255,195,100032,1,0,0:0:0:0:
255,195,100182,1,8,0:0:0:0:
255,195,100332,1,8,0:0:0:0:
255,195,100483,1,0,0:0:0:0:
255,195,100782,1,8,0:0:0:0:
255,195,100858,1,8,0:0:0:0:
255,195,100933,1,0,0:0:0:0:
255,195,101082,1,8,0:0:0:0:
255,195,101232,1,0,0:0:0:0:
255,195,101307,1,0,0:0:0:0:
255,195,101382,1,8,0:0:0:0:
257,195,101532,1,8,0:0:0:0:
257,195,101682,1,0,0:0:0:0:
255,195,101833,1,0,0:0:0:0:
255,195,101982,1,8,0:0:0:0:
255,195,102132,1,0,0:0:0:0:
255,195,102282,1,8,0:0:0:0:
255,195,102357,1,8,0:0:0:0:
255,195,102433,1,0,0:0:0:0:
255,195,102583,1,8,0:0:0:0:
255,195,102732,1,0,0:0:0:0:
255,195,102882,1,8,0:0:0:0:
255,195,102958,1,8,0:0:0:0:
255,195,103033,1,0,0:0:0:0:
255,195,103183,1,8,0:0:0:0:
255,195,103332,1,0,0:0:0:0:
255,195,103482,1,8,0:0:0:0:
255,195,103557,1,8,0:0:0:0:
255,195,103632,1,0,0:0:0:0:
255,195,103782,1,8,0:0:0:0:
255,195,103932,1,8,0:0:0:0:
255,195,104082,1,0,0:0:0:0:
255,195,104232,1,8,0:0:0:0:
255,195,104383,1,0,0:0:0:0:
255,195,104532,1,0,0:0:0:0:
256,194,104682,5,8,0:0:0:0:
256,194,104908,1,8,0:0:0:0:
256,194,104982,1,8,0:0:0:0:
256,194,105132,1,0,0:0:0:0:
256,194,105282,1,8,0:0:0:0:
256,194,105582,1,8,0:0:0:0:
256,194,105882,1,12,0:0:0:0:
256,194,106182,1,0,0:0:0:0:
256,194,106332,1,8,0:0:0:0:
256,194,106407,1,0,0:0:0:0:
256,194,106482,1,8,0:0:0:0:
256,194,106632,1,0,0:0:0:0:
256,194,106783,1,8,0:0:0:0:
256,194,107083,1,8,0:0:0:0:
256,194,107307,1,0,0:0:0:0:
256,194,107382,1,8,0:0:0:0:
256,194,107532,1,0,0:0:0:0:
256,194,107682,1,8,0:0:0:0:
256,194,107757,1,0,0:0:0:0:
256,194,107832,1,0,0:0:0:0:
256,194,107907,1,0,0:0:0:0:
256,194,107982,1,8,0:0:0:0:
256,194,108132,1,0,0:0:0:0:
256,194,108282,1,8,0:0:0:0:
256,194,109182,1,0,0:0:0:0:
256,194,109257,1,0,0:0:0:0:
256,194,109332,1,0,0:0:0:0:
256,194,109407,1,0,0:0:0:0:
256,194,109482,1,8,0:0:0:0:
256,194,109633,1,0,0:0:0:0:
256,194,109782,1,8,0:0:0:0:
255,195,109858,1,0,0:0:0:0:
256,194,109932,1,8,0:0:0:0:
256,194,110083,1,0,0:0:0:0:
256,194,110233,1,8,0:0:0:0:
256,194,110383,1,8,0:0:0:0:
256,194,110533,1,0,0:0:0:0:
255,195,110608,1,0,0:0:0:0:
256,194,110683,1,8,0:0:0:0:
256,194,110833,1,0,0:0:0:0:
256,194,110983,1,8,0:0:0:0:
256,194,111132,1,0,0:0:0:0:
256,194,111207,1,0,0:0:0:0:
256,194,111282,1,8,0:0:0:0:
256,194,111508,1,8,0:0:0:0:
256,194,111733,1,0,0:0:0:0:
256,194,111882,1,8,0:0:0:0:
256,194,112183,1,8,0:0:0:0:
256,194,112258,1,0,0:0:0:0:
256,194,112332,1,8,0:0:0:0:
256,194,112483,1,0,0:0:0:0:
256,194,112632,1,8,0:0:0:0:
256,194,112708,1,0,0:0:0:0:
256,194,112783,1,0,0:0:0:0:
256,194,112932,1,8,0:0:0:0:
256,194,113082,1,0,0:0:0:0:
256,194,113232,1,8,0:0:0:0:
256,194,113307,1,0,0:0:0:0:
256,194,113383,1,8,0:0:0:0:
256,194,113532,1,8,0:0:0:0:
256,194,113682,1,0,0:0:0:0:
256,194,113833,1,0,0:0:0:0:
256,194,113982,1,8,0:0:0:0:
256,194,114282,1,8,0:0:0:0:
255,195,114433,1,0,0:0:0:0:
256,194,114582,1,8,0:0:0:0:
256,194,114732,1,0,0:0:0:0:
256,194,114807,1,8,0:0:0:0:
256,194,114882,1,0,0:0:0:0:
256,194,115107,1,8,0:0:0:0:
256,194,115332,1,8,0:0:0:0:
256,194,115482,1,0,0:0:0:0:
256,194,115632,1,8,0:0:0:0:
256,194,115782,1,8,0:0:0:0:
256,194,115933,1,0,0:0:0:0:
256,194,116008,1,0,0:0:0:0:
256,194,116082,1,8,0:0:0:0:
256,194,116307,1,8,0:0:0:0:
256,194,116532,1,0,0:0:0:0:
256,194,116682,1,8,0:0:0:0:
256,194,116832,1,0,0:0:0:0:
256,194,116982,1,8,0:0:0:0:
256,194,117057,1,0,0:0:0:0:
256,194,117132,1,8,0:0:0:0:
256,194,117282,1,8,0:0:0:0:
256,194,117432,1,8,0:0:0:0:
256,194,117507,1,0,0:0:0:0:
256,194,117658,1,8,0:0:0:0:
256,194,117732,1,8,0:0:0:0:
256,194,117882,1,0,0:0:0:0:
256,194,118182,1,8,0:0:0:0:
256,194,118332,1,0,0:0:0:0:
256,194,118408,1,0,0:0:0:0:
256,194,118482,1,8,0:0:0:0:
256,194,118633,1,8,0:0:0:0:
256,194,118783,1,4,0:0:0:0:
256,194,119083,1,12,0:0:0:0:
256,194,119382,1,8,0:0:0:0:
256,194,119532,1,0,0:0:0:0:
256,194,119608,1,0,0:0:0:0:
256,194,119682,1,8,0:0:0:0:
256,194,119832,1,0,0:0:0:0:
256,194,119982,1,8,0:0:0:0:
256,194,120058,1,0,0:0:0:0:
256,194,120132,1,8,0:0:0:0:
256,194,120282,1,0,0:0:0:0:
256,194,120432,1,8,0:0:0:0:
256,194,120582,1,0,0:0:0:0:
256,194,120732,1,8,0:0:0:0:
256,194,120807,1,0,0:0:0:0:
256,194,120882,1,8,0:0:0:0:
256,194,121033,1,0,0:0:0:0:
256,194,121182,1,8,0:0:0:0:
256,194,121258,1,8,0:0:0:0:
256,194,121333,1,0,0:0:0:0:
256,194,121482,1,8,0:0:0:0:
256,194,121782,1,8,0:0:0:0:
256,194,121933,1,8,0:0:0:0:
256,194,122083,1,0,0:0:0:0:
256,194,122233,1,8,0:0:0:0:
256,194,122307,1,0,0:0:0:0:
256,194,122382,1,8,0:0:0:0:
256,194,122532,1,8,0:0:0:0:
256,194,122683,1,0,0:0:0:0:
256,194,122832,1,8,0:0:0:0:
256,194,122907,1,8,0:0:0:0:
256,194,122982,1,0,0:0:0:0:
256,194,123133,1,8,0:0:0:0:
256,194,123283,1,0,0:0:0:0:
256,194,123582,1,8,0:0:0:0:
256,194,123733,1,0,0:0:0:0:
256,194,123882,1,8,0:0:0:0:
256,194,123958,1,8,0:0:0:0:
256,194,124032,1,0,0:0:0:0:
256,194,124182,1,8,0:0:0:0:
256,194,124332,1,0,0:0:0:0:
256,194,124407,1,8,0:0:0:0:
256,194,124482,1,0,0:0:0:0:
256,194,124707,1,0,0:0:0:0:
256,194,124932,1,8,0:0:0:0:
256,194,125082,1,8,0:0:0:0:
256,194,125158,1,0,0:0:0:0:
256,194,125233,1,8,0:0:0:0:
256,194,125383,1,0,0:0:0:0:
256,194,125532,1,8,0:0:0:0:
256,194,125608,1,8,0:0:0:0:
256,194,125682,1,0,0:0:0:0:
256,194,125833,1,8,0:0:0:0:
256,194,125983,1,0,0:0:0:0:
256,194,126058,1,0,0:0:0:0:
256,194,126133,1,8,0:0:0:0:
256,194,126282,1,8,0:0:0:0:
256,194,126433,1,0,0:0:0:0:
256,194,126582,1,8,0:0:0:0:
256,194,126658,1,8,0:0:0:0:
256,194,126732,1,0,0:0:0:0:
256,194,126882,1,8,0:0:0:0:
256,194,127032,1,8,0:0:0:0:
256,194,127182,1,0,0:0:0:0:
256,194,127332,1,8,0:0:0:0:
256,194,127632,1,0,0:0:0:0:
256,194,127707,1,0,0:0:0:0:
256,194,127782,1,8,0:0:0:0:
256,194,127932,1,8,0:0:0:0:
256,194,128083,1,8,0:0:0:0:
256,194,128157,1,0,0:0:0:0:
256,194,128232,1,8,0:0:0:0:
256,194,128383,1,0,0:0:0:0:
256,194,128682,5,12,0:0:0:0:
256,194,128832,1,0,0:0:0:0:
256,194,128907,1,0,0:0:0:0:
256,194,128982,1,8,0:0:0:0:
256,194,129057,1,0,0:0:0:0:
256,194,129132,1,8,0:0:0:0:
256,194,129282,1,0,0:0:0:0:
256,194,129432,1,8,0:0:0:0:
256,194,129507,1,0,0:0:0:0:
256,194,129582,1,8,0:0:0:0:
256,194,129732,1,0,0:0:0:0:
256,194,129882,1,8,0:0:0:0:
256,194,130033,1,0,0:0:0:0:
256,194,130108,1,0,0:0:0:0:
256,194,130182,1,8,0:0:0:0:
256,194,130257,1,8,0:0:0:0:
256,194,130332,1,0,0:0:0:0:
256,194,130482,1,8,0:0:0:0:
256,194,130633,1,0,0:0:0:0:
256,194,130707,1,8,0:0:0:0:
256,194,130932,1,0,0:0:0:0:
256,194,131082,1,8,0:0:0:0:
256,194,131232,1,0,0:0:0:0:
256,194,131307,1,0,0:0:0:0:
256,194,131382,1,8,0:0:0:0:
256,194,131532,1,8,0:0:0:0:
256,194,131682,1,0,0:0:0:0:
256,194,131832,1,8,0:0:0:0:
256,194,131908,1,8,0:0:0:0:
256,194,131982,1,0,0:0:0:0:
256,194,132132,1,8,0:0:0:0:
256,194,132282,1,0,0:0:0:0:
256,194,132432,1,8,0:0:0:0:
256,194,132507,1,0,0:0:0:0:
256,194,132582,1,8,0:0:0:0:
256,194,132732,1,0,0:0:0:0:
256,194,132882,1,8,0:0:0:0:
256,194,133182,1,8,0:0:0:0:
256,194,133332,1,0,0:0:0:0:
256,194,133482,1,8,0:0:0:0:
256,194,133632,1,8,0:0:0:0:
256,194,133782,1,0,0:0:0:0:
256,194,133932,1,8,0:0:0:0:
256,194,134007,1,0,0:0:0:0:
256,194,134082,1,8,0:0:0:0:
256,194,134308,1,8,0:0:0:0:
256,194,134533,1,0,0:0:0:0:
256,194,134682,1,8,0:0:0:0:
256,194,134833,1,0,0:0:0:0:
256,194,134982,1,8,0:0:0:0:
256,194,135132,1,8,0:0:0:0:
256,194,135207,1,8,0:0:0:0:
256,194,135282,1,0,0:0:0:0:
256,194,135507,1,8,0:0:0:0:
256,194,135732,1,0,0:0:0:0:
256,194,135882,1,8,0:0:0:0:
256,194,135958,1,0,0:0:0:0:
256,194,136032,1,0,0:0:0:0:
256,194,136183,1,8,0:0:0:0:
256,194,136258,1,8,0:0:0:0:
256,194,136332,1,0,0:0:0:0:
256,194,136483,1,8,0:0:0:0:
256,194,136558,1,0,0:0:0:0:
256,194,136633,1,0,0:0:0:0:
256,194,136782,1,8,0:0:0:0:
256,194,136858,1,8,0:0:0:0:
256,194,136933,1,0,0:0:0:0:
256,194,137082,1,8,0:0:0:0:
256,194,137383,1,8,0:0:0:0:
256,194,137533,1,0,0:0:0:0:
256,194,137608,1,0,0:0:0:0:
256,194,137682,1,8,0:0:0:0:
256,194,137833,1,0,0:0:0:0:
256,194,137983,1,8,0:0:0:0:
256,194,138132,1,0,0:0:0:0:
256,194,138282,1,8,0:0:0:0:
256,194,138582,1,8,0:0:0:0:
256,194,138732,1,0,0:0:0:0:
256,194,138807,1,0,0:0:0:0:
256,194,138882,1,8,0:0:0:0:
256,194,139032,1,0,0:0:0:0:
256,194,139182,1,8,0:0:0:0:
256,194,139258,1,0,0:0:0:0:
256,194,139332,1,8,0:0:0:0:
256,194,139482,1,0,0:0:0:0:
256,194,139632,1,8,0:0:0:0:
256,194,139783,1,0,0:0:0:0:
256,194,139932,1,8,0:0:0:0:
256,194,140007,1,0,0:0:0:0:
256,194,140082,1,8,0:0:0:0:
256,194,140308,1,8,0:0:0:0:
256,194,140532,1,8,0:0:0:0:
256,194,140682,1,0,0:0:0:0:
256,194,140982,1,8,0:0:0:0:
256,194,141132,1,0,0:0:0:0:
256,194,141282,1,8,0:0:0:0:
256,194,141432,1,0,0:0:0:0:
256,194,141507,1,0,0:0:0:0:
256,194,141583,1,8,0:0:0:0:
256,194,141732,1,8,0:0:0:0:
256,194,141882,1,0,0:0:0:0:
256,194,142032,1,8,0:0:0:0:
256,194,142107,1,8,0:0:0:0:
256,194,142182,1,0,0:0:0:0:
256,194,142332,1,8,0:0:0:0:
256,194,142483,1,0,0:0:0:0:
256,194,142632,1,8,0:0:0:0:
256,194,142708,1,0,0:0:0:0:
256,194,142783,1,8,0:0:0:0:
256,194,142932,1,0,0:0:0:0:
256,194,143082,1,12,0:0:0:0:
256,194,143383,1,0,0:0:0:0:
256,194,143532,1,8,0:0:0:0:
256,194,143607,1,0,0:0:0:0:
256,194,143682,1,8,0:0:0:0:
256,194,143907,1,0,0:0:0:0:
256,194,144132,1,0,0:0:0:0:
256,194,144282,1,12,0:0:0:0:
256,194,144582,1,0,0:0:0:0:
256,194,144882,1,8,0:0:0:0:
256,194,145182,1,8,0:0:0:0:
256,194,145333,1,0,0:0:0:0:
256,194,145482,1,12,0:0:0:0:
256,194,145782,1,0,0:0:0:0:
256,194,146082,1,12,0:0:0:0:
256,194,146307,1,0,0:0:0:0:
256,194,146532,1,0,0:0:0:0:
256,194,146682,1,12,0:0:0:0:
256,194,146982,1,12,0:0:0:0:
256,194,147282,1,8,0:0:0:0:
256,194,147433,1,0,0:0:0:0:
256,194,147508,1,0,0:0:0:0:
256,194,147582,1,8,0:0:0:0:
256,194,147732,1,0,0:0:0:0:
256,192,147883,1,8,0:0:0:0:
256,192,147958,1,8,0:0:0:0:
256,192,148033,1,0,0:0:0:0:
256,192,148183,1,8,0:0:0:0:
256,192,148332,1,0,0:0:0:0:
256,192,148482,1,8,0:0:0:0:
256,192,148558,1,0,0:0:0:0:
256,192,148633,1,8,0:0:0:0:
256,192,148783,1,0,0:0:0:0:
256,192,148933,1,8,0:0:0:0:
256,192,149083,1,0,0:0:0:0:
256,192,149382,1,8,0:0:0:0:
256,192,149457,1,0,0:0:0:0:
256,192,149532,1,8,0:0:0:0:
256,192,149682,1,0,0:0:0:0:
256,192,149832,1,8,0:0:0:0:
256,192,149907,1,0,0:0:0:0:
256,192,149982,1,0,0:0:0:0:
256,192,150132,1,8,0:0:0:0:
256,192,150282,1,0,0:0:0:0:
256,192,150433,1,8,0:0:0:0:
256,192,150582,1,8,0:0:0:0:
256,192,150657,1,0,0:0:0:0:
256,192,150733,1,0,0:0:0:0:
256,192,150882,1,8,0:0:0:0:
256,192,151033,1,0,0:0:0:0:
256,192,151182,1,8,0:0:0:0:
256,192,151333,1,0,0:0:0:0:
256,192,151408,1,8,0:0:0:0:
256,192,151483,1,0,0:0:0:0:
256,192,151632,1,8,0:0:0:0:
256,192,151782,1,0,0:0:0:0:
256,192,151932,1,8,0:0:0:0:
256,192,152082,1,0,0:0:0:0:
256,192,152158,1,0,0:0:0:0:
256,192,152233,1,8,0:0:0:0:
256,192,152383,1,0,0:0:0:0:
256,192,152532,1,8,0:0:0:0:
256,192,152683,1,0,0:0:0:0:
256,192,152982,1,8,0:0:0:0:
256,192,153132,1,0,0:0:0:0:
256,192,153208,1,0,0:0:0:0:
256,192,153282,1,8,0:0:0:0:
256,192,153433,1,0,0:0:0:0:
256,192,153582,1,8,0:0:0:0:
256,192,153732,1,0,0:0:0:0:
256,192,153882,1,8,0:0:0:0:
256,192,153957,1,0,0:0:0:0:
256,192,154032,1,8,0:0:0:0:
256,192,154182,1,8,0:0:0:0:
256,192,154332,1,0,0:0:0:0:
256,192,154482,1,8,0:0:0:0:
256,192,154782,1,8,0:0:0:0:
256,192,154932,1,0,0:0:0:0:
256,192,155008,1,0,0:0:0:0:
256,192,155083,1,8,0:0:0:0:
256,192,155233,1,0,0:0:0:0:
256,192,155382,1,8,0:0:0:0:
256,192,155532,1,0,0:0:0:0:
256,192,155683,1,8,0:0:0:0:
256,192,155758,1,8,0:0:0:0:
256,192,155833,1,0,0:0:0:0:
256,192,155982,1,8,0:0:0:0:
256,192,156132,1,0,0:0:0:0:
256,192,156208,1,0,0:0:0:0:
256,192,156282,1,8,0:0:0:0:
256,192,156432,1,0,0:0:0:0:
256,192,156582,1,8,0:0:0:0:
256,192,156732,1,0,0:0:0:0:
256,192,156882,1,12,0:0:0:0:
256,192,157182,1,4,0:0:0:0:
256,192,157332,12,0,160782,0:0:0:0:
