osu file format v14

[General]
AudioFilename: audioo.mp3
AudioLeadIn: 0
PreviewTime: 1482
Countdown: 0
SampleSet: Normal
StackLeniency: 0.7
Mode: 1
LetterboxInBreaks: 0
WidescreenStoryboard: 1

[Editor]
Bookmarks: 4708
DistanceSpacing: 1.3
BeatDivisor: 4
GridSize: 32
TimelineZoom: 1.5

[Metadata]
Title:CAMELLO MULTIVERSE
TitleUnicode:CAMELLO MULTIVERSE
Artist:camel ytpmv
ArtistUnicode:camel ytpmv
Creator:Ognjen3800
Version:FUTSUU
Source:東方Project
Tags:novelty malayalam മലയാളം Malayali indian chinese e_s_i_a [-e_s_i_a-] esia [-esia-] gaston_2199 音mad otomad oto-mad ytp youtube poop music video Touhou Project 東方永夜抄 ~ Imperishable Night. 東方花映塚 ~ Phantasmagoria of Flower View. シンデレラケージ ~ Kagome-Kagome Cinderella Cage お宇佐さまの素い幡 ousa-sama no shiroi hata white flag of usa shrine ウサテイ usatei iosys ビートまりお beatmario zun 上海アリス幻樂団 team shanghai alice
BeatmapID:4411548
BeatmapSetID:2097924

[Difficulty]
HPDrainRate:7
CircleSize:5
OverallDifficulty:3.5
ApproachRate:10
SliderMultiplier:1.4
SliderTickRate:1

[Events]
//Background and Video events
0,0,"maxresdefault (11).jpg",0,0
Video,-90,"camello.mp4"
//Break Periods
//Storyboard Layer 0 (Background)
//Storyboard Layer 1 (Fail)
//Storyboard Layer 2 (Pass)
//Storyboard Layer 3 (Foreground)
//Storyboard Layer 4 (Overlay)
//Storyboard Sound Samples

[TimingPoints]
-3317,300,4,1,0,65,1,0
-3317,-111.111111111111,4,1,0,65,0,0
58,-111.111111111111,4,1,0,65,0,0
128,-111.111111111111,4,1,0,65,0,0
1408,-111.111111111111,4,1,0,80,0,0
20678,-111.111111111111,4,1,0,75,0,0
27808,-111.111111111111,4,1,0,80,0,0
49478,-111.111111111111,4,1,0,65,0,0
68608,-111.111111111111,4,1,0,60,0,0
78208,-111.111111111111,4,1,0,65,0,0
87278,-111.111111111111,4,1,0,67,0,0
87353,-111.111111111111,4,1,0,68,0,0
87428,-111.111111111111,4,1,0,69,0,0
87503,-111.111111111111,4,1,0,70,0,0
87578,-111.111111111111,4,1,0,72,0,0
87653,-111.111111111111,4,1,0,74,0,0
87728,-111.111111111111,4,1,0,76,0,0
87803,-111.111111111111,4,1,0,78,0,0
87878,-111.111111111111,4,1,0,80,0,0
108358,-111.111111111111,4,1,0,30,0,0
109183,-111.111111111111,4,1,0,50,0,0
109258,-111.111111111111,4,1,0,52,0,0
109333,-111.111111111111,4,1,0,54,0,0
109408,-111.111111111111,4,1,0,56,0,0
109483,-111.111111111111,4,1,0,85,0,1
128308,-111.111111111111,4,1,0,85,0,0
128317,-111.111111111111,4,1,0,50,0,0
128683,-111.111111111111,4,1,0,90,0,1
143008,-111.111111111111,4,1,0,75,0,1
143083,-111.111111111111,4,1,0,75,0,0
147878,-111.111111111111,4,1,0,85,0,0
157182,-111.111111111111,4,1,0,70,0,0
158382,-111.111111111111,4,1,0,50,0,0
159582,-111.111111111111,4,1,0,30,0,0
160782,-111.111111111111,4,1,0,10,0,0

[HitObjects]
256,192,133,5,0,0:0:0:0:
256,192,283,5,8,0:0:0:0:
256,192,583,1,8,0:0:0:0:
256,192,883,1,0,0:0:0:0:
256,192,1033,1,8,0:0:0:0:
256,192,1183,1,0,0:0:0:0:
256,192,1483,1,8,0:0:0:0:
256,192,1783,1,0,0:0:0:0:
256,192,2082,1,8,0:0:0:0:
256,192,2383,1,0,0:0:0:0:
256,192,2532,1,8,0:0:0:0:
256,192,2683,1,0,0:0:0:0:
256,192,3133,1,8,0:0:0:0:
256,192,3282,1,0,0:0:0:0:
256,192,3508,1,8,0:0:0:0:
256,192,3733,1,0,0:0:0:0:
256,192,3882,1,8,0:0:0:0:
256,192,4182,1,8,0:0:0:0:
256,192,4333,1,0,0:0:0:0:
256,192,4633,1,8,0:0:0:0:
256,192,4782,1,0,0:0:0:0:
256,192,4933,1,8,0:0:0:0:
256,192,5233,1,0,0:0:0:0:
256,192,5383,1,0,0:0:0:0:
256,192,5532,1,8,0:0:0:0:
256,192,5682,1,8,0:0:0:0:
256,192,6282,1,0,0:0:0:0:
256,192,6732,1,8,0:0:0:0:
256,192,6882,1,0,0:0:0:0:
256,192,7108,1,8,0:0:0:0:
256,192,7333,1,0,0:0:0:0:
256,192,7483,1,8,0:0:0:0:
256,192,7933,1,0,0:0:0:0:
256,192,8083,1,8,0:0:0:0:
256,192,8308,1,0,0:0:0:0:
256,192,8532,1,8,0:0:0:0:
256,192,8683,1,0,0:0:0:0:
256,192,8983,1,8,0:0:0:0:
256,192,9283,1,0,0:0:0:0:
256,192,9508,1,8,0:0:0:0:
256,192,9732,1,0,0:0:0:0:
256,192,9883,1,8,0:0:0:0:
256,192,10483,1,8,0:0:0:0:
256,192,10633,1,0,0:0:0:0:
256,192,10782,1,8,0:0:0:0:
256,192,11083,1,0,0:0:0:0:
256,192,11533,1,0,0:0:0:0:
256,192,11682,1,8,0:0:0:0:
256,192,11982,1,8,0:0:0:0:
256,192,12133,1,0,0:0:0:0:
256,192,12432,1,0,0:0:0:0:
256,192,12732,1,8,0:0:0:0:
256,192,12883,1,8,0:0:0:0:
256,192,13183,1,0,0:0:0:0:
256,192,13333,1,8,0:0:0:0:
256,192,13482,1,8,0:0:0:0:
256,192,14232,1,8,0:0:0:0:
256,192,14383,1,0,0:0:0:0:
256,192,14533,1,8,0:0:0:0:
256,192,14833,1,8,0:0:0:0:
256,192,14982,1,0,0:0:0:0:
256,192,15133,1,8,0:0:0:0:
256,192,15283,1,0,0:0:0:0:
256,192,15882,1,8,0:0:0:0:
256,192,16333,1,8,0:0:0:0:
256,192,16482,1,0,0:0:0:0:
256,192,16707,1,8,0:0:0:0:
256,192,16933,1,0,0:0:0:0:
256,192,17082,1,8,0:0:0:0:
256,192,17983,1,8,0:0:0:0:
256,192,18133,1,0,0:0:0:0:
256,192,18282,1,8,0:0:0:0:
256,192,18583,1,8,0:0:0:0:
256,192,18883,1,0,0:0:0:0:
256,192,19032,1,0,0:0:0:0:
256,192,19333,1,8,0:0:0:0:
256,192,19633,1,0,0:0:0:0:
256,192,19783,1,8,0:0:0:0:
256,192,20083,1,0,0:0:0:0:
256,192,20683,1,0,0:0:0:0:
256,192,20983,1,8,0:0:0:0:
256,192,21283,1,0,0:0:0:0:
256,192,21433,1,0,0:0:0:0:
256,192,21582,1,8,0:0:0:0:
256,192,21883,1,0,0:0:0:0:
256,192,22183,1,8,0:0:0:0:
256,192,22333,1,8,0:0:0:0:
256,192,22483,1,0,0:0:0:0:
256,192,22783,1,8,0:0:0:0:
257,192,23082,1,0,0:0:0:0:
257,192,23383,1,8,0:0:0:0:
257,192,23683,1,8,0:0:0:0:
257,192,23833,1,0,0:0:0:0:
257,192,23982,1,8,0:0:0:0:
257,192,24283,1,0,0:0:0:0:
257,192,24583,1,8,0:0:0:0:
257,192,24882,1,0,0:0:0:0:
257,192,25482,1,8,0:0:0:0:
257,192,25633,1,0,0:0:0:0:
257,192,25782,1,8,0:0:0:0:
257,192,26082,1,8,0:0:0:0:
257,192,26382,1,0,0:0:0:0:
257,192,26682,1,8,0:0:0:0:
257,192,26982,1,8,0:0:0:0:
257,192,27132,1,0,0:0:0:0:
257,192,27282,1,0,0:0:0:0:
257,192,27582,1,8,0:0:0:0:
257,192,27882,1,8,0:0:0:0:
257,192,28032,1,0,0:0:0:0:
257,192,28182,1,8,0:0:0:0:
257,192,28332,1,0,0:0:0:0:
257,192,28483,1,8,0:0:0:0:
257,192,28782,1,0,0:0:0:0:
257,192,29083,1,8,0:0:0:0:
257,192,29382,1,0,0:0:0:0:
257,192,29682,1,8,0:0:0:0:
257,192,29832,1,8,0:0:0:0:
257,192,29983,1,0,0:0:0:0:
257,192,30282,1,12,0:0:0:0:
257,192,30882,1,8,0:0:0:0:
257,192,31333,1,0,0:0:0:0:
257,192,31482,1,8,0:0:0:0:
257,192,32082,1,0,0:0:0:0:
257,192,32308,1,8,0:0:0:0:
257,192,32533,1,0,0:0:0:0:
257,192,32683,1,8,0:0:0:0:
257,192,32982,1,8,0:0:0:0:
257,192,33132,1,0,0:0:0:0:
257,192,33432,1,8,0:0:0:0:
257,192,33583,1,8,0:0:0:0:
257,192,33732,1,0,0:0:0:0:
257,192,34032,1,0,0:0:0:0:
257,192,34182,1,8,0:0:0:0:
257,192,34332,1,8,0:0:0:0:
257,192,34482,1,0,0:0:0:0:
257,192,35082,1,8,0:0:0:0:
257,192,35382,1,0,0:0:0:0:
257,192,35532,1,8,0:0:0:0:
257,192,35682,1,0,0:0:0:0:
257,192,35907,1,8,0:0:0:0:
257,192,36282,1,8,0:0:0:0:
257,192,36582,1,8,0:0:0:0:
257,192,36733,1,8,0:0:0:0:
257,192,36882,1,0,0:0:0:0:
257,192,37107,1,8,0:0:0:0:
257,192,37483,1,0,0:0:0:0:
257,192,37782,1,0,0:0:0:0:
257,192,37932,1,8,0:0:0:0:
257,192,38083,1,0,0:0:0:0:
257,192,38308,1,8,0:0:0:0:
257,192,38682,1,8,0:0:0:0:
257,192,39132,1,8,0:0:0:0:
257,192,39282,1,0,0:0:0:0:
257,192,39433,1,0,0:0:0:0:
257,192,39583,1,8,0:0:0:0:
257,192,39882,1,0,0:0:0:0:
257,192,40482,1,8,0:0:0:0:
257,192,40782,1,8,0:0:0:0:
257,192,40933,1,0,0:0:0:0:
257,192,41233,1,8,0:0:0:0:
257,192,41533,1,0,0:0:0:0:
257,192,41682,1,8,0:0:0:0:
257,192,41982,1,8,0:0:0:0:
257,192,42133,1,0,0:0:0:0:
257,192,42282,1,8,0:0:0:0:
257,192,43033,1,0,0:0:0:0:
257,192,43182,1,0,0:0:0:0:
257,192,43332,1,8,0:0:0:0:
257,192,43632,1,8,0:0:0:0:
257,192,43782,1,0,0:0:0:0:
257,192,43932,1,8,0:0:0:0:
257,192,44083,1,8,0:0:0:0:
257,192,44383,1,0,0:0:0:0:
257,192,44683,1,8,0:0:0:0:
257,192,45133,1,0,0:0:0:0:
257,192,45283,1,8,0:0:0:0:
257,192,45507,1,0,0:0:0:0:
257,192,45733,1,8,0:0:0:0:
257,192,45882,1,8,0:0:0:0:
257,192,46782,1,8,0:0:0:0:
257,192,46933,1,8,0:0:0:0:
257,192,47083,1,0,0:0:0:0:
257,192,47382,1,8,0:0:0:0:
257,192,47682,1,0,0:0:0:0:
257,192,47832,1,8,0:0:0:0:
257,192,48132,1,8,0:0:0:0:
257,192,48432,1,8,0:0:0:0:
257,192,48582,1,0,0:0:0:0:
257,192,48733,1,8,0:0:0:0:
257,192,48883,1,0,0:0:0:0:
257,192,49183,1,8,0:0:0:0:
257,192,49482,1,12,0:0:0:0:
257,192,50082,1,8,0:0:0:0:
257,192,50382,1,0,0:0:0:0:
257,192,50682,1,8,0:0:0:0:
257,192,50832,1,8,0:0:0:0:
257,192,50982,1,0,0:0:0:0:
257,192,51282,1,8,0:0:0:0:
257,192,51882,1,8,0:0:0:0:
257,192,52182,1,8,0:0:0:0:
257,192,52333,1,0,0:0:0:0:
257,192,52482,1,8,0:0:0:0:
257,192,52783,1,8,0:0:0:0:
257,192,53082,1,0,0:0:0:0:
257,192,53383,1,0,0:0:0:0:
257,192,53532,1,8,0:0:0:0:
257,192,53682,1,0,0:0:0:0:
256,192,54282,5,8,0:0:0:0:
256,192,54432,1,8,0:0:0:0:
256,192,54582,1,0,0:0:0:0:
256,192,54883,1,8,0:0:0:0:
256,192,55182,1,0,0:0:0:0:
256,192,55483,1,8,0:0:0:0:
256,192,55782,1,8,0:0:0:0:
256,192,55932,1,0,0:0:0:0:
256,192,56082,1,8,0:0:0:0:
256,192,56682,1,8,0:0:0:0:
256,192,56982,1,0,0:0:0:0:
256,192,57132,1,8,0:0:0:0:
256,192,57283,1,0,0:0:0:0:
256,192,57582,1,8,0:0:0:0:
256,192,57883,1,0,0:0:0:0:
256,192,58333,1,0,0:0:0:0:
256,192,58482,1,8,0:0:0:0:
256,192,58783,1,0,0:0:0:0:
256,192,59083,1,12,0:0:0:0:
256,192,59682,1,8,0:0:0:0:
256,192,59982,1,8,0:0:0:0:
256,192,60282,1,0,0:0:0:0:
256,192,60432,1,8,0:0:0:0:
256,192,60582,1,0,0:0:0:0:
256,192,60882,1,8,0:0:0:0:
256,192,61482,1,8,0:0:0:0:
256,192,61783,1,8,0:0:0:0:
256,192,61932,1,8,0:0:0:0:
256,192,62082,1,0,0:0:0:0:
256,192,62382,1,0,0:0:0:0:
256,192,62683,1,8,0:0:0:0:
256,192,62982,1,8,0:0:0:0:
256,192,63133,1,0,0:0:0:0:
256,192,63283,1,8,0:0:0:0:
256,192,63882,1,8,0:0:0:0:
256,192,64183,1,0,0:0:0:0:
256,192,64482,1,8,0:0:0:0:
256,192,64782,1,8,0:0:0:0:
256,192,65083,1,0,0:0:0:0:
256,192,65383,1,8,0:0:0:0:
256,192,65532,1,8,0:0:0:0:
256,192,65682,1,0,0:0:0:0:
256,192,65982,1,8,0:0:0:0:
256,192,66282,1,0,0:0:0:0:
256,192,66583,1,8,0:0:0:0:
255,195,66882,1,0,0:0:0:0:
255,195,67033,1,0,0:0:0:0:
256,192,67183,1,8,0:0:0:0:
255,195,67482,1,8,0:0:0:0:
255,195,67782,1,0,0:0:0:0:
255,195,68082,1,8,0:0:0:0:
255,195,68233,1,0,0:0:0:0:
255,195,68383,1,0,0:0:0:0:
255,195,68682,1,8,0:0:0:0:
255,195,69282,1,8,0:0:0:0:
255,195,69882,1,0,0:0:0:0:
255,195,70182,1,8,0:0:0:0:
255,195,70483,1,0,0:0:0:0:
255,195,71082,1,0,0:0:0:0:
255,195,71682,1,8,0:0:0:0:
255,195,71982,1,8,0:0:0:0:
255,195,72283,1,0,0:0:0:0:
255,195,72882,1,8,0:0:0:0:
255,195,73483,1,0,0:0:0:0:
255,195,73783,1,8,0:0:0:0:
255,195,74083,1,0,0:0:0:0:
255,195,74682,1,8,0:0:0:0:
255,195,74982,1,8,0:0:0:0:
255,195,75282,1,0,0:0:0:0:
255,195,75882,1,8,0:0:0:0:
255,195,76183,1,0,0:0:0:0:
255,195,76482,1,8,0:0:0:0:
255,195,76782,1,8,0:0:0:0:
255,195,77082,1,0,0:0:0:0:
255,195,77683,1,8,0:0:0:0:
255,195,78282,1,12,0:0:0:0:
255,195,78882,1,8,0:0:0:0:
255,195,79183,1,0,0:0:0:0:
255,195,79482,1,8,0:0:0:0:
255,195,79632,1,8,0:0:0:0:
255,195,79782,1,0,0:0:0:0:
255,195,80082,1,8,0:0:0:0:
255,195,80682,1,0,0:0:0:0:
255,195,80982,1,8,0:0:0:0:
255,195,81283,1,0,0:0:0:0:
255,195,81582,1,8,0:0:0:0:
255,195,81733,1,0,0:0:0:0:
255,195,81883,1,8,0:0:0:0:
255,195,82183,1,8,0:0:0:0:
255,195,82483,1,0,0:0:0:0:
255,195,83082,1,8,0:0:0:0:
255,195,83383,1,8,0:0:0:0:
255,195,83682,1,0,0:0:0:0:
255,195,83983,1,8,0:0:0:0:
255,195,84282,1,8,0:0:0:0:
255,195,84432,1,0,0:0:0:0:
255,195,84582,1,8,0:0:0:0:
255,195,84883,1,0,0:0:0:0:
255,195,85482,1,12,0:0:0:0:
255,195,86082,1,12,0:0:0:0:
255,195,86682,1,12,0:0:0:0:
255,195,86982,1,12,0:0:0:0:
255,195,87282,1,0,0:0:0:0:
255,195,87433,1,0,0:0:0:0:
255,195,87582,1,8,0:0:0:0:
258,209,87732,1,0,0:0:0:0:
255,195,87882,1,12,0:0:0:0:
255,195,88482,1,8,0:0:0:0:
255,195,88783,1,8,0:0:0:0:
255,195,89083,1,0,0:0:0:0:
255,195,89233,1,0,0:0:0:0:
255,195,89382,1,8,0:0:0:0:
255,195,89682,1,8,0:0:0:0:
255,195,90283,1,8,0:0:0:0:
255,195,90582,1,8,0:0:0:0:
255,195,90732,1,8,0:0:0:0:
255,195,90883,1,0,0:0:0:0:
255,195,91182,1,8,0:0:0:0:
255,195,91483,1,0,0:0:0:0:
255,195,91783,1,8,0:0:0:0:
255,195,91932,1,0,0:0:0:0:
255,195,92082,1,0,0:0:0:0:
255,195,92682,1,8,0:0:0:0:
255,195,92983,1,0,0:0:0:0:
255,195,93283,1,8,0:0:0:0:
255,195,93433,1,8,0:0:0:0:
255,195,93583,1,0,0:0:0:0:
255,195,93882,1,8,0:0:0:0:
255,195,94182,1,8,0:0:0:0:
255,195,94333,1,0,0:0:0:0:
255,195,94483,1,8,0:0:0:0:
255,195,95082,1,0,0:0:0:0:
255,195,95308,1,8,0:0:0:0:
255,195,95532,1,0,0:0:0:0:
255,195,95683,1,8,0:0:0:0:
255,195,95982,1,8,0:0:0:0:
255,195,96283,1,0,0:0:0:0:
255,195,96733,1,0,0:0:0:0:
255,195,96882,1,8,0:0:0:0:
255,195,97482,1,12,0:0:0:0:
255,195,97782,1,8,0:0:0:0:
255,195,97932,1,8,0:0:0:0:
255,195,98082,1,0,0:0:0:0:
255,195,98382,1,8,0:0:0:0:
255,195,98682,1,0,0:0:0:0:
255,195,98982,1,8,0:0:0:0:
255,195,99132,1,0,0:0:0:0:
255,195,99283,1,8,0:0:0:0:
255,195,99883,1,8,0:0:0:0:
255,195,100183,1,0,0:0:0:0:
255,195,100332,1,8,0:0:0:0:
255,195,100483,1,0,0:0:0:0:
255,195,100782,1,8,0:0:0:0:
255,195,100933,1,8,0:0:0:0:
255,195,101082,1,0,0:0:0:0:
255,195,101232,1,0,0:0:0:0:
255,195,101383,1,8,0:0:0:0:
255,195,101683,1,0,0:0:0:0:
255,195,102282,1,8,0:0:0:0:
255,195,102583,1,0,0:0:0:0:
255,195,102882,1,8,0:0:0:0:
255,195,103033,1,8,0:0:0:0:
255,195,103182,1,0,0:0:0:0:
255,195,103482,1,8,0:0:0:0:
255,195,103782,1,0,0:0:0:0:
255,195,103933,1,8,0:0:0:0:
255,195,104083,1,0,0:0:0:0:
256,194,104682,5,8,0:0:0:0:
256,194,104908,1,0,0:0:0:0:
256,194,105132,1,8,0:0:0:0:
256,194,105282,1,0,0:0:0:0:
256,194,105582,1,8,0:0:0:0:
256,194,105882,1,12,0:0:0:0:
256,194,106183,1,0,0:0:0:0:
256,194,106332,1,8,0:0:0:0:
256,194,106482,1,8,0:0:0:0:
256,194,106783,1,0,0:0:0:0:
256,194,107083,1,8,0:0:0:0:
256,194,107308,1,8,0:0:0:0:
256,194,107533,1,0,0:0:0:0:
256,194,107682,1,8,0:0:0:0:
256,194,107983,1,8,0:0:0:0:
256,194,108132,1,0,0:0:0:0:
256,194,108282,1,8,0:0:0:0:
256,194,109182,1,0,0:0:0:0:
256,194,109333,1,0,0:0:0:0:
256,194,109482,1,8,0:0:0:0:
256,194,109783,1,0,0:0:0:0:
256,194,110083,1,8,0:0:0:0:
256,194,110383,1,0,0:0:0:0:
256,194,110533,1,8,0:0:0:0:
256,194,110683,1,0,0:0:0:0:
256,194,110983,1,0,0:0:0:0:
256,194,111282,1,8,0:0:0:0:
256,194,111508,1,0,0:0:0:0:
256,194,111732,1,8,0:0:0:0:
256,194,111882,1,8,0:0:0:0:
256,194,112183,1,8,0:0:0:0:
256,194,112332,1,0,0:0:0:0:
256,194,112632,1,8,0:0:0:0:
256,194,112783,1,0,0:0:0:0:
256,194,112932,1,8,0:0:0:0:
256,194,113233,1,0,0:0:0:0:
256,194,113383,1,0,0:0:0:0:
256,194,113532,1,8,0:0:0:0:
256,194,113682,1,0,0:0:0:0:
256,194,114283,1,0,0:0:0:0:
256,194,114733,1,8,0:0:0:0:
256,194,114882,1,0,0:0:0:0:
256,194,115107,1,8,0:0:0:0:
256,194,115333,1,0,0:0:0:0:
256,194,115483,1,0,0:0:0:0:
256,194,115932,1,8,0:0:0:0:
256,194,116082,1,8,0:0:0:0:
256,194,116307,1,0,0:0:0:0:
256,194,116532,1,8,0:0:0:0:
256,194,116682,1,0,0:0:0:0:
256,194,116982,1,8,0:0:0:0:
256,194,117282,1,8,0:0:0:0:
256,194,117508,1,0,0:0:0:0:
256,194,117733,1,8,0:0:0:0:
256,194,117883,1,0,0:0:0:0:
256,194,118182,1,8,0:0:0:0:
256,194,118483,1,0,0:0:0:0:
256,194,118783,1,4,0:0:0:0:
256,194,119083,1,12,0:0:0:0:
256,194,119682,1,8,0:0:0:0:
256,194,119982,1,8,0:0:0:0:
256,194,120133,1,0,0:0:0:0:
256,194,120432,1,0,0:0:0:0:
256,194,120733,1,0,0:0:0:0:
256,194,120882,1,8,0:0:0:0:
256,194,121183,1,8,0:0:0:0:
256,194,121333,1,0,0:0:0:0:
256,194,121482,1,8,0:0:0:0:
256,194,122233,1,0,0:0:0:0:
256,194,122382,1,0,0:0:0:0:
256,194,122533,1,8,0:0:0:0:
256,194,122833,1,0,0:0:0:0:
256,194,122983,1,8,0:0:0:0:
256,194,123133,1,8,0:0:0:0:
256,194,123283,1,0,0:0:0:0:
256,194,123882,1,8,0:0:0:0:
256,194,124032,1,0,0:0:0:0:
256,194,124182,1,8,0:0:0:0:
256,194,124333,1,8,0:0:0:0:
256,194,124482,1,0,0:0:0:0:
256,194,124783,1,8,0:0:0:0:
256,194,125082,1,8,0:0:0:0:
256,194,125233,1,0,0:0:0:0:
256,194,125383,1,8,0:0:0:0:
256,194,125683,1,8,0:0:0:0:
256,194,125983,1,0,0:0:0:0:
256,194,126133,1,0,0:0:0:0:
256,194,126282,1,8,0:0:0:0:
256,194,126582,1,8,0:0:0:0:
256,194,126882,1,8,0:0:0:0:
256,194,127032,1,8,0:0:0:0:
256,194,127183,1,0,0:0:0:0:
256,194,127332,1,8,0:0:0:0:
256,194,127483,1,0,0:0:0:0:
256,194,128383,1,0,0:0:0:0:
256,194,128682,5,12,0:0:0:0:
256,194,128982,1,8,0:0:0:0:
256,194,129132,1,0,0:0:0:0:
256,194,129433,1,8,0:0:0:0:
256,194,129582,1,8,0:0:0:0:
256,194,129883,1,0,0:0:0:0:
256,194,130033,1,0,0:0:0:0:
256,194,130182,1,8,0:0:0:0:
256,194,130333,1,0,0:0:0:0:
256,194,130633,1,8,0:0:0:0:
256,194,130783,1,0,0:0:0:0:
256,194,131082,1,0,0:0:0:0:
256,194,131382,1,8,0:0:0:0:
256,194,131533,1,0,0:0:0:0:
256,194,131832,1,8,0:0:0:0:
256,194,131982,1,8,0:0:0:0:
256,194,132132,1,0,0:0:0:0:
256,194,132433,1,0,0:0:0:0:
256,194,132582,1,0,0:0:0:0:
256,194,132732,1,8,0:0:0:0:
256,194,132882,1,0,0:0:0:0:
256,194,133482,1,8,0:0:0:0:
256,194,133783,1,0,0:0:0:0:
256,194,133932,1,8,0:0:0:0:
256,194,134082,1,0,0:0:0:0:
256,194,134308,1,8,0:0:0:0:
256,194,134533,1,0,0:0:0:0:
256,194,134682,1,8,0:0:0:0:
256,194,135283,1,8,0:0:0:0:
256,194,135507,1,0,0:0:0:0:
256,194,135732,1,8,0:0:0:0:
256,194,135882,1,0,0:0:0:0:
256,194,136183,1,8,0:0:0:0:
256,194,136483,1,0,0:0:0:0:
256,194,136782,1,8,0:0:0:0:
256,194,137082,1,0,0:0:0:0:
256,194,137383,1,8,0:0:0:0:
256,194,137533,1,0,0:0:0:0:
256,194,137682,1,8,0:0:0:0:
256,194,138282,1,8,0:0:0:0:
256,194,138882,1,8,0:0:0:0:
256,194,139032,1,0,0:0:0:0:
256,194,139182,1,8,0:0:0:0:
256,194,139332,1,8,0:0:0:0:
256,194,139632,1,8,0:0:0:0:
256,194,139933,1,0,0:0:0:0:
256,194,140082,1,8,0:0:0:0:
256,194,140308,1,0,0:0:0:0:
256,194,140532,1,8,0:0:0:0:
256,194,140682,1,0,0:0:0:0:
256,194,141583,1,8,0:0:0:0:
256,194,141732,1,8,0:0:0:0:
256,194,142033,1,0,0:0:0:0:
256,194,142183,1,0,0:0:0:0:
256,194,142332,1,8,0:0:0:0:
256,194,142483,1,0,0:0:0:0:
256,194,142783,1,8,0:0:0:0:
256,194,143083,1,4,0:0:0:0:
256,194,143682,1,8,0:0:0:0:
256,194,143907,1,0,0:0:0:0:
256,194,144132,1,0,0:0:0:0:
256,194,144282,1,12,0:0:0:0:
256,194,145182,1,8,0:0:0:0:
256,194,145333,1,0,0:0:0:0:
256,194,145482,1,12,0:0:0:0:
256,194,145783,1,0,0:0:0:0:
256,194,146082,1,12,0:0:0:0:
256,194,146307,1,0,0:0:0:0:
256,194,146682,1,12,0:0:0:0:
256,194,146982,1,12,0:0:0:0:
256,194,147283,1,8,0:0:0:0:
256,194,147433,1,0,0:0:0:0:
256,194,147583,1,8,0:0:0:0:
256,194,147883,1,8,0:0:0:0:
256,194,148183,1,0,0:0:0:0:
256,194,148483,1,8,0:0:0:0:
256,194,148633,1,0,0:0:0:0:
256,194,148783,1,8,0:0:0:0:
256,194,149083,1,0,0:0:0:0:
256,194,149383,1,8,0:0:0:0:
256,194,149683,1,0,0:0:0:0:
256,194,149833,1,8,0:0:0:0:
256,194,149983,1,0,0:0:0:0:
256,194,150283,1,8,0:0:0:0:
256,194,150583,1,8,0:0:0:0:
256,194,150733,1,8,0:0:0:0:
256,194,150883,1,0,0:0:0:0:
256,194,151183,1,8,0:0:0:0:
256,194,151483,1,0,0:0:0:0:
256,194,151633,1,8,0:0:0:0:
256,194,151783,1,0,0:0:0:0:
256,194,152083,1,0,0:0:0:0:
256,194,152233,1,0,0:0:0:0:
256,194,152383,1,8,0:0:0:0:
256,192,152683,5,0,0:0:0:0:
256,192,152983,1,0,0:0:0:0:
256,192,153133,1,8,0:0:0:0:
256,192,153282,1,0,0:0:0:0:
256,192,153582,1,8,0:0:0:0:
256,192,153882,1,8,0:0:0:0:
256,192,154482,1,8,0:0:0:0:
256,192,154783,1,0,0:0:0:0:
256,192,155083,1,8,0:0:0:0:
256,192,155382,1,0,0:0:0:0:
256,192,155532,1,8,0:0:0:0:
256,192,155683,1,8,0:0:0:0:
256,192,155982,1,8,0:0:0:0:
256,192,156132,1,0,0:0:0:0:
256,192,156282,1,8,0:0:0:0:
256,192,156433,1,8,0:0:0:0:
256,192,156582,1,0,0:0:0:0:
256,192,156882,1,12,0:0:0:0:
256,192,157182,1,4,0:0:0:0:
256,192,157332,12,0,160782,0:0:0:0:
