osu file format v14

[General]
AudioFilename: audioo.mp3
AudioLeadIn: 0
PreviewTime: 1482
Countdown: 0
SampleSet: Normal
StackLeniency: 0.7
Mode: 1
LetterboxInBreaks: 0
WidescreenStoryboard: 0

[Editor]
DistanceSpacing: 1.3
BeatDivisor: 4
GridSize: 32
TimelineZoom: 2.2

[Metadata]
Title:CAMELLO MULTIVERSE
TitleUnicode:CAMELLO MULTIVERSE
Artist:camel ytpmv
ArtistUnicode:camel ytpmv
Creator:Ognjen3800
Version:CAMELLO SUPREMACY
Source:東方Project
Tags:novelty malayalam മലയാളം Malayali indian chinese e_s_i_a [-e_s_i_a-] esia [-esia-] gaston_2199 音mad otomad oto-mad ytp youtube poop music video Touhou Project 東方永夜抄 ~ Imperishable Night. 東方花映塚 ~ Phantasmagoria of Flower View. シンデレラケージ ~ Kagome-Kagome Cinderella Cage お宇佐さまの素い幡 ousa-sama no shiroi hata white flag of usa shrine ウサテイ usatei iosys ビートまりお beatmario zun 上海アリス幻樂団 team shanghai alice
BeatmapID:4400396
BeatmapSetID:2097924

[Difficulty]
HPDrainRate:6.5
CircleSize:5
OverallDifficulty:7
ApproachRate:10
SliderMultiplier:1.4
SliderTickRate:1

[Events]
//Background and Video events
0,0,"maxresdefault (11).jpg",0,0
Video,-90,"camello.mp4"
//Break Periods
//Storyboard Layer 0 (Background)
//Storyboard Layer 1 (Fail)
//Storyboard Layer 2 (Pass)
//Storyboard Layer 3 (Foreground)
//Storyboard Layer 4 (Overlay)
//Storyboard Sound Samples

[TimingPoints]
-3317,300,4,1,0,65,1,0
58,-133.333333333333,4,1,0,65,0,0
118,-133.333333333333,4,1,0,65,0,0
1398,-95.2380952380952,4,1,0,80,0,0
18272,-94.7867298578199,4,1,0,80,0,0
18346,-94.3396226415094,4,1,0,80,0,0
18421,-93.8967136150235,4,1,0,80,0,0
18496,-93.4579439252336,4,1,0,80,0,0
18571,-93.0232558139535,4,1,0,80,0,0
18721,-92.5925925925926,4,1,0,80,0,0
18871,-91.743119266055,4,1,0,80,0,0
18946,-91.324200913242,4,1,0,80,0,0
19021,-90.9090909090909,4,1,0,80,0,0
19171,-90.0900900900901,4,1,0,80,0,0
19321,-89.6860986547085,4,1,0,80,0,0
19396,-89.2857142857143,4,1,0,80,0,0
19471,-88.8888888888889,4,1,0,80,0,0
19546,-88.4955752212389,4,1,0,80,0,0
19621,-88.1057268722467,4,1,0,80,0,0
19696,-87.719298245614,4,1,0,80,0,0
19771,-87.3362445414847,4,1,0,80,0,0
19921,-86.9565217391304,4,1,0,80,0,0
20071,-87.719298245614,4,1,0,80,0,0
20146,-88.4955752212389,4,1,0,80,0,0
20221,-89.2857142857143,4,1,0,80,0,0
20296,-90.0900900900901,4,1,0,80,0,0
20371,-90.4977375565611,4,1,0,80,0,0
20446,-90.9090909090909,4,1,0,80,0,0
20521,-91.324200913242,4,1,0,80,0,0
20596,-91.743119266055,4,1,0,80,0,0
20668,-92.5925925925926,4,1,0,75,0,0
20746,-93.4579439252336,4,1,0,75,0,0
20821,-93.8967136150235,4,1,0,75,0,0
20896,-94.3396226415094,4,1,0,75,0,0
20971,-95.2380952380952,4,1,0,75,0,0
27798,-88.4955752212389,4,1,0,80,0,0
28921,-88.4955752212389,4,1,0,80,0,0
28996,-88.4955752212389,4,1,0,80,0,0
29072,-89.2857142857143,4,1,0,80,0,0
29221,-90.0900900900901,4,1,0,80,0,0
29296,-90.0900900900901,4,1,0,80,0,0
29371,-90.9090909090909,4,1,0,80,0,0
29521,-91.743119266055,4,1,0,80,0,0
29596,-91.743119266055,4,1,0,80,0,0
29671,-91.743119266055,4,1,0,80,0,0
29746,-92.5925925925926,4,1,0,80,0,0
29821,-92.5925925925926,4,1,0,80,0,0
29896,-93.4579439252336,4,1,0,80,0,0
29971,-93.4579439252336,4,1,0,80,0,0
30121,-94.3396226415094,4,1,0,80,0,0
30271,-95.2380952380952,4,1,0,80,0,0
44071,-94.3396226415094,4,1,0,80,0,0
44146,-93.4579439252336,4,1,0,80,0,0
44221,-93.0232558139535,4,1,0,80,0,0
44296,-92.5925925925926,4,1,0,80,0,0
44371,-92.1658986175115,4,1,0,80,0,0
44446,-91.743119266055,4,1,0,80,0,0
44521,-91.324200913242,4,1,0,80,0,0
44596,-90.9090909090909,4,1,0,80,0,0
48121,-90.4977375565611,4,1,0,80,0,0
48171,-90.9090909090909,4,1,0,80,0,0
48221,-91.324200913242,4,1,0,80,0,0
48272,-91.743119266055,4,1,0,80,0,0
48346,-92.1658986175115,4,1,0,80,0,0
48421,-92.5925925925926,4,1,0,80,0,0
48496,-93.0232558139535,4,1,0,80,0,0
48571,-93.4579439252336,4,1,0,80,0,0
48721,-94.3396226415094,4,1,0,80,0,0
48871,-95.2380952380952,4,1,0,80,0,0
48946,-96.1538461538461,4,1,0,80,0,0
49021,-97.0873786407767,4,1,0,80,0,0
49096,-97.5609756097561,4,1,0,80,0,0
49171,-98.0392156862745,4,1,0,80,0,0
49246,-98.5221674876847,4,1,0,80,0,0
49321,-99.009900990099,4,1,0,80,0,0
49396,-99.502487562189,4,1,0,80,0,0
49468,-100,4,1,0,65,0,0
52621,-100,4,1,0,65,0,0
52771,-99.009900990099,4,1,0,65,0,0
52921,-98.5221674876847,4,1,0,65,0,0
53071,-98.0392156862745,4,1,0,65,0,0
53221,-97.5609756097561,4,1,0,65,0,0
53371,-97.0873786407767,4,1,0,65,0,0
53521,-96.6183574879227,4,1,0,65,0,0
53671,-96.1538461538461,4,1,0,65,0,0
53821,-95.6937799043062,4,1,0,65,0,0
54198,-95.2380952380952,4,1,0,65,0,0
58471,-95.2380952380952,4,1,0,65,0,0
58521,-95.6937799043062,4,1,0,65,0,0
58621,-96.1538461538461,4,1,0,65,0,0
58696,-96.6183574879227,4,1,0,65,0,0
58771,-97.0873786407767,4,1,0,65,0,0
58821,-97.5609756097561,4,1,0,65,0,0
58871,-98.0392156862745,4,1,0,65,0,0
58921,-99.009900990099,4,1,0,65,0,0
59072,-99.502487562189,4,1,0,65,0,0
65676,-99.009900990099,4,1,0,65,0,0
65826,-98.0392156862745,4,1,0,65,0,0
65981,-97.0873786407767,4,1,0,65,0,0
66131,-96.1538461538461,4,1,0,65,0,0
66281,-95.2380952380952,4,1,0,65,0,0
67321,-95.2380952380952,4,1,0,65,0,0
67396,-95.6937799043062,4,1,0,65,0,0
67472,-96.1538461538461,4,1,0,65,0,0
67521,-96.6183574879227,4,1,0,65,0,0
67571,-97.0873786407767,4,1,0,65,0,0
67621,-97.5609756097561,4,1,0,65,0,0
67696,-98.0392156862745,4,1,0,65,0,0
67771,-98.5221674876847,4,1,0,65,0,0
67846,-99.009900990099,4,1,0,65,0,0
67921,-99.502487562189,4,1,0,65,0,0
67971,-100,4,1,0,65,0,0
68021,-100.502512562814,4,1,0,65,0,0
68071,-101.010101010101,4,1,0,65,0,0
68146,-101.522842639594,4,1,0,65,0,0
68221,-102.040816326531,4,1,0,65,0,0
68371,-102.564102564103,4,1,0,65,0,0
68446,-103.092783505155,4,1,0,65,0,0
68521,-103.626943005181,4,1,0,65,0,0
68598,-104.166666666667,4,1,0,60,0,0
68673,-105.263157894737,4,1,0,60,0,0
78198,-102.040816326531,4,1,0,65,0,0
78273,-102.040816326531,4,1,0,65,0,0
85468,-101.010101010101,4,1,0,65,0,0
86078,-100,4,1,0,65,0,0
86373,-100,4,1,0,65,0,0
86668,-99.009900990099,4,1,0,65,0,0
86968,-98.0392156862745,4,1,0,65,0,0
87263,-98.0392156862745,4,1,0,67,0,0
87338,-97.0873786407767,4,1,0,68,0,0
87413,-96.1538461538461,4,1,0,69,0,0
87488,-95.2380952380952,4,1,0,70,0,0
87563,-94.3396226415094,4,1,0,71,0,0
87638,-93.4579439252336,4,1,0,72,0,0
87723,-92.5925925925926,4,1,0,73,0,0
87798,-91.743119266055,4,1,0,74,0,0
87873,-90.9090909090909,4,1,0,80,0,0
97472,-90.9090909090909,4,1,0,80,0,0
103781,-90.904686,4,1,0,80,0,0
103856,-91.236435,4,1,0,80,0,0
103931,-91.570625,4,1,0,80,0,0
104081,-92.246376,4,1,0,80,0,0
104231,-93.0232558139535,4,1,0,80,0,0
104381,-93.62828,4,1,0,80,0,0
104531,-93.8967136150235,4,1,0,80,0,0
107306,-93.33157,4,1,0,80,0,0
107381,-92.478935,4,1,0,80,0,0
107531,-90.81958,4,1,0,80,0,0
107681,-89.21873,4,1,0,80,0,0
107756,-88.43927,4,1,0,80,0,0
107831,-87.673325,4,1,0,80,0,0
107906,-86.920525,4,1,0,80,0,0
107981,-86.18055,4,1,0,80,0,0
108056,-85.453064,4,1,0,80,0,0
108131,-84.73776,4,1,0,80,0,0
108206,-84.03433,4,1,0,80,0,0
108281,-83.342476,4,1,0,80,0,0
109173,-90.0900900900901,4,1,0,50,0,0
109248,-89.2857142857143,4,1,0,52,0,0
109323,-88.4955752212389,4,1,0,54,0,0
109398,-87.719298245614,4,1,0,56,0,0
109483,-86.9565217391304,4,1,0,85,0,1
123878,-83.3333333333333,4,1,0,85,0,1
126277,-83.6820083682008,4,1,0,85,0,1
126326,-84.0336134453781,4,1,0,85,0,1
126376,-84.3881856540084,4,1,0,85,0,1
126426,-84.7457627118644,4,1,0,85,0,1
126501,-85.4700854700855,4,1,0,85,0,1
126576,-86.2068965517241,4,1,0,85,0,1
126626,-86.5800865800866,4,1,0,85,0,1
126676,-86.9565217391304,4,1,0,85,0,1
126726,-87.3362445414847,4,1,0,85,0,1
126801,-87.719298245614,4,1,0,85,0,1
126876,-88.4955752212389,4,1,0,85,0,1
126926,-89.2857142857143,4,1,0,85,0,1
126976,-90.0900900900901,4,1,0,85,0,1
127026,-90.9090909090909,4,1,0,85,0,1
127101,-91.743119266055,4,1,0,85,0,1
127176,-92.5925925925926,4,1,0,85,0,1
127251,-93.4579439252336,4,1,0,85,0,1
127326,-94.3396226415094,4,1,0,85,0,1
127401,-95.2380952380952,4,1,0,85,0,1
127476,-96.1538461538461,4,1,0,85,0,1
127626,-97.0873786407767,4,1,0,85,0,1
127701,-98.0392156862745,4,1,0,85,0,1
127776,-99.009900990099,4,1,0,85,0,1
127926,-100,4,1,0,85,0,1
128076,-102.040816326531,4,1,0,85,0,1
128151,-103.092783505155,4,1,0,85,0,1
128226,-104.166666666667,4,1,0,85,0,1
128308,-105.263157894737,4,1,0,50,0,0
128379,-50,4,1,0,50,0,0
128608,-86.9565217391304,4,1,0,50,0,0
128683,-86.9565217391304,4,1,0,90,0,1
138282,-86.9565217391304,4,1,0,90,0,1
142331,-86.9565217391304,4,1,0,90,0,1
142481,-87.3362445414847,4,1,0,90,0,1
142556,-87.719298245614,4,1,0,90,0,1
142631,-88.4955752212389,4,1,0,90,0,1
142706,-88.8888888888889,4,1,0,90,0,1
142781,-89.2857142857143,4,1,0,90,0,1
142931,-89.6860986547085,4,1,0,90,0,1
143008,-90.4977375565611,4,1,0,75,0,1
143083,-90.9090909090909,4,1,0,75,0,0
143383,-91.324200913242,4,1,0,75,0,0
143531,-91.743119266055,4,1,0,75,0,0
143606,-92.1658986175115,4,1,0,75,0,0
143681,-92.5925925925926,4,1,0,75,0,0
143906,-93.4579439252336,4,1,0,75,0,0
144131,-94.3396226415094,4,1,0,75,0,0
144282,-95.2380952380952,4,1,0,75,0,0
144583,-95.6937799043062,4,1,0,75,0,0
144883,-96.1538461538461,4,1,0,75,0,0
145183,-96.6183574879227,4,1,0,75,0,0
145333,-95.6937799043062,4,1,0,75,0,0
145481,-95.2380952380952,4,1,0,75,0,0
145781,-94.7867298578199,4,1,0,75,0,0
146081,-94.3396226415094,4,1,0,75,0,0
146306,-93.4579439252336,4,1,0,75,0,0
146531,-92.5925925925926,4,1,0,75,0,0
146682,-91.743119266055,4,1,0,75,0,0
146981,-90.9090909090909,4,1,0,75,0,0
147281,-90.4977375565611,4,1,0,75,0,0
147356,-90.0900900900901,4,1,0,75,0,0
147431,-89.6860986547085,4,1,0,75,0,0
147506,-89.2857142857143,4,1,0,75,0,0
147581,-88.8888888888889,4,1,0,75,0,0
147656,-88.4955752212389,4,1,0,75,0,0
147731,-88.1057268722467,4,1,0,75,0,0
147806,-87.719298245614,4,1,0,75,0,0
147878,-87.3362445414847,4,1,0,85,0,0
150282,-86.9565217391304,4,1,0,85,0,0
150356,-87.1459694989107,4,1,0,85,0,0
150431,-87.3362445414847,4,1,0,85,0,0
150581,-87.527352297593,4,1,0,85,0,0
150656,-87.719298245614,4,1,0,85,0,0
150731,-87.9120879120879,4,1,0,85,0,0
150806,-88.1057268722467,4,1,0,85,0,0
150881,-88.3002207505519,4,1,0,85,0,0
151031,-88.4955752212389,4,1,0,85,0,0
151106,-88.6917960088692,4,1,0,85,0,0
151181,-88.8888888888889,4,1,0,85,0,0
151331,-89.086859688196,4,1,0,85,0,0
151406,-89.2857142857143,4,1,0,85,0,0
151482,-89.4854586129754,4,1,0,85,0,0
151631,-89.6860986547085,4,1,0,85,0,0
151781,-89.8876404494382,4,1,0,85,0,0
151856,-90.0900900900901,4,1,0,85,0,0
151931,-90.293453724605,4,1,0,85,0,0
152081,-90.4977375565611,4,1,0,85,0,0
152156,-90.702947845805,4,1,0,85,0,0
152231,-90.9090909090909,4,1,0,85,0,0
152306,-91.1161731207289,4,1,0,85,0,0
152381,-91.324200913242,4,1,0,85,0,0
152456,-91.533180778032,4,1,0,85,0,0
152531,-91.743119266055,4,1,0,85,0,0
152606,-91.9540229885057,4,1,0,85,0,0
152682,-92.1658986175115,4,1,0,85,0,0
157173,-96.1538461538461,4,1,0,85,0,0
158382,-96.1538461538461,4,1,0,50,0,0
159582,-96.1538461538461,4,1,0,30,0,0
160782,-96.1538461538461,4,1,0,10,0,0

[HitObjects]
256,192,133,5,0,0:0:0:0:
256,192,208,1,0,0:0:0:0:
256,192,283,1,8,0:0:0:0:
256,192,433,1,8,0:0:0:0:
256,192,508,1,8,0:0:0:0:
256,192,583,1,0,0:0:0:0:
256,192,732,1,0,0:0:0:0:
256,192,882,1,8,0:0:0:0:
256,192,957,1,0,0:0:0:0:
256,192,1032,1,8,0:0:0:0:
256,192,1107,1,8,0:0:0:0:
256,192,1182,1,0,0:0:0:0:
256,192,1332,1,0,0:0:0:0:
256,192,1482,1,8,0:0:0:0:
256,192,1557,1,8,0:0:0:0:
256,192,1632,1,0,0:0:0:0:
256,192,1707,1,0,0:0:0:0:
256,192,1782,1,8,0:0:0:0:
256,192,1932,1,8,0:0:0:0:
256,192,2007,1,0,0:0:0:0:
256,192,2082,1,8,0:0:0:0:
256,192,2157,1,8,0:0:0:0:
256,192,2232,1,0,0:0:0:0:
256,192,2307,1,0,0:0:0:0:
256,192,2382,1,8,0:0:0:0:
256,192,2532,1,0,0:0:0:0:
256,192,2682,1,8,0:0:0:0:
256,192,2832,1,0,0:0:0:0:
256,192,2907,1,0,0:0:0:0:
256,192,2982,1,8,0:0:0:0:
256,192,3057,1,0,0:0:0:0:
256,192,3132,1,8,0:0:0:0:
256,192,3207,1,8,0:0:0:0:
256,192,3282,1,0,0:0:0:0:
256,192,3432,1,8,0:0:0:0:
256,192,3507,1,8,0:0:0:0:
256,192,3582,1,0,0:0:0:0:
256,192,3657,1,0,0:0:0:0:
256,192,3732,1,8,0:0:0:0:
256,192,3882,1,0,0:0:0:0:
256,192,3957,1,0,0:0:0:0:
256,192,4032,1,8,0:0:0:0:
256,192,4182,1,0,0:0:0:0:
256,192,4257,1,8,0:0:0:0:
256,192,4332,1,0,0:0:0:0:
256,192,4407,1,8,0:0:0:0:
256,192,4482,1,0,0:0:0:0:
256,192,4632,1,8,0:0:0:0:
256,192,4707,1,8,0:0:0:0:
256,192,4782,1,0,0:0:0:0:
256,192,4932,1,8,0:0:0:0:
256,192,5007,1,0,0:0:0:0:
256,192,5082,1,8,0:0:0:0:
256,192,5232,1,8,0:0:0:0:
256,192,5382,1,0,0:0:0:0:
256,192,5457,1,0,0:0:0:0:
256,192,5532,1,8,0:0:0:0:
256,192,5682,1,8,0:0:0:0:
256,192,5757,1,0,0:0:0:0:
256,192,5832,1,8,0:0:0:0:
256,192,5907,1,8,0:0:0:0:
256,192,5982,1,0,0:0:0:0:
256,192,6057,1,0,0:0:0:0:
256,192,6132,1,8,0:0:0:0:
256,192,6282,1,0,0:0:0:0:
256,192,6432,1,8,0:0:0:0:
256,192,6507,1,8,0:0:0:0:
256,192,6582,1,0,0:0:0:0:
256,192,6732,1,8,0:0:0:0:
256,192,6807,1,0,0:0:0:0:
256,192,6882,1,8,0:0:0:0:
256,192,7032,1,0,0:0:0:0:
256,192,7107,1,8,0:0:0:0:
256,192,7182,1,8,0:0:0:0:
256,192,7257,1,0,0:0:0:0:
256,192,7332,1,8,0:0:0:0:
256,192,7482,1,0,0:0:0:0:
256,192,7632,1,8,0:0:0:0:
256,192,7707,1,8,0:0:0:0:
256,192,7782,1,0,0:0:0:0:
256,192,7932,1,8,0:0:0:0:
256,192,8007,1,0,0:0:0:0:
256,192,8082,1,8,0:0:0:0:
256,192,8232,1,0,0:0:0:0:
256,192,8307,1,0,0:0:0:0:
256,192,8382,1,8,0:0:0:0:
256,192,8457,1,8,0:0:0:0:
256,192,8532,1,0,0:0:0:0:
256,192,8682,1,0,0:0:0:0:
256,192,8832,1,8,0:0:0:0:
256,192,8907,1,0,0:0:0:0:
256,192,8982,1,8,0:0:0:0:
256,192,9057,1,8,0:0:0:0:
256,192,9132,1,0,0:0:0:0:
256,192,9207,1,0,0:0:0:0:
256,192,9282,1,8,0:0:0:0:
256,192,9432,1,0,0:0:0:0:
256,192,9507,1,0,0:0:0:0:
256,192,9583,1,8,0:0:0:0:
256,192,9658,1,0,0:0:0:0:
256,192,9732,1,8,0:0:0:0:
256,192,9882,1,8,0:0:0:0:
256,192,9957,1,8,0:0:0:0:
256,192,10032,1,0,0:0:0:0:
256,192,10107,1,0,0:0:0:0:
256,192,10182,1,8,0:0:0:0:
256,192,10257,1,0,0:0:0:0:
256,192,10332,1,8,0:0:0:0:
256,192,10407,1,8,0:0:0:0:
256,192,10482,1,0,0:0:0:0:
256,192,10557,1,0,0:0:0:0:
256,192,10632,1,0,0:0:0:0:
256,192,10707,1,0,0:0:0:0:
256,192,10782,1,8,0:0:0:0:
256,192,10932,1,8,0:0:0:0:
256,192,11082,1,0,0:0:0:0:
256,192,11157,1,0,0:0:0:0:
256,192,11232,1,8,0:0:0:0:
256,192,11307,1,8,0:0:0:0:
256,192,11382,1,0,0:0:0:0:
256,192,11533,1,8,0:0:0:0:
256,192,11607,1,0,0:0:0:0:
256,192,11682,1,8,0:0:0:0:
256,192,11832,1,0,0:0:0:0:
256,192,11983,1,0,0:0:0:0:
256,192,12057,1,0,0:0:0:0:
256,192,12132,1,8,0:0:0:0:
256,192,12282,1,0,0:0:0:0:
256,192,12357,1,0,0:0:0:0:
256,192,12432,1,8,0:0:0:0:
256,192,12507,1,8,0:0:0:0:
256,192,12582,1,0,0:0:0:0:
256,192,12732,1,8,0:0:0:0:
256,192,12807,1,8,0:0:0:0:
256,192,12882,1,0,0:0:0:0:
256,192,12957,1,8,0:0:0:0:
256,192,13032,1,0,0:0:0:0:
256,192,13107,1,0,0:0:0:0:
256,192,13182,1,8,0:0:0:0:
256,192,13332,1,0,0:0:0:0:
256,192,13482,1,8,0:0:0:0:
256,192,13557,1,0,0:0:0:0:
256,192,13632,1,0,0:0:0:0:
256,192,13707,1,0,0:0:0:0:
256,192,13782,1,8,0:0:0:0:
256,192,13857,1,0,0:0:0:0:
256,192,13932,1,8,0:0:0:0:
256,192,14082,1,0,0:0:0:0:
256,192,14157,1,0,0:0:0:0:
256,192,14232,1,8,0:0:0:0:
256,192,14307,1,0,0:0:0:0:
256,192,14382,1,8,0:0:0:0:
256,192,14457,1,8,0:0:0:0:
256,192,14532,1,0,0:0:0:0:
256,192,14607,1,0,0:0:0:0:
256,192,14682,1,8,0:0:0:0:
256,192,14757,1,8,0:0:0:0:
256,192,14832,1,0,0:0:0:0:
256,192,14982,1,8,0:0:0:0:
256,192,15132,1,0,0:0:0:0:
256,192,15207,1,0,0:0:0:0:
256,192,15282,1,8,0:0:0:0:
256,192,15357,1,0,0:0:0:0:
256,192,15432,1,8,0:0:0:0:
256,192,15507,1,8,0:0:0:0:
256,192,15582,1,0,0:0:0:0:
256,192,15657,1,8,0:0:0:0:
256,192,15732,1,0,0:0:0:0:
256,192,15807,1,0,0:0:0:0:
256,192,15882,1,8,0:0:0:0:
256,192,16032,1,0,0:0:0:0:
256,192,16182,1,8,0:0:0:0:
256,192,16332,1,0,0:0:0:0:
256,192,16407,1,8,0:0:0:0:
256,192,16482,1,0,0:0:0:0:
256,192,16557,1,0,0:0:0:0:
256,192,16632,1,8,0:0:0:0:
256,192,16707,1,8,0:0:0:0:
256,192,16782,1,0,0:0:0:0:
256,192,16932,1,8,0:0:0:0:
256,192,17082,1,0,0:0:0:0:
256,192,17157,1,8,0:0:0:0:
256,192,17232,1,0,0:0:0:0:
256,192,17307,1,0,0:0:0:0:
256,192,17382,1,8,0:0:0:0:
256,192,17532,1,0,0:0:0:0:
256,192,17682,1,8,0:0:0:0:
256,192,17757,1,8,0:0:0:0:
256,192,17832,1,0,0:0:0:0:
256,192,17907,1,8,0:0:0:0:
256,192,17982,1,0,0:0:0:0:
256,192,18057,1,0,0:0:0:0:
256,192,18132,1,8,0:0:0:0:
256,192,18282,1,8,0:0:0:0:
256,192,18357,1,0,0:0:0:0:
256,192,18432,1,8,0:0:0:0:
256,192,18507,1,8,0:0:0:0:
256,192,18582,1,0,0:0:0:0:
256,192,18732,1,8,0:0:0:0:
256,192,18882,1,0,0:0:0:0:
256,192,18957,1,0,0:0:0:0:
256,192,19032,1,8,0:0:0:0:
256,192,19182,1,0,0:0:0:0:
256,192,19332,1,8,0:0:0:0:
256,192,19407,1,0,0:0:0:0:
256,192,19482,1,8,0:0:0:0:
256,192,19557,1,8,0:0:0:0:
256,192,19632,1,0,0:0:0:0:
256,192,19707,1,0,0:0:0:0:
256,192,19782,1,8,0:0:0:0:
256,192,19932,1,0,0:0:0:0:
256,192,20082,1,8,0:0:0:0:
256,192,20157,1,0,0:0:0:0:
256,192,20232,1,8,0:0:0:0:
256,192,20307,1,8,0:0:0:0:
256,192,20382,1,0,0:0:0:0:
256,192,20457,1,0,0:0:0:0:
256,192,20532,1,0,0:0:0:0:
256,192,20607,1,0,0:0:0:0:
256,192,20682,1,8,0:0:0:0:
256,192,20757,1,8,0:0:0:0:
256,192,20832,1,8,0:0:0:0:
256,192,20907,1,0,0:0:0:0:
256,192,20982,1,8,0:0:0:0:
256,192,21132,1,0,0:0:0:0:
256,192,21282,1,8,0:0:0:0:
256,192,21357,1,8,0:0:0:0:
256,192,21432,1,0,0:0:0:0:
256,192,21507,1,0,0:0:0:0:
256,192,21582,1,8,0:0:0:0:
256,192,21732,1,0,0:0:0:0:
256,192,21882,1,8,0:0:0:0:
256,192,22032,1,8,0:0:0:0:
256,192,22182,1,0,0:0:0:0:
256,192,22257,1,0,0:0:0:0:
256,192,22332,1,8,0:0:0:0:
256,192,22407,1,0,0:0:0:0:
256,192,22482,1,8,0:0:0:0:
256,192,22632,1,0,0:0:0:0:
256,192,22782,1,8,0:0:0:0:
256,192,22932,1,8,0:0:0:0:
257,192,23082,1,0,0:0:0:0:
257,192,23232,1,8,0:0:0:0:
257,192,23307,1,8,0:0:0:0:
257,192,23382,1,0,0:0:0:0:
257,192,23532,1,8,0:0:0:0:
257,192,23682,1,8,0:0:0:0:
257,192,23832,1,0,0:0:0:0:
257,192,23907,1,8,0:0:0:0:
257,192,23982,1,0,0:0:0:0:
257,192,24132,1,8,0:0:0:0:
257,192,24182,1,0,0:0:0:0:
257,192,24232,1,0,0:0:0:0:
257,192,24282,1,8,0:0:0:0:
257,192,24432,1,0,0:0:0:0:
257,192,24582,1,8,0:0:0:0:
257,192,24657,1,0,0:0:0:0:
257,192,24732,1,8,0:0:0:0:
257,192,24882,1,8,0:0:0:0:
257,192,24932,1,0,0:0:0:0:
257,192,24982,1,0,0:0:0:0:
257,192,25032,1,8,0:0:0:0:
257,192,25082,1,0,0:0:0:0:
257,192,25132,1,0,0:0:0:0:
257,192,25182,1,8,0:0:0:0:
257,192,25332,1,0,0:0:0:0:
257,192,25482,1,8,0:0:0:0:
257,192,25632,1,0,0:0:0:0:
257,192,25707,1,0,0:0:0:0:
257,192,25782,1,8,0:0:0:0:
257,192,25932,1,0,0:0:0:0:
257,192,26082,1,8,0:0:0:0:
257,192,26232,1,8,0:0:0:0:
257,192,26307,1,0,0:0:0:0:
257,192,26382,1,8,0:0:0:0:
257,192,26532,1,0,0:0:0:0:
257,192,26682,1,8,0:0:0:0:
257,192,26832,1,0,0:0:0:0:
257,192,26982,1,8,0:0:0:0:
257,192,27057,1,8,0:0:0:0:
257,192,27132,1,0,0:0:0:0:
257,192,27207,1,8,0:0:0:0:
257,192,27282,1,0,0:0:0:0:
257,192,27432,1,8,0:0:0:0:
257,192,27582,1,8,0:0:0:0:
257,192,27732,1,0,0:0:0:0:
257,192,27882,1,8,0:0:0:0:
257,192,27957,1,8,0:0:0:0:
257,192,28032,1,0,0:0:0:0:
257,192,28107,1,0,0:0:0:0:
257,192,28182,1,8,0:0:0:0:
257,192,28257,1,0,0:0:0:0:
257,192,28332,1,8,0:0:0:0:
257,192,28407,1,8,0:0:0:0:
257,192,28482,1,0,0:0:0:0:
257,192,28557,1,0,0:0:0:0:
257,192,28632,1,8,0:0:0:0:
257,192,28707,1,0,0:0:0:0:
257,192,28782,1,8,0:0:0:0:
257,192,28932,1,0,0:0:0:0:
257,192,29007,1,0,0:0:0:0:
257,192,29082,1,8,0:0:0:0:
257,192,29232,1,8,0:0:0:0:
257,192,29307,1,0,0:0:0:0:
257,192,29382,1,0,0:0:0:0:
257,192,29532,1,8,0:0:0:0:
257,192,29607,1,0,0:0:0:0:
257,192,29682,1,8,0:0:0:0:
257,192,29757,1,8,0:0:0:0:
257,192,29832,1,0,0:0:0:0:
257,192,29907,1,0,0:0:0:0:
257,192,29982,1,8,0:0:0:0:
257,192,30132,1,0,0:0:0:0:
257,192,30282,1,12,0:0:0:0:
257,192,30432,1,0,0:0:0:0:
257,192,30507,1,0,0:0:0:0:
257,192,30582,1,8,0:0:0:0:
257,192,30732,1,0,0:0:0:0:
257,192,30807,1,0,0:0:0:0:
257,192,30882,1,8,0:0:0:0:
257,192,30957,1,0,0:0:0:0:
257,192,31032,1,8,0:0:0:0:
257,192,31107,1,8,0:0:0:0:
257,192,31182,1,0,0:0:0:0:
257,192,31332,1,8,0:0:0:0:
257,192,31482,1,0,0:0:0:0:
257,192,31557,1,8,0:0:0:0:
257,192,31632,1,0,0:0:0:0:
257,192,31782,1,8,0:0:0:0:
257,192,31932,1,8,0:0:0:0:
257,192,32007,1,0,0:0:0:0:
257,192,32082,1,8,0:0:0:0:
257,192,32157,1,8,0:0:0:0:
257,192,32232,1,8,0:0:0:0:
257,192,32307,1,0,0:0:0:0:
257,192,32382,1,8,0:0:0:0:
257,192,32532,1,0,0:0:0:0:
257,192,32682,1,8,0:0:0:0:
257,192,32757,1,8,0:0:0:0:
257,192,32832,1,0,0:0:0:0:
257,192,32982,1,8,0:0:0:0:
257,192,33057,1,0,0:0:0:0:
257,192,33132,1,8,0:0:0:0:
257,192,33207,1,0,0:0:0:0:
257,192,33282,1,0,0:0:0:0:
257,192,33432,1,8,0:0:0:0:
257,192,33507,1,8,0:0:0:0:
257,192,33582,1,8,0:0:0:0:
257,192,33657,1,0,0:0:0:0:
257,192,33732,1,8,0:0:0:0:
257,192,33807,1,8,0:0:0:0:
257,192,33882,1,0,0:0:0:0:
257,192,34032,1,8,0:0:0:0:
257,192,34107,1,0,0:0:0:0:
257,192,34182,1,8,0:0:0:0:
257,192,34332,1,0,0:0:0:0:
257,192,34482,1,8,0:0:0:0:
257,192,34557,1,8,0:0:0:0:
257,192,34632,1,0,0:0:0:0:
257,192,34707,1,0,0:0:0:0:
257,192,34782,1,8,0:0:0:0:
257,192,34932,1,0,0:0:0:0:
257,192,35082,1,8,0:0:0:0:
257,192,35157,1,0,0:0:0:0:
257,192,35232,1,8,0:0:0:0:
257,192,35382,1,0,0:0:0:0:
257,192,35457,1,0,0:0:0:0:
257,192,35532,1,8,0:0:0:0:
257,192,35607,1,8,0:0:0:0:
257,192,35682,1,0,0:0:0:0:
257,192,35832,1,8,0:0:0:0:
257,192,35907,1,0,0:0:0:0:
257,192,36057,1,8,0:0:0:0:
257,192,36132,1,8,0:0:0:0:
257,192,36282,1,8,0:0:0:0:
257,192,36432,1,0,0:0:0:0:
257,192,36507,1,0,0:0:0:0:
257,192,36582,1,8,0:0:0:0:
257,192,36732,1,0,0:0:0:0:
257,192,36807,1,8,0:0:0:0:
257,192,36882,1,0,0:0:0:0:
257,192,37032,1,8,0:0:0:0:
257,192,37107,1,0,0:0:0:0:
257,192,37257,1,0,0:0:0:0:
257,192,37332,1,8,0:0:0:0:
257,192,37482,1,8,0:0:0:0:
257,192,37557,1,8,0:0:0:0:
257,192,37632,1,0,0:0:0:0:
257,192,37707,1,0,0:0:0:0:
257,192,37782,1,8,0:0:0:0:
257,192,37932,1,0,0:0:0:0:
257,192,38082,1,8,0:0:0:0:
257,192,38157,1,8,0:0:0:0:
257,192,38232,1,0,0:0:0:0:
257,192,38307,1,8,0:0:0:0:
257,192,38457,1,0,0:0:0:0:
257,192,38532,1,8,0:0:0:0:
257,192,38682,1,8,0:0:0:0:
257,192,38832,1,0,0:0:0:0:
257,192,38907,1,8,0:0:0:0:
257,192,38982,1,0,0:0:0:0:
257,192,39132,1,8,0:0:0:0:
257,192,39207,1,8,0:0:0:0:
257,192,39282,1,0,0:0:0:0:
257,192,39357,1,8,0:0:0:0:
257,192,39432,1,8,0:0:0:0:
257,192,39507,1,0,0:0:0:0:
257,192,39582,1,8,0:0:0:0:
257,192,39732,1,0,0:0:0:0:
257,192,39882,1,8,0:0:0:0:
257,192,39957,1,0,0:0:0:0:
257,192,40032,1,0,0:0:0:0:
257,192,40182,1,8,0:0:0:0:
257,192,40257,1,8,0:0:0:0:
257,192,40332,1,0,0:0:0:0:
257,192,40407,1,0,0:0:0:0:
257,192,40482,1,8,0:0:0:0:
257,192,40632,1,0,0:0:0:0:
257,192,40707,1,0,0:0:0:0:
257,192,40782,1,8,0:0:0:0:
257,192,40932,1,8,0:0:0:0:
257,192,41007,1,0,0:0:0:0:
257,192,41082,1,0,0:0:0:0:
257,192,41232,1,8,0:0:0:0:
257,192,41382,1,0,0:0:0:0:
257,192,41532,1,8,0:0:0:0:
257,192,41607,1,0,0:0:0:0:
257,192,41682,1,8,0:0:0:0:
257,192,41832,1,0,0:0:0:0:
257,192,41907,1,0,0:0:0:0:
257,192,41982,1,8,0:0:0:0:
257,192,42132,1,0,0:0:0:0:
257,192,42282,1,8,0:0:0:0:
257,192,42332,1,8,0:0:0:0:
257,192,42382,1,8,0:0:0:0:
257,192,42432,1,0,0:0:0:0:
257,192,42582,1,8,0:0:0:0:
257,192,42632,1,0,0:0:0:0:
257,192,42682,1,0,0:0:0:0:
257,192,42732,1,8,0:0:0:0:
257,192,42882,1,0,0:0:0:0:
257,192,42933,1,0,0:0:0:0:
257,192,43032,1,8,0:0:0:0:
257,192,43107,1,0,0:0:0:0:
257,192,43182,1,8,0:0:0:0:
257,192,43332,1,8,0:0:0:0:
257,192,43382,1,8,0:0:0:0:
257,192,43432,1,8,0:0:0:0:
257,192,43482,1,0,0:0:0:0:
257,192,43632,1,8,0:0:0:0:
257,192,43707,1,0,0:0:0:0:
257,192,43782,1,8,0:0:0:0:
257,192,43932,1,8,0:0:0:0:
257,192,43983,1,8,0:0:0:0:
257,192,44082,1,0,0:0:0:0:
257,192,44157,1,0,0:0:0:0:
257,192,44232,1,8,0:0:0:0:
257,192,44307,1,0,0:0:0:0:
257,192,44382,1,8,0:0:0:0:
257,192,44457,1,8,0:0:0:0:
257,192,44532,1,0,0:0:0:0:
257,192,44607,1,0,0:0:0:0:
257,192,44682,1,8,0:0:0:0:
257,192,44732,1,0,0:0:0:0:
257,192,44782,1,0,0:0:0:0:
257,192,44832,1,8,0:0:0:0:
257,192,44907,1,0,0:0:0:0:
257,192,44982,1,8,0:0:0:0:
257,192,45032,1,8,0:0:0:0:
257,192,45082,1,8,0:0:0:0:
257,192,45132,1,0,0:0:0:0:
257,192,45207,1,0,0:0:0:0:
257,192,45282,1,8,0:0:0:0:
257,192,45432,1,0,0:0:0:0:
257,192,45507,1,8,0:0:0:0:
257,192,45582,1,0,0:0:0:0:
257,192,45732,1,8,0:0:0:0:
257,192,45807,1,0,0:0:0:0:
257,192,45882,1,8,0:0:0:0:
257,192,45932,1,8,0:0:0:0:
257,192,45982,1,8,0:0:0:0:
257,192,46032,1,0,0:0:0:0:
257,192,46182,1,0,0:0:0:0:
257,192,46257,1,0,0:0:0:0:
257,192,46332,1,8,0:0:0:0:
257,192,46407,1,0,0:0:0:0:
257,192,46482,1,8,0:0:0:0:
257,192,46532,1,8,0:0:0:0:
257,192,46632,1,0,0:0:0:0:
257,192,46782,1,8,0:0:0:0:
257,192,46857,1,8,0:0:0:0:
257,192,46932,1,0,0:0:0:0:
257,192,47007,1,0,0:0:0:0:
257,192,47082,1,8,0:0:0:0:
257,192,47132,1,8,0:0:0:0:
257,192,47232,1,0,0:0:0:0:
257,192,47382,1,8,0:0:0:0:
257,192,47432,1,8,0:0:0:0:
257,192,47532,1,0,0:0:0:0:
257,192,47682,1,8,0:0:0:0:
257,192,47732,1,0,0:0:0:0:
257,192,47782,1,0,0:0:0:0:
257,192,47832,1,8,0:0:0:0:
257,192,47982,1,0,0:0:0:0:
257,192,48132,1,8,0:0:0:0:
257,192,48182,1,8,0:0:0:0:
257,192,48232,1,8,0:0:0:0:
257,192,48282,1,0,0:0:0:0:
257,192,48357,1,0,0:0:0:0:
257,192,48432,1,8,0:0:0:0:
257,192,48507,1,0,0:0:0:0:
257,192,48582,1,8,0:0:0:0:
257,192,48732,1,0,0:0:0:0:
257,192,48882,1,8,0:0:0:0:
257,192,48957,1,8,0:0:0:0:
257,192,49032,1,0,0:0:0:0:
257,192,49107,1,8,0:0:0:0:
257,192,49182,1,0,0:0:0:0:
257,192,49257,1,0,0:0:0:0:
257,192,49332,1,8,0:0:0:0:
257,192,49407,1,0,0:0:0:0:
257,192,49482,1,12,0:0:0:0:
257,192,49632,1,0,0:0:0:0:
257,192,49782,1,8,0:0:0:0:
257,192,49932,1,0,0:0:0:0:
257,192,50082,1,8,0:0:0:0:
257,192,50157,1,8,0:0:0:0:
257,192,50232,1,0,0:0:0:0:
257,192,50382,1,8,0:0:0:0:
257,192,50532,1,8,0:0:0:0:
257,192,50682,1,0,0:0:0:0:
257,192,50757,1,0,0:0:0:0:
257,192,50832,1,0,0:0:0:0:
257,192,50982,1,8,0:0:0:0:
257,192,51132,1,0,0:0:0:0:
257,192,51207,1,0,0:0:0:0:
257,192,51282,1,8,0:0:0:0:
257,192,51432,1,0,0:0:0:0:
257,192,51582,1,8,0:0:0:0:
257,192,51657,1,0,0:0:0:0:
257,192,51732,1,8,0:0:0:0:
257,192,51882,1,8,0:0:0:0:
257,192,51957,1,0,0:0:0:0:
257,192,52032,1,0,0:0:0:0:
257,192,52182,1,8,0:0:0:0:
257,192,52332,1,0,0:0:0:0:
257,192,52407,1,0,0:0:0:0:
257,192,52482,1,8,0:0:0:0:
257,192,52632,1,8,0:0:0:0:
257,192,52782,1,0,0:0:0:0:
257,192,52932,1,0,0:0:0:0:
257,192,53082,1,8,0:0:0:0:
257,192,53232,1,0,0:0:0:0:
257,192,53382,1,8,0:0:0:0:
257,192,53532,1,8,0:0:0:0:
257,192,53683,1,0,0:0:0:0:
257,192,53833,2,0,L|91:192,1,146.999995513916
256,192,54282,5,8,0:0:0:0:
256,192,54332,5,8,0:0:0:0:
256,192,54432,1,8,0:0:0:0:
256,192,54482,5,8,0:0:0:0:
256,192,54582,1,0,0:0:0:0:
256,192,54632,1,0,0:0:0:0:
256,192,54882,1,8,0:0:0:0:
256,192,54932,1,8,0:0:0:0:
256,192,55182,1,0,0:0:0:0:
256,192,55232,1,0,0:0:0:0:
256,192,55482,1,8,0:0:0:0:
256,192,55532,1,8,0:0:0:0:
256,192,55782,1,8,0:0:0:0:
256,192,55832,1,8,0:0:0:0:
256,192,55932,1,0,0:0:0:0:
256,192,55982,1,0,0:0:0:0:
256,192,56082,1,8,0:0:0:0:
256,192,56132,1,8,0:0:0:0:
256,192,56382,1,0,0:0:0:0:
256,192,56432,1,0,0:0:0:0:
256,192,56682,1,8,0:0:0:0:
256,192,56732,1,8,0:0:0:0:
256,192,56832,1,0,0:0:0:0:
256,192,56907,1,0,0:0:0:0:
256,192,56982,1,8,0:0:0:0:
256,192,57132,1,0,0:0:0:0:
256,192,57282,1,8,0:0:0:0:
256,192,57432,1,0,0:0:0:0:
256,192,57482,1,0,0:0:0:0:
256,192,57532,1,0,0:0:0:0:
256,192,57582,1,8,0:0:0:0:
256,192,57732,1,8,0:0:0:0:
256,192,57882,1,0,0:0:0:0:
256,192,57932,1,0,0:0:0:0:
256,192,58182,1,8,0:0:0:0:
256,192,58332,1,0,0:0:0:0:
256,192,58482,1,8,0:0:0:0:
256,192,58532,1,8,0:0:0:0:
256,192,58632,1,0,0:0:0:0:
256,192,58707,1,0,0:0:0:0:
256,192,58782,1,8,0:0:0:0:
256,192,58832,1,8,0:0:0:0:
256,192,58882,1,8,0:0:0:0:
256,192,58932,1,0,0:0:0:0:
256,192,59082,1,12,0:0:0:0:
256,192,59382,1,0,0:0:0:0:
256,192,59532,1,0,0:0:0:0:
256,192,59682,1,8,0:0:0:0:
256,192,59757,1,8,0:0:0:0:
256,192,59832,1,0,0:0:0:0:
256,192,59982,1,8,0:0:0:0:
256,192,60282,1,8,0:0:0:0:
256,192,60357,1,0,0:0:0:0:
256,192,60432,1,8,0:0:0:0:
256,192,60582,1,0,0:0:0:0:
256,192,60657,1,0,0:0:0:0:
256,192,60732,1,0,0:0:0:0:
256,192,60882,1,8,0:0:0:0:
256,192,60957,1,8,0:0:0:0:
256,192,61032,1,0,0:0:0:0:
256,192,61182,1,8,0:0:0:0:
256,192,61332,1,0,0:0:0:0:
256,192,61482,1,8,0:0:0:0:
256,192,61557,1,8,0:0:0:0:
256,192,61632,1,8,0:0:0:0:
256,192,61782,1,0,0:0:0:0:
256,192,61932,1,0,0:0:0:0:
256,192,62082,1,8,0:0:0:0:
256,192,62157,1,8,0:0:0:0:
256,192,62232,1,0,0:0:0:0:
256,192,62382,1,0,0:0:0:0:
256,192,62532,1,8,0:0:0:0:
256,192,62607,1,0,0:0:0:0:
256,192,62682,1,8,0:0:0:0:
256,192,62757,1,0,0:0:0:0:
256,192,62832,1,8,0:0:0:0:
256,192,62982,1,0,0:0:0:0:
256,192,63132,1,8,0:0:0:0:
256,192,63207,1,0,0:0:0:0:
256,192,63282,1,8,0:0:0:0:
256,192,63357,1,8,0:0:0:0:
256,192,63432,1,0,0:0:0:0:
256,192,63507,1,0,0:0:0:0:
256,192,63582,1,8,0:0:0:0:
256,192,63732,1,0,0:0:0:0:
256,192,63882,1,8,0:0:0:0:
256,192,63957,1,8,0:0:0:0:
256,192,64032,1,0,0:0:0:0:
256,192,64182,1,8,0:0:0:0:
256,192,64257,1,0,0:0:0:0:
256,192,64332,1,0,0:0:0:0:
256,192,64482,1,8,0:0:0:0:
256,192,64557,1,8,0:0:0:0:
256,192,64632,1,0,0:0:0:0:
256,192,64782,1,8,0:0:0:0:
256,192,64857,1,0,0:0:0:0:
256,192,64932,1,0,0:0:0:0:
256,192,65082,1,8,0:0:0:0:
256,192,65157,1,8,0:0:0:0:
256,192,65232,1,8,0:0:0:0:
256,192,65382,1,0,0:0:0:0:
256,192,65457,1,0,0:0:0:0:
256,192,65532,1,8,0:0:0:0:
256,192,65607,1,0,0:0:0:0:
256,192,65682,1,8,0:0:0:0:
256,192,65832,1,0,0:0:0:0:
256,192,65982,1,0,0:0:0:0:
256,192,66132,1,8,0:0:0:0:
256,192,66282,1,0,0:0:0:0:
256,192,66357,1,8,0:0:0:0:
256,192,66432,1,0,0:0:0:0:
256,192,66507,1,0,0:0:0:0:
256,192,66582,1,8,0:0:0:0:
256,192,66732,1,0,0:0:0:0:
255,195,66882,1,8,0:0:0:0:
255,195,66932,1,8,0:0:0:0:
255,195,66982,1,8,0:0:0:0:
255,195,67032,1,0,0:0:0:0:
255,195,67107,1,0,0:0:0:0:
255,195,67182,1,8,0:0:0:0:
255,195,67332,1,0,0:0:0:0:
255,195,67407,1,0,0:0:0:0:
255,195,67482,1,8,0:0:0:0:
255,195,67532,1,8,0:0:0:0:
255,195,67582,1,8,0:0:0:0:
255,195,67632,1,0,0:0:0:0:
255,195,67707,1,0,0:0:0:0:
255,195,67782,1,8,0:0:0:0:
255,195,67857,1,0,0:0:0:0:
255,195,67932,1,8,0:0:0:0:
255,195,68008,1,0,0:0:0:0:
255,195,68082,1,8,0:0:0:0:
255,195,68133,1,8,0:0:0:0:
255,195,68183,1,0,0:0:0:0:
255,195,68233,1,0,0:0:0:0:
255,195,68382,1,8,0:0:0:0:
255,195,68433,1,0,0:0:0:0:
255,195,68483,1,0,0:0:0:0:
255,195,68532,1,0,0:0:0:0:
255,195,68682,1,8,0:0:0:0:
255,195,68832,1,0,0:0:0:0:
255,195,68982,1,8,0:0:0:0:
255,195,69132,1,8,0:0:0:0:
255,195,69282,1,0,0:0:0:0:
255,195,69432,1,0,0:0:0:0:
255,195,69582,1,8,0:0:0:0:
255,195,69732,1,0,0:0:0:0:
255,195,69882,1,8,0:0:0:0:
255,195,70032,1,8,0:0:0:0:
255,195,70182,1,0,0:0:0:0:
255,195,70482,1,8,0:0:0:0:
255,195,70782,1,0,0:0:0:0:
255,195,70932,1,8,0:0:0:0:
255,195,71082,1,0,0:0:0:0:
255,195,71382,1,8,0:0:0:0:
255,195,71532,1,0,0:0:0:0:
255,195,71682,1,8,0:0:0:0:
255,195,71832,1,0,0:0:0:0:
255,195,71982,1,8,0:0:0:0:
255,195,72132,1,8,0:0:0:0:
255,195,72282,1,0,0:0:0:0:
255,195,72582,1,8,0:0:0:0:
255,195,72732,1,8,0:0:0:0:
255,195,72882,1,0,0:0:0:0:
255,195,73182,1,8,0:0:0:0:
255,195,73332,1,0,0:0:0:0:
255,195,73482,1,8,0:0:0:0:
255,195,73632,1,8,0:0:0:0:
255,195,73782,1,0,0:0:0:0:
255,195,73932,1,0,0:0:0:0:
255,195,74082,1,8,0:0:0:0:
255,195,74382,1,0,0:0:0:0:
255,195,74682,1,8,0:0:0:0:
255,195,74832,1,8,0:0:0:0:
255,195,74982,1,0,0:0:0:0:
255,195,75132,1,0,0:0:0:0:
255,195,75282,1,8,0:0:0:0:
255,195,75582,1,0,0:0:0:0:
255,195,75732,1,0,0:0:0:0:
255,195,75882,1,8,0:0:0:0:
255,195,76032,1,0,0:0:0:0:
255,195,76182,1,8,0:0:0:0:
255,195,76332,1,0,0:0:0:0:
255,195,76482,1,8,0:0:0:0:
255,195,76782,1,8,0:0:0:0:
255,195,77082,1,0,0:0:0:0:
255,195,77382,1,8,0:0:0:0:
255,195,77532,1,0,0:0:0:0:
255,195,77682,1,8,0:0:0:0:
255,195,77982,1,0,0:0:0:0:
255,195,78132,1,0,0:0:0:0:
255,195,78282,1,12,0:0:0:0:
255,195,78432,1,0,0:0:0:0:
255,195,78582,1,8,0:0:0:0:
255,195,78732,1,0,0:0:0:0:
255,195,78882,1,8,0:0:0:0:
255,195,78957,1,8,0:0:0:0:
255,195,79032,1,0,0:0:0:0:
255,195,79107,1,0,0:0:0:0:
255,195,79182,1,8,0:0:0:0:
255,195,79332,1,0,0:0:0:0:
255,195,79482,1,8,0:0:0:0:
255,195,79632,1,8,0:0:0:0:
255,195,79782,1,0,0:0:0:0:
255,195,79857,1,0,0:0:0:0:
255,195,79932,1,0,0:0:0:0:
255,195,80082,1,8,0:0:0:0:
255,195,80382,1,0,0:0:0:0:
255,195,80682,1,8,0:0:0:0:
255,195,80982,1,8,0:0:0:0:
255,195,81132,1,0,0:0:0:0:
255,195,81282,1,8,0:0:0:0:
255,195,81432,1,8,0:0:0:0:
255,195,81582,1,0,0:0:0:0:
255,195,81657,1,0,0:0:0:0:
255,195,81732,1,8,0:0:0:0:
255,195,81882,1,0,0:0:0:0:
255,195,81957,1,0,0:0:0:0:
255,195,82032,1,0,0:0:0:0:
255,195,82182,1,8,0:0:0:0:
255,195,82332,1,8,0:0:0:0:
255,195,82482,1,0,0:0:0:0:
255,195,82632,1,8,0:0:0:0:
255,195,82782,1,0,0:0:0:0:
255,195,82932,1,0,0:0:0:0:
255,195,83082,1,8,0:0:0:0:
255,195,83157,1,8,0:0:0:0:
255,195,83232,1,0,0:0:0:0:
255,195,83382,1,8,0:0:0:0:
255,195,83532,1,0,0:0:0:0:
255,195,83682,1,8,0:0:0:0:
255,195,83757,1,8,0:0:0:0:
255,195,83832,1,0,0:0:0:0:
255,195,83982,1,8,0:0:0:0:
255,195,84132,1,0,0:0:0:0:
255,195,84282,1,8,0:0:0:0:
255,195,84432,1,0,0:0:0:0:
255,195,84507,1,0,0:0:0:0:
255,195,84582,1,8,0:0:0:0:
255,195,84732,1,8,0:0:0:0:
255,195,84807,1,0,0:0:0:0:
255,195,84882,1,8,0:0:0:0:
255,195,85182,1,0,0:0:0:0:
255,195,85482,1,12,0:0:0:0:
255,195,85632,1,0,0:0:0:0:
255,195,85707,1,0,0:0:0:0:
255,195,85782,1,8,0:0:0:0:
255,195,85932,1,0,0:0:0:0:
255,195,86082,1,12,0:0:0:0:
255,195,86382,1,0,0:0:0:0:
255,195,86682,1,12,0:0:0:0:
255,195,86982,1,12,0:0:0:0:
255,195,87282,1,0,0:0:0:0:
255,195,87357,1,0,0:0:0:0:
255,195,87432,1,0,0:0:0:0:
255,195,87507,1,0,0:0:0:0:
255,195,87582,1,8,0:0:0:0:
255,195,87657,1,8,0:0:0:0:
255,195,87732,1,0,0:0:0:0:
255,195,87807,1,0,0:0:0:0:
255,195,87882,1,12,0:0:0:0:
255,195,88032,1,0,0:0:0:0:
255,195,88107,1,0,0:0:0:0:
255,195,88182,1,8,0:0:0:0:
255,195,88332,1,0,0:0:0:0:
255,195,88482,1,8,0:0:0:0:
255,195,88557,1,8,0:0:0:0:
255,195,88632,1,0,0:0:0:0:
255,195,88782,1,8,0:0:0:0:
255,195,88857,1,8,0:0:0:0:
255,195,88932,1,8,0:0:0:0:
255,195,89082,1,8,0:0:0:0:
255,195,89157,1,0,0:0:0:0:
255,195,89232,1,8,0:0:0:0:
255,195,89307,1,8,0:0:0:0:
255,195,89382,1,0,0:0:0:0:
255,195,89532,1,8,0:0:0:0:
255,195,89607,1,0,0:0:0:0:
255,195,89682,1,8,0:0:0:0:
255,195,89757,1,0,0:0:0:0:
255,195,89832,1,0,0:0:0:0:
255,195,89907,1,0,0:0:0:0:
255,195,89982,1,8,0:0:0:0:
255,195,90132,1,0,0:0:0:0:
255,195,90207,1,0,0:0:0:0:
255,195,90282,1,8,0:0:0:0:
255,195,90357,1,8,0:0:0:0:
255,195,90432,1,0,0:0:0:0:
255,195,90582,1,8,0:0:0:0:
255,195,90657,1,0,0:0:0:0:
255,195,90732,1,8,0:0:0:0:
255,195,90807,1,8,0:0:0:0:
255,195,90882,1,0,0:0:0:0:
255,195,90957,1,0,0:0:0:0:
255,195,91032,1,8,0:0:0:0:
255,195,91182,1,8,0:0:0:0:
255,195,91257,1,0,0:0:0:0:
255,195,91332,1,8,0:0:0:0:
255,195,91407,1,0,0:0:0:0:
255,195,91482,1,8,0:0:0:0:
255,195,91632,1,0,0:0:0:0:
255,195,91782,1,8,0:0:0:0:
255,195,91857,1,8,0:0:0:0:
255,195,91932,1,0,0:0:0:0:
255,195,92007,1,0,0:0:0:0:
255,195,92082,1,8,0:0:0:0:
255,195,92232,1,0,0:0:0:0:
255,195,92382,1,8,0:0:0:0:
255,195,92457,1,8,0:0:0:0:
255,195,92532,1,0,0:0:0:0:
255,195,92607,1,0,0:0:0:0:
255,195,92682,1,8,0:0:0:0:
255,195,92757,1,0,0:0:0:0:
255,195,92832,1,0,0:0:0:0:
255,195,92907,1,0,0:0:0:0:
255,195,92982,1,8,0:0:0:0:
255,195,93132,1,0,0:0:0:0:
255,195,93207,1,0,0:0:0:0:
255,195,93282,1,8,0:0:0:0:
255,195,93432,1,8,0:0:0:0:
255,195,93507,1,0,0:0:0:0:
255,195,93582,1,8,0:0:0:0:
255,195,93732,1,8,0:0:0:0:
255,195,93882,1,0,0:0:0:0:
255,195,93957,1,0,0:0:0:0:
255,195,94032,1,8,0:0:0:0:
255,195,94107,1,0,0:0:0:0:
255,195,94182,1,8,0:0:0:0:
255,195,94332,1,0,0:0:0:0:
255,195,94482,1,8,0:0:0:0:
255,195,94557,1,8,0:0:0:0:
255,195,94632,1,0,0:0:0:0:
255,195,94707,1,8,0:0:0:0:
255,195,94782,1,0,0:0:0:0:
255,195,94932,1,8,0:0:0:0:
255,195,95082,1,0,0:0:0:0:
255,195,95232,1,0,0:0:0:0:
255,195,95307,1,8,0:0:0:0:
255,195,95382,1,0,0:0:0:0:
255,195,95532,1,8,0:0:0:0:
255,195,95682,1,0,0:0:0:0:
255,195,95757,1,8,0:0:0:0:
255,195,95832,1,0,0:0:0:0:
255,195,95907,1,0,0:0:0:0:
255,195,95982,1,8,0:0:0:0:
255,195,96132,1,0,0:0:0:0:
255,195,96207,1,0,0:0:0:0:
255,195,96282,1,8,0:0:0:0:
255,195,96357,1,8,0:0:0:0:
255,195,96432,1,0,0:0:0:0:
255,195,96507,1,0,0:0:0:0:
255,195,96582,1,8,0:0:0:0:
255,195,96732,1,0,0:0:0:0:
255,195,96882,1,8,0:0:0:0:
255,195,96957,1,0,0:0:0:0:
255,195,97032,1,0,0:0:0:0:
255,195,97107,1,0,0:0:0:0:
255,195,97182,1,8,0:0:0:0:
255,195,97332,1,0,0:0:0:0:
255,195,97482,1,12,0:0:0:0:
255,195,97632,1,0,0:0:0:0:
255,195,97782,1,8,0:0:0:0:
255,195,97857,1,0,0:0:0:0:
255,195,97932,1,8,0:0:0:0:
255,195,98082,1,8,0:0:0:0:
255,195,98232,1,0,0:0:0:0:
255,195,98382,1,8,0:0:0:0:
255,195,98457,1,8,0:0:0:0:
255,195,98532,1,0,0:0:0:0:
255,195,98682,1,8,0:0:0:0:
255,195,98757,1,8,0:0:0:0:
255,195,98832,1,8,0:0:0:0:
255,195,98982,1,8,0:0:0:0:
255,195,99132,1,0,0:0:0:0:
255,195,99282,1,8,0:0:0:0:
255,195,99357,1,0,0:0:0:0:
255,195,99432,1,0,0:0:0:0:
255,195,99507,1,0,0:0:0:0:
255,195,99582,1,8,0:0:0:0:
255,195,99732,1,0,0:0:0:0:
255,195,99882,1,8,0:0:0:0:
255,195,99957,1,8,0:0:0:0:
255,195,100032,1,0,0:0:0:0:
255,195,100182,1,8,0:0:0:0:
255,195,100257,1,0,0:0:0:0:
255,195,100332,1,8,0:0:0:0:
255,195,100482,1,8,0:0:0:0:
255,195,100557,1,8,0:0:0:0:
255,195,100632,1,0,0:0:0:0:
255,195,100782,1,8,0:0:0:0:
255,195,100857,1,0,0:0:0:0:
255,195,100932,1,8,0:0:0:0:
255,195,101082,1,8,0:0:0:0:
255,195,101157,1,0,0:0:0:0:
255,195,101232,1,8,0:0:0:0:
255,195,101307,1,0,0:0:0:0:
255,195,101382,1,8,0:0:0:0:
255,195,101457,1,8,0:0:0:0:
255,195,101532,1,0,0:0:0:0:
255,195,101607,1,0,0:0:0:0:
255,195,101682,1,8,0:0:0:0:
255,195,101832,1,0,0:0:0:0:
255,195,101982,1,8,0:0:0:0:
255,195,102057,1,0,0:0:0:0:
255,195,102132,1,8,0:0:0:0:
255,195,102282,1,8,0:0:0:0:
255,195,102357,1,8,0:0:0:0:
255,195,102432,1,8,0:0:0:0:
255,195,102582,1,0,0:0:0:0:
255,195,102657,1,0,0:0:0:0:
255,195,102732,1,0,0:0:0:0:
255,195,102882,1,8,0:0:0:0:
255,195,102957,1,0,0:0:0:0:
255,195,103032,1,8,0:0:0:0:
255,195,103182,1,0,0:0:0:0:
255,195,103257,1,8,0:0:0:0:
255,195,103332,1,0,0:0:0:0:
255,195,103482,1,8,0:0:0:0:
255,195,103557,1,8,0:0:0:0:
255,195,103632,1,0,0:0:0:0:
255,195,103782,1,8,0:0:0:0:
255,195,103857,1,0,0:0:0:0:
255,195,103932,1,8,0:0:0:0:
255,195,104082,1,0,0:0:0:0:
255,195,104232,1,8,0:0:0:0:
255,195,104382,1,0,0:0:0:0:
255,195,104532,1,0,0:0:0:0:
256,194,104682,5,8,0:0:0:0:
256,194,104732,1,8,0:0:0:0:
256,194,104907,1,0,0:0:0:0:
256,194,104982,1,0,0:0:0:0:
256,194,105132,1,8,0:0:0:0:
256,194,105282,1,8,0:0:0:0:
256,194,105332,1,8,0:0:0:0:
256,194,105382,1,8,0:0:0:0:
256,194,105582,1,8,0:0:0:0:
256,194,105632,1,8,0:0:0:0:
256,194,105682,1,8,0:0:0:0:
256,194,105882,1,12,0:0:0:0:
256,194,106182,1,0,0:0:0:0:
256,194,106332,1,8,0:0:0:0:
256,194,106407,1,0,0:0:0:0:
256,194,106482,1,8,0:0:0:0:
256,194,106632,1,0,0:0:0:0:
256,194,106782,1,8,0:0:0:0:
256,194,106832,1,8,0:0:0:0:
256,194,106882,1,8,0:0:0:0:
256,194,106932,1,0,0:0:0:0:
256,194,107007,1,0,0:0:0:0:
256,194,107082,1,12,0:0:0:0:
256,194,107307,1,0,0:0:0:0:
256,194,107382,1,8,0:0:0:0:
256,194,107532,1,8,0:0:0:0:
256,194,107682,1,8,0:0:0:0:
256,194,107757,1,0,0:0:0:0:
256,194,107832,1,0,0:0:0:0:
256,194,107907,1,0,0:0:0:0:
256,194,107982,1,8,0:0:0:0:
256,194,108057,1,0,0:0:0:0:
256,194,108132,1,0,0:0:0:0:
256,194,108207,1,0,0:0:0:0:
256,194,108282,1,8,0:0:0:0:
256,194,109182,1,0,0:0:0:0:
256,194,109257,1,0,0:0:0:0:
256,194,109332,1,0,0:0:0:0:
256,194,109407,1,0,0:0:0:0:
256,194,109483,1,8,0:0:0:0:
256,194,109632,1,0,0:0:0:0:
256,194,109782,1,8,0:0:0:0:
256,194,109857,1,0,0:0:0:0:
256,194,109932,1,8,0:0:0:0:
256,194,110007,1,8,0:0:0:0:
256,194,110082,1,0,0:0:0:0:
256,194,110157,1,0,0:0:0:0:
256,194,110232,1,8,0:0:0:0:
256,194,110382,1,0,0:0:0:0:
256,194,110457,1,8,0:0:0:0:
256,194,110532,1,0,0:0:0:0:
256,194,110682,1,8,0:0:0:0:
256,194,110757,1,8,0:0:0:0:
256,194,110832,1,0,0:0:0:0:
256,194,110907,1,8,0:0:0:0:
256,194,110982,1,0,0:0:0:0:
256,194,111132,1,8,0:0:0:0:
256,194,111207,1,0,0:0:0:0:
256,194,111282,1,8,0:0:0:0:
256,194,111432,1,0,0:0:0:0:
256,194,111507,1,8,0:0:0:0:
256,194,111582,1,0,0:0:0:0:
256,194,111657,1,0,0:0:0:0:
256,194,111732,1,8,0:0:0:0:
256,194,111807,1,0,0:0:0:0:
256,194,111882,1,8,0:0:0:0:
256,194,112032,1,0,0:0:0:0:
256,194,112107,1,8,0:0:0:0:
256,194,112182,1,0,0:0:0:0:
256,194,112332,1,8,0:0:0:0:
256,194,112407,1,0,0:0:0:0:
256,194,112482,1,8,0:0:0:0:
256,194,112557,1,0,0:0:0:0:
256,194,112632,1,0,0:0:0:0:
256,194,112707,1,0,0:0:0:0:
256,194,112782,1,8,0:0:0:0:
256,194,112932,1,8,0:0:0:0:
256,194,113082,1,0,0:0:0:0:
256,194,113232,1,8,0:0:0:0:
256,194,113307,1,8,0:0:0:0:
256,194,113382,1,0,0:0:0:0:
256,194,113532,1,8,0:0:0:0:
256,194,113682,1,0,0:0:0:0:
256,194,113757,1,0,0:0:0:0:
256,194,113832,1,8,0:0:0:0:
256,194,113907,1,0,0:0:0:0:
256,194,113982,1,8,0:0:0:0:
256,194,114132,1,0,0:0:0:0:
256,194,114282,1,8,0:0:0:0:
256,194,114357,1,8,0:0:0:0:
256,194,114432,1,0,0:0:0:0:
256,194,114507,1,0,0:0:0:0:
256,194,114582,1,8,0:0:0:0:
256,194,114732,1,0,0:0:0:0:
256,194,114807,1,8,0:0:0:0:
256,194,114882,1,0,0:0:0:0:
256,194,114957,1,0,0:0:0:0:
256,194,115032,1,8,0:0:0:0:
256,194,115107,1,8,0:0:0:0:
256,194,115182,1,0,0:0:0:0:
256,194,115332,1,8,0:0:0:0:
256,194,115482,1,0,0:0:0:0:
256,194,115558,1,0,0:0:0:0:
256,194,115632,1,8,0:0:0:0:
256,194,115707,1,0,0:0:0:0:
256,194,115782,1,8,0:0:0:0:
256,194,115857,1,8,0:0:0:0:
256,194,115932,1,0,0:0:0:0:
256,194,116007,1,0,0:0:0:0:
256,194,116082,1,8,0:0:0:0:
256,194,116232,1,0,0:0:0:0:
256,194,116307,1,8,0:0:0:0:
256,194,116382,1,0,0:0:0:0:
256,194,116457,1,0,0:0:0:0:
256,194,116532,1,8,0:0:0:0:
256,194,116607,1,0,0:0:0:0:
256,194,116682,1,8,0:0:0:0:
256,194,116832,1,0,0:0:0:0:
256,194,116982,1,8,0:0:0:0:
256,194,117057,1,0,0:0:0:0:
256,194,117132,1,8,0:0:0:0:
256,194,117207,1,8,0:0:0:0:
256,194,117282,1,0,0:0:0:0:
256,194,117432,1,0,0:0:0:0:
256,194,117507,1,8,0:0:0:0:
256,194,117582,1,8,0:0:0:0:
256,194,117657,1,0,0:0:0:0:
256,194,117732,1,8,0:0:0:0:
256,194,117807,1,0,0:0:0:0:
256,194,117882,1,8,0:0:0:0:
256,194,118032,1,0,0:0:0:0:
256,194,118182,1,8,0:0:0:0:
256,194,118232,1,8,0:0:0:0:
256,194,118282,1,8,0:0:0:0:
256,194,118332,1,0,0:0:0:0:
256,194,118407,1,0,0:0:0:0:
256,194,118482,1,8,0:0:0:0:
256,194,118557,1,0,0:0:0:0:
256,194,118632,1,8,0:0:0:0:
256,194,118707,1,8,0:0:0:0:
256,194,118782,1,4,0:0:0:0:
256,194,118932,1,0,0:0:0:0:
256,194,119082,1,12,0:0:0:0:
256,194,119232,1,0,0:0:0:0:
256,194,119382,1,8,0:0:0:0:
256,194,119457,1,8,0:0:0:0:
256,194,119532,1,0,0:0:0:0:
256,194,119607,1,0,0:0:0:0:
256,194,119682,1,8,0:0:0:0:
256,194,119732,1,8,0:0:0:0:
256,194,119782,1,8,0:0:0:0:
256,194,119832,1,0,0:0:0:0:
256,194,119907,1,0,0:0:0:0:
256,194,119982,1,8,0:0:0:0:
256,194,120032,1,8,0:0:0:0:
256,194,120132,1,8,0:0:0:0:
256,194,120182,1,8,0:0:0:0:
256,194,120282,1,0,0:0:0:0:
256,194,120432,1,8,0:0:0:0:
256,194,120482,1,8,0:0:0:0:
256,194,120582,1,0,0:0:0:0:
256,194,120657,1,0,0:0:0:0:
256,194,120732,1,8,0:0:0:0:
256,194,120807,1,0,0:0:0:0:
256,194,120882,1,8,0:0:0:0:
256,194,120932,1,8,0:0:0:0:
256,194,120982,1,8,0:0:0:0:
256,194,121032,1,0,0:0:0:0:
256,194,121182,1,8,0:0:0:0:
256,194,121232,1,0,0:0:0:0:
256,194,121282,1,0,0:0:0:0:
256,194,121332,1,8,0:0:0:0:
256,194,121407,1,0,0:0:0:0:
256,194,121482,1,8,0:0:0:0:
256,194,121532,1,8,0:0:0:0:
256,194,121582,1,8,0:0:0:0:
256,194,121632,1,0,0:0:0:0:
256,194,121707,1,0,0:0:0:0:
256,194,121782,1,8,0:0:0:0:
256,194,121932,1,0,0:0:0:0:
256,194,122007,1,0,0:0:0:0:
256,194,122082,1,8,0:0:0:0:
256,194,122232,1,0,0:0:0:0:
256,194,122307,1,0,0:0:0:0:
256,194,122382,1,8,0:0:0:0:
256,194,122457,1,0,0:0:0:0:
256,194,122532,1,8,0:0:0:0:
256,194,122582,1,0,0:0:0:0:
256,194,122632,1,0,0:0:0:0:
256,194,122682,1,8,0:0:0:0:
256,194,122832,1,8,0:0:0:0:
256,194,122907,1,8,0:0:0:0:
256,194,122982,1,0,0:0:0:0:
256,194,123132,1,0,0:0:0:0:
256,194,123207,1,0,0:0:0:0:
256,194,123282,1,8,0:0:0:0:
256,194,123332,1,8,0:0:0:0:
256,194,123382,1,8,0:0:0:0:
256,194,123432,1,0,0:0:0:0:
256,194,123482,1,0,0:0:0:0:
256,194,123532,1,0,0:0:0:0:
256,194,123582,1,8,0:0:0:0:
256,194,123657,1,0,0:0:0:0:
256,194,123732,1,8,0:0:0:0:
256,194,123882,1,8,0:0:0:0:
256,194,123932,1,8,0:0:0:0:
256,194,123982,1,8,0:0:0:0:
256,194,124032,1,0,0:0:0:0:
256,194,124107,1,0,0:0:0:0:
256,194,124182,1,8,0:0:0:0:
256,194,124257,1,8,0:0:0:0:
256,194,124332,1,0,0:0:0:0:
256,194,124407,1,8,0:0:0:0:
256,194,124482,1,0,0:0:0:0:
256,194,124557,1,0,0:0:0:0:
256,194,124632,1,8,0:0:0:0:
256,194,124707,1,0,0:0:0:0:
256,194,124782,1,8,0:0:0:0:
256,194,124857,1,8,0:0:0:0:
256,194,124932,1,8,0:0:0:0:
256,194,125007,1,8,0:0:0:0:
256,194,125082,1,0,0:0:0:0:
256,194,125157,1,0,0:0:0:0:
256,194,125232,1,8,0:0:0:0:
256,194,125307,1,8,0:0:0:0:
256,194,125382,1,0,0:0:0:0:
256,194,125457,1,0,0:0:0:0:
256,194,125532,1,8,0:0:0:0:
256,194,125607,1,0,0:0:0:0:
256,194,125682,1,8,0:0:0:0:
256,194,125757,1,8,0:0:0:0:
256,194,125832,1,0,0:0:0:0:
256,194,125907,1,0,0:0:0:0:
256,194,125982,1,8,0:0:0:0:
256,194,126132,1,0,0:0:0:0:
256,194,126282,1,8,0:0:0:0:
256,194,126332,1,8,0:0:0:0:
256,194,126382,1,8,0:0:0:0:
256,194,126432,1,0,0:0:0:0:
256,194,126507,1,0,0:0:0:0:
256,194,126582,1,8,0:0:0:0:
256,194,126632,1,8,0:0:0:0:
256,194,126682,1,8,0:0:0:0:
256,194,126732,1,0,0:0:0:0:
256,194,126807,1,0,0:0:0:0:
256,194,126882,1,8,0:0:0:0:
256,194,126932,1,0,0:0:0:0:
256,194,126982,1,0,0:0:0:0:
256,194,127032,1,8,0:0:0:0:
256,194,127107,1,0,0:0:0:0:
256,194,127182,1,0,0:0:0:0:
256,194,127257,1,8,0:0:0:0:
256,194,127332,1,8,0:0:0:0:
256,194,127407,1,0,0:0:0:0:
256,194,127482,1,12,0:0:0:0:
256,194,127632,1,0,0:0:0:0:
256,194,127707,1,0,0:0:0:0:
256,194,127782,1,8,0:0:0:0:
256,194,127932,1,8,0:0:0:0:
256,194,128082,1,0,0:0:0:0:
256,194,128157,1,0,0:0:0:0:
256,194,128232,1,8,0:0:0:0:
256,194,128308,1,0,0:0:0:0:
256,192,128382,12,0,128533,0:0:0:0:
256,194,128682,5,12,0:0:0:0:
256,194,128832,1,0,0:0:0:0:
256,194,128907,1,0,0:0:0:0:
256,194,128982,1,8,0:0:0:0:
256,194,129057,1,0,0:0:0:0:
256,194,129132,1,8,0:0:0:0:
256,194,129207,1,8,0:0:0:0:
256,194,129282,1,0,0:0:0:0:
256,194,129357,1,0,0:0:0:0:
256,194,129432,1,8,0:0:0:0:
256,194,129507,1,0,0:0:0:0:
256,194,129582,1,8,0:0:0:0:
256,194,129732,1,0,0:0:0:0:
256,194,129882,1,8,0:0:0:0:
256,194,129957,1,8,0:0:0:0:
256,194,130032,1,0,0:0:0:0:
256,194,130107,1,0,0:0:0:0:
256,194,130182,1,8,0:0:0:0:
256,194,130257,1,0,0:0:0:0:
256,194,130332,1,8,0:0:0:0:
256,194,130407,1,8,0:0:0:0:
256,194,130482,1,0,0:0:0:0:
256,194,130632,1,8,0:0:0:0:
256,194,130707,1,0,0:0:0:0:
256,194,130782,1,8,0:0:0:0:
256,194,130857,1,8,0:0:0:0:
256,194,130932,1,0,0:0:0:0:
256,194,131082,1,8,0:0:0:0:
256,194,131232,1,0,0:0:0:0:
256,194,131307,1,0,0:0:0:0:
256,194,131382,1,8,0:0:0:0:
256,194,131457,1,0,0:0:0:0:
256,194,131532,1,8,0:0:0:0:
256,194,131607,1,8,0:0:0:0:
256,194,131682,1,0,0:0:0:0:
256,194,131832,1,8,0:0:0:0:
256,194,131982,1,0,0:0:0:0:
256,194,132057,1,0,0:0:0:0:
256,194,132132,1,8,0:0:0:0:
256,194,132282,1,0,0:0:0:0:
256,194,132432,1,8,0:0:0:0:
256,194,132507,1,0,0:0:0:0:
256,194,132582,1,8,0:0:0:0:
256,194,132732,1,0,0:0:0:0:
256,194,132882,1,8,0:0:0:0:
256,194,132957,1,8,0:0:0:0:
256,194,133032,1,0,0:0:0:0:
256,194,133107,1,0,0:0:0:0:
256,194,133182,1,8,0:0:0:0:
256,194,133332,1,0,0:0:0:0:
256,194,133482,1,8,0:0:0:0:
256,194,133558,1,8,0:0:0:0:
256,194,133632,1,0,0:0:0:0:
256,194,133707,1,0,0:0:0:0:
256,194,133782,1,8,0:0:0:0:
256,194,133858,1,0,0:0:0:0:
256,194,133932,1,8,0:0:0:0:
256,194,134007,1,0,0:0:0:0:
256,194,134082,1,8,0:0:0:0:
256,194,134158,1,8,0:0:0:0:
256,194,134232,1,0,0:0:0:0:
256,194,134307,1,0,0:0:0:0:
256,194,134382,1,8,0:0:0:0:
256,194,134458,1,8,0:0:0:0:
256,194,134532,1,8,0:0:0:0:
256,194,134607,1,0,0:0:0:0:
256,194,134682,1,8,0:0:0:0:
256,194,134757,1,8,0:0:0:0:
256,194,134832,1,0,0:0:0:0:
256,194,134907,1,0,0:0:0:0:
256,194,134982,1,8,0:0:0:0:
256,194,135057,1,0,0:0:0:0:
256,194,135132,1,8,0:0:0:0:
256,194,135207,1,8,0:0:0:0:
256,194,135282,1,0,0:0:0:0:
256,194,135432,1,8,0:0:0:0:
256,194,135507,1,0,0:0:0:0:
256,194,135582,1,8,0:0:0:0:
256,194,135657,1,8,0:0:0:0:
256,194,135732,1,0,0:0:0:0:
256,194,135807,1,0,0:0:0:0:
256,194,135882,1,8,0:0:0:0:
256,194,135932,1,8,0:0:0:0:
256,194,135982,1,8,0:0:0:0:
256,194,136032,1,0,0:0:0:0:
256,194,136107,1,0,0:0:0:0:
256,194,136182,1,8,0:0:0:0:
256,194,136232,1,0,0:0:0:0:
256,194,136282,1,0,0:0:0:0:
256,194,136332,1,8,0:0:0:0:
256,194,136407,1,0,0:0:0:0:
256,194,136482,1,8,0:0:0:0:
256,194,136532,1,8,0:0:0:0:
256,194,136582,1,8,0:0:0:0:
256,194,136632,1,0,0:0:0:0:
256,194,136707,1,0,0:0:0:0:
256,194,136782,1,8,0:0:0:0:
256,194,136832,1,0,0:0:0:0:
256,194,136882,1,0,0:0:0:0:
256,194,136932,1,8,0:0:0:0:
256,194,137007,1,0,0:0:0:0:
256,194,137082,1,8,0:0:0:0:
256,194,137132,1,8,0:0:0:0:
256,194,137182,1,8,0:0:0:0:
256,194,137232,1,0,0:0:0:0:
256,194,137282,1,0,0:0:0:0:
256,194,137332,1,0,0:0:0:0:
256,194,137382,1,8,0:0:0:0:
256,194,137457,1,0,0:0:0:0:
256,194,137532,1,8,0:0:0:0:
256,194,137607,1,0,0:0:0:0:
256,194,137682,1,8,0:0:0:0:
256,194,137732,1,8,0:0:0:0:
256,194,137782,1,8,0:0:0:0:
256,194,137832,1,0,0:0:0:0:
256,194,137882,1,0,0:0:0:0:
256,194,137932,1,0,0:0:0:0:
256,194,137982,1,8,0:0:0:0:
256,194,138132,1,0,0:0:0:0:
256,194,138282,1,8,0:0:0:0:
256,194,138432,1,0,0:0:0:0:
256,194,138507,1,0,0:0:0:0:
256,194,138582,1,8,0:0:0:0:
256,194,138732,1,0,0:0:0:0:
256,194,138807,1,0,0:0:0:0:
256,194,138882,1,8,0:0:0:0:
256,194,138932,1,8,0:0:0:0:
256,194,138982,1,8,0:0:0:0:
256,194,139032,1,0,0:0:0:0:
256,194,139107,1,0,0:0:0:0:
256,194,139182,1,8,0:0:0:0:
256,194,139258,1,0,0:0:0:0:
256,194,139332,1,8,0:0:0:0:
256,194,139383,1,8,0:0:0:0:
256,194,139433,1,8,0:0:0:0:
256,194,139483,1,0,0:0:0:0:
256,194,139557,1,0,0:0:0:0:
256,194,139632,1,8,0:0:0:0:
256,194,139782,1,8,0:0:0:0:
256,194,139932,1,0,0:0:0:0:
256,194,140007,1,0,0:0:0:0:
256,194,140082,1,8,0:0:0:0:
256,194,140132,1,8,0:0:0:0:
256,194,140182,1,8,0:0:0:0:
256,194,140232,1,0,0:0:0:0:
256,194,140307,1,8,0:0:0:0:
256,194,140382,1,0,0:0:0:0:
256,194,140457,1,0,0:0:0:0:
256,194,140532,1,8,0:0:0:0:
256,194,140582,1,0,0:0:0:0:
256,194,140632,1,0,0:0:0:0:
256,194,140682,1,8,0:0:0:0:
256,194,140757,1,8,0:0:0:0:
256,194,140832,1,0,0:0:0:0:
256,194,140907,1,0,0:0:0:0:
256,194,140982,1,8,0:0:0:0:
256,194,141132,1,0,0:0:0:0:
256,194,141282,1,8,0:0:0:0:
256,194,141357,1,8,0:0:0:0:
256,194,141432,1,0,0:0:0:0:
256,194,141507,1,0,0:0:0:0:
256,194,141582,1,8,0:0:0:0:
256,194,141632,1,0,0:0:0:0:
256,194,141682,1,0,0:0:0:0:
256,194,141732,1,8,0:0:0:0:
256,194,141807,1,8,0:0:0:0:
256,194,141882,1,0,0:0:0:0:
256,194,141957,1,0,0:0:0:0:
256,194,142032,1,8,0:0:0:0:
256,194,142107,1,8,0:0:0:0:
256,194,142182,1,0,0:0:0:0:
256,194,142332,1,8,0:0:0:0:
256,194,142482,1,8,0:0:0:0:
256,194,142557,1,8,0:0:0:0:
256,194,142632,1,0,0:0:0:0:
256,194,142707,1,0,0:0:0:0:
256,194,142782,1,8,0:0:0:0:
256,194,142932,1,0,0:0:0:0:
256,194,143082,1,12,0:0:0:0:
256,194,143383,1,0,0:0:0:0:
256,194,143532,1,8,0:0:0:0:
256,194,143607,1,8,0:0:0:0:
256,194,143682,1,0,0:0:0:0:
256,194,143907,1,0,0:0:0:0:
256,194,144132,1,0,0:0:0:0:
256,194,144282,1,12,0:0:0:0:
256,194,144583,1,0,0:0:0:0:
256,194,144882,1,8,0:0:0:0:
256,194,145182,1,0,0:0:0:0:
256,194,145333,1,0,0:0:0:0:
256,194,145482,1,12,0:0:0:0:
256,194,145782,1,0,0:0:0:0:
256,194,146082,1,12,0:0:0:0:
256,194,146307,1,0,0:0:0:0:
256,194,146532,1,0,0:0:0:0:
256,194,146682,1,12,0:0:0:0:
256,194,146982,1,12,0:0:0:0:
256,194,147282,1,8,0:0:0:0:
256,194,147357,1,0,0:0:0:0:
256,194,147432,1,0,0:0:0:0:
256,194,147507,1,0,0:0:0:0:
256,194,147582,1,8,0:0:0:0:
256,194,147657,1,0,0:0:0:0:
256,194,147732,1,0,0:0:0:0:
256,194,147807,1,0,0:0:0:0:
256,192,147882,1,8,0:0:0:0:
256,192,147957,1,8,0:0:0:0:
256,192,148032,1,0,0:0:0:0:
256,192,148107,1,0,0:0:0:0:
256,192,148182,1,8,0:0:0:0:
256,192,148332,1,8,0:0:0:0:
256,192,148407,1,0,0:0:0:0:
256,192,148482,1,8,0:0:0:0:
256,192,148557,1,8,0:0:0:0:
256,192,148632,1,0,0:0:0:0:
256,192,148707,1,0,0:0:0:0:
256,192,148782,1,8,0:0:0:0:
256,192,148932,1,0,0:0:0:0:
256,192,149082,1,8,0:0:0:0:
256,192,149232,1,0,0:0:0:0:
256,192,149307,1,0,0:0:0:0:
256,192,149382,1,8,0:0:0:0:
256,192,149457,1,8,0:0:0:0:
256,192,149532,1,0,0:0:0:0:
256,192,149607,1,8,0:0:0:0:
256,192,149682,1,0,0:0:0:0:
256,192,149832,1,8,0:0:0:0:
256,192,149907,1,8,0:0:0:0:
256,192,149982,1,0,0:0:0:0:
256,192,150057,1,0,0:0:0:0:
256,192,150132,1,8,0:0:0:0:
256,192,150282,1,0,0:0:0:0:
256,192,150357,1,0,0:0:0:0:
256,192,150432,1,8,0:0:0:0:
256,192,150582,1,0,0:0:0:0:
256,192,150657,1,8,0:0:0:0:
256,192,150732,1,8,0:0:0:0:
256,192,150807,1,8,0:0:0:0:
256,192,150882,1,0,0:0:0:0:
256,192,151032,1,8,0:0:0:0:
256,192,151107,1,8,0:0:0:0:
256,192,151182,1,0,0:0:0:0:
256,192,151332,1,8,0:0:0:0:
256,192,151407,1,0,0:0:0:0:
256,192,151482,1,8,0:0:0:0:
256,192,151632,1,8,0:0:0:0:
256,192,151782,1,0,0:0:0:0:
256,192,151857,1,0,0:0:0:0:
256,192,151932,1,8,0:0:0:0:
256,192,152082,1,8,0:0:0:0:
256,192,152157,1,0,0:0:0:0:
256,192,152232,1,8,0:0:0:0:
256,192,152307,1,8,0:0:0:0:
256,192,152382,1,0,0:0:0:0:
256,192,152457,1,0,0:0:0:0:
256,192,152532,1,8,0:0:0:0:
256,192,152607,1,0,0:0:0:0:
256,192,152682,1,8,0:0:0:0:
256,192,152832,1,8,0:0:0:0:
256,192,152907,1,0,0:0:0:0:
256,192,152982,1,8,0:0:0:0:
256,192,153132,1,0,0:0:0:0:
256,192,153207,1,0,0:0:0:0:
256,192,153282,1,8,0:0:0:0:
256,192,153332,1,8,0:0:0:0:
256,192,153382,1,8,0:0:0:0:
256,192,153432,1,0,0:0:0:0:
256,192,153507,1,0,0:0:0:0:
256,192,153582,1,8,0:0:0:0:
256,192,153732,1,0,0:0:0:0:
256,192,153882,1,8,0:0:0:0:
256,192,153957,1,0,0:0:0:0:
256,192,154032,1,8,0:0:0:0:
256,192,154107,1,8,0:0:0:0:
256,192,154182,1,0,0:0:0:0:
256,192,154257,1,0,0:0:0:0:
256,192,154332,1,8,0:0:0:0:
256,192,154407,1,8,0:0:0:0:
256,192,154482,1,0,0:0:0:0:
256,192,154632,1,0,0:0:0:0:
256,192,154782,1,8,0:0:0:0:
256,192,154857,1,0,0:0:0:0:
256,192,154932,1,8,0:0:0:0:
256,192,155007,1,8,0:0:0:0:
256,192,155082,1,0,0:0:0:0:
256,192,155232,1,0,0:0:0:0:
256,192,155307,1,8,0:0:0:0:
256,192,155382,1,0,0:0:0:0:
256,192,155532,1,8,0:0:0:0:
256,192,155607,1,8,0:0:0:0:
256,192,155682,1,0,0:0:0:0:
256,192,155757,1,8,0:0:0:0:
256,192,155832,1,0,0:0:0:0:
256,192,155907,1,0,0:0:0:0:
256,192,155982,1,8,0:0:0:0:
256,192,156057,1,0,0:0:0:0:
256,192,156132,1,8,0:0:0:0:
256,192,156207,1,8,0:0:0:0:
256,192,156282,1,0,0:0:0:0:
256,192,156432,1,0,0:0:0:0:
256,192,156582,1,8,0:0:0:0:
256,192,156732,1,0,0:0:0:0:
256,192,156882,1,12,0:0:0:0:
256,192,157182,1,4,0:0:0:0:
256,192,157332,12,0,160782,0:0:0:0:
