osu file format v14

[General]
AudioFilename: audioo.mp3
AudioLeadIn: 0
PreviewTime: 1482
Countdown: 0
SampleSet: Normal
StackLeniency: 0.7
Mode: 1
LetterboxInBreaks: 0
WidescreenStoryboard: 1

[Editor]
Bookmarks: 133,6283,11083,15883,20683,30283,35083,39883,49483,59083,68683,78283,87883,104683,109483,128683,147883
DistanceSpacing: 1.3
BeatDivisor: 4
GridSize: 32
TimelineZoom: 2.2

[Metadata]
Title:CAMELLO MULTIVERSE
TitleUnicode:CAMELLO MULTIVERSE
Artist:camel ytpmv
ArtistUnicode:camel ytpmv
Creator:Ognjen3800
Version:2199's INNER ONI
Source:東方Project
Tags:novelty malayalam മലയാളം Malayali indian chinese e_s_i_a [-e_s_i_a-] esia [-esia-] gaston_2199 音mad otomad oto-mad ytp youtube poop music video Touhou Project 東方永夜抄 ~ Imperishable Night. 東方花映塚 ~ Phantasmagoria of Flower View. シンデレラケージ ~ Kagome-Kagome Cinderella Cage お宇佐さまの素い幡 ousa-sama no shiroi hata white flag of usa shrine ウサテイ usatei iosys ビートまりお beatmario zun 上海アリス幻樂団 team shanghai alice
BeatmapID:4416308
BeatmapSetID:2097924

[Difficulty]
HPDrainRate:6
CircleSize:2
OverallDifficulty:6.5
ApproachRate:10
SliderMultiplier:1.4
SliderTickRate:1

[Events]
//Background and Video events
0,0,"maxresdefault (11).jpg",0,0
Video,-90,"camello.mp4"
//Break Periods
//Storyboard Layer 0 (Background)
//Storyboard Layer 1 (Fail)
//Storyboard Layer 2 (Pass)
//Storyboard Layer 3 (Foreground)
//Storyboard Layer 4 (Overlay)
//Storyboard Sound Samples

[TimingPoints]
-3317,300,4,1,0,80,1,0
128,-133.333333333333,4,1,0,80,0,0
1408,-95.2380952380952,4,1,0,90,0,0
20758,-100,4,1,0,90,0,0
28930,-95.2380952380952,4,1,0,90,0,0
29005,-95.8083832335329,4,1,0,90,0,0
29080,-96.3855421686747,4,1,0,90,0,0
29230,-97.5609756097561,4,1,0,90,0,0
29305,-98.159509202454,4,1,0,90,0,0
29380,-98.7654320987654,4,1,0,90,0,0
29530,-100,4,1,0,90,0,0
29605,-100.62893081761,4,1,0,90,0,0
29680,-101.26582278481,4,1,0,90,0,0
29755,-101.910828025478,4,1,0,90,0,0
29830,-102.564102564103,4,1,0,90,0,0
29905,-103.225806451613,4,1,0,90,0,0
29980,-103.896103896104,4,1,0,90,0,0
30130,-105.263157894737,4,1,0,90,0,0
30208,-95.2380952380952,4,1,0,90,0,0
49633,-111.111111111111,4,1,0,80,0,0
54133,-83.3333333333333,4,1,0,80,0,0
54430,-85.3658536585366,4,1,0,80,0,0
54580,-87.5,4,1,0,80,0,0
54880,-92.1052631578947,4,1,0,80,0,0
55180,-97.2222222222222,4,1,0,80,0,0
55480,-102.941176470588,4,1,0,80,0,0
55780,-109.375,4,1,0,80,0,0
55930,-112.903225806452,4,1,0,80,0,0
56080,-116.666666666667,4,1,0,80,0,0
56380,-125,4,1,0,80,0,0
56680,-100,4,1,0,80,0,0
56830,-101.449275362319,4,1,0,80,0,0
56905,-102.189781021898,4,1,0,80,0,0
56980,-102.941176470588,4,1,0,80,0,0
57130,-104.477611940299,4,1,0,80,0,0
57280,-106.060606060606,4,1,0,80,0,0
57430,-107.692307692308,4,1,0,80,0,0
57480,-108.247422680412,4,1,0,80,0,0
57530,-108.80829015544,4,1,0,80,0,0
57580,-109.375,4,1,0,80,0,0
57730,-111.111111111111,4,1,0,80,0,0
57880,-112.903225806452,4,1,0,80,0,0
58180,-116.666666666667,4,1,0,80,0,0
58330,-118.64406779661,4,1,0,80,0,0
58480,-120.689655172414,4,1,0,80,0,0
58780,-125,4,1,0,80,0,0
58933,-90.9090909090908,4,1,0,80,0,0
59233,-111.111111111111,4,1,0,80,0,0
63733,-90.9090909090908,4,1,0,80,0,0
64033,-111.111111111111,4,1,0,80,0,0
66280,-108.108108108108,4,1,0,80,0,0
66355,-106.666666666667,4,1,0,80,0,0
66430,-105.263157894737,4,1,0,80,0,0
66580,-102.564102564103,4,1,0,80,0,0
66730,-100,4,1,0,80,0,0
66880,-83.3333333333333,4,1,0,80,0,0
66955,-84.3373493975904,4,1,0,80,0,0
67030,-85.3658536585366,4,1,0,80,0,0
67105,-86.4197530864198,4,1,0,80,0,0
67180,-87.5,4,1,0,80,0,0
67255,-88.6075949367089,4,1,0,80,0,0
67330,-89.7435897435897,4,1,0,80,0,0
67405,-90.9090909090909,4,1,0,80,0,0
67480,-92.1052631578947,4,1,0,80,0,0
67555,-93.3333333333333,4,1,0,80,0,0
67630,-94.5945945945946,4,1,0,80,0,0
67705,-95.8904109589041,4,1,0,80,0,0
67780,-97.2222222222222,4,1,0,80,0,0
67855,-98.5915492957747,4,1,0,80,0,0
67930,-100,4,1,0,80,0,0
68008,-83.3333333333333,4,1,0,80,0,0
68308,-90.9090909090909,4,1,0,80,0,0
68608,-100,4,1,0,80,0,0
68833,-133.333333333333,4,1,0,70,0,0
78133,-125,4,1,0,80,0,0
85480,-110.204081632653,4,1,0,80,0,0
85630,-122.90927084563,4,1,0,80,0,0
85705,-122.376794047381,4,1,0,80,0,0
85780,-121.8099033816,4,1,0,80,0,0
85930,-120.586482190405,4,1,0,80,0,0
86080,-106.554143451482,4,1,0,80,0,0
86380,-116.379310344828,4,1,0,80,0,0
86680,-101.748307333602,4,1,0,80,0,0
86980,-99.121170805848,4,1,0,80,0,0
87280,-106.702279048176,4,1,0,80,0,0
87355,-105.864731714351,4,1,0,80,0,0
87430,-105.026003114448,4,1,0,80,0,0
87505,-104.186694544122,4,1,0,80,0,0
87580,-103.347370025772,4,1,0,80,0,0
87655,-102.50855837128,4,1,0,80,0,0
87730,-101.670755102049,4,1,0,80,0,0
87880,-90.9090909090909,4,1,0,90,0,0
87958,-100,4,1,0,90,0,0
104683,-83.3333333333333,4,1,0,90,0,0
104905,-107.53800432214,4,1,0,90,0,0
104980,-110.027195216157,4,1,0,90,0,0
105130,-114.848712107298,4,1,0,90,0,0
105280,-119.262004149992,4,1,0,90,0,0
105580,-125,4,1,0,90,0,0
105733,-83.3333333333333,4,1,0,90,0,0
106033,-125,4,1,0,90,0,0
106780,-111.111111111111,4,1,0,90,0,0
106830,-115.384615384615,4,1,0,90,0,0
106880,-120,4,1,0,90,0,0
106930,-125,4,1,0,90,0,0
107008,-83.3333333333333,4,1,0,90,0,0
107305,-100,4,1,0,90,0,0
107380,-101.5625,4,1,0,90,0,0
107530,-104.838709677419,4,1,0,90,0,0
107680,-108.333333333333,4,1,0,90,0,0
107755,-110.169491525424,4,1,0,90,0,0
107830,-112.068965517241,4,1,0,90,0,0
107905,-114.035087719298,4,1,0,90,0,0
107980,-116.071428571429,4,1,0,90,0,0
108055,-118.181818181818,4,1,0,90,0,0
108130,-120.37037037037,4,1,0,90,0,0
108205,-122.641509433962,4,1,0,90,0,0
108280,-125,4,1,0,90,0,0
109483,-95.2380952380952,4,1,0,100,0,1
127780,-100,4,1,0,90,0,1
127930,-102.040816326531,4,1,0,90,0,1
128080,-104.166666666667,4,1,0,90,0,1
128155,-105.263157894737,4,1,0,90,0,1
128230,-106.382978723404,4,1,0,90,0,1
128308,-107.52688172043,4,1,0,90,0,0
128380,-108.695652173913,4,1,0,90,0,0
128430,-109.489051094891,4,1,0,90,0,0
128480,-110.294117647059,4,1,0,90,0,0
128530,-111.111111111111,4,1,0,90,0,0
128683,-90.9090909090909,4,1,0,100,0,1
143083,-90.9090909090909,4,1,0,100,0,0
143408,-125,4,1,0,90,0,0
144208,-90.9090909090909,4,1,0,90,0,0
145108,-125,4,1,0,90,0,0
145408,-90.9090909090909,4,1,0,100,0,0
145708,-125,4,1,0,90,0,0
146008,-90.9090909090909,4,1,0,100,0,0
146233,-125,4,1,0,90,0,0
146608,-90.9090909090909,4,1,0,90,0,0
147280,-125,4,1,0,90,0,0
147355,-121.212121212121,4,1,0,90,0,0
147430,-117.647058823529,4,1,0,90,0,0
147505,-114.285714285714,4,1,0,90,0,0
147580,-111.111111111111,4,1,0,90,0,0
147655,-108.108108108108,4,1,0,90,0,0
147730,-105.263157894737,4,1,0,90,0,0
147880,-90.9090909090909,4,1,0,100,0,0
157182,-66.6666666666667,4,1,0,100,0,0

[HitObjects]
256,192,133,5,8,0:0:0:0:
256,192,208,1,8,0:0:0:0:
256,192,283,1,8,0:0:0:0:
256,192,433,1,0,0:0:0:0:
256,192,508,1,8,0:0:0:0:
256,192,583,1,0,0:0:0:0:
256,192,733,1,8,0:0:0:0:
256,192,883,1,8,0:0:0:0:
256,192,958,1,0,0:0:0:0:
256,192,1033,1,8,0:0:0:0:
256,192,1108,1,8,0:0:0:0:
256,192,1183,1,0,0:0:0:0:
256,192,1333,1,0,0:0:0:0:
256,192,1483,1,12,0:0:0:0:
256,192,1633,1,0,0:0:0:0:
256,192,1708,1,0,0:0:0:0:
256,192,1783,1,8,0:0:0:0:
256,192,1933,1,0,0:0:0:0:
256,192,2083,1,8,0:0:0:0:
256,192,2158,1,0,0:0:0:0:
256,192,2233,1,8,0:0:0:0:
256,192,2308,1,0,0:0:0:0:
256,192,2383,1,8,0:0:0:0:
256,192,2533,1,0,0:0:0:0:
256,192,2683,1,8,0:0:0:0:
256,192,2833,1,0,0:0:0:0:
256,192,2983,1,8,0:0:0:0:
256,192,3058,1,0,0:0:0:0:
256,192,3133,1,8,0:0:0:0:
256,192,3208,1,8,0:0:0:0:
256,192,3283,1,0,0:0:0:0:
256,192,3433,1,8,0:0:0:0:
256,192,3508,1,8,0:0:0:0:
256,192,3583,1,0,0:0:0:0:
256,192,3658,1,0,0:0:0:0:
256,192,3733,1,8,0:0:0:0:
256,192,3883,1,0,0:0:0:0:
256,192,4033,1,8,0:0:0:0:
256,192,4183,1,0,0:0:0:0:
256,192,4258,1,8,0:0:0:0:
256,192,4333,1,0,0:0:0:0:
256,192,4408,1,0,0:0:0:0:
256,192,4483,1,8,0:0:0:0:
256,192,4633,1,8,0:0:0:0:
256,192,4783,1,0,0:0:0:0:
256,192,4933,1,8,0:0:0:0:
256,192,5008,1,8,0:0:0:0:
256,192,5083,1,0,0:0:0:0:
256,192,5233,1,8,0:0:0:0:
256,192,5383,1,0,0:0:0:0:
256,192,5458,1,0,0:0:0:0:
256,192,5533,1,8,0:0:0:0:
256,192,5683,1,0,0:0:0:0:
256,192,5758,1,8,0:0:0:0:
256,192,5833,1,0,0:0:0:0:
256,192,5908,1,0,0:0:0:0:
256,192,5983,1,8,0:0:0:0:
256,192,6058,1,0,0:0:0:0:
256,192,6133,1,8,0:0:0:0:
256,192,6283,1,4,0:0:0:0:
256,192,6433,1,8,0:0:0:0:
256,192,6508,1,8,0:0:0:0:
256,192,6583,1,0,0:0:0:0:
256,192,6733,1,0,0:0:0:0:
256,192,6883,1,8,0:0:0:0:
256,192,7033,1,0,0:0:0:0:
256,192,7108,1,8,0:0:0:0:
256,192,7258,1,8,0:0:0:0:
256,192,7333,1,8,0:0:0:0:
256,192,7483,1,0,0:0:0:0:
256,192,7633,1,8,0:0:0:0:
256,192,7708,1,8,0:0:0:0:
256,192,7783,1,0,0:0:0:0:
256,192,7933,1,0,0:0:0:0:
256,192,8083,1,8,0:0:0:0:
256,192,8233,1,0,0:0:0:0:
256,192,8308,1,8,0:0:0:0:
256,192,8383,1,0,0:0:0:0:
256,192,8458,1,0,0:0:0:0:
256,192,8533,1,8,0:0:0:0:
256,192,8683,1,0,0:0:0:0:
256,192,8833,1,8,0:0:0:0:
256,192,8908,1,0,0:0:0:0:
256,192,8983,1,8,0:0:0:0:
256,192,9058,1,8,0:0:0:0:
256,192,9133,1,0,0:0:0:0:
246,150,9208,1,0,0:0:0:0:
256,192,9283,1,8,0:0:0:0:
246,128,9358,1,0,0:0:0:0:
256,192,9433,1,0,0:0:0:0:
256,192,9508,1,0,0:0:0:0:
256,192,9583,1,8,0:0:0:0:
256,192,9733,1,0,0:0:0:0:
256,192,9808,1,0,0:0:0:0:
256,192,9883,1,8,0:0:0:0:
256,192,9958,1,8,0:0:0:0:
256,192,10033,1,0,0:0:0:0:
256,192,10108,1,0,0:0:0:0:
256,192,10183,1,8,0:0:0:0:
256,192,10333,1,0,0:0:0:0:
256,192,10408,1,8,0:0:0:0:
256,192,10483,1,0,0:0:0:0:
256,192,10558,1,8,0:0:0:0:
256,192,10633,1,0,0:0:0:0:
256,192,10708,1,0,0:0:0:0:
256,192,10783,1,8,0:0:0:0:
256,192,10933,1,0,0:0:0:0:
256,192,11083,1,12,0:0:0:0:
256,192,11233,1,8,0:0:0:0:
256,192,11308,1,8,0:0:0:0:
256,192,11383,1,0,0:0:0:0:
256,192,11533,1,0,0:0:0:0:
256,192,11608,1,0,0:0:0:0:
256,192,11683,1,8,0:0:0:0:
256,192,11833,1,0,0:0:0:0:
256,192,11983,1,8,0:0:0:0:
256,192,12058,1,0,0:0:0:0:
256,192,12133,1,8,0:0:0:0:
256,192,12283,1,0,0:0:0:0:
256,192,12433,1,8,0:0:0:0:
256,192,12583,1,0,0:0:0:0:
256,192,12733,1,8,0:0:0:0:
256,192,12808,1,0,0:0:0:0:
256,192,12883,1,8,0:0:0:0:
256,192,12958,1,8,0:0:0:0:
256,192,13033,1,0,0:0:0:0:
247,154,13108,1,0,0:0:0:0:
256,192,13183,1,8,0:0:0:0:
256,192,13333,1,8,0:0:0:0:
256,192,13483,1,0,0:0:0:0:
256,192,13558,1,8,0:0:0:0:
256,192,13633,1,0,0:0:0:0:
256,192,13783,1,8,0:0:0:0:
256,192,13933,1,0,0:0:0:0:
256,192,14083,1,8,0:0:0:0:
256,192,14158,1,0,0:0:0:0:
256,192,14233,1,8,0:0:0:0:
256,192,14308,1,0,0:0:0:0:
256,192,14383,1,8,0:0:0:0:
256,192,14458,1,8,0:0:0:0:
256,192,14533,1,0,0:0:0:0:
256,192,14683,1,8,0:0:0:0:
256,192,14833,1,0,0:0:0:0:
244,127,14908,1,0,0:0:0:0:
256,192,14983,1,8,0:0:0:0:
256,192,15133,1,0,0:0:0:0:
256,192,15283,1,8,0:0:0:0:
256,192,15358,1,0,0:0:0:0:
256,192,15433,1,8,0:0:0:0:
256,192,15508,1,8,0:0:0:0:
256,192,15583,1,0,0:0:0:0:
256,192,15658,1,8,0:0:0:0:
256,192,15733,1,0,0:0:0:0:
256,192,15883,1,12,0:0:0:0:
256,192,16033,1,0,0:0:0:0:
256,192,16183,1,8,0:0:0:0:
256,192,16333,1,0,0:0:0:0:
256,192,16408,1,0,0:0:0:0:
256,192,16483,1,8,0:0:0:0:
256,192,16633,1,0,0:0:0:0:
256,192,16708,1,8,0:0:0:0:
252,114,16858,1,0,0:0:0:0:
256,192,16933,1,0,0:0:0:0:
256,192,17083,1,12,0:0:0:0:
256,192,17233,1,0,0:0:0:0:
256,192,17308,1,0,0:0:0:0:
256,192,17383,1,8,0:0:0:0:
256,192,17533,1,0,0:0:0:0:
256,192,17683,1,8,0:0:0:0:
256,192,17758,1,8,0:0:0:0:
256,192,17833,1,0,0:0:0:0:
256,192,17908,1,0,0:0:0:0:
256,192,17983,1,8,0:0:0:0:
256,192,18133,1,0,0:0:0:0:
256,192,18283,1,12,0:0:0:0:
256,192,18433,1,0,0:0:0:0:
256,192,18508,1,0,0:0:0:0:
256,192,18583,1,8,0:0:0:0:
256,192,18733,1,0,0:0:0:0:
256,192,18883,1,12,0:0:0:0:
256,192,19033,1,0,0:0:0:0:
229,135,19108,1,0,0:0:0:0:
256,192,19183,1,8,0:0:0:0:
256,192,19333,1,8,0:0:0:0:
256,192,19483,1,0,0:0:0:0:
256,192,19558,1,8,0:0:0:0:
256,192,19633,1,0,0:0:0:0:
256,192,19708,1,0,0:0:0:0:
256,192,19783,1,8,0:0:0:0:
256,192,19933,1,0,0:0:0:0:
256,192,20083,1,8,0:0:0:0:
256,192,20158,1,8,0:0:0:0:
256,192,20233,1,0,0:0:0:0:
256,192,20308,1,8,0:0:0:0:
256,192,20383,1,0,0:0:0:0:
256,192,20458,1,0,0:0:0:0:
256,192,20533,1,8,0:0:0:0:
256,192,20683,1,4,0:0:0:0:
256,192,20833,1,0,0:0:0:0:
256,192,20908,1,0,0:0:0:0:
256,192,20983,1,8,0:0:0:0:
256,192,21133,1,0,0:0:0:0:
256,192,21283,1,8,0:0:0:0:
256,192,21433,1,8,0:0:0:0:
256,192,21508,1,0,0:0:0:0:
256,192,21583,1,8,0:0:0:0:
256,192,21733,1,0,0:0:0:0:
256,192,21883,1,8,0:0:0:0:
256,192,22033,1,8,0:0:0:0:
256,192,22183,1,0,0:0:0:0:
256,192,22258,1,8,0:0:0:0:
256,192,22333,1,0,0:0:0:0:
256,192,22408,1,8,0:0:0:0:
256,192,22483,1,0,0:0:0:0:
256,192,22633,1,0,0:0:0:0:
256,192,22783,1,8,0:0:0:0:
256,192,22933,1,8,0:0:0:0:
257,192,23083,1,0,0:0:0:0:
257,192,23233,1,8,0:0:0:0:
257,192,23308,1,8,0:0:0:0:
257,192,23383,1,0,0:0:0:0:
257,192,23533,1,0,0:0:0:0:
257,192,23683,1,8,0:0:0:0:
257,192,23833,1,0,0:0:0:0:
257,192,23908,1,8,0:0:0:0:
257,192,23983,1,0,0:0:0:0:
257,192,24133,1,0,0:0:0:0:
257,192,24183,1,0,0:0:0:0:
257,192,24233,1,0,0:0:0:0:
257,192,24283,1,8,0:0:0:0:
257,192,24433,1,0,0:0:0:0:
257,192,24583,1,8,0:0:0:0:
257,192,24733,1,0,0:0:0:0:
257,192,24883,1,8,0:0:0:0:
257,192,24958,1,0,0:0:0:0:
257,192,25033,1,0,0:0:0:0:
257,192,25108,1,0,0:0:0:0:
257,192,25183,1,8,0:0:0:0:
257,192,25333,1,8,0:0:0:0:
257,192,25483,1,0,0:0:0:0:
257,192,25633,1,0,0:0:0:0:
257,192,25708,1,0,0:0:0:0:
257,192,25783,1,8,0:0:0:0:
257,192,25933,1,0,0:0:0:0:
257,192,26083,1,8,0:0:0:0:
257,192,26233,1,8,0:0:0:0:
257,192,26308,1,0,0:0:0:0:
257,192,26383,1,8,0:0:0:0:
257,192,26533,1,0,0:0:0:0:
257,192,26683,1,8,0:0:0:0:
257,192,26833,1,0,0:0:0:0:
257,192,26983,1,8,0:0:0:0:
257,192,27058,1,0,0:0:0:0:
257,192,27133,1,8,0:0:0:0:
257,192,27208,1,8,0:0:0:0:
257,192,27283,1,0,0:0:0:0:
257,192,27583,1,0,0:0:0:0:
257,192,27733,1,0,0:0:0:0:
257,192,27883,1,8,0:0:0:0:
257,192,27958,1,0,0:0:0:0:
257,192,28033,1,8,0:0:0:0:
257,192,28108,1,8,0:0:0:0:
257,192,28183,1,0,0:0:0:0:
257,192,28333,1,8,0:0:0:0:
257,192,28408,1,8,0:0:0:0:
257,192,28483,1,0,0:0:0:0:
257,192,28558,1,0,0:0:0:0:
257,192,28633,1,8,0:0:0:0:
257,192,28783,1,0,0:0:0:0:
257,192,28933,1,8,0:0:0:0:
257,192,29008,1,8,0:0:0:0:
257,192,29083,1,8,0:0:0:0:
257,192,29233,1,0,0:0:0:0:
257,192,29308,1,8,0:0:0:0:
257,192,29383,1,0,0:0:0:0:
257,192,29533,1,8,0:0:0:0:
257,192,29608,1,0,0:0:0:0:
257,192,29683,1,8,0:0:0:0:
257,192,29758,1,8,0:0:0:0:
257,192,29833,1,0,0:0:0:0:
257,192,29908,1,8,0:0:0:0:
257,192,29983,1,0,0:0:0:0:
257,192,30133,1,0,0:0:0:0:
257,192,30283,1,12,0:0:0:0:
257,192,30433,1,0,0:0:0:0:
257,192,30508,1,0,0:0:0:0:
257,192,30583,1,8,0:0:0:0:
257,192,30733,1,0,0:0:0:0:
257,192,30883,1,8,0:0:0:0:
257,192,30958,1,0,0:0:0:0:
257,192,31033,1,8,0:0:0:0:
257,192,31183,1,0,0:0:0:0:
257,192,31333,1,8,0:0:0:0:
257,192,31483,1,0,0:0:0:0:
257,192,31558,1,0,0:0:0:0:
257,192,31633,1,8,0:0:0:0:
257,192,31783,1,0,0:0:0:0:
257,192,31933,1,8,0:0:0:0:
257,192,32008,1,8,0:0:0:0:
257,192,32083,1,0,0:0:0:0:
257,192,32158,1,0,0:0:0:0:
257,192,32233,1,0,0:0:0:0:
257,192,32308,1,0,0:0:0:0:
257,192,32383,1,8,0:0:0:0:
257,192,32533,1,0,0:0:0:0:
257,192,32683,1,8,0:0:0:0:
257,192,32758,1,8,0:0:0:0:
257,192,32833,1,0,0:0:0:0:
257,192,32983,1,8,0:0:0:0:
257,192,33058,1,0,0:0:0:0:
257,192,33133,1,8,0:0:0:0:
257,192,33208,1,8,0:0:0:0:
257,192,33283,1,0,0:0:0:0:
257,192,33433,1,8,0:0:0:0:
257,192,33508,1,8,0:0:0:0:
257,192,33583,1,0,0:0:0:0:
257,192,33658,1,0,0:0:0:0:
257,192,33733,1,8,0:0:0:0:
257,192,33808,1,8,0:0:0:0:
257,192,33883,1,0,0:0:0:0:
257,192,34033,1,8,0:0:0:0:
257,192,34108,1,8,0:0:0:0:
257,192,34183,1,8,0:0:0:0:
257,192,34333,1,0,0:0:0:0:
257,192,34483,1,8,0:0:0:0:
257,192,34558,1,0,0:0:0:0:
257,192,34633,1,8,0:0:0:0:
257,192,34708,1,8,0:0:0:0:
257,192,34783,1,0,0:0:0:0:
257,192,34933,1,8,0:0:0:0:
257,192,35083,1,4,0:0:0:0:
197,107,35233,1,8,0:0:0:0:
257,192,35383,1,8,0:0:0:0:
257,192,35458,1,0,0:0:0:0:
257,192,35533,1,0,0:0:0:0:
257,192,35608,1,0,0:0:0:0:
257,192,35683,1,8,0:0:0:0:
257,192,35833,1,0,0:0:0:0:
257,192,35908,1,8,0:0:0:0:
257,192,36058,1,8,0:0:0:0:
257,192,36133,1,8,0:0:0:0:
257,192,36283,1,0,0:0:0:0:
257,192,36433,1,0,0:0:0:0:
257,192,36508,1,0,0:0:0:0:
257,192,36583,1,8,0:0:0:0:
257,192,36733,1,0,0:0:0:0:
257,192,36808,1,8,0:0:0:0:
257,192,36883,1,0,0:0:0:0:
257,192,37033,1,8,0:0:0:0:
257,192,37108,1,0,0:0:0:0:
257,192,37258,1,0,0:0:0:0:
257,192,37333,1,8,0:0:0:0:
257,192,37483,1,0,0:0:0:0:
257,192,37558,1,8,0:0:0:0:
257,192,37633,1,0,0:0:0:0:
257,192,37708,1,0,0:0:0:0:
257,192,37783,1,8,0:0:0:0:
257,192,37933,1,0,0:0:0:0:
257,192,38083,1,8,0:0:0:0:
257,192,38158,1,8,0:0:0:0:
257,192,38233,1,0,0:0:0:0:
257,192,38308,1,8,0:0:0:0:
257,192,38383,1,0,0:0:0:0:
257,192,38533,1,0,0:0:0:0:
257,192,38683,1,8,0:0:0:0:
257,192,38833,1,0,0:0:0:0:
257,192,38908,1,0,0:0:0:0:
257,192,38983,1,8,0:0:0:0:
257,192,39133,1,8,0:0:0:0:
257,192,39208,1,8,0:0:0:0:
257,192,39283,1,8,0:0:0:0:
257,192,39358,1,8,0:0:0:0:
257,192,39433,1,0,0:0:0:0:
257,192,39508,1,0,0:0:0:0:
257,192,39583,1,8,0:0:0:0:
257,192,39733,1,0,0:0:0:0:
257,192,39883,1,12,0:0:0:0:
257,192,40033,1,0,0:0:0:0:
257,192,40183,1,8,0:0:0:0:
257,192,40333,1,0,0:0:0:0:
257,192,40408,1,0,0:0:0:0:
257,192,40483,1,8,0:0:0:0:
257,192,40633,1,0,0:0:0:0:
257,192,40783,1,8,0:0:0:0:
257,192,40933,1,8,0:0:0:0:
257,192,41008,1,8,0:0:0:0:
257,192,41083,1,0,0:0:0:0:
257,192,41233,1,8,0:0:0:0:
257,192,41383,1,0,0:0:0:0:
257,192,41533,1,0,0:0:0:0:
257,192,41608,1,0,0:0:0:0:
257,192,41683,1,8,0:0:0:0:
257,192,41833,1,0,0:0:0:0:
257,192,41908,1,0,0:0:0:0:
257,192,41983,1,8,0:0:0:0:
257,192,42133,1,8,0:0:0:0:
257,192,42283,1,0,0:0:0:0:
257,192,42358,1,0,0:0:0:0:
257,192,42433,1,0,0:0:0:0:
246,150,42508,1,0,0:0:0:0:
257,192,42583,1,8,0:0:0:0:
257,192,42733,1,0,0:0:0:0:
236,146,42808,1,8,0:0:0:0:
232,119,42883,1,0,0:0:0:0:
257,192,43033,1,8,0:0:0:0:
257,192,43183,1,0,0:0:0:0:
257,192,43333,1,8,0:0:0:0:
257,192,43408,1,8,0:0:0:0:
257,192,43483,1,8,0:0:0:0:
241,174,43558,1,8,0:0:0:0:
257,192,43633,1,0,0:0:0:0:
257,192,43783,1,0,0:0:0:0:
257,192,43933,1,8,0:0:0:0:
257,192,44083,1,8,0:0:0:0:
257,192,44158,1,8,0:0:0:0:
257,192,44233,1,0,0:0:0:0:
257,192,44308,1,0,0:0:0:0:
257,192,44383,1,8,0:0:0:0:
257,192,44533,1,0,0:0:0:0:
257,192,44683,1,12,0:0:0:0:
257,192,44833,1,0,0:0:0:0:
257,192,44983,1,8,0:0:0:0:
257,192,45033,1,8,0:0:0:0:
257,192,45083,1,8,0:0:0:0:
257,192,45133,1,0,0:0:0:0:
257,192,45208,1,0,0:0:0:0:
257,192,45283,1,8,0:0:0:0:
257,192,45433,1,0,0:0:0:0:
257,192,45508,1,8,0:0:0:0:
257,192,45658,1,0,0:0:0:0:
257,192,45733,1,0,0:0:0:0:
257,192,45883,1,8,0:0:0:0:
257,192,45958,1,8,0:0:0:0:
257,192,46033,1,0,0:0:0:0:
245,155,46108,1,0,0:0:0:0:
257,192,46183,1,8,0:0:0:0:
257,192,46333,1,8,0:0:0:0:
257,192,46408,1,0,0:0:0:0:
257,192,46483,1,8,0:0:0:0:
257,192,46633,1,0,0:0:0:0:
257,192,46783,1,8,0:0:0:0:
257,192,46858,1,0,0:0:0:0:
257,192,46933,1,0,0:0:0:0:
257,192,47008,1,0,0:0:0:0:
257,192,47083,1,8,0:0:0:0:
257,192,47233,1,0,0:0:0:0:
257,192,47383,1,8,0:0:0:0:
257,192,47533,1,0,0:0:0:0:
257,192,47683,1,8,0:0:0:0:
257,192,47758,1,0,0:0:0:0:
257,192,47833,1,8,0:0:0:0:
257,192,47983,1,0,0:0:0:0:
257,192,48133,1,8,0:0:0:0:
257,192,48208,1,8,0:0:0:0:
257,192,48283,1,0,0:0:0:0:
257,192,48433,1,0,0:0:0:0:
257,192,48583,1,8,0:0:0:0:
257,192,48733,1,0,0:0:0:0:
241,158,48808,1,8,0:0:0:0:
257,192,48883,1,0,0:0:0:0:
257,192,48958,1,0,0:0:0:0:
257,192,49033,1,8,0:0:0:0:
257,192,49108,1,0,0:0:0:0:
257,192,49183,1,8,0:0:0:0:
257,192,49258,1,8,0:0:0:0:
257,192,49333,1,0,0:0:0:0:
257,192,49483,1,12,0:0:0:0:
257,192,49783,1,8,0:0:0:0:
257,192,49933,1,0,0:0:0:0:
257,192,50083,1,8,0:0:0:0:
257,192,50233,1,0,0:0:0:0:
257,192,50383,1,8,0:0:0:0:
257,192,50533,1,8,0:0:0:0:
257,192,50683,1,0,0:0:0:0:
257,192,50833,1,8,0:0:0:0:
257,192,50983,1,0,0:0:0:0:
257,192,51133,1,0,0:0:0:0:
257,192,51283,1,8,0:0:0:0:
257,192,51433,1,0,0:0:0:0:
246,160,51508,1,0,0:0:0:0:
257,192,51583,1,8,0:0:0:0:
257,192,51733,1,0,0:0:0:0:
257,192,51883,1,8,0:0:0:0:
257,192,52033,1,0,0:0:0:0:
257,192,52183,1,8,0:0:0:0:
257,192,52333,1,0,0:0:0:0:
257,192,52483,1,8,0:0:0:0:
257,192,52633,1,8,0:0:0:0:
257,192,52783,1,0,0:0:0:0:
257,192,52933,1,0,0:0:0:0:
257,192,53083,1,8,0:0:0:0:
257,192,53233,1,8,0:0:0:0:
257,192,53383,1,0,0:0:0:0:
257,192,53533,1,8,0:0:0:0:
257,192,53683,1,0,0:0:0:0:
194,3,53983,1,0,0:0:0:0:
256,192,54283,5,8,0:0:0:0:
256,192,54433,1,8,0:0:0:0:
256,192,54583,1,0,0:0:0:0:
256,192,54883,1,8,0:0:0:0:
256,192,55183,1,0,0:0:0:0:
256,192,55483,1,8,0:0:0:0:
256,192,55783,1,0,0:0:0:0:
256,192,55933,1,8,0:0:0:0:
256,192,56083,1,0,0:0:0:0:
256,192,56383,1,0,0:0:0:0:
256,192,56683,1,8,0:0:0:0:
256,192,56833,1,0,0:0:0:0:
256,192,56908,1,0,0:0:0:0:
256,192,56983,1,8,0:0:0:0:
256,192,57133,1,0,0:0:0:0:
256,192,57283,1,8,0:0:0:0:
256,192,57433,1,0,0:0:0:0:
256,192,57483,1,0,0:0:0:0:
256,192,57533,1,0,0:0:0:0:
256,192,57583,1,0,0:0:0:0:
256,192,57733,1,8,0:0:0:0:
256,192,57883,1,0,0:0:0:0:
256,192,58183,1,8,0:0:0:0:
256,192,58333,1,0,0:0:0:0:
256,192,58483,1,12,0:0:0:0:
256,192,58783,1,12,0:0:0:0:
256,192,59083,1,4,0:0:0:0:
256,192,59383,1,8,0:0:0:0:
256,192,59533,1,0,0:0:0:0:
256,192,59683,1,8,0:0:0:0:
256,192,59833,1,0,0:0:0:0:
256,192,59983,1,8,0:0:0:0:
256,192,60283,1,0,0:0:0:0:
256,192,60433,1,0,0:0:0:0:
256,192,60583,1,8,0:0:0:0:
256,192,60733,1,0,0:0:0:0:
256,192,60883,1,8,0:0:0:0:
256,192,61033,1,0,0:0:0:0:
256,192,61183,1,8,0:0:0:0:
256,192,61483,1,8,0:0:0:0:
256,192,61633,1,8,0:0:0:0:
256,192,61783,1,0,0:0:0:0:
256,192,61933,1,0,0:0:0:0:
256,192,62083,1,8,0:0:0:0:
256,192,62233,1,0,0:0:0:0:
256,192,62383,1,8,0:0:0:0:
256,192,62533,1,8,0:0:0:0:
256,192,62608,1,0,0:0:0:0:
256,192,62683,1,8,0:0:0:0:
256,192,62833,1,0,0:0:0:0:
256,192,62983,1,8,0:0:0:0:
256,192,63133,1,0,0:0:0:0:
256,192,63208,1,8,0:0:0:0:
256,192,63283,1,0,0:0:0:0:
256,192,63433,1,0,0:0:0:0:
256,192,63583,1,8,0:0:0:0:
256,192,63883,1,12,0:0:0:0:
256,192,64183,1,8,0:0:0:0:
256,192,64333,1,0,0:0:0:0:
256,192,64483,1,8,0:0:0:0:
256,192,64633,1,0,0:0:0:0:
256,192,64783,1,8,0:0:0:0:
256,192,64933,1,0,0:0:0:0:
256,192,65083,1,8,0:0:0:0:
256,192,65233,1,0,0:0:0:0:
256,192,65383,1,8,0:0:0:0:
256,192,65533,1,8,0:0:0:0:
256,192,65683,1,0,0:0:0:0:
256,192,65833,1,8,0:0:0:0:
256,192,65983,1,8,0:0:0:0:
256,192,66133,1,8,0:0:0:0:
256,192,66283,1,0,0:0:0:0:
256,192,66358,1,8,0:0:0:0:
256,192,66433,1,0,0:0:0:0:
256,192,66583,1,8,0:0:0:0:
256,192,66733,1,0,0:0:0:0:
255,195,66883,1,8,0:0:0:0:
255,195,66958,1,0,0:0:0:0:
255,195,67033,1,0,0:0:0:0:
255,195,67108,1,0,0:0:0:0:
255,195,67183,1,8,0:0:0:0:
261,168,67258,1,8,0:0:0:0:
255,195,67333,1,0,0:0:0:0:
255,195,67408,1,0,0:0:0:0:
255,195,67483,1,8,0:0:0:0:
244,152,67558,1,0,0:0:0:0:
255,195,67633,1,8,0:0:0:0:
244,152,67708,1,8,0:0:0:0:
255,195,67783,1,0,0:0:0:0:
255,195,67858,1,8,0:0:0:0:
255,195,67933,1,0,0:0:0:0:
255,195,68083,1,8,0:0:0:0:
255,195,68133,1,8,0:0:0:0:
255,195,68183,1,8,0:0:0:0:
255,195,68233,1,8,0:0:0:0:
255,195,68383,1,0,0:0:0:0:
255,195,68433,1,0,0:0:0:0:
251,177,68483,1,0,0:0:0:0:
255,195,68533,1,0,0:0:0:0:
255,195,68683,1,12,0:0:0:0:
255,195,68983,1,0,0:0:0:0:
255,195,69133,1,0,0:0:0:0:
255,195,69283,1,8,0:0:0:0:
255,195,69433,1,0,0:0:0:0:
255,195,69583,1,8,0:0:0:0:
255,195,69733,1,0,0:0:0:0:
255,195,69883,1,8,0:0:0:0:
255,195,70033,1,8,0:0:0:0:
255,195,70183,1,0,0:0:0:0:
255,195,70483,1,8,0:0:0:0:
255,195,70783,1,0,0:0:0:0:
255,195,71083,1,8,0:0:0:0:
255,195,71383,1,8,0:0:0:0:
255,195,71533,1,0,0:0:0:0:
255,195,71683,1,8,0:0:0:0:
255,195,71833,1,8,0:0:0:0:
255,195,71983,1,0,0:0:0:0:
255,195,72133,1,0,0:0:0:0:
255,195,72283,1,8,0:0:0:0:
255,195,72583,1,8,0:0:0:0:
255,195,72733,1,0,0:0:0:0:
255,195,72883,1,8,0:0:0:0:
255,195,73183,1,0,0:0:0:0:
255,195,73483,1,8,0:0:0:0:
255,195,73633,1,8,0:0:0:0:
255,195,73783,1,0,0:0:0:0:
255,195,73933,1,0,0:0:0:0:
255,195,74083,1,8,0:0:0:0:
255,195,74383,1,0,0:0:0:0:
255,195,74683,1,8,0:0:0:0:
255,195,74833,1,0,0:0:0:0:
255,195,74983,1,8,0:0:0:0:
255,195,75133,1,0,0:0:0:0:
255,195,75283,1,8,0:0:0:0:
255,195,75583,1,0,0:0:0:0:
255,195,75883,1,8,0:0:0:0:
255,195,76033,1,8,0:0:0:0:
255,195,76183,1,0,0:0:0:0:
255,195,76333,1,0,0:0:0:0:
255,195,76483,1,8,0:0:0:0:
255,195,76783,1,0,0:0:0:0:
255,195,77083,1,8,0:0:0:0:
255,195,77383,1,8,0:0:0:0:
255,195,77533,1,0,0:0:0:0:
255,195,77683,1,8,0:0:0:0:
255,195,77983,1,0,0:0:0:0:
255,195,78283,1,12,0:0:0:0:
255,195,78583,1,0,0:0:0:0:
255,195,78733,1,0,0:0:0:0:
255,195,78883,1,8,0:0:0:0:
255,195,78958,1,0,0:0:0:0:
255,195,79033,1,0,0:0:0:0:
255,195,79108,1,0,0:0:0:0:
255,195,79183,1,8,0:0:0:0:
255,195,79333,1,0,0:0:0:0:
255,195,79483,1,8,0:0:0:0:
255,195,79633,1,8,0:0:0:0:
255,195,79783,1,0,0:0:0:0:
255,195,79933,1,0,0:0:0:0:
255,195,80083,1,8,0:0:0:0:
255,195,80383,1,0,0:0:0:0:
255,195,80683,1,8,0:0:0:0:
255,195,80983,1,8,0:0:0:0:
255,195,81133,1,0,0:0:0:0:
255,195,81283,1,8,0:0:0:0:
255,195,81433,1,8,0:0:0:0:
255,195,81583,1,0,0:0:0:0:
255,195,81658,1,8,0:0:0:0:
255,195,81733,1,0,0:0:0:0:
255,195,81883,1,8,0:0:0:0:
255,195,82033,1,0,0:0:0:0:
255,195,82183,1,8,0:0:0:0:
255,195,82333,1,0,0:0:0:0:
255,195,82483,1,8,0:0:0:0:
255,195,82783,1,0,0:0:0:0:
255,195,83083,1,8,0:0:0:0:
255,195,83233,1,8,0:0:0:0:
255,195,83383,1,0,0:0:0:0:
255,195,83533,1,0,0:0:0:0:
255,195,83683,1,8,0:0:0:0:
255,195,83758,1,8,0:0:0:0:
255,195,83833,1,8,0:0:0:0:
255,195,83983,1,0,0:0:0:0:
255,195,84133,1,0,0:0:0:0:
255,195,84283,1,8,0:0:0:0:
255,195,84433,1,0,0:0:0:0:
255,195,84583,1,8,0:0:0:0:
255,195,84733,1,0,0:0:0:0:
255,195,84883,1,8,0:0:0:0:
255,195,85183,1,0,0:0:0:0:
255,195,85483,1,12,0:0:0:0:
255,195,85633,1,0,0:0:0:0:
255,195,85708,1,0,0:0:0:0:
255,195,85783,1,8,0:0:0:0:
255,195,85933,1,0,0:0:0:0:
255,195,86083,1,12,0:0:0:0:
255,195,86383,1,0,0:0:0:0:
255,195,86683,1,12,0:0:0:0:
255,195,86983,1,12,0:0:0:0:
255,195,87283,1,0,0:0:0:0:
255,195,87358,1,0,0:0:0:0:
255,195,87433,1,0,0:0:0:0:
255,195,87508,1,0,0:0:0:0:
255,195,87583,1,8,0:0:0:0:
255,195,87658,1,8,0:0:0:0:
255,195,87733,1,8,0:0:0:0:
255,195,87883,1,4,0:0:0:0:
255,195,88033,1,0,0:0:0:0:
255,195,88108,1,0,0:0:0:0:
255,195,88183,1,8,0:0:0:0:
255,195,88333,1,0,0:0:0:0:
255,195,88483,1,8,0:0:0:0:
255,195,88558,1,8,0:0:0:0:
255,195,88633,1,0,0:0:0:0:
255,195,88783,1,8,0:0:0:0:
255,195,88858,1,8,0:0:0:0:
255,195,88933,1,8,0:0:0:0:
255,195,89083,1,0,0:0:0:0:
255,195,89233,1,0,0:0:0:0:
255,195,89308,1,0,0:0:0:0:
255,195,89383,1,8,0:0:0:0:
255,195,89533,1,0,0:0:0:0:
255,195,89608,1,0,0:0:0:0:
255,195,89683,1,8,0:0:0:0:
255,195,89758,1,8,0:0:0:0:
255,195,89833,1,0,0:0:0:0:
255,195,89908,1,0,0:0:0:0:
255,195,89983,1,8,0:0:0:0:
255,195,90133,1,0,0:0:0:0:
255,195,90283,1,8,0:0:0:0:
255,195,90358,1,8,0:0:0:0:
255,195,90433,1,0,0:0:0:0:
255,195,90583,1,8,0:0:0:0:
255,195,90658,1,0,0:0:0:0:
255,195,90733,1,8,0:0:0:0:
255,195,90808,1,8,0:0:0:0:
255,195,90883,1,0,0:0:0:0:
255,195,91033,1,8,0:0:0:0:
255,195,91183,1,0,0:0:0:0:
255,195,91258,1,8,0:0:0:0:
255,195,91333,1,0,0:0:0:0:
255,195,91408,1,0,0:0:0:0:
255,195,91483,1,8,0:0:0:0:
255,195,91633,1,8,0:0:0:0:
255,195,91783,1,0,0:0:0:0:
255,195,91858,1,8,0:0:0:0:
255,195,91933,1,0,0:0:0:0:
255,195,92008,1,8,0:0:0:0:
255,195,92083,1,0,0:0:0:0:
255,195,92233,1,8,0:0:0:0:
255,195,92383,1,0,0:0:0:0:
255,195,92458,1,0,0:0:0:0:
255,195,92533,1,0,0:0:0:0:
255,195,92683,1,8,0:0:0:0:
255,195,92833,1,0,0:0:0:0:
255,195,92908,1,0,0:0:0:0:
255,195,92983,1,8,0:0:0:0:
255,195,93133,1,8,0:0:0:0:
255,195,93208,1,8,0:0:0:0:
255,195,93283,1,0,0:0:0:0:
255,195,93433,1,0,0:0:0:0:
255,195,93583,1,8,0:0:0:0:
255,195,93733,1,0,0:0:0:0:
255,195,93883,1,8,0:0:0:0:
255,195,93958,1,0,0:0:0:0:
255,195,94033,1,0,0:0:0:0:
250,154,94108,1,0,0:0:0:0:
255,195,94183,1,8,0:0:0:0:
255,195,94333,1,0,0:0:0:0:
255,195,94483,1,8,0:0:0:0:
255,195,94558,1,8,0:0:0:0:
253,177,94633,1,8,0:0:0:0:
250,137,94708,1,8,0:0:0:0:
255,195,94783,1,0,0:0:0:0:
255,195,94933,1,8,0:0:0:0:
255,195,95083,1,0,0:0:0:0:
255,195,95233,1,0,0:0:0:0:
255,195,95308,1,0,0:0:0:0:
255,195,95383,1,8,0:0:0:0:
255,195,95533,1,8,0:0:0:0:
255,195,95683,1,0,0:0:0:0:
255,195,95758,1,0,0:0:0:0:
255,195,95833,1,0,0:0:0:0:
255,195,95983,1,8,0:0:0:0:
255,195,96133,1,0,0:0:0:0:
255,195,96283,1,8,0:0:0:0:
255,195,96358,1,8,0:0:0:0:
255,195,96433,1,0,0:0:0:0:
255,195,96508,1,0,0:0:0:0:
255,195,96583,1,8,0:0:0:0:
255,195,96733,1,0,0:0:0:0:
255,195,96883,1,8,0:0:0:0:
255,195,96958,1,0,0:0:0:0:
255,195,97033,1,0,0:0:0:0:
255,195,97108,1,0,0:0:0:0:
255,195,97183,1,8,0:0:0:0:
255,195,97333,1,0,0:0:0:0:
255,195,97483,1,12,0:0:0:0:
255,195,97633,1,0,0:0:0:0:
255,195,97783,1,8,0:0:0:0:
255,195,97858,1,0,0:0:0:0:
255,195,97933,1,8,0:0:0:0:
237,158,98008,1,0,0:0:0:0:
255,195,98083,1,8,0:0:0:0:
255,195,98233,1,0,0:0:0:0:
255,195,98383,1,8,0:0:0:0:
255,195,98458,1,8,0:0:0:0:
255,195,98533,1,8,0:0:0:0:
255,195,98683,1,0,0:0:0:0:
255,195,98758,1,0,0:0:0:0:
255,195,98833,1,0,0:0:0:0:
255,195,98983,1,8,0:0:0:0:
255,195,99133,1,0,0:0:0:0:
255,195,99283,1,8,0:0:0:0:
255,195,99358,1,8,0:0:0:0:
255,195,99433,1,8,0:0:0:0:
255,195,99508,1,8,0:0:0:0:
255,195,99583,1,0,0:0:0:0:
255,195,99733,1,0,0:0:0:0:
255,195,99883,1,8,0:0:0:0:
255,195,100033,1,0,0:0:0:0:
255,195,100183,1,8,0:0:0:0:
255,195,100258,1,0,0:0:0:0:
255,195,100333,1,8,0:0:0:0:
255,195,100408,1,0,0:0:0:0:
255,195,100483,1,8,0:0:0:0:
255,195,100633,1,0,0:0:0:0:
255,195,100783,1,8,0:0:0:0:
255,195,100858,1,0,0:0:0:0:
255,195,100933,1,8,0:0:0:0:
255,195,101083,1,0,0:0:0:0:
255,195,101158,1,8,0:0:0:0:
255,195,101233,1,0,0:0:0:0:
255,195,101308,1,8,0:0:0:0:
255,195,101383,1,0,0:0:0:0:
255,195,101533,1,0,0:0:0:0:
255,195,101683,1,8,0:0:0:0:
255,195,101833,1,8,0:0:0:0:
255,195,101983,1,8,0:0:0:0:
255,195,102133,1,8,0:0:0:0:
255,195,102283,1,0,0:0:0:0:
255,195,102433,1,8,0:0:0:0:
255,195,102583,1,0,0:0:0:0:
255,195,102658,1,0,0:0:0:0:
255,195,102733,1,8,0:0:0:0:
255,195,102883,1,0,0:0:0:0:
255,195,103033,1,8,0:0:0:0:
255,195,103183,1,0,0:0:0:0:
255,195,103258,1,0,0:0:0:0:
255,195,103333,1,8,0:0:0:0:
255,195,103483,1,0,0:0:0:0:
255,195,103633,1,8,0:0:0:0:
255,195,103783,1,8,0:0:0:0:
255,195,103858,1,0,0:0:0:0:
255,195,103933,1,8,0:0:0:0:
246,149,104008,1,8,0:0:0:0:
255,195,104083,1,0,0:0:0:0:
255,195,104233,1,8,0:0:0:0:
255,195,104383,1,0,0:0:0:0:
255,195,104533,1,0,0:0:0:0:
256,194,104683,5,12,0:0:0:0:
256,194,104908,1,0,0:0:0:0:
256,194,104983,1,0,0:0:0:0:
256,194,105133,1,8,0:0:0:0:
256,194,105283,1,0,0:0:0:0:
256,194,105583,1,0,0:0:0:0:
256,194,105883,1,12,0:0:0:0:
256,194,106183,1,0,0:0:0:0:
256,194,106333,1,0,0:0:0:0:
256,194,106408,1,0,0:0:0:0:
256,194,106483,1,8,0:0:0:0:
256,194,106633,1,0,0:0:0:0:
256,194,106783,1,8,0:0:0:0:
256,194,106833,1,8,0:0:0:0:
256,194,106883,1,8,0:0:0:0:
256,194,106933,1,0,0:0:0:0:
256,194,107083,1,12,0:0:0:0:
256,194,107308,1,8,0:0:0:0:
256,194,107383,1,0,0:0:0:0:
256,194,107533,1,0,0:0:0:0:
256,194,107683,1,8,0:0:0:0:
256,194,107758,1,8,0:0:0:0:
256,194,107833,1,0,0:0:0:0:
256,194,107908,1,0,0:0:0:0:
256,194,107983,1,8,0:0:0:0:
256,194,108058,1,0,0:0:0:0:
256,194,108133,1,0,0:0:0:0:
246,229,108208,1,0,0:0:0:0:
256,194,108283,1,8,0:0:0:0:
256,194,109183,1,0,0:0:0:0:
256,194,109258,1,0,0:0:0:0:
256,194,109333,1,0,0:0:0:0:
256,194,109483,1,12,0:0:0:0:
256,194,109633,1,0,0:0:0:0:
256,194,109708,1,0,0:0:0:0:
256,194,109783,1,8,0:0:0:0:
256,194,109933,1,0,0:0:0:0:
256,194,110083,1,8,0:0:0:0:
256,194,110158,1,8,0:0:0:0:
256,194,110233,1,0,0:0:0:0:
246,164,110308,1,0,0:0:0:0:
256,194,110383,1,8,0:0:0:0:
256,194,110533,1,8,0:0:0:0:
256,194,110683,1,0,0:0:0:0:
256,194,110758,1,0,0:0:0:0:
256,194,110833,1,0,0:0:0:0:
256,194,110908,1,0,0:0:0:0:
256,194,110983,1,8,0:0:0:0:
256,194,111133,1,0,0:0:0:0:
217,101,111283,1,8,0:0:0:0:
195,46,111358,1,8,0:0:0:0:
256,194,111433,1,0,0:0:0:0:
256,194,111508,1,8,0:0:0:0:
256,194,111583,1,0,0:0:0:0:
256,194,111658,1,0,0:0:0:0:
256,194,111733,1,8,0:0:0:0:
249,153,111808,1,0,0:0:0:0:
256,194,111883,1,8,0:0:0:0:
256,194,112033,1,0,0:0:0:0:
256,194,112183,1,8,0:0:0:0:
195,46,112258,1,0,0:0:0:0:
189,93,112333,1,8,0:0:0:0:
256,194,112483,1,0,0:0:0:0:
256,194,112633,1,8,0:0:0:0:
256,194,112708,1,0,0:0:0:0:
256,194,112783,1,8,0:0:0:0:
237,145,112858,1,0,0:0:0:0:
256,194,112933,1,8,0:0:0:0:
195,46,113008,1,8,0:0:0:0:
256,194,113083,1,0,0:0:0:0:
256,194,113233,1,8,0:0:0:0:
256,194,113308,1,8,0:0:0:0:
256,194,113383,1,0,0:0:0:0:
256,194,113533,1,8,0:0:0:0:
256,194,113683,1,0,0:0:0:0:
256,194,113758,1,0,0:0:0:0:
256,194,113833,1,0,0:0:0:0:
256,194,113908,1,0,0:0:0:0:
256,194,113983,1,8,0:0:0:0:
256,194,114133,1,0,0:0:0:0:
256,194,114283,1,12,0:0:0:0:
256,194,114433,1,0,0:0:0:0:
256,194,114508,1,0,0:0:0:0:
256,194,114583,1,8,0:0:0:0:
256,194,114733,1,0,0:0:0:0:
256,194,114883,1,8,0:0:0:0:
256,194,114958,1,0,0:0:0:0:
256,194,115033,1,0,0:0:0:0:
256,194,115108,1,8,0:0:0:0:
256,194,115183,1,0,0:0:0:0:
251,166,115258,1,0,0:0:0:0:
256,194,115333,1,8,0:0:0:0:
256,194,115483,1,0,0:0:0:0:
256,194,115558,1,0,0:0:0:0:
256,194,115633,1,0,0:0:0:0:
256,194,115783,1,8,0:0:0:0:
256,194,115933,1,0,0:0:0:0:
256,194,116008,1,0,0:0:0:0:
256,194,116083,1,8,0:0:0:0:
257,143,116158,1,8,0:0:0:0:
256,194,116233,1,0,0:0:0:0:
256,194,116308,1,8,0:0:0:0:
256,194,116383,1,0,0:0:0:0:
256,194,116458,1,0,0:0:0:0:
256,194,116533,1,8,0:0:0:0:
256,194,116683,1,8,0:0:0:0:
256,194,116833,1,0,0:0:0:0:
256,194,116983,1,8,0:0:0:0:
256,194,117058,1,0,0:0:0:0:
256,194,117133,1,8,0:0:0:0:
256,194,117208,1,0,0:0:0:0:
256,194,117283,1,8,0:0:0:0:
256,194,117433,1,0,0:0:0:0:
240,139,117508,1,8,0:0:0:0:
256,194,117583,1,0,0:0:0:0:
256,194,117658,1,0,0:0:0:0:
256,194,117733,1,8,0:0:0:0:
256,194,117883,1,0,0:0:0:0:
228,143,117958,1,0,0:0:0:0:
256,194,118033,1,8,0:0:0:0:
256,194,118183,1,0,0:0:0:0:
256,194,118333,1,8,0:0:0:0:
256,194,118483,1,0,0:0:0:0:
229,173,118558,1,0,0:0:0:0:
256,194,118633,1,8,0:0:0:0:
256,194,118783,1,4,0:0:0:0:
256,194,119083,1,12,0:0:0:0:
256,194,119233,1,0,0:0:0:0:
256,194,119383,1,8,0:0:0:0:
256,194,119458,1,8,0:0:0:0:
256,194,119533,1,0,0:0:0:0:
256,194,119608,1,0,0:0:0:0:
256,194,119683,1,8,0:0:0:0:
256,194,119833,1,0,0:0:0:0:
256,194,119983,1,8,0:0:0:0:
245,168,120058,1,0,0:0:0:0:
256,194,120133,1,8,0:0:0:0:
256,194,120283,1,0,0:0:0:0:
256,194,120433,1,8,0:0:0:0:
256,194,120583,1,0,0:0:0:0:
244,152,120658,1,0,0:0:0:0:
256,194,120733,1,8,0:0:0:0:
256,194,120808,1,0,0:0:0:0:
256,194,120883,1,8,0:0:0:0:
256,194,120958,1,8,0:0:0:0:
256,194,121033,1,0,0:0:0:0:
256,194,121183,1,8,0:0:0:0:
256,194,121258,1,0,0:0:0:0:
256,194,121333,1,8,0:0:0:0:
256,194,121408,1,0,0:0:0:0:
256,194,121483,1,8,0:0:0:0:
256,194,121558,1,8,0:0:0:0:
256,194,121633,1,0,0:0:0:0:
256,194,121708,1,0,0:0:0:0:
256,194,121783,1,8,0:0:0:0:
256,194,121933,1,0,0:0:0:0:
256,194,122083,1,8,0:0:0:0:
256,194,122233,1,0,0:0:0:0:
256,194,122308,1,0,0:0:0:0:
256,194,122383,1,8,0:0:0:0:
256,194,122458,1,0,0:0:0:0:
256,194,122533,1,8,0:0:0:0:
256,194,122608,1,8,0:0:0:0:
256,194,122683,1,0,0:0:0:0:
256,194,122833,1,8,0:0:0:0:
256,194,122983,1,0,0:0:0:0:
256,194,123133,1,0,0:0:0:0:
256,194,123208,1,0,0:0:0:0:
256,194,123283,1,8,0:0:0:0:
256,194,123358,1,8,0:0:0:0:
256,194,123433,1,0,0:0:0:0:
256,194,123508,1,0,0:0:0:0:
256,194,123583,1,8,0:0:0:0:
256,194,123733,1,0,0:0:0:0:
256,194,123883,1,12,0:0:0:0:
256,194,124033,1,0,0:0:0:0:
256,194,124108,1,0,0:0:0:0:
256,194,124183,1,8,0:0:0:0:
256,194,124258,1,8,0:0:0:0:
256,194,124333,1,0,0:0:0:0:
256,194,124483,1,8,0:0:0:0:
256,194,124558,1,8,0:0:0:0:
256,194,124633,1,0,0:0:0:0:
256,194,124708,1,0,0:0:0:0:
256,194,124783,1,8,0:0:0:0:
256,194,124858,1,0,0:0:0:0:
256,194,124933,1,8,0:0:0:0:
256,194,125008,1,8,0:0:0:0:
256,194,125083,1,0,0:0:0:0:
256,194,125233,1,8,0:0:0:0:
256,194,125383,1,0,0:0:0:0:
256,194,125458,1,0,0:0:0:0:
256,194,125533,1,8,0:0:0:0:
256,194,125608,1,8,0:0:0:0:
256,194,125683,1,0,0:0:0:0:
256,194,125758,1,0,0:0:0:0:
256,194,125833,1,8,0:0:0:0:
256,194,125908,1,0,0:0:0:0:
256,194,125983,1,8,0:0:0:0:
256,194,126133,1,0,0:0:0:0:
256,194,126283,1,8,0:0:0:0:
256,194,126358,1,8,0:0:0:0:
256,194,126433,1,0,0:0:0:0:
256,194,126583,1,8,0:0:0:0:
256,194,126733,1,0,0:0:0:0:
256,194,126808,1,0,0:0:0:0:
256,194,126883,1,8,0:0:0:0:
256,194,126958,1,0,0:0:0:0:
256,194,127033,1,8,0:0:0:0:
256,194,127108,1,8,0:0:0:0:
256,194,127183,1,0,0:0:0:0:
256,194,127333,1,8,0:0:0:0:
256,194,127483,1,4,0:0:0:0:
256,194,127783,1,8,0:0:0:0:
256,194,127933,1,8,0:0:0:0:
256,194,128083,1,0,0:0:0:0:
256,194,128158,1,0,0:0:0:0:
256,194,128233,1,0,0:0:0:0:
256,194,128308,1,0,0:0:0:0:
253,144,128383,1,8,0:0:0:0:
240,164,128433,1,8,0:0:0:0:
256,194,128483,1,8,0:0:0:0:
240,164,128533,1,0,0:0:0:0:
256,194,128683,5,12,0:0:0:0:
256,194,128833,1,0,0:0:0:0:
256,194,128908,1,0,0:0:0:0:
256,194,128983,1,8,0:0:0:0:
256,194,129133,1,0,0:0:0:0:
256,194,129283,1,8,0:0:0:0:
256,194,129358,1,8,0:0:0:0:
256,194,129433,1,0,0:0:0:0:
256,194,129508,1,0,0:0:0:0:
256,194,129583,1,8,0:0:0:0:
256,194,129733,1,8,0:0:0:0:
234,160,129808,1,0,0:0:0:0:
256,194,129883,1,8,0:0:0:0:
256,194,129958,1,0,0:0:0:0:
256,194,130033,1,0,0:0:0:0:
256,194,130108,1,0,0:0:0:0:
256,194,130183,1,8,0:0:0:0:
256,194,130333,1,8,0:0:0:0:
256,194,130408,1,8,0:0:0:0:
256,194,130483,1,0,0:0:0:0:
256,194,130633,1,0,0:0:0:0:
256,194,130708,1,8,0:0:0:0:
256,194,130783,1,0,0:0:0:0:
256,194,130858,1,0,0:0:0:0:
256,194,130933,1,8,0:0:0:0:
256,194,131083,1,0,0:0:0:0:
256,194,131233,1,0,0:0:0:0:
256,194,131308,1,0,0:0:0:0:
256,194,131383,1,8,0:0:0:0:
256,194,131533,1,8,0:0:0:0:
256,194,131608,1,8,0:0:0:0:
256,194,131683,1,0,0:0:0:0:
256,194,131833,1,8,0:0:0:0:
256,194,131983,1,0,0:0:0:0:
256,194,132058,1,0,0:0:0:0:
256,194,132133,1,8,0:0:0:0:
253,159,132208,1,8,0:0:0:0:
256,194,132283,1,0,0:0:0:0:
256,194,132433,1,8,0:0:0:0:
256,194,132508,1,8,0:0:0:0:
256,194,132583,1,8,0:0:0:0:
256,194,132733,1,0,0:0:0:0:
256,194,132883,1,8,0:0:0:0:
256,194,132958,1,8,0:0:0:0:
256,194,133033,1,0,0:0:0:0:
256,194,133108,1,0,0:0:0:0:
256,194,133183,1,8,0:0:0:0:
256,194,133333,1,0,0:0:0:0:
256,194,133483,1,12,0:0:0:0:
256,194,133633,1,0,0:0:0:0:
256,194,133708,1,0,0:0:0:0:
256,194,133783,1,8,0:0:0:0:
256,194,133858,1,0,0:0:0:0:
256,194,133933,1,8,0:0:0:0:
256,194,134008,1,0,0:0:0:0:
256,194,134083,1,8,0:0:0:0:
256,194,134233,1,0,0:0:0:0:
256,194,134308,1,0,0:0:0:0:
256,194,134383,1,8,0:0:0:0:
256,194,134458,1,8,0:0:0:0:
256,194,134533,1,0,0:0:0:0:
256,194,134683,1,8,0:0:0:0:
256,194,134833,1,0,0:0:0:0:
256,194,134908,1,0,0:0:0:0:
256,194,134983,1,8,0:0:0:0:
256,194,135058,1,0,0:0:0:0:
256,194,135133,1,8,0:0:0:0:
256,194,135208,1,8,0:0:0:0:
256,194,135283,1,0,0:0:0:0:
241,156,135358,1,8,0:0:0:0:
256,194,135433,1,0,0:0:0:0:
256,194,135508,1,0,0:0:0:0:
256,194,135583,1,8,0:0:0:0:
256,194,135733,1,0,0:0:0:0:
256,194,135883,1,8,0:0:0:0:
256,194,135958,1,0,0:0:0:0:
256,194,136033,1,0,0:0:0:0:
256,194,136108,1,0,0:0:0:0:
256,194,136183,1,8,0:0:0:0:
256,194,136333,1,0,0:0:0:0:
256,194,136483,1,8,0:0:0:0:
256,194,136558,1,0,0:0:0:0:
256,194,136633,1,0,0:0:0:0:
256,194,136708,1,0,0:0:0:0:
256,194,136783,1,8,0:0:0:0:
256,194,136933,1,0,0:0:0:0:
256,194,137083,1,8,0:0:0:0:
256,194,137158,1,8,0:0:0:0:
256,194,137233,1,0,0:0:0:0:
256,194,137308,1,0,0:0:0:0:
256,194,137383,1,8,0:0:0:0:
256,194,137458,1,0,0:0:0:0:
256,194,137533,1,8,0:0:0:0:
256,194,137608,1,8,0:0:0:0:
256,194,137683,1,0,0:0:0:0:
256,194,137758,1,8,0:0:0:0:
256,194,137833,1,0,0:0:0:0:
256,194,137908,1,0,0:0:0:0:
256,194,137983,1,8,0:0:0:0:
256,194,138133,1,0,0:0:0:0:
256,194,138283,1,12,0:0:0:0:
256,194,138433,1,0,0:0:0:0:
256,194,138508,1,0,0:0:0:0:
256,194,138583,1,8,0:0:0:0:
256,194,138733,1,0,0:0:0:0:
256,194,138883,1,8,0:0:0:0:
256,194,138958,1,8,0:0:0:0:
256,194,139033,1,0,0:0:0:0:
256,194,139108,1,0,0:0:0:0:
256,194,139183,1,8,0:0:0:0:
256,194,139258,1,0,0:0:0:0:
256,194,139333,1,8,0:0:0:0:
256,194,139483,1,0,0:0:0:0:
256,194,139558,1,0,0:0:0:0:
256,194,139633,1,8,0:0:0:0:
256,194,139783,1,0,0:0:0:0:
256,194,139933,1,8,0:0:0:0:
256,194,140008,1,0,0:0:0:0:
256,194,140083,1,8,0:0:0:0:
256,194,140158,1,8,0:0:0:0:
256,194,140233,1,0,0:0:0:0:
256,194,140308,1,8,0:0:0:0:
256,194,140383,1,0,0:0:0:0:
256,194,140458,1,0,0:0:0:0:
256,194,140533,1,8,0:0:0:0:
256,194,140608,1,0,0:0:0:0:
256,194,140683,1,8,0:0:0:0:
256,194,140833,1,0,0:0:0:0:
256,194,140908,1,0,0:0:0:0:
256,194,140983,1,8,0:0:0:0:
256,194,141133,1,0,0:0:0:0:
256,194,141283,1,8,0:0:0:0:
256,194,141358,1,8,0:0:0:0:
256,194,141433,1,0,0:0:0:0:
256,194,141508,1,0,0:0:0:0:
256,194,141583,1,8,0:0:0:0:
256,194,141733,1,8,0:0:0:0:
256,194,141808,1,8,0:0:0:0:
256,194,141883,1,0,0:0:0:0:
256,194,141958,1,0,0:0:0:0:
256,194,142033,1,0,0:0:0:0:
256,194,142183,1,8,0:0:0:0:
244,162,142258,1,0,0:0:0:0:
256,194,142333,1,8,0:0:0:0:
246,174,142408,1,0,0:0:0:0:
256,194,142483,1,8,0:0:0:0:
256,194,142558,1,8,0:0:0:0:
256,194,142633,1,0,0:0:0:0:
256,194,142708,1,0,0:0:0:0:
256,194,142783,1,8,0:0:0:0:
256,194,142933,1,0,0:0:0:0:
256,194,143083,1,12,0:0:0:0:
256,194,143533,1,8,0:0:0:0:
256,194,143608,1,8,0:0:0:0:
256,194,143683,1,0,0:0:0:0:
256,194,143908,1,0,0:0:0:0:
256,194,144133,1,0,0:0:0:0:
256,194,144283,1,12,0:0:0:0:
256,194,145183,1,0,0:0:0:0:
256,194,145333,1,0,0:0:0:0:
256,194,145483,1,12,0:0:0:0:
256,194,145783,1,0,0:0:0:0:
256,194,146083,1,12,0:0:0:0:
256,194,146308,1,0,0:0:0:0:
256,194,146533,1,0,0:0:0:0:
256,194,146683,1,12,0:0:0:0:
256,194,146983,1,12,0:0:0:0:
256,194,147283,1,0,0:0:0:0:
256,194,147358,1,0,0:0:0:0:
256,194,147433,1,0,0:0:0:0:
256,194,147508,1,0,0:0:0:0:
256,194,147583,1,8,0:0:0:0:
256,194,147658,1,8,0:0:0:0:
256,194,147733,1,0,0:0:0:0:
256,192,147883,1,12,0:0:0:0:
256,192,148033,1,0,0:0:0:0:
256,192,148108,1,0,0:0:0:0:
256,192,148183,1,8,0:0:0:0:
256,192,148333,1,0,0:0:0:0:
256,192,148408,1,0,0:0:0:0:
256,192,148483,1,8,0:0:0:0:
256,192,148558,1,8,0:0:0:0:
256,192,148633,1,0,0:0:0:0:
256,192,148708,1,0,0:0:0:0:
256,192,148783,1,8,0:0:0:0:
256,192,148933,1,0,0:0:0:0:
256,192,149083,1,8,0:0:0:0:
256,192,149233,1,0,0:0:0:0:
256,192,149308,1,0,0:0:0:0:
256,192,149383,1,8,0:0:0:0:
256,192,149458,1,0,0:0:0:0:
256,192,149533,1,8,0:0:0:0:
256,192,149608,1,8,0:0:0:0:
256,192,149683,1,0,0:0:0:0:
256,192,149833,1,8,0:0:0:0:
256,192,149908,1,8,0:0:0:0:
256,192,149983,1,0,0:0:0:0:
256,192,150133,1,8,0:0:0:0:
256,192,150283,1,0,0:0:0:0:
256,192,150358,1,0,0:0:0:0:
256,192,150433,1,8,0:0:0:0:
256,192,150583,1,0,0:0:0:0:
256,192,150658,1,8,0:0:0:0:
256,192,150733,1,0,0:0:0:0:
256,192,150808,1,8,0:0:0:0:
256,192,150883,1,0,0:0:0:0:
256,192,151033,1,8,0:0:0:0:
256,192,151108,1,8,0:0:0:0:
256,192,151183,1,0,0:0:0:0:
256,192,151333,1,8,0:0:0:0:
256,192,151483,1,0,0:0:0:0:
256,192,151633,1,8,0:0:0:0:
249,153,151708,1,0,0:0:0:0:
256,192,151783,1,0,0:0:0:0:
256,192,151858,1,0,0:0:0:0:
256,192,151933,1,8,0:0:0:0:
256,192,152083,1,0,0:0:0:0:
256,192,152233,1,8,0:0:0:0:
256,192,152308,1,8,0:0:0:0:
256,192,152383,1,0,0:0:0:0:
256,192,152458,1,0,0:0:0:0:
256,192,152533,1,8,0:0:0:0:
256,192,152608,1,0,0:0:0:0:
256,192,152683,1,8,0:0:0:0:
256,192,152833,1,0,0:0:0:0:
256,192,152908,1,0,0:0:0:0:
256,192,152983,1,8,0:0:0:0:
256,192,153133,1,0,0:0:0:0:
256,192,153283,1,8,0:0:0:0:
256,192,153358,1,8,0:0:0:0:
256,192,153433,1,0,0:0:0:0:
256,192,153508,1,0,0:0:0:0:
256,192,153583,1,8,0:0:0:0:
256,192,153733,1,0,0:0:0:0:
256,192,153883,1,8,0:0:0:0:
256,192,153958,1,8,0:0:0:0:
256,192,154033,1,8,0:0:0:0:
256,192,154108,1,8,0:0:0:0:
256,192,154183,1,0,0:0:0:0:
256,192,154333,1,0,0:0:0:0:
256,192,154408,1,0,0:0:0:0:
256,192,154483,1,8,0:0:0:0:
256,192,154633,1,0,0:0:0:0:
256,192,154783,1,8,0:0:0:0:
256,192,154858,1,0,0:0:0:0:
256,192,154933,1,8,0:0:0:0:
256,192,155083,1,0,0:0:0:0:
256,192,155233,1,0,0:0:0:0:
256,192,155308,1,0,0:0:0:0:
256,192,155383,1,8,0:0:0:0:
256,192,155533,1,0,0:0:0:0:
256,192,155683,1,8,0:0:0:0:
256,192,155758,1,0,0:0:0:0:
256,192,155833,1,0,0:0:0:0:
256,192,155908,1,0,0:0:0:0:
256,192,155983,1,8,0:0:0:0:
256,192,156058,1,8,0:0:0:0:
256,192,156133,1,0,0:0:0:0:
256,192,156208,1,0,0:0:0:0:
256,192,156283,1,8,0:0:0:0:
256,192,156433,1,0,0:0:0:0:
256,192,156583,1,8,0:0:0:0:
256,192,156733,1,0,0:0:0:0:
256,192,156883,1,12,0:0:0:0:
256,192,157182,1,4,0:0:0:0:
256,192,157332,12,0,160782,0:0:0:0:
