osu file format v14

[General]
AudioFilename: audio.mp3
AudioLeadIn: 0
PreviewTime: 114096
Countdown: 0
SampleSet: Soft
StackLeniency: 0.7
Mode: 3
LetterboxInBreaks: 0
SpecialStyle: 0
WidescreenStoryboard: 1

[Editor]
Bookmarks: 125203,128895,134434
DistanceSpacing: 0.8
BeatDivisor: 16
GridSize: 32
TimelineZoom: 1.7

[Metadata]
Title:4172756869 (isagen remix) (Cut Ver.)
TitleUnicode:4172756869 (isagen remix) (Cut Ver.)
Artist:callasoiled
ArtistUnicode:callasoiled
Creator:guden
Version:7k insane
Source:
Tags:qqqant elekton -mint- itzuaka trekkie trax phalanx hatsune miku dreams of electric sheep ep remixes 初音ミク vocaloid electronic instrumental phone number future bass ボーカロイド tomoyuki sagesaka japanese
BeatmapID:2763839
BeatmapSetID:1334074

[Difficulty]
HPDrainRate:7.5
CircleSize:7
OverallDifficulty:7.5
ApproachRate:5
SliderMultiplier:1.4
SliderTickRate:1

[Events]
//Background and Video events
0,0,"hatsune.jpg",0,0
//Break Periods
//Storyboard Layer 0 (Background)
//Storyboard Layer 1 (Fail)
//Storyboard Layer 2 (Pass)
//Storyboard Layer 3 (Foreground)
//Storyboard Layer 4 (Overlay)
//Storyboard Sound Samples

[TimingPoints]
5174,461.538462,4,2,0,60,1,0
12097,461.538462,4,2,0,60,1,0
21789,461.538462,4,2,0,60,1,0
45789,-100,4,2,1,60,0,1
75327,-100,4,2,1,60,0,0
114096,-100,4,2,1,60,0,1
143635,-100,4,2,1,60,0,0

[HitObjects]
329,192,5173,5,0,0:0:0:60:lowkick.wav
402,192,5173,1,0,0:0:0:0:
329,192,5347,1,0,0:0:0:60:lowkick.wav
402,192,5347,1,0,0:0:0:0:
329,192,5577,1,0,0:0:0:60:lowkick.wav
402,192,5577,1,0,0:0:0:0:
329,192,5924,1,0,0:0:0:60:lowkick.wav
402,192,5924,1,0,0:0:0:0:
329,192,6212,1,0,0:0:0:60:lowkick.wav
402,192,6212,1,0,0:0:0:0:
329,192,6443,1,0,0:0:0:60:lowkick.wav
402,192,6443,1,0,0:0:0:0:
329,192,6616,1,0,0:0:0:60:lowkick.wav
402,192,6616,1,0,0:0:0:0:
109,192,6731,1,0,0:0:0:60:lowkick.wav
182,192,6731,1,0,0:0:0:0:
329,192,6847,1,0,0:0:0:60:lowkick.wav
402,192,6847,1,0,0:0:0:0:
109,192,6962,1,0,0:0:0:60:lowkick.wav
182,192,6962,1,0,0:0:0:0:
329,192,7058,1,0,0:0:0:60:lowkick.wav
402,192,7058,1,0,0:0:0:0:
109,192,7135,1,0,0:0:0:60:lowkick.wav
182,192,7135,1,0,0:0:0:0:
256,192,7193,1,0,0:0:0:60:lowkick.wav
329,192,7279,1,0,0:0:0:60:lowkick.wav
402,192,7327,1,0,0:0:0:60:lowkick.wav
475,192,7395,1,0,0:0:0:0:
109,192,7481,1,0,0:0:0:60:lowkick.wav
182,192,7481,1,0,0:0:0:0:
109,192,7654,1,0,0:0:0:60:lowkick.wav
182,192,7654,1,0,0:0:0:0:
109,192,7827,1,0,0:0:0:60:lowkick.wav
182,192,7827,1,0,0:0:0:0:
109,192,8058,1,0,0:0:0:60:lowkick.wav
182,192,8058,1,0,0:0:0:0:
109,192,8347,1,0,0:0:0:60:lowkick.wav
182,192,8347,1,0,0:0:0:0:
109,192,8693,1,0,0:0:0:60:lowkick.wav
182,192,8693,1,0,0:0:0:0:
109,192,9212,1,0,0:0:0:60:lowkick.wav
182,192,9212,1,0,0:0:0:0:
475,192,11635,1,0,0:0:0:0:
329,192,11712,1,0,0:0:0:0:
182,192,11789,1,0,0:0:0:0:
36,192,11866,1,0,0:0:0:60:LR_TomR1.wav
256,192,11866,1,0,0:0:0:0:
402,192,12097,1,0,0:0:0:60:lowkick.wav
475,192,12097,1,0,0:0:0:0:
402,192,12270,1,0,0:0:0:60:lowkick.wav
475,192,12270,1,0,0:0:0:0:
402,192,12500,1,0,0:0:0:60:lowkick.wav
475,192,12500,1,0,0:0:0:0:
182,192,12616,1,0,0:0:0:0:
109,192,12731,1,0,0:0:0:0:
402,192,12789,1,0,0:0:0:0:
475,192,12789,1,0,0:0:0:0:
109,192,12962,1,0,0:0:0:0:
182,192,13058,1,0,0:0:0:0:
402,192,13135,1,0,0:0:0:60:lowkick.wav
475,192,13135,1,0,0:0:0:0:
182,192,13279,1,0,0:0:0:0:
109,192,13337,1,0,0:0:0:0:
402,192,13366,1,0,0:0:0:60:lowkick.wav
475,192,13366,1,0,0:0:0:0:
256,192,13481,1,0,0:0:0:0:
402,192,13539,1,0,0:0:0:60:lowkick.wav
475,192,13539,1,0,0:0:0:0:
36,192,13654,1,0,0:0:0:60:lowkick.wav
109,192,13654,1,0,0:0:0:0:
402,192,13770,1,0,0:0:0:60:lowkick.wav
475,192,13770,1,0,0:0:0:0:
256,192,13827,1,0,0:0:0:0:
36,192,13885,1,0,0:0:0:60:lowkick.wav
109,192,13885,1,0,0:0:0:0:
402,192,13981,1,0,0:0:0:60:lowkick.wav
475,192,13981,1,0,0:0:0:0:
36,192,14058,1,0,0:0:0:60:lowkick.wav
109,192,14058,1,0,0:0:0:0:
182,192,14116,1,0,0:0:0:60:lowkick.wav
256,192,14202,1,0,0:0:0:60:lowkick.wav
329,192,14250,1,0,0:0:0:60:lowkick.wav
402,192,14327,1,0,0:0:0:60:lowkick.wav
36,192,14404,1,0,0:0:0:60:lowkick.wav
109,192,14404,1,0,0:0:0:0:
36,192,14577,1,0,0:0:0:60:lowkick.wav
109,192,14577,1,0,0:0:0:0:
329,192,14693,1,0,0:0:0:0:
36,192,14750,1,0,0:0:0:60:lowkick.wav
109,192,14750,1,0,0:0:0:0:
36,192,14981,1,0,0:0:0:60:lowkick.wav
109,192,14981,1,0,0:0:0:0:
329,192,15212,1,0,0:0:0:0:
36,192,15270,1,0,0:0:0:60:lowkick.wav
109,192,15270,1,0,0:0:0:0:
36,192,15616,1,0,0:0:0:60:lowkick.wav
109,192,15616,1,0,0:0:0:0:
36,192,16135,1,0,0:0:0:60:lowkick.wav
109,192,16135,1,0,0:0:0:0:
329,192,16366,1,0,0:0:0:0:
182,192,21327,1,0,0:0:0:0:
329,192,21404,1,0,0:0:0:0:
475,192,21481,1,0,0:0:0:0:
36,192,21558,1,0,0:0:0:60:LR_TomR1.wav
256,192,21558,1,0,0:0:0:0:
329,192,21789,1,0,0:0:0:60:lowkick.wav
402,192,21789,1,0,0:0:0:0:
329,192,21962,1,0,0:0:0:60:lowkick.wav
402,192,21962,1,0,0:0:0:0:
329,192,22192,1,0,0:0:0:60:lowkick.wav
402,192,22192,1,0,0:0:0:0:
329,192,22539,1,0,0:0:0:60:lowkick.wav
402,192,22539,1,0,0:0:0:0:
329,192,22827,1,0,0:0:0:60:lowkick.wav
402,192,22827,1,0,0:0:0:0:
329,192,23058,1,0,0:0:0:60:lowkick.wav
402,192,23058,1,0,0:0:0:0:
329,192,23231,1,0,0:0:0:60:lowkick.wav
402,192,23231,1,0,0:0:0:0:
109,192,23346,1,0,0:0:0:60:lowkick.wav
182,192,23346,1,0,0:0:0:0:
36,192,23404,1,0,0:0:0:0:
329,192,23462,1,0,0:0:0:60:lowkick.wav
402,192,23462,1,0,0:0:0:0:
109,192,23577,1,0,0:0:0:60:lowkick.wav
182,192,23577,1,0,0:0:0:0:
329,192,23673,1,0,0:0:0:60:lowkick.wav
402,192,23673,1,0,0:0:0:0:
109,192,23750,1,0,0:0:0:60:lowkick.wav
182,192,23750,1,0,0:0:0:0:
256,192,23808,1,0,0:0:0:60:lowkick.wav
329,192,23894,1,0,0:0:0:60:lowkick.wav
402,192,23942,1,0,0:0:0:60:lowkick.wav
475,192,24019,1,0,0:0:0:60:lowkick.wav
109,192,24096,1,0,0:0:0:60:lowkick.wav
182,192,24096,1,0,0:0:0:0:
329,192,24173,1,0,0:0:0:0:
109,192,24269,1,0,0:0:0:60:lowkick.wav
182,192,24269,1,0,0:0:0:0:
109,192,24442,1,0,0:0:0:60:lowkick.wav
182,192,24442,1,0,0:0:0:0:
109,192,24673,1,0,0:0:0:60:lowkick.wav
182,192,24673,1,0,0:0:0:0:
109,192,24962,1,0,0:0:0:60:lowkick.wav
182,192,24962,1,0,0:0:0:0:
109,192,25308,1,0,0:0:0:60:lowkick.wav
182,192,25308,1,0,0:0:0:0:
329,192,25481,128,0,25635:0:0:0:60:lowkick.wav
475,192,25481,128,0,25635:0:0:0:0:
109,192,25827,1,0,0:0:0:60:lowkick.wav
182,192,25827,1,0,0:0:0:0:
109,192,26404,1,0,0:0:0:60:SNARE ugh2.wav
256,192,26404,1,0,0:0:0:0:
475,192,26404,1,0,0:0:0:0:
182,192,26635,1,0,0:0:0:0:
402,192,26750,1,0,0:0:0:0:
182,192,26865,1,0,0:0:0:0:
329,192,26942,1,0,0:0:0:0:
475,192,27019,1,0,0:0:0:0:
36,192,27096,1,0,0:0:0:60:LR_TomR1.wav
256,192,27096,1,0,0:0:0:0:
402,192,27327,1,0,0:0:0:60:lowkick.wav
475,192,27327,1,0,0:0:0:0:
402,192,27500,1,0,0:0:0:60:lowkick.wav
475,192,27500,1,0,0:0:0:0:
402,192,27731,1,0,0:0:0:60:lowkick.wav
475,192,27731,1,0,0:0:0:0:
182,192,27846,1,0,0:0:0:60:lowkick.wav
109,192,27962,1,0,0:0:0:60:lowkick.wav
475,192,28096,1,0,0:0:0:0:
402,192,28096,1,0,0:0:0:60:lowkick.wav
109,192,28192,1,0,0:0:0:60:lowkick.wav
36,192,28250,1,0,0:0:0:60:SNARE ugh2.wav
256,192,28250,1,0,0:0:0:0:
329,192,28250,1,0,0:0:0:0:
402,192,28365,1,0,0:0:0:60:lowkick.wav
475,192,28365,1,0,0:0:0:0:
182,192,28481,1,0,0:0:0:60:lowkick.wav
109,192,28539,1,0,0:0:0:60:lowkick.wav
402,192,28596,1,0,0:0:0:60:lowkick.wav
475,192,28596,1,0,0:0:0:0:
256,192,28712,1,0,0:0:0:60:lowkick.wav
402,192,28769,1,0,0:0:0:0:
475,192,28769,1,0,0:0:0:0:
36,192,28885,1,0,0:0:0:60:lowkick.wav
109,192,28885,1,0,0:0:0:0:
402,192,29000,1,0,0:0:0:0:
475,192,29000,1,0,0:0:0:0:
256,192,29058,1,0,0:0:0:60:lowkick.wav
36,192,29115,1,0,0:0:0:0:
109,192,29115,1,0,0:0:0:0:
402,192,29212,1,0,0:0:0:0:
475,192,29212,1,0,0:0:0:0:
36,192,29289,1,0,0:0:0:60:lowkick.wav
109,192,29289,1,0,0:0:0:0:
182,192,29346,1,0,0:0:0:0:
256,192,29433,1,0,0:0:0:0:
329,192,29481,1,0,0:0:0:0:
402,192,29558,1,0,0:0:0:0:
36,192,29635,1,0,0:0:0:0:
109,192,29635,1,0,0:0:0:0:
36,192,29808,1,0,0:0:0:0:
109,192,29808,1,0,0:0:0:0:
329,192,29923,1,0,0:0:0:60:lowkick.wav
36,192,29981,1,0,0:0:0:0:
109,192,29981,1,0,0:0:0:0:
182,192,30096,1,0,0:0:0:60:SNARE ugh2.wav
256,192,30096,1,0,0:0:0:0:
475,192,30096,1,0,0:0:0:0:
36,192,30212,1,0,0:0:0:0:
109,192,30212,1,0,0:0:0:0:
329,192,30442,1,0,0:0:0:60:lowkick.wav
36,192,30500,1,0,0:0:0:0:
109,192,30500,1,0,0:0:0:0:
475,192,30635,1,0,0:0:0:0:
329,192,30712,1,0,0:0:0:0:
182,192,30789,1,0,0:0:0:60:LR_TomR1.wav
36,192,30846,1,0,0:0:0:0:
256,192,30846,1,0,0:0:0:0:
402,192,31019,1,0,0:0:0:60:lowkick.wav
475,192,31019,1,0,0:0:0:0:
402,192,31192,1,0,0:0:0:60:lowkick.wav
475,192,31192,1,0,0:0:0:0:
402,192,31423,1,0,0:0:0:60:lowkick.wav
475,192,31423,1,0,0:0:0:0:
182,192,31539,1,0,0:0:0:60:lowkick.wav
109,192,31654,1,0,0:0:0:60:lowkick.wav
402,192,31712,1,0,0:0:0:0:
475,192,31712,1,0,0:0:0:0:
36,192,31827,1,0,0:0:0:0:
109,192,31827,1,0,0:0:0:0:
182,192,31885,1,0,0:0:0:60:lowkick.wav
256,192,31942,1,0,0:0:0:60:SNARE ugh2.wav
329,192,31942,1,0,0:0:0:0:
475,192,31942,1,0,0:0:0:0:
36,192,31981,1,0,0:0:0:60:lowkick.wav
109,192,32058,1,0,0:0:0:60:lowkick.wav
182,192,32115,1,0,0:0:0:60:lowkick.wav
402,192,32202,1,0,0:0:0:60:lowkick.wav
329,192,32250,1,0,0:0:0:60:lowkick.wav
256,192,32327,1,0,0:0:0:60:lowkick.wav
402,192,32404,1,0,0:0:0:60:lowkick.wav
475,192,32404,1,0,0:0:0:0:
475,192,32577,1,0,0:0:0:0:
402,192,32635,1,0,0:0:0:60:LR_TomR1.wav
329,192,32712,1,0,0:0:0:0:
256,192,32779,1,0,0:0:0:0:
182,192,32827,1,0,0:0:0:0:
36,192,32865,1,0,0:0:0:60:LR_TomR1.wav
109,192,32865,1,0,0:0:0:0:
402,192,32981,1,0,0:0:0:60:lowkick.wav
36,192,33039,1,0,0:0:0:0:
109,192,33039,1,0,0:0:0:0:
36,192,33269,1,0,0:0:0:60:lowkick.wav
109,192,33269,1,0,0:0:0:0:
36,192,33558,1,0,0:0:0:0:
109,192,33558,1,0,0:0:0:0:
256,192,33615,1,0,0:0:0:60:lowkick.wav
402,192,33673,1,0,0:0:0:0:
475,192,33673,1,0,0:0:0:0:
109,192,33789,1,0,0:0:0:60:SNARE ugh2.wav
256,192,33789,1,0,0:0:0:0:
329,192,33789,1,0,0:0:0:0:
329,192,34135,1,0,0:0:0:60:lowkick.wav
36,192,34250,1,0,0:0:0:0:
109,192,34250,1,0,0:0:0:0:
36,192,34404,1,0,0:0:0:0:
109,192,34481,1,0,0:0:0:60:LR_TomR1.wav
182,192,34539,1,0,0:0:0:0:
256,192,34625,1,0,0:0:0:0:
329,192,34673,1,0,0:0:0:0:
402,192,34712,1,0,0:0:0:60:lowkick.wav
475,192,34712,1,0,0:0:0:0:
402,192,34885,1,0,0:0:0:60:lowkick.wav
475,192,34885,1,0,0:0:0:0:
402,192,35058,1,0,0:0:0:60:lowkick.wav
475,192,35058,1,0,0:0:0:0:
402,192,35462,1,0,0:0:0:60:lowkick.wav
475,192,35462,1,0,0:0:0:0:
402,192,35692,1,0,0:0:0:60:lowkick.wav
475,192,35692,1,0,0:0:0:0:
402,192,36039,1,0,0:0:0:60:lowkick.wav
475,192,36039,1,0,0:0:0:0:
402,192,36385,1,0,0:0:0:60:lowkick.wav
475,192,36385,1,0,0:0:0:0:
402,192,36789,1,0,0:0:0:60:lowkick.wav
475,192,36789,1,0,0:0:0:0:
402,192,37250,1,0,0:0:0:60:lowkick.wav
475,192,37250,1,0,0:0:0:0:
402,192,38404,1,0,0:0:0:60:lowkick.wav
475,192,38404,128,0,45789:0:0:0:0:
36,192,45789,1,0,0:0:0:60:lowkick.wav
256,192,45789,1,0,0:0:0:60:LR_CymbalG.wav
329,192,45789,1,0,0:0:0:0:
402,192,45789,1,0,0:0:0:0:
329,192,45962,1,0,0:0:0:0:
402,192,45962,1,0,0:0:0:0:
329,192,46192,1,0,0:0:0:0:
402,192,46192,1,0,0:0:0:0:
36,192,46250,1,0,0:0:0:0:
109,192,46308,1,0,0:0:0:0:
182,192,46365,1,0,0:0:0:0:
256,192,46423,1,0,0:0:0:0:
329,192,46481,1,0,0:0:0:0:
402,192,46481,1,0,0:0:0:0:
109,192,46596,1,0,0:0:0:0:
182,192,46596,1,0,0:0:0:0:
36,192,46712,1,0,0:0:0:60:SNARE ugh2.wav
256,192,46712,1,0,0:0:0:0:
402,192,46712,1,0,0:0:0:0:
182,192,46769,1,0,0:0:0:0:
109,192,46827,1,0,0:0:0:0:
475,192,46885,1,0,0:0:0:0:
329,192,46942,1,0,0:0:0:0:
256,192,47000,1,0,0:0:0:0:
182,192,47058,1,0,0:0:0:0:
36,192,47115,1,0,0:0:0:60:LR_TomR1.wav
329,192,47173,1,0,0:0:0:0:
402,192,47173,1,0,0:0:0:0:
329,192,47346,1,0,0:0:0:0:
109,192,47404,1,0,0:0:0:60:lowkick.wav
182,192,47404,1,0,0:0:0:0:
329,192,47481,1,0,0:0:0:0:
402,192,47548,1,0,0:0:0:0:
36,192,47635,1,0,0:0:0:60:lowkick.wav
109,192,47635,1,0,0:0:0:0:
182,192,47635,1,0,0:0:0:0:
109,192,47808,1,0,0:0:0:0:
182,192,47808,1,0,0:0:0:0:
475,192,47865,1,0,0:0:0:60:LR_TomR1.wav
109,192,48039,1,0,0:0:0:0:
182,192,48039,1,0,0:0:0:0:
475,192,48096,1,0,0:0:0:60:LR_TomR1.wav
402,192,48154,1,0,0:0:0:0:
329,192,48212,1,0,0:0:0:0:
256,192,48269,1,0,0:0:0:0:
109,192,48327,1,0,0:0:0:0:
182,192,48327,1,0,0:0:0:0:
36,192,48385,1,0,0:0:0:0:
329,192,48442,1,0,0:0:0:0:
402,192,48442,1,0,0:0:0:0:
182,192,48500,1,0,0:0:0:0:
109,192,48558,1,0,0:0:0:60:SNARE ugh2.wav
256,192,48558,1,0,0:0:0:0:
475,192,48558,1,0,0:0:0:0:
329,192,48615,1,0,0:0:0:0:
402,192,48673,1,0,0:0:0:0:
36,192,48731,1,0,0:0:0:0:
182,192,48789,1,0,0:0:0:0:
256,192,48846,1,0,0:0:0:0:
329,192,48904,1,0,0:0:0:0:
475,192,48962,1,0,0:0:0:60:LR_TomR1.wav
109,192,49019,1,0,0:0:0:0:
182,192,49019,1,0,0:0:0:0:
182,192,49192,1,0,0:0:0:0:
329,192,49250,1,0,0:0:0:60:lowkick.wav
402,192,49250,1,0,0:0:0:0:
182,192,49327,1,0,0:0:0:0:
109,192,49394,1,0,0:0:0:0:
329,192,49481,1,0,0:0:0:60:lowkick.wav
402,192,49481,1,0,0:0:0:0:
475,192,49481,1,0,0:0:0:0:
329,192,49654,1,0,0:0:0:0:
402,192,49654,1,0,0:0:0:0:
36,192,49712,1,0,0:0:0:60:LR_TomR1.wav
329,192,49885,1,0,0:0:0:0:
402,192,49885,1,0,0:0:0:0:
36,192,49942,1,0,0:0:0:60:LR_TomR1.wav
109,192,50000,1,0,0:0:0:0:
182,192,50058,1,0,0:0:0:0:
256,192,50115,1,0,0:0:0:0:
329,192,50173,1,0,0:0:0:0:
402,192,50173,1,0,0:0:0:0:
109,192,50289,1,0,0:0:0:0:
182,192,50289,1,0,0:0:0:0:
475,192,50289,1,0,0:0:0:0:
329,192,50346,1,0,0:0:0:0:
36,192,50404,1,0,0:0:0:60:SNARE ugh2.wav
256,192,50404,1,0,0:0:0:0:
402,192,50404,1,0,0:0:0:0:
182,192,50462,1,0,0:0:0:0:
109,192,50519,1,0,0:0:0:0:
475,192,50577,1,0,0:0:0:0:
329,192,50635,1,0,0:0:0:0:
256,192,50692,1,0,0:0:0:0:
182,192,50750,1,0,0:0:0:0:
36,192,50808,1,0,0:0:0:60:LR_TomR1.wav
329,192,50865,1,0,0:0:0:0:
402,192,50865,1,0,0:0:0:0:
329,192,51039,1,0,0:0:0:0:
109,192,51096,1,0,0:0:0:60:lowkick.wav
182,192,51096,1,0,0:0:0:0:
329,192,51173,1,0,0:0:0:0:
402,192,51240,1,0,0:0:0:0:
36,192,51327,1,0,0:0:0:60:lowkick.wav
109,192,51327,1,0,0:0:0:0:
182,192,51327,1,0,0:0:0:0:
109,192,51500,1,0,0:0:0:0:
182,192,51500,1,0,0:0:0:0:
475,192,51558,1,0,0:0:0:60:LR_TomR1.wav
109,192,51731,1,0,0:0:0:0:
182,192,51731,1,0,0:0:0:0:
475,192,51789,1,0,0:0:0:60:LR_TomR1.wav
402,192,51846,1,0,0:0:0:0:
329,192,51904,1,0,0:0:0:0:
256,192,51962,1,0,0:0:0:0:
109,192,52019,1,0,0:0:0:0:
182,192,52019,1,0,0:0:0:0:
36,192,52077,1,0,0:0:0:0:
329,192,52135,1,0,0:0:0:0:
402,192,52135,1,0,0:0:0:0:
182,192,52192,1,0,0:0:0:0:
109,192,52250,1,0,0:0:0:60:SNARE ugh2.wav
256,192,52250,1,0,0:0:0:0:
475,192,52250,1,0,0:0:0:0:
329,192,52308,1,0,0:0:0:0:
402,192,52365,1,0,0:0:0:0:
36,192,52423,1,0,0:0:0:0:
182,192,52481,1,0,0:0:0:0:
256,192,52539,1,0,0:0:0:0:
329,192,52596,1,0,0:0:0:0:
475,192,52654,1,0,0:0:0:60:LR_TomR1.wav
109,192,52712,1,0,0:0:0:0:
182,192,52712,1,0,0:0:0:0:
182,192,52885,1,0,0:0:0:0:
329,192,52942,1,0,0:0:0:60:lowkick.wav
402,192,52942,1,0,0:0:0:0:
182,192,53019,1,0,0:0:0:0:
109,192,53087,1,0,0:0:0:0:
36,192,53173,1,0,0:0:0:60:lowkick.wav
256,192,53173,1,0,0:0:0:60:LR_CymbalG.wav
402,192,53173,1,0,0:0:0:0:
475,192,53173,1,0,0:0:0:0:
402,192,53346,1,0,0:0:0:0:
475,192,53346,1,0,0:0:0:0:
402,192,53577,1,0,0:0:0:0:
475,192,53577,1,0,0:0:0:0:
36,192,53635,1,0,0:0:0:60:LR_TomR1.wav
109,192,53692,1,0,0:0:0:0:
182,192,53750,1,0,0:0:0:0:
256,192,53808,1,0,0:0:0:0:
402,192,53865,1,0,0:0:0:0:
475,192,53865,1,0,0:0:0:0:
329,192,53923,1,0,0:0:0:0:
36,192,53981,1,0,0:0:0:0:
109,192,53981,1,0,0:0:0:0:
475,192,54039,1,0,0:0:0:0:
182,192,54096,1,0,0:0:0:60:SNARE ugh2.wav
256,192,54096,1,0,0:0:0:0:
402,192,54096,1,0,0:0:0:0:
109,192,54154,1,0,0:0:0:0:
36,192,54212,1,0,0:0:0:0:
475,192,54269,1,0,0:0:0:0:
329,192,54327,1,0,0:0:0:0:
256,192,54385,1,0,0:0:0:0:
182,192,54442,1,0,0:0:0:0:
36,192,54500,1,0,0:0:0:60:LR_TomR1.wav
402,192,54558,1,0,0:0:0:0:
475,192,54558,1,0,0:0:0:0:
402,192,54731,1,0,0:0:0:0:
36,192,54789,1,0,0:0:0:60:lowkick.wav
109,192,54789,1,0,0:0:0:0:
402,192,54865,1,0,0:0:0:0:
329,192,54933,1,0,0:0:0:0:
36,192,55019,1,0,0:0:0:60:lowkick.wav
109,192,55019,1,0,0:0:0:0:
182,192,55019,1,0,0:0:0:0:
36,192,55192,1,0,0:0:0:0:
109,192,55192,1,0,0:0:0:0:
475,192,55250,1,0,0:0:0:60:LR_TomR1.wav
36,192,55423,1,0,0:0:0:0:
109,192,55423,1,0,0:0:0:0:
475,192,55481,1,0,0:0:0:60:LR_TomR1.wav
402,192,55539,1,0,0:0:0:0:
329,192,55596,1,0,0:0:0:0:
256,192,55654,1,0,0:0:0:0:
36,192,55712,1,0,0:0:0:0:
109,192,55712,1,0,0:0:0:0:
182,192,55769,1,0,0:0:0:0:
402,192,55827,1,0,0:0:0:0:
475,192,55827,1,0,0:0:0:0:
36,192,55885,1,0,0:0:0:0:
109,192,55942,1,0,0:0:0:60:SNARE ugh2.wav
256,192,55942,1,0,0:0:0:0:
329,192,55942,1,0,0:0:0:0:
402,192,56000,1,0,0:0:0:0:
475,192,56058,1,0,0:0:0:0:
36,192,56115,1,0,0:0:0:0:
182,192,56173,1,0,0:0:0:0:
256,192,56231,1,0,0:0:0:0:
329,192,56289,1,0,0:0:0:0:
475,192,56346,1,0,0:0:0:60:LR_TomR1.wav
36,192,56404,1,0,0:0:0:0:
109,192,56404,1,0,0:0:0:0:
109,192,56577,1,0,0:0:0:0:
402,192,56635,1,0,0:0:0:60:lowkick.wav
475,192,56635,1,0,0:0:0:0:
109,192,56712,1,0,0:0:0:0:
182,192,56779,1,0,0:0:0:0:
329,192,56865,1,0,0:0:0:60:lowkick.wav
402,192,56865,1,0,0:0:0:0:
475,192,56865,1,0,0:0:0:0:
402,192,57039,1,0,0:0:0:0:
475,192,57039,1,0,0:0:0:0:
36,192,57096,1,0,0:0:0:60:LR_TomR1.wav
402,192,57269,1,0,0:0:0:0:
475,192,57269,1,0,0:0:0:0:
36,192,57327,1,0,0:0:0:60:LR_TomR1.wav
109,192,57385,1,0,0:0:0:0:
182,192,57442,1,0,0:0:0:0:
256,192,57500,1,0,0:0:0:0:
402,192,57558,1,0,0:0:0:0:
475,192,57558,1,0,0:0:0:0:
329,192,57615,1,0,0:0:0:0:
36,192,57673,1,0,0:0:0:0:
109,192,57673,1,0,0:0:0:0:
475,192,57731,1,0,0:0:0:0:
182,192,57789,1,0,0:0:0:60:SNARE ugh2.wav
256,192,57789,1,0,0:0:0:0:
402,192,57789,1,0,0:0:0:0:
109,192,57846,1,0,0:0:0:0:
36,192,57904,1,0,0:0:0:0:
475,192,57962,1,0,0:0:0:0:
329,192,58019,1,0,0:0:0:0:
256,192,58077,1,0,0:0:0:0:
182,192,58135,1,0,0:0:0:0:
36,192,58192,1,0,0:0:0:60:LR_TomR1.wav
402,192,58250,1,0,0:0:0:0:
475,192,58250,1,0,0:0:0:0:
402,192,58423,1,0,0:0:0:0:
36,192,58481,1,0,0:0:0:60:lowkick.wav
109,192,58481,1,0,0:0:0:0:
402,192,58558,1,0,0:0:0:0:
329,192,58625,1,0,0:0:0:0:
36,192,58712,1,0,0:0:0:60:lowkick.wav
109,192,58712,1,0,0:0:0:0:
182,192,58712,1,0,0:0:0:0:
36,192,58885,1,0,0:0:0:0:
109,192,58885,1,0,0:0:0:0:
475,192,58942,1,0,0:0:0:60:LR_TomR1.wav
36,192,59115,1,0,0:0:0:0:
109,192,59115,1,0,0:0:0:0:
475,192,59173,1,0,0:0:0:60:LR_TomR1.wav
402,192,59231,1,0,0:0:0:0:
329,192,59289,1,0,0:0:0:0:
256,192,59346,1,0,0:0:0:0:
36,192,59404,1,0,0:0:0:0:
109,192,59404,1,0,0:0:0:0:
182,192,59462,1,0,0:0:0:0:
402,192,59519,1,0,0:0:0:0:
475,192,59519,1,0,0:0:0:0:
36,192,59577,1,0,0:0:0:0:
109,192,59635,1,0,0:0:0:60:SNARE ugh2.wav
256,192,59635,1,0,0:0:0:0:
329,192,59635,1,0,0:0:0:0:
402,192,59692,1,0,0:0:0:0:
475,192,59750,1,0,0:0:0:0:
36,192,59808,1,0,0:0:0:0:
182,192,59865,1,0,0:0:0:0:
256,192,59923,1,0,0:0:0:0:
329,192,59981,1,0,0:0:0:0:
475,192,60039,1,0,0:0:0:60:LR_TomR1.wav
36,192,60096,1,0,0:0:0:0:
109,192,60096,1,0,0:0:0:0:
109,192,60269,1,0,0:0:0:0:
402,192,60327,1,0,0:0:0:60:lowkick.wav
475,192,60327,1,0,0:0:0:0:
109,192,60404,1,0,0:0:0:0:
182,192,60471,1,0,0:0:0:0:
36,192,60558,1,0,0:0:0:60:lowkick.wav
256,192,60558,1,0,0:0:0:60:LR_CymbalG.wav
329,192,60558,1,0,0:0:0:0:
402,192,60558,1,0,0:0:0:0:
329,192,60731,1,0,0:0:0:0:
402,192,60731,1,0,0:0:0:0:
109,192,60904,1,0,0:0:0:60:SNARE ugh.wav
475,192,60904,1,0,0:0:0:0:
329,192,60962,1,0,0:0:0:0:
402,192,60962,1,0,0:0:0:0:
36,192,61019,1,0,0:0:0:0:
182,192,61077,1,0,0:0:0:0:
256,192,61135,1,0,0:0:0:0:
475,192,61192,1,0,0:0:0:0:
329,192,61250,1,0,0:0:0:0:
402,192,61250,1,0,0:0:0:0:
109,192,61365,1,0,0:0:0:0:
182,192,61365,1,0,0:0:0:0:
36,192,61481,1,0,0:0:0:60:SNARE ugh2.wav
256,192,61481,1,0,0:0:0:0:
402,192,61481,1,0,0:0:0:0:
109,192,61539,1,0,0:0:0:0:
182,192,61596,1,0,0:0:0:0:
475,192,61654,1,0,0:0:0:0:
329,192,61712,1,0,0:0:0:0:
256,192,61769,1,0,0:0:0:0:
109,192,61827,1,0,0:0:0:0:
36,192,61885,1,0,0:0:0:60:LR_TomR1.wav
329,192,61942,1,0,0:0:0:0:
402,192,61942,1,0,0:0:0:0:
329,192,62115,1,0,0:0:0:0:
109,192,62173,1,0,0:0:0:60:lowkick.wav
182,192,62173,1,0,0:0:0:0:
329,192,62250,1,0,0:0:0:0:
402,192,62317,1,0,0:0:0:0:
36,192,62404,1,0,0:0:0:60:lowkick.wav
109,192,62404,1,0,0:0:0:0:
182,192,62404,1,0,0:0:0:0:
109,192,62577,1,0,0:0:0:0:
182,192,62577,1,0,0:0:0:0:
36,192,62750,1,0,0:0:0:60:SNARE ugh.wav
402,192,62750,1,0,0:0:0:0:
109,192,62808,1,0,0:0:0:0:
182,192,62808,1,0,0:0:0:0:
475,192,62865,1,0,0:0:0:0:
329,192,62923,1,0,0:0:0:0:
256,192,62981,1,0,0:0:0:0:
36,192,63039,1,0,0:0:0:0:
109,192,63096,1,0,0:0:0:0:
182,192,63096,1,0,0:0:0:0:
329,192,63212,1,0,0:0:0:0:
402,192,63212,1,0,0:0:0:0:
109,192,63327,1,0,0:0:0:60:SNARE ugh2.wav
256,192,63327,1,0,0:0:0:0:
475,192,63327,1,0,0:0:0:0:
402,192,63385,1,0,0:0:0:0:
329,192,63442,1,0,0:0:0:0:
36,192,63500,1,0,0:0:0:0:
182,192,63558,1,0,0:0:0:0:
256,192,63615,1,0,0:0:0:0:
402,192,63673,1,0,0:0:0:0:
475,192,63731,1,0,0:0:0:60:LR_TomR1.wav
109,192,63789,1,0,0:0:0:0:
182,192,63789,1,0,0:0:0:0:
182,192,63962,1,0,0:0:0:0:
329,192,64019,1,0,0:0:0:60:lowkick.wav
402,192,64019,1,0,0:0:0:0:
182,192,64096,1,0,0:0:0:0:
109,192,64164,1,0,0:0:0:0:
329,192,64250,1,0,0:0:0:60:lowkick.wav
402,192,64250,1,0,0:0:0:0:
475,192,64250,1,0,0:0:0:0:
329,192,64423,1,0,0:0:0:0:
402,192,64423,1,0,0:0:0:0:
109,192,64596,1,0,0:0:0:60:SNARE ugh.wav
475,192,64596,1,0,0:0:0:0:
329,192,64654,1,0,0:0:0:0:
402,192,64654,1,0,0:0:0:0:
36,192,64712,1,0,0:0:0:0:
182,192,64769,1,0,0:0:0:0:
256,192,64827,1,0,0:0:0:0:
475,192,64885,1,0,0:0:0:0:
329,192,64942,1,0,0:0:0:0:
402,192,64942,1,0,0:0:0:0:
109,192,65058,1,0,0:0:0:0:
182,192,65058,1,0,0:0:0:0:
36,192,65173,1,0,0:0:0:60:SNARE ugh2.wav
256,192,65173,1,0,0:0:0:0:
402,192,65173,1,0,0:0:0:0:
109,192,65231,1,0,0:0:0:0:
182,192,65289,1,0,0:0:0:0:
475,192,65346,1,0,0:0:0:0:
329,192,65404,1,0,0:0:0:0:
256,192,65462,1,0,0:0:0:0:
109,192,65519,1,0,0:0:0:0:
36,192,65577,1,0,0:0:0:60:LR_TomR1.wav
329,192,65635,1,0,0:0:0:0:
402,192,65635,1,0,0:0:0:0:
329,192,65808,1,0,0:0:0:0:
109,192,65865,1,0,0:0:0:60:lowkick.wav
182,192,65865,1,0,0:0:0:0:
329,192,65942,1,0,0:0:0:0:
402,192,66010,1,0,0:0:0:0:
36,192,66096,1,0,0:0:0:60:lowkick.wav
109,192,66096,1,0,0:0:0:0:
182,192,66096,1,0,0:0:0:0:
109,192,66269,1,0,0:0:0:0:
182,192,66269,1,0,0:0:0:0:
36,192,66442,1,0,0:0:0:60:SNARE ugh.wav
402,192,66442,1,0,0:0:0:0:
109,192,66500,1,0,0:0:0:0:
182,192,66500,1,0,0:0:0:0:
475,192,66558,1,0,0:0:0:0:
329,192,66615,1,0,0:0:0:0:
256,192,66673,1,0,0:0:0:0:
36,192,66731,1,0,0:0:0:0:
109,192,66789,1,0,0:0:0:0:
182,192,66789,1,0,0:0:0:0:
329,192,66904,1,0,0:0:0:0:
402,192,66904,1,0,0:0:0:0:
109,192,67019,1,0,0:0:0:60:SNARE ugh2.wav
256,192,67019,1,0,0:0:0:0:
475,192,67019,1,0,0:0:0:0:
402,192,67077,1,0,0:0:0:0:
329,192,67135,1,0,0:0:0:0:
36,192,67192,1,0,0:0:0:0:
182,192,67250,1,0,0:0:0:0:
256,192,67308,1,0,0:0:0:0:
402,192,67365,1,0,0:0:0:0:
475,192,67423,1,0,0:0:0:0:
109,192,67481,1,0,0:0:0:0:
182,192,67481,1,0,0:0:0:0:
36,192,67596,1,0,0:0:0:60:SNARE ugh2.wav
182,192,67654,1,0,0:0:0:0:
329,192,67712,1,0,0:0:0:60:lowkick.wav
402,192,67712,1,0,0:0:0:0:
182,192,67789,1,0,0:0:0:0:
109,192,67856,1,0,0:0:0:0:
36,192,67942,1,0,0:0:0:60:lowkick.wav
256,192,67942,1,0,0:0:0:60:LR_CymbalG.wav
402,192,67942,1,0,0:0:0:0:
475,192,67942,1,0,0:0:0:0:
402,192,68115,1,0,0:0:0:0:
475,192,68115,1,0,0:0:0:0:
109,192,68289,1,0,0:0:0:60:SNARE ugh.wav
329,192,68289,1,0,0:0:0:0:
402,192,68346,1,0,0:0:0:0:
475,192,68346,1,0,0:0:0:0:
36,192,68404,1,0,0:0:0:0:
182,192,68462,1,0,0:0:0:0:
256,192,68519,1,0,0:0:0:0:
329,192,68577,1,0,0:0:0:0:
402,192,68635,1,0,0:0:0:0:
475,192,68635,1,0,0:0:0:0:
36,192,68750,1,0,0:0:0:0:
109,192,68750,1,0,0:0:0:0:
256,192,68865,1,0,0:0:0:60:SNARE ugh2.wav
329,192,68865,1,0,0:0:0:0:
475,192,68865,1,0,0:0:0:0:
109,192,68923,1,0,0:0:0:0:
182,192,68981,1,0,0:0:0:0:
402,192,69039,1,0,0:0:0:0:
329,192,69096,1,0,0:0:0:0:
256,192,69154,1,0,0:0:0:0:
109,192,69212,1,0,0:0:0:0:
36,192,69269,1,0,0:0:0:60:LR_TomR1.wav
402,192,69327,1,0,0:0:0:0:
475,192,69327,1,0,0:0:0:0:
402,192,69500,1,0,0:0:0:0:
109,192,69558,1,0,0:0:0:60:lowkick.wav
182,192,69558,1,0,0:0:0:0:
402,192,69635,1,0,0:0:0:0:
329,192,69702,1,0,0:0:0:0:
36,192,69789,1,0,0:0:0:60:lowkick.wav
109,192,69789,1,0,0:0:0:0:
182,192,69789,1,0,0:0:0:0:
36,192,69962,1,0,0:0:0:0:
109,192,69962,1,0,0:0:0:0:
182,192,70135,1,0,0:0:0:60:SNARE ugh.wav
402,192,70135,1,0,0:0:0:0:
36,192,70192,1,0,0:0:0:0:
109,192,70192,1,0,0:0:0:0:
475,192,70250,1,0,0:0:0:0:
329,192,70308,1,0,0:0:0:0:
256,192,70365,1,0,0:0:0:0:
182,192,70423,1,0,0:0:0:0:
36,192,70481,1,0,0:0:0:0:
109,192,70481,1,0,0:0:0:0:
402,192,70596,1,0,0:0:0:0:
475,192,70596,1,0,0:0:0:0:
36,192,70712,1,0,0:0:0:60:SNARE ugh2.wav
182,192,70712,1,0,0:0:0:0:
256,192,70712,1,0,0:0:0:0:
402,192,70769,1,0,0:0:0:0:
329,192,70827,1,0,0:0:0:0:
109,192,70885,1,0,0:0:0:0:
182,192,70942,1,0,0:0:0:0:
256,192,71000,1,0,0:0:0:0:
402,192,71058,1,0,0:0:0:0:
475,192,71115,1,0,0:0:0:60:LR_TomR1.wav
36,192,71173,1,0,0:0:0:0:
109,192,71173,1,0,0:0:0:0:
109,192,71346,1,0,0:0:0:0:
329,192,71404,1,0,0:0:0:60:lowkick.wav
402,192,71404,1,0,0:0:0:0:
109,192,71481,1,0,0:0:0:0:
182,192,71548,1,0,0:0:0:0:
329,192,71635,1,0,0:0:0:60:lowkick.wav
402,192,71635,1,0,0:0:0:0:
475,192,71635,1,0,0:0:0:0:
402,192,71808,1,0,0:0:0:0:
475,192,71808,1,0,0:0:0:0:
109,192,71981,1,0,0:0:0:60:SNARE ugh.wav
329,192,71981,1,0,0:0:0:0:
402,192,72039,1,0,0:0:0:0:
475,192,72039,1,0,0:0:0:0:
36,192,72096,1,0,0:0:0:0:
182,192,72154,1,0,0:0:0:0:
256,192,72212,1,0,0:0:0:0:
329,192,72269,1,0,0:0:0:0:
402,192,72327,1,0,0:0:0:0:
475,192,72327,1,0,0:0:0:0:
36,192,72442,1,0,0:0:0:0:
109,192,72442,1,0,0:0:0:0:
256,192,72558,1,0,0:0:0:60:SNARE ugh2.wav
329,192,72558,1,0,0:0:0:0:
475,192,72558,1,0,0:0:0:0:
109,192,72615,1,0,0:0:0:0:
182,192,72673,1,0,0:0:0:0:
402,192,72731,1,0,0:0:0:0:
329,192,72789,1,0,0:0:0:0:
256,192,72846,1,0,0:0:0:0:
109,192,72904,1,0,0:0:0:0:
36,192,72962,1,0,0:0:0:60:LR_TomR1.wav
402,192,73019,1,0,0:0:0:0:
475,192,73019,1,0,0:0:0:0:
402,192,73192,1,0,0:0:0:0:
109,192,73250,1,0,0:0:0:60:lowkick.wav
182,192,73250,1,0,0:0:0:0:
402,192,73327,1,0,0:0:0:0:
329,192,73394,1,0,0:0:0:0:
36,192,73481,1,0,0:0:0:60:lowkick.wav
109,192,73481,1,0,0:0:0:0:
182,192,73481,1,0,0:0:0:0:
36,192,73654,1,0,0:0:0:0:
109,192,73654,1,0,0:0:0:0:
182,192,73827,1,0,0:0:0:60:SNARE ugh.wav
402,192,73827,1,0,0:0:0:0:
36,192,73885,1,0,0:0:0:0:
109,192,73885,1,0,0:0:0:0:
475,192,73942,1,0,0:0:0:0:
329,192,74000,1,0,0:0:0:0:
256,192,74058,1,0,0:0:0:0:
182,192,74115,1,0,0:0:0:0:
36,192,74173,1,0,0:0:0:0:
109,192,74173,1,0,0:0:0:0:
402,192,74289,1,0,0:0:0:0:
475,192,74289,1,0,0:0:0:0:
36,192,74404,1,0,0:0:0:60:SNARE ugh2.wav
182,192,74404,1,0,0:0:0:0:
256,192,74404,1,0,0:0:0:0:
402,192,74462,1,0,0:0:0:0:
329,192,74519,1,0,0:0:0:0:
109,192,74577,1,0,0:0:0:0:
182,192,74635,1,0,0:0:0:0:
256,192,74692,1,0,0:0:0:0:
402,192,74750,1,0,0:0:0:0:
475,192,74808,1,0,0:0:0:60:LR_TomR1.wav
36,192,74865,1,0,0:0:0:0:
109,192,74865,1,0,0:0:0:0:
109,192,75039,1,0,0:0:0:0:
329,192,75096,1,0,0:0:0:60:lowkick.wav
402,192,75096,1,0,0:0:0:0:
109,192,75173,1,0,0:0:0:0:
182,192,75240,1,0,0:0:0:0:
256,192,75327,128,0,77173:0:0:0:0:
182,192,79712,128,0,80981:0:0:0:0:
182,192,81096,128,0,81327:0:0:0:0:
109,192,81327,128,0,81558:0:0:0:0:
329,192,81789,128,0,82250:0:0:0:0:
402,192,82596,128,0,82712:0:0:0:0:
36,192,82712,1,0,0:0:0:60:lowkick.wav
256,192,82712,1,0,0:0:0:0:
329,192,82712,1,0,0:0:0:0:
475,192,82712,1,0,0:0:0:0:
402,192,83058,1,0,0:0:0:60:SNARE ugh.wav
475,192,83058,1,0,0:0:0:0:
329,192,83115,1,0,0:0:0:0:
36,192,83173,1,0,0:0:0:0:
109,192,83231,1,0,0:0:0:0:
182,192,83289,1,0,0:0:0:0:
256,192,83346,1,0,0:0:0:0:
329,192,83404,1,0,0:0:0:60:SNARE ugh.wav
475,192,83404,1,0,0:0:0:0:
402,192,83462,1,0,0:0:0:0:
109,192,83519,1,0,0:0:0:0:
36,192,83577,1,0,0:0:0:0:
256,192,83635,1,0,0:0:0:0:
182,192,83692,1,0,0:0:0:0:
109,192,83750,1,0,0:0:0:60:SNARE ugh.wav
402,192,83750,1,0,0:0:0:0:
475,192,83750,1,0,0:0:0:0:
36,192,83808,1,0,0:0:0:0:
329,192,83865,1,0,0:0:0:0:
256,192,83923,1,0,0:0:0:0:
182,192,83981,1,0,0:0:0:0:
36,192,84039,1,0,0:0:0:0:
402,192,84096,1,0,0:0:0:0:
402,192,84269,1,0,0:0:0:0:
36,192,84327,1,0,0:0:0:60:lowkick.wav
109,192,84327,1,0,0:0:0:60:SNARE ugh2.wav
329,192,84327,1,0,0:0:0:0:
182,192,84404,1,0,0:0:0:0:
329,192,84471,1,0,0:0:0:0:
182,192,84519,1,0,0:0:0:0:
36,192,84558,1,0,0:0:0:60:lowkick.wav
256,192,84558,1,0,0:0:0:0:
402,192,84558,1,0,0:0:0:0:
475,192,84558,1,0,0:0:0:0:
36,192,84904,1,0,0:0:0:60:SNARE ugh.wav
109,192,84904,1,0,0:0:0:0:
182,192,84962,1,0,0:0:0:0:
475,192,85019,1,0,0:0:0:0:
402,192,85077,1,0,0:0:0:0:
329,192,85135,1,0,0:0:0:0:
256,192,85192,1,0,0:0:0:0:
36,192,85250,1,0,0:0:0:60:SNARE ugh.wav
182,192,85250,1,0,0:0:0:0:
109,192,85308,1,0,0:0:0:0:
402,192,85365,1,0,0:0:0:0:
475,192,85423,1,0,0:0:0:0:
256,192,85481,1,0,0:0:0:0:
329,192,85539,1,0,0:0:0:0:
36,192,85596,1,0,0:0:0:60:SNARE ugh.wav
109,192,85596,1,0,0:0:0:0:
402,192,85596,1,0,0:0:0:0:
475,192,85654,1,0,0:0:0:0:
182,192,85712,1,0,0:0:0:0:
256,192,85769,1,0,0:0:0:0:
329,192,85827,1,0,0:0:0:0:
475,192,85885,1,0,0:0:0:0:
109,192,85942,1,0,0:0:0:0:
109,192,86115,1,0,0:0:0:0:
182,192,86173,1,0,0:0:0:60:lowkick.wav
402,192,86173,1,0,0:0:0:60:SNARE ugh2.wav
475,192,86173,1,0,0:0:0:0:
329,192,86250,1,0,0:0:0:0:
182,192,86317,1,0,0:0:0:0:
329,192,86365,1,0,0:0:0:0:
36,192,86404,1,0,0:0:0:60:lowkick.wav
109,192,86404,1,0,0:0:0:0:
256,192,86404,1,0,0:0:0:0:
475,192,86404,1,0,0:0:0:0:
402,192,86750,1,0,0:0:0:60:SNARE ugh.wav
475,192,86750,1,0,0:0:0:0:
329,192,86808,1,0,0:0:0:0:
36,192,86865,1,0,0:0:0:0:
109,192,86923,1,0,0:0:0:0:
182,192,86981,1,0,0:0:0:0:
256,192,87039,1,0,0:0:0:0:
329,192,87096,1,0,0:0:0:60:SNARE ugh.wav
475,192,87096,1,0,0:0:0:0:
402,192,87154,1,0,0:0:0:0:
109,192,87212,1,0,0:0:0:0:
36,192,87269,1,0,0:0:0:0:
256,192,87327,1,0,0:0:0:0:
182,192,87385,1,0,0:0:0:0:
109,192,87442,1,0,0:0:0:60:SNARE ugh.wav
402,192,87442,1,0,0:0:0:0:
475,192,87442,1,0,0:0:0:0:
36,192,87500,1,0,0:0:0:0:
329,192,87558,1,0,0:0:0:0:
256,192,87615,1,0,0:0:0:0:
182,192,87673,1,0,0:0:0:0:
36,192,87731,1,0,0:0:0:0:
402,192,87789,1,0,0:0:0:0:
402,192,87962,1,0,0:0:0:0:
36,192,88019,1,0,0:0:0:60:lowkick.wav
109,192,88019,1,0,0:0:0:60:SNARE ugh2.wav
329,192,88019,1,0,0:0:0:0:
182,192,88096,1,0,0:0:0:0:
329,192,88164,1,0,0:0:0:0:
182,192,88212,1,0,0:0:0:0:
36,192,88250,1,0,0:0:0:60:lowkick.wav
256,192,88250,1,0,0:0:0:0:
402,192,88250,1,0,0:0:0:0:
475,192,88250,1,0,0:0:0:0:
36,192,88596,1,0,0:0:0:60:SNARE ugh.wav
109,192,88596,1,0,0:0:0:0:
182,192,88654,1,0,0:0:0:0:
475,192,88712,1,0,0:0:0:0:
402,192,88769,1,0,0:0:0:0:
329,192,88827,1,0,0:0:0:0:
256,192,88885,1,0,0:0:0:0:
36,192,88942,1,0,0:0:0:60:SNARE ugh.wav
182,192,88942,1,0,0:0:0:0:
109,192,89000,1,0,0:0:0:0:
402,192,89058,1,0,0:0:0:0:
475,192,89115,1,0,0:0:0:0:
256,192,89173,1,0,0:0:0:0:
329,192,89231,1,0,0:0:0:0:
36,192,89289,1,0,0:0:0:60:SNARE ugh.wav
109,192,89289,1,0,0:0:0:0:
402,192,89289,1,0,0:0:0:0:
475,192,89346,1,0,0:0:0:0:
182,192,89404,1,0,0:0:0:0:
256,192,89462,1,0,0:0:0:0:
329,192,89519,1,0,0:0:0:0:
475,192,89577,1,0,0:0:0:0:
109,192,89635,1,0,0:0:0:0:
109,192,89808,1,0,0:0:0:0:
402,192,89865,1,0,0:0:0:60:lowkick.wav
475,192,89865,1,0,0:0:0:60:SNARE ugh2.wav
475,192,90240,1,0,0:0:0:0:
402,192,90269,1,0,0:0:0:0:
36,192,90817,1,0,0:0:0:0:
109,192,90846,1,0,0:0:0:0:
36,192,91164,1,0,0:0:0:0:
109,192,91192,1,0,0:0:0:0:
36,192,91510,1,0,0:0:0:0:
109,192,91539,1,0,0:0:0:0:
475,192,92087,1,0,0:0:0:0:
402,192,92115,1,0,0:0:0:0:
36,192,92664,1,0,0:0:0:0:
109,192,92692,1,0,0:0:0:0:
36,192,93010,1,0,0:0:0:0:
109,192,93039,1,0,0:0:0:0:
36,192,93356,1,0,0:0:0:0:
109,192,93385,1,0,0:0:0:0:
475,192,93933,1,0,0:0:0:0:
402,192,93962,1,0,0:0:0:0:
36,192,94510,1,0,0:0:0:0:
109,192,94539,1,0,0:0:0:0:
36,192,94856,1,0,0:0:0:0:
109,192,94885,1,0,0:0:0:0:
36,192,95202,1,0,0:0:0:0:
109,192,95231,1,0,0:0:0:0:
475,192,95779,1,0,0:0:0:0:
402,192,95808,1,0,0:0:0:0:
36,192,96356,1,0,0:0:0:0:
109,192,96385,1,0,0:0:0:0:
36,192,96702,1,0,0:0:0:0:
109,192,96731,1,0,0:0:0:0:
36,192,97048,1,0,0:0:0:0:
109,192,97077,1,0,0:0:0:0:
36,192,97481,1,0,0:0:0:60:lowkick.wav
256,192,97481,1,0,0:0:0:60:LR_CymbalG.wav
475,192,97481,1,0,0:0:0:0:
109,192,97635,1,0,0:0:0:60:tom01.wav
329,192,97635,1,0,0:0:0:0:
402,192,97635,1,0,0:0:0:0:
109,192,97789,1,0,0:0:0:60:tom02.wav
182,192,97789,1,0,0:0:0:0:
329,192,97789,1,0,0:0:0:0:
36,192,97942,1,0,0:0:0:60:lowkick.wav
256,192,97942,1,0,0:0:0:60:LR_Clap Low Drop.wav
402,192,97942,1,0,0:0:0:0:
475,192,97942,1,0,0:0:0:0:
36,192,98173,1,0,0:0:0:60:lowkick.wav
256,192,98173,1,0,0:0:0:60:LR_Clap Low Drop.wav
402,192,98173,1,0,0:0:0:0:
475,192,98173,1,0,0:0:0:0:
36,192,98519,1,0,0:0:0:60:lowkick.wav
256,192,98519,1,0,0:0:0:60:LR_Clap Low Drop.wav
402,192,98519,1,0,0:0:0:0:
475,192,98519,1,0,0:0:0:0:
36,192,98865,1,0,0:0:0:60:lowkick.wav
256,192,98865,1,0,0:0:0:60:LR_Clap Low Drop.wav
402,192,98865,1,0,0:0:0:0:
475,192,98865,1,0,0:0:0:0:
329,192,99096,128,0,99327:0:0:0:60:lowkick.wav
36,192,99327,1,0,0:0:0:60:lowkick.wav
256,192,99327,1,0,0:0:0:60:LR_CymbalG.wav
475,192,99327,1,0,0:0:0:0:
109,192,99481,1,0,0:0:0:60:tom01.wav
182,192,99481,1,0,0:0:0:0:
402,192,99481,1,0,0:0:0:0:
182,192,99635,1,0,0:0:0:60:tom02.wav
329,192,99635,1,0,0:0:0:0:
402,192,99635,1,0,0:0:0:0:
36,192,99789,1,0,0:0:0:60:lowkick.wav
109,192,99789,1,0,0:0:0:60:LR_Clap Low Drop.wav
256,192,99789,1,0,0:0:0:0:
475,192,99789,1,0,0:0:0:0:
36,192,100019,1,0,0:0:0:60:lowkick.wav
109,192,100019,1,0,0:0:0:60:LR_Clap Low Drop.wav
256,192,100019,1,0,0:0:0:0:
475,192,100019,1,0,0:0:0:0:
36,192,100365,1,0,0:0:0:60:lowkick.wav
109,192,100365,1,0,0:0:0:60:LR_Clap Low Drop.wav
256,192,100365,1,0,0:0:0:0:
475,192,100365,1,0,0:0:0:0:
36,192,100712,1,0,0:0:0:60:lowkick.wav
109,192,100712,1,0,0:0:0:60:LR_Clap Low Drop.wav
256,192,100712,1,0,0:0:0:0:
475,192,100712,1,0,0:0:0:0:
182,192,100942,128,0,101173:0:0:0:0:
36,192,101173,1,0,0:0:0:60:lowkick.wav
256,192,101173,1,0,0:0:0:60:LR_CymbalG.wav
475,192,101173,1,0,0:0:0:0:
109,192,101327,1,0,0:0:0:60:tom01.wav
329,192,101327,1,0,0:0:0:0:
402,192,101327,1,0,0:0:0:0:
109,192,101481,1,0,0:0:0:60:tom02.wav
182,192,101481,1,0,0:0:0:0:
329,192,101481,1,0,0:0:0:0:
36,192,101635,1,0,0:0:0:60:lowkick.wav
256,192,101635,1,0,0:0:0:60:LR_Clap Low Drop.wav
402,192,101635,1,0,0:0:0:0:
475,192,101635,1,0,0:0:0:0:
36,192,101865,1,0,0:0:0:60:lowkick.wav
256,192,101865,1,0,0:0:0:60:LR_Clap Low Drop.wav
402,192,101865,1,0,0:0:0:0:
475,192,101865,1,0,0:0:0:0:
36,192,102212,1,0,0:0:0:60:lowkick.wav
256,192,102212,1,0,0:0:0:60:LR_Clap Low Drop.wav
402,192,102212,1,0,0:0:0:0:
475,192,102212,1,0,0:0:0:0:
36,192,102558,1,0,0:0:0:60:lowkick.wav
256,192,102558,1,0,0:0:0:60:LR_Clap Low Drop.wav
402,192,102558,1,0,0:0:0:0:
475,192,102558,1,0,0:0:0:0:
329,192,102789,128,0,103019:0:0:0:0:
36,192,103019,1,0,0:0:0:60:lowkick.wav
256,192,103019,1,0,0:0:0:60:LR_CymbalG.wav
475,192,103019,1,0,0:0:0:0:
109,192,103173,1,0,0:0:0:60:tom01.wav
182,192,103173,1,0,0:0:0:0:
402,192,103173,1,0,0:0:0:0:
109,192,103327,1,0,0:0:0:60:tom02.wav
329,192,103327,1,0,0:0:0:0:
402,192,103327,1,0,0:0:0:0:
36,192,103481,1,0,0:0:0:60:lowkick.wav
182,192,103481,1,0,0:0:0:60:LR_Clap Low Drop.wav
256,192,103481,1,0,0:0:0:0:
475,192,103481,1,0,0:0:0:0:
36,192,103712,1,0,0:0:0:60:lowkick.wav
182,192,103712,1,0,0:0:0:60:LR_Clap Low Drop.wav
256,192,103712,1,0,0:0:0:0:
475,192,103712,1,0,0:0:0:0:
36,192,104058,1,0,0:0:0:60:lowkick.wav
256,192,104058,1,0,0:0:0:60:LR_Clap Low Drop.wav
329,192,104058,1,0,0:0:0:0:
475,192,104058,1,0,0:0:0:0:
36,192,104404,1,0,0:0:0:60:lowkick.wav
256,192,104404,1,0,0:0:0:60:LR_Clap Low Drop.wav
329,192,104404,1,0,0:0:0:0:
475,192,104404,1,0,0:0:0:0:
109,192,104635,1,0,0:0:0:60:lowkick.wav
182,192,104635,128,0,104865:0:0:0:0:
329,192,104635,1,0,0:0:0:0:
475,192,104635,1,0,0:0:0:0:
36,192,104865,1,0,0:0:0:60:lowkick.wav
256,192,104865,1,0,0:0:0:60:LR_CymbalG.wav
475,192,104865,1,0,0:0:0:0:
109,192,105019,1,0,0:0:0:60:tom01.wav
329,192,105019,1,0,0:0:0:0:
402,192,105019,1,0,0:0:0:0:
109,192,105173,1,0,0:0:0:60:tom02.wav
182,192,105173,1,0,0:0:0:0:
329,192,105173,1,0,0:0:0:0:
36,192,105327,1,0,0:0:0:60:lowkick.wav
256,192,105327,1,0,0:0:0:60:LR_Clap Low Drop.wav
402,192,105327,1,0,0:0:0:0:
475,192,105327,1,0,0:0:0:0:
36,192,105558,1,0,0:0:0:60:lowkick.wav
256,192,105558,1,0,0:0:0:60:LR_Clap Low Drop.wav
402,192,105558,1,0,0:0:0:0:
475,192,105558,1,0,0:0:0:0:
36,192,105904,1,0,0:0:0:60:lowkick.wav
256,192,105904,1,0,0:0:0:60:LR_Clap Low Drop.wav
402,192,105904,1,0,0:0:0:0:
475,192,105904,1,0,0:0:0:0:
36,192,106250,1,0,0:0:0:60:lowkick.wav
256,192,106250,1,0,0:0:0:60:LR_Clap Low Drop.wav
402,192,106250,1,0,0:0:0:0:
475,192,106250,1,0,0:0:0:0:
329,192,106481,128,0,106712:0:0:0:0:
36,192,106712,1,0,0:0:0:60:lowkick.wav
256,192,106712,1,0,0:0:0:60:LR_CymbalG.wav
475,192,106712,1,0,0:0:0:0:
109,192,106865,1,0,0:0:0:60:tom01.wav
182,192,106865,1,0,0:0:0:0:
402,192,106865,1,0,0:0:0:0:
182,192,107019,1,0,0:0:0:60:tom02.wav
329,192,107019,1,0,0:0:0:0:
402,192,107019,1,0,0:0:0:0:
36,192,107173,1,0,0:0:0:60:lowkick.wav
109,192,107173,1,0,0:0:0:60:LR_Clap Low Drop.wav
256,192,107173,1,0,0:0:0:0:
475,192,107173,1,0,0:0:0:0:
36,192,107404,1,0,0:0:0:60:lowkick.wav
109,192,107404,1,0,0:0:0:60:LR_Clap Low Drop.wav
256,192,107404,1,0,0:0:0:0:
475,192,107404,1,0,0:0:0:0:
36,192,107750,1,0,0:0:0:60:lowkick.wav
109,192,107750,1,0,0:0:0:60:LR_Clap Low Drop.wav
256,192,107750,1,0,0:0:0:0:
475,192,107750,1,0,0:0:0:0:
36,192,108096,1,0,0:0:0:60:lowkick.wav
109,192,108096,1,0,0:0:0:60:LR_Clap Low Drop.wav
256,192,108096,1,0,0:0:0:0:
475,192,108096,1,0,0:0:0:0:
182,192,108327,128,0,108558:0:0:0:0:
36,192,108558,1,0,0:0:0:60:lowkick.wav
256,192,108558,1,0,0:0:0:60:LR_CymbalG.wav
475,192,108558,1,0,0:0:0:0:
109,192,108712,1,0,0:0:0:60:tom01.wav
329,192,108712,1,0,0:0:0:0:
402,192,108712,1,0,0:0:0:0:
109,192,108865,1,0,0:0:0:60:tom02.wav
182,192,108865,1,0,0:0:0:0:
329,192,108865,1,0,0:0:0:0:
36,192,109019,1,0,0:0:0:60:lowkick.wav
256,192,109019,1,0,0:0:0:60:LR_Clap Low Drop.wav
402,192,109019,1,0,0:0:0:0:
475,192,109019,1,0,0:0:0:0:
36,192,109250,1,0,0:0:0:60:lowkick.wav
256,192,109250,1,0,0:0:0:60:LR_Clap Low Drop.wav
402,192,109250,1,0,0:0:0:0:
475,192,109250,1,0,0:0:0:0:
36,192,109596,1,0,0:0:0:60:lowkick.wav
256,192,109596,1,0,0:0:0:60:LR_Clap Low Drop.wav
402,192,109596,1,0,0:0:0:0:
475,192,109596,1,0,0:0:0:0:
36,192,109942,1,0,0:0:0:60:lowkick.wav
256,192,109942,1,0,0:0:0:60:LR_Clap Low Drop.wav
402,192,109942,1,0,0:0:0:0:
475,192,109942,1,0,0:0:0:0:
329,192,110173,128,0,110404:0:0:0:0:
36,192,110404,1,0,0:0:0:60:lowkick.wav
256,192,110404,1,0,0:0:0:60:LR_CymbalG.wav
475,192,110404,1,0,0:0:0:0:
109,192,110558,1,0,0:0:0:60:tom01.wav
182,192,110558,1,0,0:0:0:0:
402,192,110558,1,0,0:0:0:0:
109,192,110712,1,0,0:0:0:60:tom02.wav
329,192,110712,1,0,0:0:0:0:
402,192,110712,1,0,0:0:0:0:
36,192,110865,1,0,0:0:0:60:lowkick.wav
182,192,110865,1,0,0:0:0:60:LR_Clap Low Drop.wav
256,192,110865,1,0,0:0:0:0:
475,192,110865,1,0,0:0:0:0:
36,192,111096,1,0,0:0:0:60:lowkick.wav
182,192,111096,1,0,0:0:0:60:LR_Clap Low Drop.wav
256,192,111096,1,0,0:0:0:0:
475,192,111096,1,0,0:0:0:0:
36,192,111442,1,0,0:0:0:60:lowkick.wav
256,192,111442,1,0,0:0:0:60:LR_Clap Low Drop.wav
329,192,111442,1,0,0:0:0:0:
475,192,111442,1,0,0:0:0:0:
36,192,111789,1,0,0:0:0:60:lowkick.wav
256,192,111789,1,0,0:0:0:60:LR_Clap Low Drop.wav
329,192,111789,1,0,0:0:0:0:
475,192,111789,1,0,0:0:0:0:
109,192,112019,1,0,0:0:0:60:lowkick.wav
182,192,112019,128,0,112250:0:0:0:0:
329,192,112019,1,0,0:0:0:0:
475,192,112019,1,0,0:0:0:0:
402,192,112250,1,0,0:0:0:60:lowkick.wav
475,192,112250,1,0,0:0:0:0:
402,192,112481,1,0,0:0:0:60:lowkick.wav
475,192,112481,1,0,0:0:0:0:
36,192,112558,1,0,0:0:0:60:lowkick.wav
109,192,112558,1,0,0:0:0:0:
36,192,112712,1,0,0:0:0:60:lowkick.wav
109,192,112712,1,0,0:0:0:0:
36,192,112865,1,0,0:0:0:60:lowkick.wav
109,192,112865,1,0,0:0:0:0:
36,192,113019,1,0,0:0:0:60:lowkick.wav
109,192,113019,1,0,0:0:0:0:
402,192,113173,1,0,0:0:0:60:lowkick.wav
475,192,113173,1,0,0:0:0:0:
402,192,113327,1,0,0:0:0:60:lowkick.wav
475,192,113327,1,0,0:0:0:0:
402,192,113481,1,0,0:0:0:60:lowkick.wav
475,192,113481,1,0,0:0:0:0:
402,192,113635,1,0,0:0:0:60:lowkick.wav
475,192,113635,1,0,0:0:0:0:
36,192,114096,1,0,0:0:0:60:lowkick.wav
256,192,114096,1,0,0:0:0:60:LR_CymbalG.wav
329,192,114096,1,0,0:0:0:0:
402,192,114096,1,0,0:0:0:0:
329,192,114269,1,0,0:0:0:0:
402,192,114269,1,0,0:0:0:0:
329,192,114500,1,0,0:0:0:0:
402,192,114500,1,0,0:0:0:0:
36,192,114558,1,0,0:0:0:0:
182,192,114615,1,0,0:0:0:0:
256,192,114673,1,0,0:0:0:0:
475,192,114731,1,0,0:0:0:0:
329,192,114789,1,0,0:0:0:0:
402,192,114789,1,0,0:0:0:0:
109,192,114904,1,0,0:0:0:0:
182,192,114904,1,0,0:0:0:0:
36,192,115019,1,0,0:0:0:60:SNARE ugh2.wav
256,192,115019,1,0,0:0:0:0:
402,192,115019,1,0,0:0:0:0:
109,192,115077,1,0,0:0:0:0:
182,192,115135,1,0,0:0:0:0:
475,192,115192,1,0,0:0:0:0:
329,192,115250,1,0,0:0:0:0:
256,192,115308,1,0,0:0:0:0:
109,192,115365,1,0,0:0:0:0:
36,192,115423,1,0,0:0:0:60:LR_TomR1.wav
329,192,115481,1,0,0:0:0:0:
402,192,115481,1,0,0:0:0:0:
329,192,115654,1,0,0:0:0:0:
109,192,115712,1,0,0:0:0:60:lowkick.wav
182,192,115712,1,0,0:0:0:0:
329,192,115789,1,0,0:0:0:0:
402,192,115856,1,0,0:0:0:0:
36,192,115942,1,0,0:0:0:60:lowkick.wav
109,192,115942,1,0,0:0:0:0:
182,192,115942,1,0,0:0:0:0:
109,192,116115,1,0,0:0:0:0:
182,192,116115,1,0,0:0:0:0:
475,192,116173,1,0,0:0:0:60:LR_TomR1.wav
109,192,116346,1,0,0:0:0:0:
182,192,116346,1,0,0:0:0:0:
475,192,116404,1,0,0:0:0:60:LR_TomR1.wav
329,192,116462,1,0,0:0:0:0:
256,192,116519,1,0,0:0:0:0:
36,192,116577,1,0,0:0:0:0:
109,192,116635,1,0,0:0:0:0:
182,192,116635,1,0,0:0:0:0:
329,192,116750,1,0,0:0:0:0:
402,192,116750,1,0,0:0:0:0:
109,192,116865,1,0,0:0:0:60:SNARE ugh2.wav
256,192,116865,1,0,0:0:0:0:
475,192,116865,1,0,0:0:0:0:
402,192,116923,1,0,0:0:0:0:
329,192,116981,1,0,0:0:0:0:
36,192,117039,1,0,0:0:0:0:
182,192,117096,1,0,0:0:0:0:
256,192,117154,1,0,0:0:0:0:
402,192,117212,1,0,0:0:0:0:
475,192,117269,1,0,0:0:0:60:LR_TomR1.wav
109,192,117327,1,0,0:0:0:0:
182,192,117327,1,0,0:0:0:0:
182,192,117500,1,0,0:0:0:0:
329,192,117558,1,0,0:0:0:60:lowkick.wav
402,192,117558,1,0,0:0:0:0:
182,192,117635,1,0,0:0:0:0:
109,192,117702,1,0,0:0:0:0:
329,192,117789,1,0,0:0:0:60:lowkick.wav
402,192,117789,1,0,0:0:0:0:
475,192,117789,1,0,0:0:0:0:
329,192,117962,1,0,0:0:0:0:
402,192,117962,1,0,0:0:0:0:
36,192,118019,1,0,0:0:0:60:LR_TomR1.wav
329,192,118192,1,0,0:0:0:0:
402,192,118192,1,0,0:0:0:0:
36,192,118250,1,0,0:0:0:60:LR_TomR1.wav
182,192,118308,1,0,0:0:0:0:
256,192,118365,1,0,0:0:0:0:
475,192,118423,1,0,0:0:0:0:
329,192,118481,1,0,0:0:0:0:
402,192,118481,1,0,0:0:0:0:
109,192,118596,1,0,0:0:0:0:
182,192,118596,1,0,0:0:0:0:
36,192,118712,1,0,0:0:0:60:SNARE ugh2.wav
256,192,118712,1,0,0:0:0:0:
402,192,118712,1,0,0:0:0:0:
109,192,118769,1,0,0:0:0:0:
182,192,118827,1,0,0:0:0:0:
475,192,118885,1,0,0:0:0:0:
329,192,118942,1,0,0:0:0:0:
256,192,119000,1,0,0:0:0:0:
109,192,119058,1,0,0:0:0:0:
36,192,119115,1,0,0:0:0:60:LR_TomR1.wav
329,192,119173,1,0,0:0:0:0:
402,192,119173,1,0,0:0:0:0:
329,192,119346,1,0,0:0:0:0:
109,192,119404,1,0,0:0:0:60:lowkick.wav
182,192,119404,1,0,0:0:0:0:
329,192,119481,1,0,0:0:0:0:
402,192,119548,1,0,0:0:0:0:
36,192,119635,1,0,0:0:0:60:lowkick.wav
109,192,119635,1,0,0:0:0:0:
182,192,119635,1,0,0:0:0:0:
109,192,119808,1,0,0:0:0:0:
182,192,119808,1,0,0:0:0:0:
475,192,119865,1,0,0:0:0:60:LR_TomR1.wav
109,192,120039,1,0,0:0:0:0:
182,192,120039,1,0,0:0:0:0:
475,192,120096,1,0,0:0:0:60:LR_TomR1.wav
329,192,120154,1,0,0:0:0:0:
256,192,120212,1,0,0:0:0:0:
36,192,120269,1,0,0:0:0:0:
109,192,120327,1,0,0:0:0:0:
182,192,120327,1,0,0:0:0:0:
329,192,120442,1,0,0:0:0:0:
402,192,120442,1,0,0:0:0:0:
109,192,120558,1,0,0:0:0:60:SNARE ugh2.wav
256,192,120558,1,0,0:0:0:0:
475,192,120558,1,0,0:0:0:0:
402,192,120615,1,0,0:0:0:0:
329,192,120673,1,0,0:0:0:0:
36,192,120731,1,0,0:0:0:0:
182,192,120789,1,0,0:0:0:0:
256,192,120846,1,0,0:0:0:0:
402,192,120904,1,0,0:0:0:0:
475,192,120962,1,0,0:0:0:60:LR_TomR1.wav
109,192,121019,1,0,0:0:0:0:
182,192,121019,1,0,0:0:0:0:
182,192,121192,1,0,0:0:0:0:
329,192,121250,1,0,0:0:0:60:lowkick.wav
402,192,121250,1,0,0:0:0:0:
182,192,121327,1,0,0:0:0:0:
109,192,121394,1,0,0:0:0:0:
36,192,121481,1,0,0:0:0:60:lowkick.wav
256,192,121481,1,0,0:0:0:60:LR_CymbalG.wav
402,192,121481,1,0,0:0:0:0:
475,192,121481,1,0,0:0:0:0:
402,192,121654,1,0,0:0:0:0:
475,192,121654,1,0,0:0:0:0:
36,192,121712,1,0,0:0:0:60:LR_TomR1.wav
402,192,121885,1,0,0:0:0:0:
475,192,121885,1,0,0:0:0:0:
36,192,121942,1,0,0:0:0:60:LR_TomR1.wav
182,192,122000,1,0,0:0:0:0:
256,192,122058,1,0,0:0:0:0:
329,192,122115,1,0,0:0:0:0:
402,192,122173,1,0,0:0:0:0:
475,192,122173,1,0,0:0:0:0:
36,192,122289,1,0,0:0:0:0:
109,192,122289,1,0,0:0:0:0:
256,192,122404,1,0,0:0:0:60:SNARE ugh2.wav
329,192,122404,1,0,0:0:0:0:
475,192,122404,1,0,0:0:0:0:
109,192,122462,1,0,0:0:0:0:
182,192,122519,1,0,0:0:0:0:
402,192,122577,1,0,0:0:0:0:
329,192,122635,1,0,0:0:0:0:
256,192,122692,1,0,0:0:0:0:
109,192,122750,1,0,0:0:0:0:
36,192,122808,1,0,0:0:0:60:LR_TomR1.wav
402,192,122865,1,0,0:0:0:0:
475,192,122865,1,0,0:0:0:0:
402,192,123039,1,0,0:0:0:0:
109,192,123096,1,0,0:0:0:60:lowkick.wav
182,192,123096,1,0,0:0:0:0:
402,192,123173,1,0,0:0:0:0:
329,192,123240,1,0,0:0:0:0:
36,192,123327,1,0,0:0:0:60:lowkick.wav
109,192,123327,1,0,0:0:0:0:
182,192,123327,1,0,0:0:0:0:
36,192,123500,1,0,0:0:0:0:
109,192,123500,1,0,0:0:0:0:
475,192,123558,1,0,0:0:0:60:LR_TomR1.wav
36,192,123731,1,0,0:0:0:0:
109,192,123731,1,0,0:0:0:0:
475,192,123789,1,0,0:0:0:60:LR_TomR1.wav
329,192,123846,1,0,0:0:0:0:
256,192,123904,1,0,0:0:0:0:
182,192,123962,1,0,0:0:0:0:
36,192,124019,1,0,0:0:0:0:
109,192,124019,1,0,0:0:0:0:
402,192,124135,1,0,0:0:0:0:
475,192,124135,1,0,0:0:0:0:
36,192,124250,1,0,0:0:0:60:SNARE ugh2.wav
182,192,124250,1,0,0:0:0:0:
256,192,124250,1,0,0:0:0:0:
402,192,124308,1,0,0:0:0:0:
329,192,124365,1,0,0:0:0:0:
109,192,124423,1,0,0:0:0:0:
182,192,124481,1,0,0:0:0:0:
256,192,124539,1,0,0:0:0:0:
402,192,124596,1,0,0:0:0:0:
475,192,124654,1,0,0:0:0:60:LR_TomR1.wav
36,192,124712,1,0,0:0:0:0:
109,192,124712,1,0,0:0:0:0:
109,192,124885,1,0,0:0:0:0:
329,192,124942,1,0,0:0:0:60:lowkick.wav
402,192,124942,1,0,0:0:0:0:
109,192,125019,1,0,0:0:0:0:
182,192,125087,1,0,0:0:0:0:
329,192,125173,1,0,0:0:0:60:lowkick.wav
402,192,125173,1,0,0:0:0:0:
475,192,125173,1,0,0:0:0:0:
402,192,125346,1,0,0:0:0:0:
475,192,125346,1,0,0:0:0:0:
36,192,125404,1,0,0:0:0:60:LR_TomR1.wav
402,192,125577,1,0,0:0:0:0:
475,192,125577,1,0,0:0:0:0:
36,192,125635,1,0,0:0:0:60:LR_TomR1.wav
182,192,125692,1,0,0:0:0:0:
256,192,125750,1,0,0:0:0:0:
329,192,125808,1,0,0:0:0:0:
402,192,125865,1,0,0:0:0:0:
475,192,125865,1,0,0:0:0:0:
36,192,125981,1,0,0:0:0:0:
109,192,125981,1,0,0:0:0:0:
256,192,126096,1,0,0:0:0:60:SNARE ugh2.wav
329,192,126096,1,0,0:0:0:0:
475,192,126096,1,0,0:0:0:0:
109,192,126154,1,0,0:0:0:0:
182,192,126212,1,0,0:0:0:0:
402,192,126269,1,0,0:0:0:0:
329,192,126327,1,0,0:0:0:0:
256,192,126385,1,0,0:0:0:0:
109,192,126442,1,0,0:0:0:0:
36,192,126500,1,0,0:0:0:60:LR_TomR1.wav
402,192,126558,1,0,0:0:0:0:
475,192,126558,1,0,0:0:0:0:
402,192,126731,1,0,0:0:0:0:
109,192,126789,1,0,0:0:0:60:lowkick.wav
182,192,126789,1,0,0:0:0:0:
402,192,126865,1,0,0:0:0:0:
329,192,126933,1,0,0:0:0:0:
36,192,127019,1,0,0:0:0:60:lowkick.wav
109,192,127019,1,0,0:0:0:0:
182,192,127019,1,0,0:0:0:0:
36,192,127192,1,0,0:0:0:0:
109,192,127192,1,0,0:0:0:0:
475,192,127250,1,0,0:0:0:60:LR_TomR1.wav
36,192,127423,1,0,0:0:0:0:
109,192,127423,1,0,0:0:0:0:
475,192,127481,1,0,0:0:0:60:LR_TomR1.wav
329,192,127539,1,0,0:0:0:0:
256,192,127596,1,0,0:0:0:0:
182,192,127654,1,0,0:0:0:0:
36,192,127712,1,0,0:0:0:0:
109,192,127712,1,0,0:0:0:0:
402,192,127827,1,0,0:0:0:0:
475,192,127827,1,0,0:0:0:0:
36,192,127942,1,0,0:0:0:60:SNARE ugh2.wav
182,192,127942,1,0,0:0:0:0:
256,192,127942,1,0,0:0:0:0:
402,192,128000,1,0,0:0:0:0:
329,192,128058,1,0,0:0:0:0:
109,192,128115,1,0,0:0:0:0:
182,192,128173,1,0,0:0:0:0:
256,192,128231,1,0,0:0:0:0:
402,192,128289,1,0,0:0:0:0:
475,192,128346,1,0,0:0:0:60:LR_TomR1.wav
36,192,128404,1,0,0:0:0:0:
109,192,128404,1,0,0:0:0:0:
109,192,128577,1,0,0:0:0:0:
329,192,128635,1,0,0:0:0:60:lowkick.wav
402,192,128635,1,0,0:0:0:0:
109,192,128712,1,0,0:0:0:0:
182,192,128779,1,0,0:0:0:0:
36,192,128865,1,0,0:0:0:60:lowkick.wav
256,192,128865,1,0,0:0:0:60:LR_CymbalG.wav
329,192,128865,1,0,0:0:0:0:
402,192,128865,1,0,0:0:0:0:
329,192,129039,1,0,0:0:0:0:
402,192,129039,1,0,0:0:0:0:
329,192,129269,1,0,0:0:0:0:
402,192,129269,1,0,0:0:0:0:
36,192,129327,1,0,0:0:0:0:
182,192,129385,1,0,0:0:0:0:
256,192,129442,1,0,0:0:0:0:
475,192,129500,1,0,0:0:0:0:
329,192,129558,1,0,0:0:0:0:
402,192,129558,1,0,0:0:0:0:
109,192,129673,1,0,0:0:0:0:
182,192,129673,1,0,0:0:0:0:
36,192,129789,1,0,0:0:0:0:
109,192,129846,1,0,0:0:0:0:
182,192,129904,1,0,0:0:0:0:
475,192,129962,1,0,0:0:0:0:
329,192,130019,1,0,0:0:0:0:
256,192,130077,1,0,0:0:0:0:
109,192,130135,1,0,0:0:0:0:
36,192,130192,1,0,0:0:0:0:
329,192,130250,1,0,0:0:0:0:
402,192,130250,1,0,0:0:0:0:
329,192,130423,1,0,0:0:0:0:
109,192,130481,1,0,0:0:0:60:lowkick.wav
182,192,130481,1,0,0:0:0:0:
329,192,130558,1,0,0:0:0:0:
402,192,130625,1,0,0:0:0:0:
36,192,130712,1,0,0:0:0:60:lowkick.wav
109,192,130712,1,0,0:0:0:0:
182,192,130712,1,0,0:0:0:0:
109,192,130885,1,0,0:0:0:0:
182,192,130885,1,0,0:0:0:0:
36,192,131058,1,0,0:0:0:60:SNARE ugh.wav
402,192,131058,1,0,0:0:0:0:
109,192,131115,1,0,0:0:0:0:
182,192,131115,1,0,0:0:0:0:
475,192,131173,1,0,0:0:0:0:
329,192,131231,1,0,0:0:0:0:
256,192,131289,1,0,0:0:0:0:
36,192,131346,1,0,0:0:0:0:
109,192,131404,1,0,0:0:0:0:
182,192,131404,1,0,0:0:0:0:
329,192,131519,1,0,0:0:0:0:
402,192,131519,1,0,0:0:0:0:
109,192,131635,1,0,0:0:0:60:SNARE ugh2.wav
256,192,131635,1,0,0:0:0:0:
475,192,131635,1,0,0:0:0:0:
402,192,131692,1,0,0:0:0:0:
329,192,131750,1,0,0:0:0:0:
36,192,131808,1,0,0:0:0:0:
182,192,131865,1,0,0:0:0:0:
256,192,131923,1,0,0:0:0:0:
402,192,131981,1,0,0:0:0:0:
475,192,132039,1,0,0:0:0:60:LR_TomR1.wav
109,192,132096,1,0,0:0:0:0:
182,192,132096,1,0,0:0:0:0:
182,192,132269,1,0,0:0:0:0:
329,192,132327,1,0,0:0:0:60:lowkick.wav
402,192,132327,1,0,0:0:0:0:
182,192,132404,1,0,0:0:0:0:
109,192,132471,1,0,0:0:0:0:
329,192,132558,1,0,0:0:0:60:lowkick.wav
402,192,132558,1,0,0:0:0:0:
475,192,132558,1,0,0:0:0:0:
329,192,132731,1,0,0:0:0:0:
402,192,132731,1,0,0:0:0:0:
109,192,132904,1,0,0:0:0:60:SNARE ugh.wav
475,192,132904,1,0,0:0:0:0:
329,192,132962,1,0,0:0:0:0:
402,192,132962,1,0,0:0:0:0:
36,192,133019,1,0,0:0:0:0:
182,192,133077,1,0,0:0:0:0:
256,192,133135,1,0,0:0:0:0:
475,192,133192,1,0,0:0:0:0:
329,192,133250,1,0,0:0:0:0:
402,192,133250,1,0,0:0:0:0:
109,192,133365,1,0,0:0:0:0:
182,192,133365,1,0,0:0:0:0:
36,192,133481,1,0,0:0:0:60:SNARE ugh2.wav
256,192,133481,1,0,0:0:0:0:
402,192,133481,1,0,0:0:0:0:
109,192,133539,1,0,0:0:0:0:
182,192,133596,1,0,0:0:0:0:
475,192,133654,1,0,0:0:0:0:
329,192,133712,1,0,0:0:0:0:
256,192,133769,1,0,0:0:0:0:
109,192,133827,1,0,0:0:0:0:
36,192,133885,1,0,0:0:0:60:LR_TomR1.wav
329,192,133942,1,0,0:0:0:0:
402,192,133942,1,0,0:0:0:0:
329,192,134115,1,0,0:0:0:0:
109,192,134173,1,0,0:0:0:60:lowkick.wav
182,192,134173,1,0,0:0:0:0:
329,192,134250,1,0,0:0:0:0:
402,192,134317,1,0,0:0:0:0:
36,192,134404,1,0,0:0:0:60:lowkick.wav
109,192,134404,1,0,0:0:0:0:
182,192,134404,1,0,0:0:0:0:
109,192,134577,1,0,0:0:0:0:
182,192,134577,1,0,0:0:0:0:
36,192,134750,1,0,0:0:0:60:SNARE ugh.wav
402,192,134750,1,0,0:0:0:0:
109,192,134808,1,0,0:0:0:0:
182,192,134808,1,0,0:0:0:0:
475,192,134865,1,0,0:0:0:0:
329,192,134923,1,0,0:0:0:0:
256,192,134981,1,0,0:0:0:0:
36,192,135039,1,0,0:0:0:0:
109,192,135096,1,0,0:0:0:0:
182,192,135096,1,0,0:0:0:0:
329,192,135212,1,0,0:0:0:0:
402,192,135212,1,0,0:0:0:0:
109,192,135327,1,0,0:0:0:60:SNARE ugh2.wav
256,192,135327,1,0,0:0:0:0:
475,192,135327,1,0,0:0:0:0:
402,192,135385,1,0,0:0:0:0:
329,192,135442,1,0,0:0:0:0:
36,192,135500,1,0,0:0:0:0:
182,192,135558,1,0,0:0:0:0:
256,192,135615,1,0,0:0:0:0:
402,192,135673,1,0,0:0:0:0:
475,192,135731,1,0,0:0:0:0:
109,192,135789,1,0,0:0:0:0:
182,192,135789,1,0,0:0:0:0:
36,192,135904,1,0,0:0:0:60:SNARE ugh2.wav
182,192,135962,1,0,0:0:0:0:
329,192,136019,1,0,0:0:0:60:lowkick.wav
402,192,136019,1,0,0:0:0:0:
182,192,136096,1,0,0:0:0:0:
109,192,136164,1,0,0:0:0:0:
36,192,136250,1,0,0:0:0:60:lowkick.wav
256,192,136250,1,0,0:0:0:60:LR_CymbalG.wav
402,192,136250,1,0,0:0:0:0:
475,192,136250,1,0,0:0:0:0:
402,192,136423,1,0,0:0:0:0:
475,192,136423,1,0,0:0:0:0:
109,192,136596,1,0,0:0:0:60:SNARE ugh.wav
329,192,136596,1,0,0:0:0:0:
402,192,136654,1,0,0:0:0:0:
475,192,136654,1,0,0:0:0:0:
36,192,136712,1,0,0:0:0:0:
182,192,136769,1,0,0:0:0:0:
256,192,136827,1,0,0:0:0:0:
329,192,136885,1,0,0:0:0:0:
402,192,136942,1,0,0:0:0:0:
475,192,136942,1,0,0:0:0:0:
36,192,137058,1,0,0:0:0:0:
109,192,137058,1,0,0:0:0:0:
256,192,137173,1,0,0:0:0:60:SNARE ugh2.wav
329,192,137173,1,0,0:0:0:0:
475,192,137173,1,0,0:0:0:0:
109,192,137231,1,0,0:0:0:0:
182,192,137289,1,0,0:0:0:0:
402,192,137346,1,0,0:0:0:0:
329,192,137404,1,0,0:0:0:0:
256,192,137462,1,0,0:0:0:0:
109,192,137519,1,0,0:0:0:0:
36,192,137577,1,0,0:0:0:60:LR_TomR1.wav
402,192,137635,1,0,0:0:0:0:
475,192,137635,1,0,0:0:0:0:
402,192,137808,1,0,0:0:0:0:
109,192,137865,1,0,0:0:0:60:lowkick.wav
182,192,137865,1,0,0:0:0:0:
402,192,137942,1,0,0:0:0:0:
329,192,138010,1,0,0:0:0:0:
36,192,138096,1,0,0:0:0:60:lowkick.wav
109,192,138096,1,0,0:0:0:0:
182,192,138096,1,0,0:0:0:0:
36,192,138269,1,0,0:0:0:0:
109,192,138269,1,0,0:0:0:0:
182,192,138442,1,0,0:0:0:60:SNARE ugh.wav
402,192,138442,1,0,0:0:0:0:
36,192,138500,1,0,0:0:0:0:
109,192,138500,1,0,0:0:0:0:
475,192,138558,1,0,0:0:0:0:
329,192,138615,1,0,0:0:0:0:
256,192,138673,1,0,0:0:0:0:
182,192,138731,1,0,0:0:0:0:
36,192,138789,1,0,0:0:0:0:
109,192,138789,1,0,0:0:0:0:
402,192,138904,1,0,0:0:0:0:
475,192,138904,1,0,0:0:0:0:
36,192,139019,1,0,0:0:0:60:SNARE ugh2.wav
182,192,139019,1,0,0:0:0:0:
256,192,139019,1,0,0:0:0:0:
402,192,139077,1,0,0:0:0:0:
329,192,139135,1,0,0:0:0:0:
109,192,139192,1,0,0:0:0:0:
182,192,139250,1,0,0:0:0:0:
256,192,139308,1,0,0:0:0:0:
402,192,139365,1,0,0:0:0:0:
475,192,139423,1,0,0:0:0:60:LR_TomR1.wav
36,192,139481,1,0,0:0:0:0:
109,192,139481,1,0,0:0:0:0:
109,192,139654,1,0,0:0:0:0:
329,192,139712,1,0,0:0:0:60:lowkick.wav
402,192,139712,1,0,0:0:0:0:
109,192,139789,1,0,0:0:0:0:
182,192,139856,1,0,0:0:0:0:
329,192,139942,1,0,0:0:0:60:lowkick.wav
402,192,139942,1,0,0:0:0:0:
475,192,139942,1,0,0:0:0:0:
402,192,140115,1,0,0:0:0:0:
475,192,140115,1,0,0:0:0:0:
109,192,140289,1,0,0:0:0:60:SNARE ugh.wav
329,192,140289,1,0,0:0:0:0:
402,192,140346,1,0,0:0:0:0:
475,192,140346,1,0,0:0:0:0:
36,192,140404,1,0,0:0:0:0:
182,192,140462,1,0,0:0:0:0:
256,192,140519,1,0,0:0:0:0:
329,192,140577,1,0,0:0:0:0:
402,192,140635,1,0,0:0:0:0:
475,192,140635,1,0,0:0:0:0:
36,192,140750,1,0,0:0:0:0:
109,192,140750,1,0,0:0:0:0:
256,192,140865,1,0,0:0:0:60:SNARE ugh2.wav
329,192,140865,1,0,0:0:0:0:
475,192,140865,1,0,0:0:0:0:
109,192,140923,1,0,0:0:0:0:
182,192,140981,1,0,0:0:0:0:
402,192,141039,1,0,0:0:0:0:
329,192,141096,1,0,0:0:0:0:
256,192,141154,1,0,0:0:0:0:
109,192,141212,1,0,0:0:0:0:
36,192,141269,1,0,0:0:0:60:LR_TomR1.wav
402,192,141327,1,0,0:0:0:0:
475,192,141327,1,0,0:0:0:0:
402,192,141500,1,0,0:0:0:0:
109,192,141558,1,0,0:0:0:60:lowkick.wav
182,192,141558,1,0,0:0:0:0:
402,192,141635,1,0,0:0:0:0:
329,192,141702,1,0,0:0:0:0:
36,192,141789,1,0,0:0:0:60:lowkick.wav
109,192,141789,1,0,0:0:0:0:
182,192,141789,1,0,0:0:0:0:
36,192,141962,1,0,0:0:0:0:
109,192,141962,1,0,0:0:0:0:
182,192,142135,1,0,0:0:0:60:SNARE ugh.wav
402,192,142135,1,0,0:0:0:0:
36,192,142192,1,0,0:0:0:0:
109,192,142192,1,0,0:0:0:0:
475,192,142250,1,0,0:0:0:0:
329,192,142308,1,0,0:0:0:0:
256,192,142365,1,0,0:0:0:0:
182,192,142423,1,0,0:0:0:0:
36,192,142481,1,0,0:0:0:0:
109,192,142481,1,0,0:0:0:0:
402,192,142596,1,0,0:0:0:0:
475,192,142596,1,0,0:0:0:0:
36,192,142712,1,0,0:0:0:60:SNARE ugh2.wav
182,192,142712,1,0,0:0:0:0:
256,192,142712,1,0,0:0:0:0:
402,192,142769,1,0,0:0:0:0:
329,192,142827,1,0,0:0:0:0:
109,192,142885,1,0,0:0:0:0:
182,192,142942,1,0,0:0:0:0:
256,192,143000,1,0,0:0:0:0:
402,192,143058,1,0,0:0:0:0:
475,192,143115,1,0,0:0:0:60:LR_TomR1.wav
36,192,143173,1,0,0:0:0:0:
109,192,143173,1,0,0:0:0:0:
109,192,143346,1,0,0:0:0:0:
329,192,143404,1,0,0:0:0:60:lowkick.wav
402,192,143404,1,0,0:0:0:0:
109,192,143481,1,0,0:0:0:0:
182,192,143548,1,0,0:0:0:0:
36,192,143635,1,0,0:0:0:60:lowkick.wav
256,192,143635,1,0,0:0:0:60:LR_CymbalG.wav
329,192,143635,1,0,0:0:0:0:
475,192,143635,1,0,0:0:0:0:
