osu file format v14

[General]
AudioFilename: audio.mp3
AudioLeadIn: 0
PreviewTime: 114096
Countdown: 0
SampleSet: Soft
StackLeniency: 0.7
Mode: 3
LetterboxInBreaks: 0
SpecialStyle: 0
WidescreenStoryboard: 1

[Editor]
DistanceSpacing: 0.8
BeatDivisor: 12
GridSize: 32
TimelineZoom: 1.6

[Metadata]
Title:4172756869 (isagen remix) (Cut Ver.)
TitleUnicode:4172756869 (isagen remix) (Cut Ver.)
Artist:callasoiled
ArtistUnicode:callasoiled
Creator:guden
Version:7k advanced
Source:
Tags:qqqant elekton -mint- itzuaka trekkie trax phalanx hatsune miku dreams of electric sheep ep remixes 初音ミク vocaloid electronic instrumental phone number future bass ボーカロイド tomoyuki sagesaka japanese
BeatmapID:2763840
BeatmapSetID:1334074

[Difficulty]
HPDrainRate:6.5
CircleSize:7
OverallDifficulty:6.5
ApproachRate:5
SliderMultiplier:1.4
SliderTickRate:1

[Events]
//Background and Video events
0,0,"hatsune.jpg",0,0
//Break Periods
2,16335,20127
//Storyboard Layer 0 (Background)
//Storyboard Layer 1 (Fail)
//Storyboard Layer 2 (Pass)
//Storyboard Layer 3 (Foreground)
//Storyboard Layer 4 (Overlay)
//Storyboard Sound Samples

[TimingPoints]
5174,461.538462,4,2,0,60,1,0
12097,461.538462,4,2,0,60,1,0
21789,461.538462,4,2,0,60,1,0
45789,-100,4,2,1,60,0,1
75327,-100,4,2,1,60,0,0
114096,-100,4,2,1,60,0,1
143635,-100,4,2,1,60,0,0

[HitObjects]
329,192,5173,5,0,0:0:0:60:lowkick.wav
402,192,5173,1,0,0:0:0:0:
109,192,5347,1,0,0:0:0:60:lowkick.wav
182,192,5347,1,0,0:0:0:0:
329,192,5577,1,0,0:0:0:60:lowkick.wav
402,192,5577,1,0,0:0:0:0:
109,192,5924,1,0,0:0:0:60:lowkick.wav
182,192,5924,1,0,0:0:0:0:
329,192,6212,1,0,0:0:0:60:lowkick.wav
402,192,6212,1,0,0:0:0:0:
109,192,6443,1,0,0:0:0:60:lowkick.wav
182,192,6443,1,0,0:0:0:0:
329,192,6616,128,0,7020:0:0:0:60:lowkick.wav
402,192,6616,128,0,7020:0:0:0:0:
109,192,7058,128,0,7481:0:0:0:60:lowkick.wav
182,192,7058,128,0,7481:0:0:0:0:
329,192,7481,1,0,0:0:0:60:lowkick.wav
402,192,7481,1,0,0:0:0:0:
109,192,7654,1,0,0:0:0:60:lowkick.wav
182,192,7654,1,0,0:0:0:0:
329,192,7827,1,0,0:0:0:60:lowkick.wav
402,192,7827,1,0,0:0:0:0:
109,192,8058,1,0,0:0:0:60:lowkick.wav
182,192,8058,1,0,0:0:0:0:
329,192,8347,1,0,0:0:0:60:lowkick.wav
402,192,8347,1,0,0:0:0:0:
109,192,8693,1,0,0:0:0:60:lowkick.wav
182,192,8693,1,0,0:0:0:0:
329,192,9212,1,0,0:0:0:60:lowkick.wav
402,192,9212,1,0,0:0:0:0:
256,192,11635,128,0,12097:0:0:0:0:
182,192,11866,1,0,0:0:0:60:LR_TomR1.wav
402,192,12097,1,0,0:0:0:60:lowkick.wav
475,192,12097,1,0,0:0:0:0:
36,192,12270,1,0,0:0:0:60:lowkick.wav
109,192,12270,1,0,0:0:0:0:
402,192,12500,1,0,0:0:0:60:lowkick.wav
475,192,12500,1,0,0:0:0:0:
36,192,12847,1,0,0:0:0:60:lowkick.wav
109,192,12847,1,0,0:0:0:0:
402,192,13135,1,0,0:0:0:60:lowkick.wav
475,192,13135,1,0,0:0:0:0:
36,192,13366,1,0,0:0:0:60:lowkick.wav
109,192,13366,1,0,0:0:0:0:
402,192,13539,128,0,13885:0:0:0:60:lowkick.wav
475,192,13539,128,0,13885:0:0:0:0:
36,192,13981,128,0,14404:0:0:0:60:lowkick.wav
109,192,13981,128,0,14404:0:0:0:0:
402,192,14404,1,0,0:0:0:60:lowkick.wav
475,192,14404,1,0,0:0:0:0:
36,192,14577,1,0,0:0:0:60:lowkick.wav
109,192,14577,1,0,0:0:0:0:
402,192,14750,1,0,0:0:0:60:lowkick.wav
475,192,14750,1,0,0:0:0:0:
36,192,14981,1,0,0:0:0:60:lowkick.wav
109,192,14981,1,0,0:0:0:0:
402,192,15270,1,0,0:0:0:60:lowkick.wav
475,192,15270,1,0,0:0:0:0:
36,192,15616,1,0,0:0:0:60:lowkick.wav
109,192,15616,1,0,0:0:0:0:
402,192,16135,1,0,0:0:0:60:lowkick.wav
475,192,16135,1,0,0:0:0:0:
109,192,21327,5,0,0:0:0:0:
256,192,21558,128,0,21789:0:0:0:60:LR_TomR1.wav
329,192,21789,1,0,0:0:0:60:lowkick.wav
402,192,21789,1,0,0:0:0:0:
109,192,21962,1,0,0:0:0:60:lowkick.wav
182,192,21962,1,0,0:0:0:0:
329,192,22192,1,0,0:0:0:60:lowkick.wav
402,192,22192,1,0,0:0:0:0:
109,192,22539,1,0,0:0:0:60:lowkick.wav
182,192,22539,1,0,0:0:0:0:
329,192,22827,1,0,0:0:0:60:lowkick.wav
402,192,22827,1,0,0:0:0:0:
109,192,23058,1,0,0:0:0:60:lowkick.wav
182,192,23058,1,0,0:0:0:0:
329,192,23231,128,0,23635:0:0:0:60:lowkick.wav
402,192,23231,128,0,23635:0:0:0:0:
109,192,23673,128,0,24096:0:0:0:60:lowkick.wav
182,192,23673,128,0,24096:0:0:0:0:
329,192,24096,1,0,0:0:0:60:lowkick.wav
402,192,24096,1,0,0:0:0:0:
109,192,24269,1,0,0:0:0:60:lowkick.wav
182,192,24269,1,0,0:0:0:0:
329,192,24442,1,0,0:0:0:60:lowkick.wav
402,192,24442,1,0,0:0:0:0:
109,192,24673,1,0,0:0:0:60:lowkick.wav
182,192,24673,1,0,0:0:0:0:
329,192,24962,1,0,0:0:0:60:lowkick.wav
402,192,24962,1,0,0:0:0:0:
109,192,25308,1,0,0:0:0:60:lowkick.wav
182,192,25308,1,0,0:0:0:0:
256,192,25481,1,0,0:0:0:60:lowkick.wav
475,192,25481,1,0,0:0:0:0:
329,192,25827,1,0,0:0:0:60:lowkick.wav
402,192,25827,1,0,0:0:0:0:
36,192,26404,1,0,0:0:0:60:SNARE ugh2.wav
182,192,26404,1,0,0:0:0:0:
402,192,26865,1,0,0:0:0:0:
256,192,27096,1,0,0:0:0:60:LR_TomR1.wav
402,192,27327,1,0,0:0:0:60:lowkick.wav
475,192,27327,1,0,0:0:0:0:
36,192,27500,1,0,0:0:0:60:lowkick.wav
109,192,27500,1,0,0:0:0:0:
402,192,27731,1,0,0:0:0:60:lowkick.wav
475,192,27731,1,0,0:0:0:0:
36,192,28096,1,0,0:0:0:60:lowkick.wav
109,192,28096,1,0,0:0:0:0:
182,192,28250,1,0,0:0:0:60:SNARE ugh2.wav
329,192,28250,1,0,0:0:0:0:
402,192,28365,1,0,0:0:0:60:lowkick.wav
475,192,28365,1,0,0:0:0:0:
36,192,28596,1,0,0:0:0:60:lowkick.wav
109,192,28596,1,0,0:0:0:0:
402,192,28769,128,0,29115:0:0:0:0:
475,192,28769,128,0,29115:0:0:0:0:
36,192,29212,128,0,29635:0:0:0:0:
109,192,29212,128,0,29635:0:0:0:0:
402,192,29635,1,0,0:0:0:0:
475,192,29635,1,0,0:0:0:0:
36,192,29808,1,0,0:0:0:0:
109,192,29808,1,0,0:0:0:0:
402,192,29981,1,0,0:0:0:0:
475,192,29981,1,0,0:0:0:0:
182,192,30096,1,0,0:0:0:60:SNARE ugh2.wav
329,192,30096,1,0,0:0:0:0:
36,192,30212,1,0,0:0:0:0:
109,192,30212,1,0,0:0:0:0:
402,192,30500,1,0,0:0:0:0:
475,192,30500,1,0,0:0:0:0:
182,192,30789,1,0,0:0:0:60:LR_TomR1.wav
256,192,30789,1,0,0:0:0:0:
402,192,31019,1,0,0:0:0:60:lowkick.wav
475,192,31019,1,0,0:0:0:0:
36,192,31192,1,0,0:0:0:60:lowkick.wav
109,192,31192,1,0,0:0:0:0:
402,192,31423,1,0,0:0:0:60:lowkick.wav
475,192,31423,1,0,0:0:0:0:
36,192,31712,1,0,0:0:0:0:
109,192,31712,1,0,0:0:0:0:
182,192,31942,1,0,0:0:0:60:SNARE ugh2.wav
329,192,31942,1,0,0:0:0:0:
36,192,32404,1,0,0:0:0:60:lowkick.wav
109,192,32404,1,0,0:0:0:0:
402,192,32558,128,0,32865:0:0:0:60:lowkick.wav
475,192,32558,128,0,32865:0:0:0:0:
182,192,32635,1,0,0:0:0:60:LR_TomR1.wav
36,192,32865,1,0,0:0:0:60:LR_TomR1.wav
109,192,32865,1,0,0:0:0:0:
402,192,33039,1,0,0:0:0:0:
475,192,33039,1,0,0:0:0:0:
36,192,33269,1,0,0:0:0:60:lowkick.wav
109,192,33269,1,0,0:0:0:0:
402,192,33558,1,0,0:0:0:0:
475,192,33558,1,0,0:0:0:0:
182,192,33789,1,0,0:0:0:60:SNARE ugh2.wav
329,192,33789,1,0,0:0:0:0:
402,192,34250,1,0,0:0:0:0:
475,192,34250,1,0,0:0:0:0:
36,192,34404,128,0,34712:0:0:0:0:
109,192,34404,128,0,34712:0:0:0:0:
256,192,34481,1,0,0:0:0:60:LR_TomR1.wav
329,192,34712,1,0,0:0:0:60:lowkick.wav
402,192,34712,1,0,0:0:0:0:
109,192,34885,1,0,0:0:0:60:lowkick.wav
182,192,34885,1,0,0:0:0:0:
329,192,35058,1,0,0:0:0:60:lowkick.wav
402,192,35058,1,0,0:0:0:0:
109,192,35462,1,0,0:0:0:60:lowkick.wav
182,192,35462,1,0,0:0:0:0:
329,192,35692,1,0,0:0:0:60:lowkick.wav
402,192,35692,1,0,0:0:0:0:
109,192,36039,1,0,0:0:0:60:lowkick.wav
182,192,36039,1,0,0:0:0:0:
329,192,36385,1,0,0:0:0:60:lowkick.wav
402,192,36385,1,0,0:0:0:0:
109,192,36789,1,0,0:0:0:60:lowkick.wav
182,192,36789,1,0,0:0:0:0:
329,192,37250,1,0,0:0:0:60:lowkick.wav
402,192,37250,1,0,0:0:0:0:
402,192,38404,1,0,0:0:0:60:lowkick.wav
475,192,38404,128,0,45789:0:0:0:0:
36,192,45789,1,0,0:0:0:60:lowkick.wav
256,192,45789,1,0,0:0:0:60:LR_CymbalG.wav
329,192,45789,1,0,0:0:0:0:
402,192,45789,1,0,0:0:0:0:
109,192,45962,1,0,0:0:0:0:
182,192,45962,1,0,0:0:0:0:
329,192,46192,1,0,0:0:0:0:
402,192,46192,1,0,0:0:0:0:
109,192,46481,1,0,0:0:0:0:
182,192,46481,1,0,0:0:0:0:
329,192,46596,1,0,0:0:0:0:
402,192,46596,1,0,0:0:0:0:
36,192,46712,1,0,0:0:0:60:SNARE ugh2.wav
256,192,46712,1,0,0:0:0:0:
182,192,46827,1,0,0:0:0:0:
109,192,46942,1,0,0:0:0:0:
36,192,47058,1,0,0:0:0:0:
329,192,47173,1,0,0:0:0:0:
402,192,47173,1,0,0:0:0:0:
475,192,47289,1,0,0:0:0:0:
36,192,47404,1,0,0:0:0:60:lowkick.wav
109,192,47404,128,0,47635:0:0:0:0:
182,192,47404,128,0,47635:0:0:0:0:
329,192,47635,1,0,0:0:0:60:lowkick.wav
402,192,47635,1,0,0:0:0:0:
475,192,47635,1,0,0:0:0:0:
36,192,47808,1,0,0:0:0:0:
109,192,47808,1,0,0:0:0:0:
329,192,48039,1,0,0:0:0:0:
402,192,48039,1,0,0:0:0:0:
36,192,48327,1,0,0:0:0:0:
109,192,48327,1,0,0:0:0:0:
329,192,48442,1,0,0:0:0:0:
402,192,48442,1,0,0:0:0:0:
256,192,48558,1,0,0:0:0:60:SNARE ugh2.wav
475,192,48558,1,0,0:0:0:0:
182,192,48673,1,0,0:0:0:0:
109,192,48789,1,0,0:0:0:0:
36,192,48904,1,0,0:0:0:0:
329,192,49019,1,0,0:0:0:0:
402,192,49019,1,0,0:0:0:0:
475,192,49135,1,0,0:0:0:0:
36,192,49250,128,0,49481:0:0:0:60:lowkick.wav
109,192,49250,128,0,49481:0:0:0:0:
182,192,49250,1,0,0:0:0:0:
256,192,49481,1,0,0:0:0:60:lowkick.wav
329,192,49481,1,0,0:0:0:0:
402,192,49481,1,0,0:0:0:0:
109,192,49654,1,0,0:0:0:0:
182,192,49654,1,0,0:0:0:0:
329,192,49885,1,0,0:0:0:0:
402,192,49885,1,0,0:0:0:0:
109,192,50173,1,0,0:0:0:0:
182,192,50173,1,0,0:0:0:0:
329,192,50289,1,0,0:0:0:0:
402,192,50289,1,0,0:0:0:0:
36,192,50404,1,0,0:0:0:60:SNARE ugh2.wav
256,192,50404,1,0,0:0:0:0:
182,192,50519,1,0,0:0:0:0:
109,192,50635,1,0,0:0:0:0:
36,192,50750,1,0,0:0:0:0:
329,192,50865,1,0,0:0:0:0:
402,192,50865,1,0,0:0:0:0:
475,192,50981,1,0,0:0:0:0:
36,192,51096,1,0,0:0:0:60:lowkick.wav
109,192,51096,128,0,51327:0:0:0:0:
182,192,51096,128,0,51327:0:0:0:0:
329,192,51327,1,0,0:0:0:60:lowkick.wav
402,192,51327,1,0,0:0:0:0:
475,192,51327,1,0,0:0:0:0:
36,192,51500,1,0,0:0:0:0:
109,192,51500,1,0,0:0:0:0:
329,192,51731,1,0,0:0:0:0:
402,192,51731,1,0,0:0:0:0:
36,192,52019,1,0,0:0:0:0:
109,192,52019,1,0,0:0:0:0:
329,192,52135,1,0,0:0:0:0:
402,192,52135,1,0,0:0:0:0:
256,192,52250,1,0,0:0:0:60:SNARE ugh2.wav
475,192,52250,1,0,0:0:0:0:
182,192,52365,1,0,0:0:0:0:
109,192,52481,1,0,0:0:0:0:
329,192,52596,1,0,0:0:0:0:
109,192,52712,1,0,0:0:0:0:
182,192,52712,1,0,0:0:0:0:
36,192,52827,1,0,0:0:0:0:
256,192,52942,1,0,0:0:0:60:lowkick.wav
329,192,52942,128,0,53173:0:0:0:0:
402,192,52942,128,0,53173:0:0:0:0:
36,192,53173,1,0,0:0:0:60:lowkick.wav
109,192,53173,1,0,0:0:0:60:LR_CymbalG.wav
182,192,53173,1,0,0:0:0:0:
475,192,53173,1,0,0:0:0:0:
329,192,53346,1,0,0:0:0:0:
402,192,53346,1,0,0:0:0:0:
109,192,53577,1,0,0:0:0:0:
182,192,53577,1,0,0:0:0:0:
329,192,53865,1,0,0:0:0:0:
402,192,53865,1,0,0:0:0:0:
109,192,53981,1,0,0:0:0:0:
182,192,53981,1,0,0:0:0:0:
256,192,54096,1,0,0:0:0:60:SNARE ugh2.wav
475,192,54096,1,0,0:0:0:0:
329,192,54212,1,0,0:0:0:0:
402,192,54327,1,0,0:0:0:0:
475,192,54442,1,0,0:0:0:0:
109,192,54558,1,0,0:0:0:0:
182,192,54558,1,0,0:0:0:0:
36,192,54673,1,0,0:0:0:0:
329,192,54789,128,0,55019:0:0:0:60:lowkick.wav
402,192,54789,128,0,55019:0:0:0:0:
475,192,54789,1,0,0:0:0:0:
36,192,55019,1,0,0:0:0:60:lowkick.wav
109,192,55019,1,0,0:0:0:0:
182,192,55019,1,0,0:0:0:0:
402,192,55192,1,0,0:0:0:0:
475,192,55192,1,0,0:0:0:0:
109,192,55423,1,0,0:0:0:0:
182,192,55423,1,0,0:0:0:0:
402,192,55712,1,0,0:0:0:0:
475,192,55712,1,0,0:0:0:0:
109,192,55827,1,0,0:0:0:0:
182,192,55827,1,0,0:0:0:0:
36,192,55942,1,0,0:0:0:60:SNARE ugh2.wav
256,192,55942,1,0,0:0:0:0:
329,192,56058,1,0,0:0:0:0:
402,192,56173,1,0,0:0:0:0:
475,192,56289,1,0,0:0:0:0:
109,192,56404,1,0,0:0:0:0:
182,192,56404,1,0,0:0:0:0:
36,192,56519,1,0,0:0:0:0:
329,192,56635,1,0,0:0:0:60:lowkick.wav
402,192,56635,128,0,56865:0:0:0:0:
475,192,56635,128,0,56865:0:0:0:0:
109,192,56865,1,0,0:0:0:60:lowkick.wav
182,192,56865,1,0,0:0:0:0:
256,192,56865,1,0,0:0:0:0:
329,192,57039,1,0,0:0:0:0:
402,192,57039,1,0,0:0:0:0:
109,192,57269,1,0,0:0:0:0:
182,192,57269,1,0,0:0:0:0:
329,192,57558,1,0,0:0:0:0:
402,192,57558,1,0,0:0:0:0:
109,192,57673,1,0,0:0:0:0:
182,192,57673,1,0,0:0:0:0:
256,192,57789,1,0,0:0:0:60:SNARE ugh2.wav
475,192,57789,1,0,0:0:0:0:
329,192,57904,1,0,0:0:0:0:
402,192,58019,1,0,0:0:0:0:
475,192,58135,1,0,0:0:0:0:
109,192,58250,1,0,0:0:0:0:
182,192,58250,1,0,0:0:0:0:
36,192,58365,1,0,0:0:0:0:
329,192,58481,128,0,58712:0:0:0:60:lowkick.wav
402,192,58481,128,0,58712:0:0:0:0:
475,192,58481,1,0,0:0:0:0:
36,192,58712,1,0,0:0:0:60:lowkick.wav
109,192,58712,1,0,0:0:0:0:
182,192,58712,1,0,0:0:0:0:
402,192,58885,1,0,0:0:0:0:
475,192,58885,1,0,0:0:0:0:
109,192,59115,1,0,0:0:0:0:
182,192,59115,1,0,0:0:0:0:
402,192,59404,1,0,0:0:0:0:
475,192,59404,1,0,0:0:0:0:
109,192,59519,1,0,0:0:0:0:
182,192,59519,1,0,0:0:0:0:
36,192,59635,1,0,0:0:0:60:SNARE ugh2.wav
256,192,59635,1,0,0:0:0:0:
182,192,59750,1,0,0:0:0:0:
109,192,59865,1,0,0:0:0:0:
36,192,59981,1,0,0:0:0:0:
329,192,60096,1,0,0:0:0:0:
402,192,60096,1,0,0:0:0:0:
475,192,60212,1,0,0:0:0:0:
109,192,60327,128,0,60558:0:0:0:60:lowkick.wav
182,192,60327,128,0,60558:0:0:0:0:
256,192,60327,1,0,0:0:0:0:
36,192,60558,1,0,0:0:0:60:lowkick.wav
329,192,60558,1,0,0:0:0:60:LR_CymbalG.wav
402,192,60558,1,0,0:0:0:0:
475,192,60558,1,0,0:0:0:0:
109,192,60731,1,0,0:0:0:0:
182,192,60731,1,0,0:0:0:0:
256,192,60904,1,0,0:0:0:60:SNARE ugh.wav
329,192,60904,1,0,0:0:0:0:
475,192,60904,1,0,0:0:0:0:
109,192,61250,1,0,0:0:0:0:
182,192,61250,1,0,0:0:0:0:
329,192,61365,1,0,0:0:0:0:
402,192,61365,1,0,0:0:0:0:
36,192,61481,1,0,0:0:0:60:SNARE ugh2.wav
256,192,61481,1,0,0:0:0:0:
475,192,61481,1,0,0:0:0:0:
109,192,61596,1,0,0:0:0:0:
182,192,61712,1,0,0:0:0:0:
256,192,61827,1,0,0:0:0:0:
329,192,61942,1,0,0:0:0:0:
402,192,61942,1,0,0:0:0:0:
475,192,62058,1,0,0:0:0:0:
36,192,62173,1,0,0:0:0:60:lowkick.wav
109,192,62173,128,0,62404:0:0:0:0:
182,192,62173,128,0,62404:0:0:0:0:
329,192,62404,1,0,0:0:0:60:lowkick.wav
402,192,62404,1,0,0:0:0:0:
475,192,62404,1,0,0:0:0:0:
36,192,62577,1,0,0:0:0:0:
109,192,62577,1,0,0:0:0:0:
256,192,62750,1,0,0:0:0:60:SNARE ugh.wav
329,192,62750,1,0,0:0:0:0:
475,192,62750,1,0,0:0:0:0:
36,192,63096,1,0,0:0:0:0:
109,192,63096,1,0,0:0:0:0:
329,192,63212,1,0,0:0:0:0:
402,192,63212,1,0,0:0:0:0:
182,192,63327,1,0,0:0:0:60:SNARE ugh2.wav
256,192,63327,1,0,0:0:0:0:
475,192,63327,1,0,0:0:0:0:
36,192,63442,1,0,0:0:0:0:
109,192,63558,1,0,0:0:0:0:
182,192,63673,1,0,0:0:0:0:
329,192,63789,1,0,0:0:0:0:
402,192,63789,1,0,0:0:0:0:
475,192,63904,1,0,0:0:0:0:
36,192,64019,128,0,64250:0:0:0:60:lowkick.wav
109,192,64019,128,0,64250:0:0:0:0:
182,192,64019,1,0,0:0:0:0:
329,192,64250,1,0,0:0:0:60:lowkick.wav
402,192,64250,1,0,0:0:0:0:
475,192,64250,1,0,0:0:0:0:
109,192,64423,1,0,0:0:0:0:
182,192,64423,1,0,0:0:0:0:
256,192,64596,1,0,0:0:0:60:SNARE ugh.wav
329,192,64596,1,0,0:0:0:0:
475,192,64596,1,0,0:0:0:0:
109,192,64942,1,0,0:0:0:0:
182,192,64942,1,0,0:0:0:0:
329,192,65058,1,0,0:0:0:0:
402,192,65058,1,0,0:0:0:0:
36,192,65173,1,0,0:0:0:60:SNARE ugh2.wav
256,192,65173,1,0,0:0:0:0:
475,192,65173,1,0,0:0:0:0:
109,192,65289,1,0,0:0:0:0:
182,192,65404,1,0,0:0:0:0:
256,192,65519,1,0,0:0:0:0:
329,192,65635,1,0,0:0:0:0:
402,192,65635,1,0,0:0:0:0:
475,192,65750,1,0,0:0:0:0:
36,192,65865,1,0,0:0:0:60:lowkick.wav
109,192,65865,128,0,66096:0:0:0:0:
182,192,65865,128,0,66096:0:0:0:0:
329,192,66096,1,0,0:0:0:60:lowkick.wav
402,192,66096,1,0,0:0:0:0:
475,192,66096,1,0,0:0:0:0:
36,192,66269,1,0,0:0:0:0:
109,192,66269,1,0,0:0:0:0:
256,192,66442,1,0,0:0:0:60:SNARE ugh.wav
329,192,66442,1,0,0:0:0:0:
475,192,66442,1,0,0:0:0:0:
36,192,66789,1,0,0:0:0:0:
109,192,66789,1,0,0:0:0:0:
329,192,66904,1,0,0:0:0:0:
402,192,66904,1,0,0:0:0:0:
182,192,67019,1,0,0:0:0:60:SNARE ugh2.wav
256,192,67019,1,0,0:0:0:0:
475,192,67019,1,0,0:0:0:0:
109,192,67135,1,0,0:0:0:0:
329,192,67250,1,0,0:0:0:0:
402,192,67365,1,0,0:0:0:0:
109,192,67481,1,0,0:0:0:0:
182,192,67481,1,0,0:0:0:0:
36,192,67596,1,0,0:0:0:60:SNARE ugh2.wav
256,192,67712,1,0,0:0:0:60:lowkick.wav
329,192,67712,128,0,67942:0:0:0:0:
402,192,67712,128,0,67942:0:0:0:0:
36,192,67942,1,0,0:0:0:60:lowkick.wav
109,192,67942,1,0,0:0:0:60:LR_CymbalG.wav
182,192,67942,1,0,0:0:0:0:
475,192,67942,1,0,0:0:0:0:
329,192,68115,1,0,0:0:0:0:
402,192,68115,1,0,0:0:0:0:
36,192,68289,1,0,0:0:0:60:SNARE ugh.wav
182,192,68289,1,0,0:0:0:0:
256,192,68289,1,0,0:0:0:0:
329,192,68635,1,0,0:0:0:0:
402,192,68635,1,0,0:0:0:0:
109,192,68750,1,0,0:0:0:0:
182,192,68750,1,0,0:0:0:0:
36,192,68865,1,0,0:0:0:60:SNARE ugh2.wav
256,192,68865,1,0,0:0:0:0:
475,192,68865,1,0,0:0:0:0:
402,192,68981,1,0,0:0:0:0:
329,192,69096,1,0,0:0:0:0:
256,192,69212,1,0,0:0:0:0:
109,192,69327,1,0,0:0:0:0:
182,192,69327,1,0,0:0:0:0:
36,192,69442,1,0,0:0:0:0:
329,192,69558,128,0,69789:0:0:0:60:lowkick.wav
402,192,69558,128,0,69789:0:0:0:0:
475,192,69558,1,0,0:0:0:0:
36,192,69789,1,0,0:0:0:60:lowkick.wav
109,192,69789,1,0,0:0:0:0:
182,192,69789,1,0,0:0:0:0:
402,192,69962,1,0,0:0:0:0:
475,192,69962,1,0,0:0:0:0:
36,192,70135,1,0,0:0:0:60:SNARE ugh.wav
182,192,70135,1,0,0:0:0:0:
256,192,70135,1,0,0:0:0:0:
402,192,70481,1,0,0:0:0:0:
475,192,70481,1,0,0:0:0:0:
109,192,70596,1,0,0:0:0:0:
182,192,70596,1,0,0:0:0:0:
36,192,70712,1,0,0:0:0:60:SNARE ugh2.wav
256,192,70712,1,0,0:0:0:0:
329,192,70712,1,0,0:0:0:0:
475,192,70827,1,0,0:0:0:0:
402,192,70942,1,0,0:0:0:0:
329,192,71058,1,0,0:0:0:0:
109,192,71173,1,0,0:0:0:0:
182,192,71173,1,0,0:0:0:0:
36,192,71289,1,0,0:0:0:0:
329,192,71404,1,0,0:0:0:60:lowkick.wav
402,192,71404,128,0,71635:0:0:0:0:
475,192,71404,128,0,71635:0:0:0:0:
36,192,71635,1,0,0:0:0:60:lowkick.wav
109,192,71635,1,0,0:0:0:0:
182,192,71635,1,0,0:0:0:0:
329,192,71808,1,0,0:0:0:0:
402,192,71808,1,0,0:0:0:0:
36,192,71981,1,0,0:0:0:60:SNARE ugh.wav
182,192,71981,1,0,0:0:0:0:
256,192,71981,1,0,0:0:0:0:
329,192,72327,1,0,0:0:0:0:
402,192,72327,1,0,0:0:0:0:
109,192,72442,1,0,0:0:0:0:
182,192,72442,1,0,0:0:0:0:
36,192,72558,1,0,0:0:0:60:SNARE ugh2.wav
256,192,72558,1,0,0:0:0:0:
475,192,72558,1,0,0:0:0:0:
402,192,72673,1,0,0:0:0:0:
329,192,72789,1,0,0:0:0:0:
256,192,72904,1,0,0:0:0:0:
109,192,73019,1,0,0:0:0:0:
182,192,73019,1,0,0:0:0:0:
36,192,73135,1,0,0:0:0:0:
329,192,73250,128,0,73481:0:0:0:60:lowkick.wav
402,192,73250,128,0,73481:0:0:0:0:
475,192,73250,1,0,0:0:0:0:
36,192,73481,1,0,0:0:0:60:lowkick.wav
109,192,73481,1,0,0:0:0:0:
182,192,73481,1,0,0:0:0:0:
402,192,73654,1,0,0:0:0:0:
475,192,73654,1,0,0:0:0:0:
36,192,73827,1,0,0:0:0:60:SNARE ugh.wav
182,192,73827,1,0,0:0:0:0:
256,192,73827,1,0,0:0:0:0:
402,192,74173,1,0,0:0:0:0:
475,192,74173,1,0,0:0:0:0:
109,192,74289,1,0,0:0:0:0:
182,192,74289,1,0,0:0:0:0:
36,192,74404,1,0,0:0:0:60:SNARE ugh2.wav
256,192,74404,1,0,0:0:0:0:
329,192,74404,1,0,0:0:0:0:
475,192,74519,1,0,0:0:0:0:
402,192,74635,1,0,0:0:0:0:
329,192,74750,1,0,0:0:0:0:
109,192,74865,1,0,0:0:0:0:
182,192,74865,1,0,0:0:0:0:
36,192,74981,1,0,0:0:0:0:
329,192,75096,1,0,0:0:0:60:lowkick.wav
402,192,75096,128,0,75327:0:0:0:0:
475,192,75096,128,0,75327:0:0:0:0:
256,192,75327,128,0,77173:0:0:0:0:
182,192,79712,128,0,80865:0:0:0:0:
109,192,81096,128,0,81327:0:0:0:0:
36,192,81327,128,0,81558:0:0:0:0:
329,192,81789,128,0,82250:0:0:0:0:
109,192,82712,1,0,0:0:0:60:lowkick.wav
182,192,82712,1,0,0:0:0:0:
329,192,82712,1,0,0:0:0:0:
402,192,82712,1,0,0:0:0:0:
256,192,83058,1,0,0:0:0:60:SNARE ugh.wav
475,192,83058,1,0,0:0:0:0:
109,192,83173,1,0,0:0:0:0:
182,192,83289,1,0,0:0:0:0:
256,192,83404,1,0,0:0:0:60:SNARE ugh.wav
475,192,83404,1,0,0:0:0:0:
182,192,83519,1,0,0:0:0:0:
109,192,83635,1,0,0:0:0:0:
256,192,83750,1,0,0:0:0:60:SNARE ugh.wav
475,192,83750,1,0,0:0:0:0:
109,192,83865,1,0,0:0:0:0:
36,192,83981,1,0,0:0:0:0:
182,192,84096,1,0,0:0:0:0:
329,192,84212,1,0,0:0:0:0:
36,192,84327,1,0,0:0:0:60:lowkick.wav
475,192,84327,1,0,0:0:0:60:SNARE ugh2.wav
109,192,84558,1,0,0:0:0:60:lowkick.wav
182,192,84558,1,0,0:0:0:0:
329,192,84558,1,0,0:0:0:0:
402,192,84558,1,0,0:0:0:0:
36,192,84904,1,0,0:0:0:60:SNARE ugh.wav
256,192,84904,1,0,0:0:0:0:
402,192,85019,1,0,0:0:0:0:
329,192,85135,1,0,0:0:0:0:
36,192,85250,1,0,0:0:0:60:SNARE ugh.wav
256,192,85250,1,0,0:0:0:0:
329,192,85365,1,0,0:0:0:0:
402,192,85481,1,0,0:0:0:0:
36,192,85596,1,0,0:0:0:60:SNARE ugh.wav
256,192,85596,1,0,0:0:0:0:
402,192,85712,1,0,0:0:0:0:
475,192,85827,1,0,0:0:0:0:
329,192,85942,1,0,0:0:0:0:
182,192,86058,1,0,0:0:0:0:
36,192,86173,1,0,0:0:0:60:lowkick.wav
475,192,86173,1,0,0:0:0:60:SNARE ugh2.wav
109,192,86404,1,0,0:0:0:60:lowkick.wav
182,192,86404,1,0,0:0:0:0:
329,192,86404,1,0,0:0:0:0:
402,192,86404,1,0,0:0:0:0:
256,192,86750,1,0,0:0:0:60:SNARE ugh.wav
475,192,86750,1,0,0:0:0:0:
182,192,86865,1,0,0:0:0:0:
109,192,86981,1,0,0:0:0:0:
256,192,87096,1,0,0:0:0:60:SNARE ugh.wav
475,192,87096,1,0,0:0:0:0:
109,192,87212,1,0,0:0:0:0:
182,192,87327,1,0,0:0:0:0:
256,192,87442,1,0,0:0:0:60:SNARE ugh.wav
475,192,87442,1,0,0:0:0:0:
109,192,87558,1,0,0:0:0:0:
36,192,87673,1,0,0:0:0:0:
182,192,87789,1,0,0:0:0:0:
329,192,87904,1,0,0:0:0:0:
36,192,88019,1,0,0:0:0:60:lowkick.wav
475,192,88019,1,0,0:0:0:60:SNARE ugh2.wav
109,192,88250,1,0,0:0:0:60:lowkick.wav
182,192,88250,1,0,0:0:0:0:
329,192,88250,1,0,0:0:0:0:
402,192,88250,1,0,0:0:0:0:
36,192,88596,1,0,0:0:0:60:SNARE ugh.wav
256,192,88596,1,0,0:0:0:0:
402,192,88712,1,0,0:0:0:0:
329,192,88827,1,0,0:0:0:0:
36,192,88942,1,0,0:0:0:60:SNARE ugh.wav
256,192,88942,1,0,0:0:0:0:
329,192,89058,1,0,0:0:0:0:
402,192,89173,1,0,0:0:0:0:
36,192,89289,1,0,0:0:0:60:SNARE ugh.wav
256,192,89289,1,0,0:0:0:0:
402,192,89404,1,0,0:0:0:0:
475,192,89519,1,0,0:0:0:0:
182,192,89635,1,0,0:0:0:0:
36,192,89865,1,0,0:0:0:60:lowkick.wav
475,192,89865,1,0,0:0:0:60:SNARE ugh2.wav
402,192,90212,1,0,0:0:0:0:
109,192,90789,1,0,0:0:0:0:
109,192,91135,1,0,0:0:0:0:
109,192,91481,1,0,0:0:0:0:
402,192,92058,1,0,0:0:0:0:
109,192,92635,1,0,0:0:0:0:
109,192,92981,1,0,0:0:0:0:
109,192,93327,1,0,0:0:0:0:
402,192,93904,1,0,0:0:0:0:
109,192,94481,1,0,0:0:0:0:
109,192,94827,1,0,0:0:0:0:
109,192,95173,1,0,0:0:0:0:
402,192,95750,1,0,0:0:0:0:
109,192,96327,1,0,0:0:0:0:
109,192,96673,1,0,0:0:0:0:
109,192,97019,1,0,0:0:0:0:
36,192,97481,1,0,0:0:0:60:lowkick.wav
182,192,97481,1,0,0:0:0:60:LR_CymbalG.wav
475,192,97481,1,0,0:0:0:0:
329,192,97635,1,0,0:0:0:60:tom01.wav
182,192,97789,1,0,0:0:0:60:tom02.wav
36,192,97942,1,0,0:0:0:60:lowkick.wav
109,192,97942,1,0,0:0:0:60:LR_Clap Low Drop.wav
402,192,97942,1,0,0:0:0:0:
475,192,97942,1,0,0:0:0:0:
36,192,98173,1,0,0:0:0:60:lowkick.wav
109,192,98173,1,0,0:0:0:60:LR_Clap Low Drop.wav
402,192,98173,1,0,0:0:0:0:
475,192,98173,1,0,0:0:0:0:
36,192,98519,1,0,0:0:0:60:lowkick.wav
109,192,98519,1,0,0:0:0:60:LR_Clap Low Drop.wav
402,192,98519,1,0,0:0:0:0:
475,192,98519,1,0,0:0:0:0:
36,192,98865,1,0,0:0:0:60:lowkick.wav
109,192,98865,1,0,0:0:0:60:LR_Clap Low Drop.wav
402,192,98865,1,0,0:0:0:0:
475,192,98865,1,0,0:0:0:0:
256,192,99096,128,0,99327:0:0:0:60:lowkick.wav
36,192,99327,1,0,0:0:0:60:lowkick.wav
329,192,99327,1,0,0:0:0:60:LR_CymbalG.wav
475,192,99327,1,0,0:0:0:0:
182,192,99481,1,0,0:0:0:60:tom01.wav
329,192,99635,1,0,0:0:0:60:tom02.wav
36,192,99789,1,0,0:0:0:60:lowkick.wav
109,192,99789,1,0,0:0:0:60:LR_Clap Low Drop.wav
402,192,99789,1,0,0:0:0:0:
475,192,99789,1,0,0:0:0:0:
36,192,100019,1,0,0:0:0:60:lowkick.wav
109,192,100019,1,0,0:0:0:60:LR_Clap Low Drop.wav
402,192,100019,1,0,0:0:0:0:
475,192,100019,1,0,0:0:0:0:
36,192,100365,1,0,0:0:0:60:lowkick.wav
109,192,100365,1,0,0:0:0:60:LR_Clap Low Drop.wav
402,192,100365,1,0,0:0:0:0:
475,192,100365,1,0,0:0:0:0:
36,192,100712,1,0,0:0:0:60:lowkick.wav
109,192,100712,1,0,0:0:0:60:LR_Clap Low Drop.wav
402,192,100712,1,0,0:0:0:0:
475,192,100712,1,0,0:0:0:0:
256,192,100942,128,0,101173:0:0:0:0:
36,192,101173,1,0,0:0:0:60:lowkick.wav
182,192,101173,1,0,0:0:0:60:LR_CymbalG.wav
475,192,101173,1,0,0:0:0:0:
329,192,101327,1,0,0:0:0:60:tom01.wav
182,192,101519,1,0,0:0:0:0:
36,192,101635,1,0,0:0:0:60:lowkick.wav
109,192,101635,1,0,0:0:0:60:LR_Clap Low Drop.wav
402,192,101635,1,0,0:0:0:0:
475,192,101635,1,0,0:0:0:0:
36,192,101865,1,0,0:0:0:60:lowkick.wav
109,192,101865,1,0,0:0:0:60:LR_Clap Low Drop.wav
402,192,101865,1,0,0:0:0:0:
475,192,101865,1,0,0:0:0:0:
36,192,102212,1,0,0:0:0:60:lowkick.wav
109,192,102212,1,0,0:0:0:60:LR_Clap Low Drop.wav
402,192,102212,1,0,0:0:0:0:
475,192,102212,1,0,0:0:0:0:
36,192,102558,1,0,0:0:0:60:lowkick.wav
109,192,102558,1,0,0:0:0:60:LR_Clap Low Drop.wav
402,192,102558,1,0,0:0:0:0:
475,192,102558,1,0,0:0:0:0:
256,192,102789,128,0,103019:0:0:0:0:
36,192,103019,1,0,0:0:0:60:lowkick.wav
329,192,103019,1,0,0:0:0:60:LR_CymbalG.wav
475,192,103019,1,0,0:0:0:0:
182,192,103173,1,0,0:0:0:60:tom01.wav
329,192,103327,1,0,0:0:0:60:tom02.wav
36,192,103481,1,0,0:0:0:60:lowkick.wav
182,192,103481,1,0,0:0:0:60:LR_Clap Low Drop.wav
402,192,103481,1,0,0:0:0:0:
475,192,103481,1,0,0:0:0:0:
36,192,103712,1,0,0:0:0:60:lowkick.wav
182,192,103712,1,0,0:0:0:60:LR_Clap Low Drop.wav
402,192,103712,1,0,0:0:0:0:
475,192,103712,1,0,0:0:0:0:
109,192,104058,1,0,0:0:0:60:lowkick.wav
182,192,104058,1,0,0:0:0:60:LR_Clap Low Drop.wav
402,192,104058,1,0,0:0:0:0:
475,192,104058,1,0,0:0:0:0:
109,192,104404,1,0,0:0:0:60:lowkick.wav
182,192,104404,1,0,0:0:0:60:LR_Clap Low Drop.wav
402,192,104404,1,0,0:0:0:0:
475,192,104404,1,0,0:0:0:0:
256,192,104635,128,0,104865:0:0:0:60:lowkick.wav
329,192,104635,1,0,0:0:0:0:
36,192,104865,1,0,0:0:0:60:lowkick.wav
182,192,104865,1,0,0:0:0:60:LR_CymbalG.wav
475,192,104865,1,0,0:0:0:0:
329,192,105019,1,0,0:0:0:60:tom01.wav
182,192,105173,1,0,0:0:0:60:tom02.wav
36,192,105327,1,0,0:0:0:60:lowkick.wav
109,192,105327,1,0,0:0:0:60:LR_Clap Low Drop.wav
402,192,105327,1,0,0:0:0:0:
475,192,105327,1,0,0:0:0:0:
36,192,105558,1,0,0:0:0:60:lowkick.wav
109,192,105558,1,0,0:0:0:60:LR_Clap Low Drop.wav
402,192,105558,1,0,0:0:0:0:
475,192,105558,1,0,0:0:0:0:
36,192,105904,1,0,0:0:0:60:lowkick.wav
109,192,105904,1,0,0:0:0:60:LR_Clap Low Drop.wav
402,192,105904,1,0,0:0:0:0:
475,192,105904,1,0,0:0:0:0:
36,192,106250,1,0,0:0:0:60:lowkick.wav
109,192,106250,1,0,0:0:0:60:LR_Clap Low Drop.wav
402,192,106250,1,0,0:0:0:0:
475,192,106250,1,0,0:0:0:0:
256,192,106481,128,0,106712:0:0:0:0:
36,192,106712,1,0,0:0:0:60:lowkick.wav
329,192,106712,1,0,0:0:0:60:LR_CymbalG.wav
475,192,106712,1,0,0:0:0:0:
182,192,106865,1,0,0:0:0:60:tom01.wav
329,192,107019,1,0,0:0:0:60:tom02.wav
36,192,107173,1,0,0:0:0:60:lowkick.wav
109,192,107173,1,0,0:0:0:60:LR_Clap Low Drop.wav
402,192,107173,1,0,0:0:0:0:
475,192,107173,1,0,0:0:0:0:
36,192,107404,1,0,0:0:0:60:lowkick.wav
109,192,107404,1,0,0:0:0:60:LR_Clap Low Drop.wav
402,192,107404,1,0,0:0:0:0:
475,192,107404,1,0,0:0:0:0:
36,192,107750,1,0,0:0:0:60:lowkick.wav
109,192,107750,1,0,0:0:0:60:LR_Clap Low Drop.wav
402,192,107750,1,0,0:0:0:0:
475,192,107750,1,0,0:0:0:0:
36,192,108096,1,0,0:0:0:60:lowkick.wav
109,192,108096,1,0,0:0:0:60:LR_Clap Low Drop.wav
402,192,108096,1,0,0:0:0:0:
475,192,108096,1,0,0:0:0:0:
256,192,108327,128,0,108558:0:0:0:0:
36,192,108558,1,0,0:0:0:60:lowkick.wav
182,192,108558,1,0,0:0:0:60:LR_CymbalG.wav
475,192,108558,1,0,0:0:0:0:
329,192,108712,1,0,0:0:0:60:tom01.wav
182,192,108865,1,0,0:0:0:60:tom02.wav
36,192,109019,1,0,0:0:0:60:lowkick.wav
109,192,109019,1,0,0:0:0:60:LR_Clap Low Drop.wav
402,192,109019,1,0,0:0:0:0:
475,192,109019,1,0,0:0:0:0:
36,192,109250,1,0,0:0:0:60:lowkick.wav
109,192,109250,1,0,0:0:0:60:LR_Clap Low Drop.wav
402,192,109250,1,0,0:0:0:0:
475,192,109250,1,0,0:0:0:0:
36,192,109596,1,0,0:0:0:60:lowkick.wav
109,192,109596,1,0,0:0:0:60:LR_Clap Low Drop.wav
402,192,109596,1,0,0:0:0:0:
475,192,109596,1,0,0:0:0:0:
36,192,109942,1,0,0:0:0:60:lowkick.wav
109,192,109942,1,0,0:0:0:60:LR_Clap Low Drop.wav
402,192,109942,1,0,0:0:0:0:
475,192,109942,1,0,0:0:0:0:
256,192,110173,128,0,110404:0:0:0:0:
36,192,110404,1,0,0:0:0:60:lowkick.wav
182,192,110404,1,0,0:0:0:60:LR_CymbalG.wav
475,192,110404,1,0,0:0:0:0:
329,192,110558,1,0,0:0:0:60:tom01.wav
182,192,110712,1,0,0:0:0:60:tom02.wav
36,192,110865,1,0,0:0:0:60:lowkick.wav
109,192,110865,1,0,0:0:0:60:LR_Clap Low Drop.wav
329,192,110865,1,0,0:0:0:0:
475,192,110865,1,0,0:0:0:0:
36,192,111096,1,0,0:0:0:60:lowkick.wav
109,192,111096,1,0,0:0:0:60:LR_Clap Low Drop.wav
329,192,111096,1,0,0:0:0:0:
475,192,111096,1,0,0:0:0:0:
36,192,111442,1,0,0:0:0:60:lowkick.wav
109,192,111442,1,0,0:0:0:60:LR_Clap Low Drop.wav
329,192,111442,1,0,0:0:0:0:
402,192,111442,1,0,0:0:0:0:
36,192,111789,1,0,0:0:0:60:lowkick.wav
109,192,111789,1,0,0:0:0:60:LR_Clap Low Drop.wav
329,192,111789,1,0,0:0:0:0:
402,192,111789,1,0,0:0:0:0:
182,192,112019,1,0,0:0:0:60:lowkick.wav
256,192,112019,128,0,112250:0:0:0:0:
402,192,112250,1,0,0:0:0:60:lowkick.wav
475,192,112250,1,0,0:0:0:0:
36,192,112481,1,0,0:0:0:60:lowkick.wav
109,192,112481,1,0,0:0:0:0:
402,192,112558,1,0,0:0:0:60:lowkick.wav
475,192,112558,1,0,0:0:0:0:
36,192,112712,1,0,0:0:0:60:lowkick.wav
109,192,112712,1,0,0:0:0:0:
402,192,112865,1,0,0:0:0:60:lowkick.wav
475,192,112865,1,0,0:0:0:0:
36,192,113019,1,0,0:0:0:60:lowkick.wav
109,192,113019,1,0,0:0:0:0:
402,192,113173,1,0,0:0:0:60:lowkick.wav
475,192,113173,1,0,0:0:0:0:
36,192,113327,1,0,0:0:0:60:lowkick.wav
109,192,113327,1,0,0:0:0:0:
402,192,113481,1,0,0:0:0:60:lowkick.wav
475,192,113481,1,0,0:0:0:0:
36,192,113635,1,0,0:0:0:60:lowkick.wav
109,192,113635,1,0,0:0:0:0:
36,192,114096,1,0,0:0:0:60:lowkick.wav
256,192,114096,1,0,0:0:0:60:LR_CymbalG.wav
329,192,114096,1,0,0:0:0:0:
402,192,114096,1,0,0:0:0:0:
109,192,114269,1,0,0:0:0:0:
182,192,114269,1,0,0:0:0:0:
329,192,114500,1,0,0:0:0:0:
402,192,114500,1,0,0:0:0:0:
109,192,114789,1,0,0:0:0:0:
182,192,114789,1,0,0:0:0:0:
329,192,114904,1,0,0:0:0:0:
402,192,114904,1,0,0:0:0:0:
36,192,115019,1,0,0:0:0:60:SNARE ugh2.wav
256,192,115019,1,0,0:0:0:0:
182,192,115135,1,0,0:0:0:0:
109,192,115250,1,0,0:0:0:0:
256,192,115365,1,0,0:0:0:0:
329,192,115481,1,0,0:0:0:0:
402,192,115481,1,0,0:0:0:0:
475,192,115596,1,0,0:0:0:0:
36,192,115712,1,0,0:0:0:60:lowkick.wav
109,192,115712,128,0,115942:0:0:0:0:
182,192,115712,128,0,115942:0:0:0:0:
329,192,115942,1,0,0:0:0:60:lowkick.wav
402,192,115942,1,0,0:0:0:0:
475,192,115942,1,0,0:0:0:0:
36,192,116115,1,0,0:0:0:0:
109,192,116115,1,0,0:0:0:0:
329,192,116346,1,0,0:0:0:0:
402,192,116346,1,0,0:0:0:0:
36,192,116635,1,0,0:0:0:0:
109,192,116635,1,0,0:0:0:0:
329,192,116750,1,0,0:0:0:0:
402,192,116750,1,0,0:0:0:0:
256,192,116865,1,0,0:0:0:60:SNARE ugh2.wav
475,192,116865,1,0,0:0:0:0:
109,192,116981,1,0,0:0:0:0:
36,192,117096,1,0,0:0:0:0:
256,192,117212,1,0,0:0:0:0:
329,192,117327,1,0,0:0:0:0:
402,192,117327,1,0,0:0:0:0:
475,192,117442,1,0,0:0:0:0:
36,192,117558,128,0,117789:0:0:0:60:lowkick.wav
109,192,117558,128,0,117789:0:0:0:0:
182,192,117558,1,0,0:0:0:0:
256,192,117789,1,0,0:0:0:60:lowkick.wav
329,192,117789,1,0,0:0:0:0:
402,192,117789,1,0,0:0:0:0:
109,192,117962,1,0,0:0:0:0:
182,192,117962,1,0,0:0:0:0:
329,192,118192,1,0,0:0:0:0:
402,192,118192,1,0,0:0:0:0:
109,192,118481,1,0,0:0:0:0:
182,192,118481,1,0,0:0:0:0:
329,192,118596,1,0,0:0:0:0:
402,192,118596,1,0,0:0:0:0:
36,192,118712,1,0,0:0:0:60:SNARE ugh2.wav
256,192,118712,1,0,0:0:0:0:
182,192,118827,1,0,0:0:0:0:
109,192,118942,1,0,0:0:0:0:
256,192,119058,1,0,0:0:0:0:
329,192,119173,1,0,0:0:0:0:
402,192,119173,1,0,0:0:0:0:
475,192,119289,1,0,0:0:0:0:
36,192,119404,1,0,0:0:0:60:lowkick.wav
109,192,119404,128,0,119635:0:0:0:0:
182,192,119404,128,0,119635:0:0:0:0:
329,192,119635,1,0,0:0:0:60:lowkick.wav
402,192,119635,1,0,0:0:0:0:
475,192,119635,1,0,0:0:0:0:
36,192,119808,1,0,0:0:0:0:
109,192,119808,1,0,0:0:0:0:
329,192,120039,1,0,0:0:0:0:
402,192,120039,1,0,0:0:0:0:
36,192,120327,1,0,0:0:0:0:
109,192,120327,1,0,0:0:0:0:
329,192,120442,1,0,0:0:0:0:
402,192,120442,1,0,0:0:0:0:
256,192,120558,1,0,0:0:0:60:SNARE ugh2.wav
475,192,120558,1,0,0:0:0:0:
182,192,120673,1,0,0:0:0:0:
329,192,120789,1,0,0:0:0:0:
402,192,120904,1,0,0:0:0:0:
109,192,121019,1,0,0:0:0:0:
182,192,121019,1,0,0:0:0:0:
36,192,121135,1,0,0:0:0:0:
256,192,121250,1,0,0:0:0:60:lowkick.wav
329,192,121250,128,0,121481:0:0:0:0:
402,192,121250,128,0,121481:0:0:0:0:
36,192,121481,1,0,0:0:0:60:lowkick.wav
109,192,121481,1,0,0:0:0:60:LR_CymbalG.wav
182,192,121481,1,0,0:0:0:0:
475,192,121481,1,0,0:0:0:0:
329,192,121654,1,0,0:0:0:0:
402,192,121654,1,0,0:0:0:0:
109,192,121885,1,0,0:0:0:0:
182,192,121885,1,0,0:0:0:0:
329,192,122173,1,0,0:0:0:0:
402,192,122173,1,0,0:0:0:0:
109,192,122289,1,0,0:0:0:0:
182,192,122289,1,0,0:0:0:0:
256,192,122404,1,0,0:0:0:60:SNARE ugh2.wav
475,192,122404,1,0,0:0:0:0:
329,192,122519,1,0,0:0:0:0:
402,192,122635,1,0,0:0:0:0:
256,192,122750,1,0,0:0:0:0:
109,192,122865,1,0,0:0:0:0:
182,192,122865,1,0,0:0:0:0:
36,192,122981,1,0,0:0:0:0:
329,192,123096,128,0,123327:0:0:0:60:lowkick.wav
402,192,123096,128,0,123327:0:0:0:0:
475,192,123096,1,0,0:0:0:0:
36,192,123327,1,0,0:0:0:60:lowkick.wav
109,192,123327,1,0,0:0:0:0:
182,192,123327,1,0,0:0:0:0:
402,192,123500,1,0,0:0:0:0:
475,192,123500,1,0,0:0:0:0:
109,192,123731,1,0,0:0:0:0:
182,192,123731,1,0,0:0:0:0:
402,192,124019,1,0,0:0:0:0:
475,192,124019,1,0,0:0:0:0:
109,192,124135,1,0,0:0:0:0:
182,192,124135,1,0,0:0:0:0:
36,192,124250,1,0,0:0:0:60:SNARE ugh2.wav
256,192,124250,1,0,0:0:0:0:
402,192,124365,1,0,0:0:0:0:
475,192,124481,1,0,0:0:0:0:
256,192,124596,1,0,0:0:0:0:
109,192,124712,1,0,0:0:0:0:
182,192,124712,1,0,0:0:0:0:
36,192,124827,1,0,0:0:0:0:
329,192,124942,1,0,0:0:0:60:lowkick.wav
402,192,124942,128,0,125173:0:0:0:0:
475,192,124942,128,0,125173:0:0:0:0:
109,192,125173,1,0,0:0:0:60:lowkick.wav
182,192,125173,1,0,0:0:0:0:
256,192,125173,1,0,0:0:0:0:
329,192,125346,1,0,0:0:0:0:
402,192,125346,1,0,0:0:0:0:
109,192,125577,1,0,0:0:0:0:
182,192,125577,1,0,0:0:0:0:
329,192,125865,1,0,0:0:0:0:
402,192,125865,1,0,0:0:0:0:
109,192,125981,1,0,0:0:0:0:
182,192,125981,1,0,0:0:0:0:
256,192,126096,1,0,0:0:0:60:SNARE ugh2.wav
475,192,126096,1,0,0:0:0:0:
329,192,126212,1,0,0:0:0:0:
402,192,126327,1,0,0:0:0:0:
256,192,126442,1,0,0:0:0:0:
109,192,126558,1,0,0:0:0:0:
182,192,126558,1,0,0:0:0:0:
36,192,126673,1,0,0:0:0:0:
329,192,126789,128,0,127019:0:0:0:60:lowkick.wav
402,192,126789,128,0,127019:0:0:0:0:
475,192,126789,1,0,0:0:0:0:
36,192,127019,1,0,0:0:0:60:lowkick.wav
109,192,127019,1,0,0:0:0:0:
182,192,127019,1,0,0:0:0:0:
402,192,127192,1,0,0:0:0:0:
475,192,127192,1,0,0:0:0:0:
109,192,127423,1,0,0:0:0:0:
182,192,127423,1,0,0:0:0:0:
402,192,127712,1,0,0:0:0:0:
475,192,127712,1,0,0:0:0:0:
109,192,127827,1,0,0:0:0:0:
182,192,127827,1,0,0:0:0:0:
36,192,127942,1,0,0:0:0:60:SNARE ugh2.wav
256,192,127942,1,0,0:0:0:0:
182,192,128058,1,0,0:0:0:0:
109,192,128173,1,0,0:0:0:0:
256,192,128289,1,0,0:0:0:0:
329,192,128404,1,0,0:0:0:0:
402,192,128404,1,0,0:0:0:0:
475,192,128519,1,0,0:0:0:0:
109,192,128635,128,0,128865:0:0:0:60:lowkick.wav
182,192,128635,128,0,128865:0:0:0:0:
256,192,128635,1,0,0:0:0:0:
36,192,128865,1,0,0:0:0:60:lowkick.wav
329,192,128865,1,0,0:0:0:60:LR_CymbalG.wav
402,192,128865,1,0,0:0:0:0:
475,192,128865,1,0,0:0:0:0:
109,192,129039,1,0,0:0:0:0:
182,192,129039,1,0,0:0:0:0:
329,192,129269,1,0,0:0:0:0:
402,192,129269,1,0,0:0:0:0:
109,192,129558,1,0,0:0:0:0:
182,192,129558,1,0,0:0:0:0:
329,192,129673,1,0,0:0:0:0:
402,192,129673,1,0,0:0:0:0:
256,192,129789,1,0,0:0:0:0:
182,192,129904,1,0,0:0:0:0:
109,192,130019,1,0,0:0:0:0:
36,192,130135,1,0,0:0:0:0:
329,192,130250,1,0,0:0:0:0:
402,192,130250,1,0,0:0:0:0:
256,192,130365,1,0,0:0:0:0:
36,192,130481,1,0,0:0:0:60:lowkick.wav
109,192,130481,128,0,130712:0:0:0:0:
182,192,130481,128,0,130712:0:0:0:0:
329,192,130712,1,0,0:0:0:60:lowkick.wav
402,192,130712,1,0,0:0:0:0:
475,192,130712,1,0,0:0:0:0:
36,192,130885,1,0,0:0:0:0:
109,192,130885,1,0,0:0:0:0:
256,192,131058,1,0,0:0:0:60:SNARE ugh.wav
329,192,131058,1,0,0:0:0:0:
475,192,131058,1,0,0:0:0:0:
36,192,131404,1,0,0:0:0:0:
109,192,131404,1,0,0:0:0:0:
329,192,131519,1,0,0:0:0:0:
402,192,131519,1,0,0:0:0:0:
182,192,131635,1,0,0:0:0:60:SNARE ugh2.wav
256,192,131635,1,0,0:0:0:0:
475,192,131635,1,0,0:0:0:0:
36,192,131750,1,0,0:0:0:0:
109,192,131865,1,0,0:0:0:0:
182,192,131981,1,0,0:0:0:0:
329,192,132096,1,0,0:0:0:0:
402,192,132096,1,0,0:0:0:0:
475,192,132212,1,0,0:0:0:0:
36,192,132327,128,0,132558:0:0:0:60:lowkick.wav
109,192,132327,128,0,132558:0:0:0:0:
182,192,132327,1,0,0:0:0:0:
329,192,132558,1,0,0:0:0:60:lowkick.wav
402,192,132558,1,0,0:0:0:0:
475,192,132558,1,0,0:0:0:0:
109,192,132731,1,0,0:0:0:0:
182,192,132731,1,0,0:0:0:0:
256,192,132904,1,0,0:0:0:60:SNARE ugh.wav
329,192,132904,1,0,0:0:0:0:
475,192,132904,1,0,0:0:0:0:
109,192,133250,1,0,0:0:0:0:
182,192,133250,1,0,0:0:0:0:
329,192,133365,1,0,0:0:0:0:
402,192,133365,1,0,0:0:0:0:
36,192,133481,1,0,0:0:0:60:SNARE ugh2.wav
256,192,133481,1,0,0:0:0:0:
475,192,133481,1,0,0:0:0:0:
109,192,133596,1,0,0:0:0:0:
182,192,133712,1,0,0:0:0:0:
256,192,133827,1,0,0:0:0:0:
329,192,133942,1,0,0:0:0:0:
402,192,133942,1,0,0:0:0:0:
475,192,134058,1,0,0:0:0:0:
36,192,134173,1,0,0:0:0:60:lowkick.wav
109,192,134173,128,0,134404:0:0:0:0:
182,192,134173,128,0,134404:0:0:0:0:
329,192,134404,1,0,0:0:0:60:lowkick.wav
402,192,134404,1,0,0:0:0:0:
475,192,134404,1,0,0:0:0:0:
36,192,134577,1,0,0:0:0:0:
109,192,134577,1,0,0:0:0:0:
256,192,134750,1,0,0:0:0:60:SNARE ugh.wav
329,192,134750,1,0,0:0:0:0:
475,192,134750,1,0,0:0:0:0:
36,192,135096,1,0,0:0:0:0:
109,192,135096,1,0,0:0:0:0:
329,192,135212,1,0,0:0:0:0:
402,192,135212,1,0,0:0:0:0:
182,192,135327,1,0,0:0:0:60:SNARE ugh2.wav
256,192,135327,1,0,0:0:0:0:
475,192,135327,1,0,0:0:0:0:
109,192,135442,1,0,0:0:0:0:
329,192,135558,1,0,0:0:0:0:
402,192,135673,1,0,0:0:0:0:
109,192,135789,1,0,0:0:0:0:
182,192,135789,1,0,0:0:0:0:
36,192,135904,1,0,0:0:0:60:SNARE ugh2.wav
256,192,136019,1,0,0:0:0:60:lowkick.wav
329,192,136019,128,0,136250:0:0:0:0:
402,192,136019,128,0,136250:0:0:0:0:
36,192,136250,1,0,0:0:0:60:lowkick.wav
109,192,136250,1,0,0:0:0:60:LR_CymbalG.wav
182,192,136250,1,0,0:0:0:0:
475,192,136250,1,0,0:0:0:0:
329,192,136423,1,0,0:0:0:0:
402,192,136423,1,0,0:0:0:0:
36,192,136596,1,0,0:0:0:60:SNARE ugh.wav
182,192,136596,1,0,0:0:0:0:
256,192,136596,1,0,0:0:0:0:
329,192,136942,1,0,0:0:0:0:
402,192,136942,1,0,0:0:0:0:
109,192,137058,1,0,0:0:0:0:
182,192,137058,1,0,0:0:0:0:
36,192,137173,1,0,0:0:0:60:SNARE ugh2.wav
256,192,137173,1,0,0:0:0:0:
475,192,137173,1,0,0:0:0:0:
402,192,137289,1,0,0:0:0:0:
329,192,137404,1,0,0:0:0:0:
256,192,137519,1,0,0:0:0:0:
109,192,137635,1,0,0:0:0:0:
182,192,137635,1,0,0:0:0:0:
36,192,137750,1,0,0:0:0:0:
329,192,137865,128,0,138096:0:0:0:60:lowkick.wav
402,192,137865,128,0,138096:0:0:0:0:
475,192,137865,1,0,0:0:0:0:
36,192,138096,1,0,0:0:0:60:lowkick.wav
109,192,138096,1,0,0:0:0:0:
182,192,138096,1,0,0:0:0:0:
402,192,138269,1,0,0:0:0:0:
475,192,138269,1,0,0:0:0:0:
36,192,138442,1,0,0:0:0:60:SNARE ugh.wav
182,192,138442,1,0,0:0:0:0:
256,192,138442,1,0,0:0:0:0:
402,192,138789,1,0,0:0:0:0:
475,192,138789,1,0,0:0:0:0:
109,192,138904,1,0,0:0:0:0:
182,192,138904,1,0,0:0:0:0:
36,192,139019,1,0,0:0:0:60:SNARE ugh2.wav
256,192,139019,1,0,0:0:0:0:
329,192,139019,1,0,0:0:0:0:
475,192,139135,1,0,0:0:0:0:
402,192,139250,1,0,0:0:0:0:
329,192,139365,1,0,0:0:0:0:
109,192,139481,1,0,0:0:0:0:
182,192,139481,1,0,0:0:0:0:
36,192,139596,1,0,0:0:0:0:
329,192,139712,1,0,0:0:0:60:lowkick.wav
402,192,139712,128,0,139942:0:0:0:0:
475,192,139712,128,0,139942:0:0:0:0:
36,192,139942,1,0,0:0:0:60:lowkick.wav
109,192,139942,1,0,0:0:0:0:
182,192,139942,1,0,0:0:0:0:
329,192,140115,1,0,0:0:0:0:
402,192,140115,1,0,0:0:0:0:
36,192,140289,1,0,0:0:0:60:SNARE ugh.wav
182,192,140289,1,0,0:0:0:0:
256,192,140289,1,0,0:0:0:0:
329,192,140635,1,0,0:0:0:0:
402,192,140635,1,0,0:0:0:0:
109,192,140750,1,0,0:0:0:0:
182,192,140750,1,0,0:0:0:0:
36,192,140865,1,0,0:0:0:60:SNARE ugh2.wav
256,192,140865,1,0,0:0:0:0:
475,192,140865,1,0,0:0:0:0:
402,192,140981,1,0,0:0:0:0:
329,192,141096,1,0,0:0:0:0:
256,192,141212,1,0,0:0:0:0:
109,192,141327,1,0,0:0:0:0:
182,192,141327,1,0,0:0:0:0:
36,192,141442,1,0,0:0:0:0:
329,192,141558,128,0,141789:0:0:0:60:lowkick.wav
402,192,141558,128,0,141789:0:0:0:0:
475,192,141558,1,0,0:0:0:0:
36,192,141789,1,0,0:0:0:60:lowkick.wav
109,192,141789,1,0,0:0:0:0:
182,192,141789,1,0,0:0:0:0:
402,192,141962,1,0,0:0:0:0:
475,192,141962,1,0,0:0:0:0:
36,192,142135,1,0,0:0:0:60:SNARE ugh.wav
182,192,142135,1,0,0:0:0:0:
256,192,142135,1,0,0:0:0:0:
402,192,142481,1,0,0:0:0:0:
475,192,142481,1,0,0:0:0:0:
109,192,142596,1,0,0:0:0:0:
182,192,142596,1,0,0:0:0:0:
36,192,142712,1,0,0:0:0:60:SNARE ugh2.wav
256,192,142712,1,0,0:0:0:0:
329,192,142712,1,0,0:0:0:0:
475,192,142827,1,0,0:0:0:0:
402,192,142942,1,0,0:0:0:0:
329,192,143058,1,0,0:0:0:0:
109,192,143173,1,0,0:0:0:0:
182,192,143173,1,0,0:0:0:0:
36,192,143289,1,0,0:0:0:0:
329,192,143404,1,0,0:0:0:60:lowkick.wav
402,192,143404,128,0,143635:0:0:0:0:
475,192,143404,128,0,143635:0:0:0:0:
36,192,143635,1,0,0:0:0:60:lowkick.wav
109,192,143635,1,0,0:0:0:60:LR_CymbalG.wav
182,192,143635,1,0,0:0:0:0:
256,192,143635,1,0,0:0:0:0:
