osu file format v14

[General]
AudioFilename: audio.mp3
AudioLeadIn: 0
PreviewTime: 114096
Countdown: 0
SampleSet: Soft
StackLeniency: 0.7
Mode: 3
LetterboxInBreaks: 0
SpecialStyle: 0
WidescreenStoryboard: 1

[Editor]
DistanceSpacing: 0.8
BeatDivisor: 12
GridSize: 32
TimelineZoom: 1.3

[Metadata]
Title:4172756869 (isagen remix) (Cut Ver.)
TitleUnicode:4172756869 (isagen remix) (Cut Ver.)
Artist:callasoiled
ArtistUnicode:callasoiled
Creator:guden
Version:4k normal
Source:
Tags:qqqant elekton -mint- itzuaka trekkie trax phalanx hatsune miku dreams of electric sheep ep remixes 初音ミク vocaloid electronic instrumental phone number future bass ボーカロイド tomoyuki sagesaka japanese
BeatmapID:2965913
BeatmapSetID:1334074

[Difficulty]
HPDrainRate:6
CircleSize:4
OverallDifficulty:6
ApproachRate:5
SliderMultiplier:1.4
SliderTickRate:1

[Events]
//Background and Video events
0,0,"hatsune.jpg",0,0
//Break Periods
2,16335,20127
//Storyboard Layer 0 (Background)
//Storyboard Layer 1 (Fail)
//Storyboard Layer 2 (Pass)
//Storyboard Layer 3 (Foreground)
//Storyboard Layer 4 (Overlay)
//Storyboard Sound Samples
Sample,53173,0,"LR_CymbalG.wav",60
Sample,67942,0,"LR_CymbalG.wav",60
Sample,84327,0,"SNARE ugh2.wav",60
Sample,86173,0,"SNARE ugh2.wav",60
Sample,88019,0,"SNARE ugh2.wav",60
Sample,89865,0,"SNARE ugh2.wav",60
Sample,97481,0,"LR_CymbalG.wav",60
Sample,99327,0,"LR_CymbalG.wav",60
Sample,101173,0,"LR_CymbalG.wav",60
Sample,103019,0,"LR_CymbalG.wav",60
Sample,104865,0,"LR_CymbalG.wav",60
Sample,106712,0,"LR_CymbalG.wav",60
Sample,108558,0,"LR_CymbalG.wav",60
Sample,110404,0,"LR_CymbalG.wav",60
Sample,121481,0,"LR_CymbalG.wav",60
Sample,136250,0,"LR_CymbalG.wav",60

[TimingPoints]
5174,461.538462,4,2,0,60,1,0
12097,461.538462,4,2,0,60,1,0
21789,461.538462,4,2,0,60,1,0
45789,-100,4,2,1,60,0,1
75327,-100,4,2,1,60,0,0
114096,-100,4,2,1,60,0,1
143635,-100,4,2,1,60,0,0

[HitObjects]
320,192,5173,5,0,0:0:0:60:lowkick.wav
192,192,5577,1,0,0:0:0:60:lowkick.wav
320,192,5924,1,0,0:0:0:60:lowkick.wav
320,192,6443,1,0,0:0:0:60:lowkick.wav
192,192,6731,1,0,0:0:0:60:lowkick.wav
320,192,6962,128,0,7481:0:0:0:60:lowkick.wav
192,192,7481,1,0,0:0:0:60:lowkick.wav
320,192,7827,1,0,0:0:0:60:lowkick.wav
192,192,8347,1,0,0:0:0:60:lowkick.wav
192,192,9212,1,0,0:0:0:60:lowkick.wav
320,192,11635,1,0,0:0:0:0:
448,192,12097,1,0,0:0:0:60:lowkick.wav
64,192,12500,1,0,0:0:0:60:lowkick.wav
448,192,12847,1,0,0:0:0:60:lowkick.wav
448,192,13366,1,0,0:0:0:60:lowkick.wav
64,192,13654,1,0,0:0:0:60:lowkick.wav
448,192,13885,128,0,14404:0:0:0:60:lowkick.wav
64,192,14404,1,0,0:0:0:60:lowkick.wav
448,192,14750,1,0,0:0:0:60:lowkick.wav
64,192,15270,1,0,0:0:0:60:lowkick.wav
64,192,16135,1,0,0:0:0:60:lowkick.wav
448,192,21327,5,0,0:0:0:0:
320,192,21789,1,0,0:0:0:60:lowkick.wav
192,192,22192,1,0,0:0:0:60:lowkick.wav
320,192,22539,1,0,0:0:0:60:lowkick.wav
320,192,23058,1,0,0:0:0:60:lowkick.wav
192,192,23346,1,0,0:0:0:60:lowkick.wav
320,192,23577,128,0,24096:0:0:0:60:lowkick.wav
192,192,24096,1,0,0:0:0:60:lowkick.wav
320,192,24442,1,0,0:0:0:60:lowkick.wav
192,192,24962,1,0,0:0:0:60:lowkick.wav
64,192,25481,1,0,0:0:0:60:lowkick.wav
192,192,25827,1,0,0:0:0:60:lowkick.wav
448,192,26404,1,0,0:0:0:60:SNARE ugh2.wav
320,192,26865,1,0,0:0:0:0:
448,192,27327,1,0,0:0:0:60:lowkick.wav
64,192,27731,1,0,0:0:0:60:lowkick.wav
448,192,28096,1,0,0:0:0:60:lowkick.wav
192,192,28250,1,0,0:0:0:60:SNARE ugh2.wav
448,192,28596,1,0,0:0:0:60:lowkick.wav
64,192,28885,1,0,0:0:0:60:lowkick.wav
448,192,29058,128,0,29635:0:0:0:60:lowkick.wav
64,192,29635,1,0,0:0:0:0:
448,192,29981,1,0,0:0:0:0:
192,192,30096,1,0,0:0:0:60:SNARE ugh2.wav
64,192,30500,1,0,0:0:0:0:
448,192,30846,1,0,0:0:0:0:
64,192,31019,1,0,0:0:0:60:lowkick.wav
448,192,31423,1,0,0:0:0:60:lowkick.wav
64,192,31712,1,0,0:0:0:0:
320,192,31942,1,0,0:0:0:60:SNARE ugh2.wav
64,192,32289,1,0,0:0:0:0:
448,192,32635,1,0,0:0:0:60:LR_TomR1.wav
64,192,32865,1,0,0:0:0:60:LR_TomR1.wav
448,192,33327,1,0,0:0:0:0:
64,192,33673,1,0,0:0:0:0:
320,192,33789,1,0,0:0:0:60:SNARE ugh2.wav
448,192,34250,1,0,0:0:0:0:
192,192,34404,1,0,0:0:0:0:
64,192,34539,1,0,0:0:0:0:
320,192,34712,1,0,0:0:0:60:lowkick.wav
320,192,35058,1,0,0:0:0:60:lowkick.wav
320,192,35692,1,0,0:0:0:60:lowkick.wav
320,192,36385,1,0,0:0:0:60:lowkick.wav
320,192,37250,1,0,0:0:0:60:lowkick.wav
448,192,38404,128,0,45558:0:0:0:60:lowkick.wav
64,192,45789,1,0,0:0:0:60:lowkick.wav
192,192,45789,1,0,0:0:0:60:LR_CymbalG.wav
320,192,45962,1,0,0:0:0:0:
192,192,46192,1,0,0:0:0:0:
320,192,46481,1,0,0:0:0:0:
192,192,46596,1,0,0:0:0:0:
192,192,47173,1,0,0:0:0:0:
448,192,47404,1,0,0:0:0:60:lowkick.wav
320,192,47635,1,0,0:0:0:60:lowkick.wav
192,192,47808,1,0,0:0:0:0:
448,192,48039,1,0,0:0:0:0:
192,192,48327,1,0,0:0:0:0:
448,192,48442,1,0,0:0:0:0:
448,192,49019,1,0,0:0:0:0:
320,192,49250,1,0,0:0:0:60:lowkick.wav
64,192,49481,1,0,0:0:0:60:lowkick.wav
320,192,49654,1,0,0:0:0:0:
192,192,49885,1,0,0:0:0:0:
320,192,50173,1,0,0:0:0:0:
192,192,50289,1,0,0:0:0:0:
192,192,50865,1,0,0:0:0:0:
448,192,51096,1,0,0:0:0:60:lowkick.wav
320,192,51327,1,0,0:0:0:60:lowkick.wav
192,192,51500,1,0,0:0:0:0:
448,192,51731,1,0,0:0:0:0:
192,192,52019,1,0,0:0:0:0:
448,192,52135,1,0,0:0:0:0:
448,192,52712,1,0,0:0:0:0:
320,192,52942,1,0,0:0:0:60:lowkick.wav
448,192,53173,1,0,0:0:0:60:lowkick.wav
192,192,53346,1,0,0:0:0:0:
320,192,53577,1,0,0:0:0:0:
192,192,53865,1,0,0:0:0:0:
320,192,53981,1,0,0:0:0:0:
320,192,54558,1,0,0:0:0:0:
64,192,54789,1,0,0:0:0:60:lowkick.wav
192,192,55019,1,0,0:0:0:60:lowkick.wav
320,192,55192,1,0,0:0:0:0:
64,192,55423,1,0,0:0:0:0:
320,192,55712,1,0,0:0:0:0:
64,192,55827,1,0,0:0:0:0:
64,192,56404,1,0,0:0:0:0:
192,192,56635,1,0,0:0:0:60:lowkick.wav
448,192,56865,1,0,0:0:0:60:lowkick.wav
192,192,57039,1,0,0:0:0:0:
320,192,57269,1,0,0:0:0:0:
192,192,57558,1,0,0:0:0:0:
320,192,57673,1,0,0:0:0:0:
320,192,58250,1,0,0:0:0:0:
64,192,58481,1,0,0:0:0:60:lowkick.wav
192,192,58712,1,0,0:0:0:60:lowkick.wav
320,192,58885,1,0,0:0:0:0:
64,192,59115,1,0,0:0:0:0:
320,192,59404,1,0,0:0:0:0:
64,192,59519,1,0,0:0:0:0:
64,192,60096,1,0,0:0:0:0:
192,192,60327,1,0,0:0:0:60:lowkick.wav
320,192,60558,1,0,0:0:0:60:lowkick.wav
448,192,60558,1,0,0:0:0:60:LR_CymbalG.wav
192,192,60731,1,0,0:0:0:0:
448,192,60904,1,0,0:0:0:60:SNARE ugh.wav
320,192,61250,1,0,0:0:0:0:
192,192,61365,1,0,0:0:0:0:
64,192,61481,1,0,0:0:0:60:SNARE ugh2.wav
448,192,61942,1,0,0:0:0:0:
64,192,62173,1,0,0:0:0:60:lowkick.wav
320,192,62404,1,0,0:0:0:60:lowkick.wav
192,192,62577,1,0,0:0:0:0:
320,192,62750,1,0,0:0:0:60:SNARE ugh.wav
320,192,63096,1,0,0:0:0:0:
192,192,63212,1,0,0:0:0:0:
64,192,63327,1,0,0:0:0:60:SNARE ugh2.wav
448,192,63789,1,0,0:0:0:0:
64,192,64019,1,0,0:0:0:60:lowkick.wav
320,192,64250,1,0,0:0:0:60:lowkick.wav
192,192,64423,1,0,0:0:0:0:
448,192,64596,1,0,0:0:0:60:SNARE ugh.wav
320,192,64942,1,0,0:0:0:0:
192,192,65058,1,0,0:0:0:0:
64,192,65173,1,0,0:0:0:60:SNARE ugh2.wav
448,192,65635,1,0,0:0:0:0:
64,192,65865,1,0,0:0:0:60:lowkick.wav
320,192,66096,1,0,0:0:0:60:lowkick.wav
192,192,66269,1,0,0:0:0:0:
320,192,66442,1,0,0:0:0:60:SNARE ugh.wav
320,192,66789,1,0,0:0:0:0:
192,192,66904,1,0,0:0:0:0:
64,192,67019,1,0,0:0:0:60:SNARE ugh2.wav
448,192,67481,1,0,0:0:0:0:
64,192,67712,1,0,0:0:0:60:lowkick.wav
192,192,67942,1,0,0:0:0:60:lowkick.wav
320,192,68115,1,0,0:0:0:0:
64,192,68289,1,0,0:0:0:60:SNARE ugh.wav
192,192,68635,1,0,0:0:0:0:
320,192,68750,1,0,0:0:0:0:
448,192,68865,1,0,0:0:0:60:SNARE ugh2.wav
64,192,69327,1,0,0:0:0:0:
448,192,69558,1,0,0:0:0:60:lowkick.wav
192,192,69789,1,0,0:0:0:60:lowkick.wav
320,192,69962,1,0,0:0:0:0:
192,192,70135,1,0,0:0:0:60:SNARE ugh.wav
192,192,70481,1,0,0:0:0:0:
320,192,70596,1,0,0:0:0:0:
448,192,70712,1,0,0:0:0:60:SNARE ugh2.wav
64,192,71173,1,0,0:0:0:0:
448,192,71404,1,0,0:0:0:60:lowkick.wav
192,192,71635,1,0,0:0:0:60:lowkick.wav
320,192,71808,1,0,0:0:0:0:
64,192,71981,1,0,0:0:0:60:SNARE ugh.wav
192,192,72327,1,0,0:0:0:0:
320,192,72442,1,0,0:0:0:0:
448,192,72558,1,0,0:0:0:60:SNARE ugh2.wav
64,192,73019,1,0,0:0:0:0:
448,192,73250,1,0,0:0:0:60:lowkick.wav
192,192,73481,1,0,0:0:0:60:lowkick.wav
320,192,73654,1,0,0:0:0:0:
192,192,73827,1,0,0:0:0:60:SNARE ugh.wav
192,192,74173,1,0,0:0:0:0:
320,192,74289,1,0,0:0:0:0:
448,192,74404,1,0,0:0:0:60:SNARE ugh2.wav
64,192,74865,1,0,0:0:0:0:
320,192,75096,1,0,0:0:0:60:lowkick.wav
448,192,75327,128,0,77173:0:0:0:0:
320,192,79712,128,0,81096:0:0:0:0:
64,192,81327,128,0,81789:0:0:0:0:
448,192,81789,128,0,82481:0:0:0:0:
64,192,82712,1,0,0:0:0:60:lowkick.wav
192,192,82712,1,0,0:0:0:0:
320,192,83058,1,0,0:0:0:60:SNARE ugh.wav
320,192,83404,1,0,0:0:0:60:SNARE ugh.wav
320,192,83750,1,0,0:0:0:60:SNARE ugh.wav
64,192,84327,1,0,0:0:0:60:lowkick.wav
320,192,84558,1,0,0:0:0:60:lowkick.wav
448,192,84558,1,0,0:0:0:0:
192,192,84904,1,0,0:0:0:60:SNARE ugh.wav
192,192,85250,1,0,0:0:0:60:SNARE ugh.wav
192,192,85596,1,0,0:0:0:60:SNARE ugh.wav
448,192,86173,1,0,0:0:0:60:lowkick.wav
64,192,86404,1,0,0:0:0:60:lowkick.wav
192,192,86404,1,0,0:0:0:0:
320,192,86750,1,0,0:0:0:60:SNARE ugh.wav
320,192,87096,1,0,0:0:0:60:SNARE ugh.wav
320,192,87442,1,0,0:0:0:60:SNARE ugh.wav
64,192,88019,1,0,0:0:0:60:lowkick.wav
320,192,88250,1,0,0:0:0:60:lowkick.wav
448,192,88250,1,0,0:0:0:0:
192,192,88596,1,0,0:0:0:60:SNARE ugh.wav
192,192,88942,1,0,0:0:0:60:SNARE ugh.wav
192,192,89289,1,0,0:0:0:60:SNARE ugh.wav
448,192,89865,1,0,0:0:0:60:lowkick.wav
192,192,90212,1,0,0:0:0:0:
320,192,90789,1,0,0:0:0:0:
192,192,91135,1,0,0:0:0:0:
64,192,91481,1,0,0:0:0:0:
448,192,92058,1,0,0:0:0:0:
320,192,92635,1,0,0:0:0:0:
192,192,92981,1,0,0:0:0:0:
64,192,93327,1,0,0:0:0:0:
448,192,93904,1,0,0:0:0:0:
320,192,94481,1,0,0:0:0:0:
192,192,94827,1,0,0:0:0:0:
64,192,95173,1,0,0:0:0:0:
448,192,95750,1,0,0:0:0:0:
320,192,96327,1,0,0:0:0:0:
192,192,96673,1,0,0:0:0:0:
64,192,97019,1,0,0:0:0:0:
448,192,97481,1,0,0:0:0:60:lowkick.wav
64,192,97942,1,0,0:0:0:60:lowkick.wav
192,192,97942,1,0,0:0:0:60:LR_Clap Low Drop.wav
320,192,98173,1,0,0:0:0:60:lowkick.wav
448,192,98173,1,0,0:0:0:60:LR_Clap Low Drop.wav
64,192,98519,1,0,0:0:0:60:lowkick.wav
192,192,98519,1,0,0:0:0:60:LR_Clap Low Drop.wav
320,192,98865,1,0,0:0:0:60:lowkick.wav
448,192,98865,1,0,0:0:0:60:LR_Clap Low Drop.wav
64,192,99327,1,0,0:0:0:60:lowkick.wav
320,192,99789,1,0,0:0:0:60:lowkick.wav
448,192,99789,1,0,0:0:0:60:LR_Clap Low Drop.wav
64,192,100019,1,0,0:0:0:60:lowkick.wav
192,192,100019,1,0,0:0:0:60:LR_Clap Low Drop.wav
320,192,100365,1,0,0:0:0:60:lowkick.wav
448,192,100365,1,0,0:0:0:60:LR_Clap Low Drop.wav
64,192,100712,1,0,0:0:0:60:lowkick.wav
192,192,100712,1,0,0:0:0:60:LR_Clap Low Drop.wav
448,192,101173,1,0,0:0:0:60:lowkick.wav
64,192,101635,1,0,0:0:0:60:lowkick.wav
192,192,101635,1,0,0:0:0:60:LR_Clap Low Drop.wav
320,192,101865,1,0,0:0:0:60:lowkick.wav
448,192,101865,1,0,0:0:0:60:LR_Clap Low Drop.wav
64,192,102212,1,0,0:0:0:60:lowkick.wav
192,192,102212,1,0,0:0:0:60:LR_Clap Low Drop.wav
320,192,102558,1,0,0:0:0:60:lowkick.wav
448,192,102558,1,0,0:0:0:60:LR_Clap Low Drop.wav
64,192,103019,1,0,0:0:0:60:lowkick.wav
192,192,103481,1,0,0:0:0:60:lowkick.wav
448,192,103481,1,0,0:0:0:60:LR_Clap Low Drop.wav
64,192,103712,1,0,0:0:0:60:lowkick.wav
320,192,103712,1,0,0:0:0:60:LR_Clap Low Drop.wav
64,192,104058,1,0,0:0:0:60:lowkick.wav
448,192,104058,1,0,0:0:0:60:LR_Clap Low Drop.wav
192,192,104404,1,0,0:0:0:60:lowkick.wav
320,192,104404,1,0,0:0:0:60:LR_Clap Low Drop.wav
64,192,104635,1,0,0:0:0:60:lowkick.wav
448,192,104635,1,0,0:0:0:0:
320,192,104865,1,0,0:0:0:60:lowkick.wav
64,192,105327,1,0,0:0:0:60:lowkick.wav
192,192,105327,1,0,0:0:0:60:LR_Clap Low Drop.wav
320,192,105558,1,0,0:0:0:60:lowkick.wav
448,192,105558,1,0,0:0:0:60:LR_Clap Low Drop.wav
64,192,105904,1,0,0:0:0:60:lowkick.wav
192,192,105904,1,0,0:0:0:60:LR_Clap Low Drop.wav
320,192,106250,1,0,0:0:0:60:lowkick.wav
448,192,106250,1,0,0:0:0:60:LR_Clap Low Drop.wav
64,192,106712,1,0,0:0:0:60:lowkick.wav
320,192,107173,1,0,0:0:0:60:lowkick.wav
448,192,107173,1,0,0:0:0:60:LR_Clap Low Drop.wav
64,192,107404,1,0,0:0:0:60:lowkick.wav
192,192,107404,1,0,0:0:0:60:LR_Clap Low Drop.wav
320,192,107750,1,0,0:0:0:60:lowkick.wav
448,192,107750,1,0,0:0:0:60:LR_Clap Low Drop.wav
64,192,108096,1,0,0:0:0:60:lowkick.wav
192,192,108096,1,0,0:0:0:60:LR_Clap Low Drop.wav
448,192,108558,1,0,0:0:0:60:lowkick.wav
64,192,109019,1,0,0:0:0:60:lowkick.wav
192,192,109019,1,0,0:0:0:60:LR_Clap Low Drop.wav
320,192,109250,1,0,0:0:0:60:lowkick.wav
448,192,109250,1,0,0:0:0:60:LR_Clap Low Drop.wav
64,192,109596,1,0,0:0:0:60:lowkick.wav
192,192,109596,1,0,0:0:0:60:LR_Clap Low Drop.wav
320,192,109942,1,0,0:0:0:60:lowkick.wav
448,192,109942,1,0,0:0:0:60:LR_Clap Low Drop.wav
64,192,110404,1,0,0:0:0:60:lowkick.wav
192,192,110865,1,0,0:0:0:60:lowkick.wav
448,192,110865,1,0,0:0:0:60:LR_Clap Low Drop.wav
64,192,111096,1,0,0:0:0:60:lowkick.wav
320,192,111096,1,0,0:0:0:60:LR_Clap Low Drop.wav
64,192,111442,1,0,0:0:0:60:lowkick.wav
448,192,111442,1,0,0:0:0:60:LR_Clap Low Drop.wav
192,192,111789,1,0,0:0:0:60:lowkick.wav
320,192,111789,1,0,0:0:0:60:LR_Clap Low Drop.wav
64,192,112019,1,0,0:0:0:60:lowkick.wav
448,192,112019,1,0,0:0:0:0:
320,192,112250,1,0,0:0:0:60:lowkick.wav
192,192,112481,1,0,0:0:0:60:lowkick.wav
320,192,112712,1,0,0:0:0:60:lowkick.wav
192,192,113019,1,0,0:0:0:60:lowkick.wav
64,192,113173,1,0,0:0:0:60:lowkick.wav
320,192,113327,1,0,0:0:0:60:lowkick.wav
448,192,113481,1,0,0:0:0:60:lowkick.wav
192,192,113635,1,0,0:0:0:60:lowkick.wav
64,192,114096,1,0,0:0:0:60:lowkick.wav
192,192,114096,1,0,0:0:0:60:LR_CymbalG.wav
320,192,114269,1,0,0:0:0:0:
192,192,114500,1,0,0:0:0:0:
320,192,114789,1,0,0:0:0:0:
192,192,114904,1,0,0:0:0:0:
192,192,115481,1,0,0:0:0:0:
448,192,115712,1,0,0:0:0:60:lowkick.wav
320,192,115942,1,0,0:0:0:60:lowkick.wav
192,192,116115,1,0,0:0:0:0:
448,192,116346,1,0,0:0:0:0:
192,192,116635,1,0,0:0:0:0:
448,192,116750,1,0,0:0:0:0:
448,192,117327,1,0,0:0:0:0:
320,192,117558,1,0,0:0:0:60:lowkick.wav
64,192,117789,1,0,0:0:0:60:lowkick.wav
320,192,117962,1,0,0:0:0:0:
192,192,118192,1,0,0:0:0:0:
320,192,118481,1,0,0:0:0:0:
192,192,118596,1,0,0:0:0:0:
192,192,119173,1,0,0:0:0:0:
448,192,119404,1,0,0:0:0:60:lowkick.wav
320,192,119635,1,0,0:0:0:60:lowkick.wav
192,192,119808,1,0,0:0:0:0:
448,192,120039,1,0,0:0:0:0:
192,192,120327,1,0,0:0:0:0:
448,192,120442,1,0,0:0:0:0:
448,192,121019,1,0,0:0:0:0:
320,192,121250,1,0,0:0:0:60:lowkick.wav
448,192,121481,1,0,0:0:0:60:lowkick.wav
192,192,121654,1,0,0:0:0:0:
320,192,121885,1,0,0:0:0:0:
192,192,122173,1,0,0:0:0:0:
320,192,122289,1,0,0:0:0:0:
320,192,122865,1,0,0:0:0:0:
64,192,123096,1,0,0:0:0:60:lowkick.wav
192,192,123327,1,0,0:0:0:60:lowkick.wav
320,192,123500,1,0,0:0:0:0:
64,192,123731,1,0,0:0:0:0:
320,192,124019,1,0,0:0:0:0:
64,192,124135,1,0,0:0:0:0:
64,192,124712,1,0,0:0:0:0:
192,192,124942,1,0,0:0:0:60:lowkick.wav
448,192,125173,1,0,0:0:0:60:lowkick.wav
192,192,125346,1,0,0:0:0:0:
320,192,125577,1,0,0:0:0:0:
192,192,125865,1,0,0:0:0:0:
320,192,125981,1,0,0:0:0:0:
320,192,126558,1,0,0:0:0:0:
64,192,126789,1,0,0:0:0:60:lowkick.wav
192,192,127019,1,0,0:0:0:60:lowkick.wav
320,192,127192,1,0,0:0:0:0:
64,192,127423,1,0,0:0:0:0:
320,192,127712,1,0,0:0:0:0:
64,192,127827,1,0,0:0:0:0:
64,192,128404,1,0,0:0:0:0:
192,192,128635,1,0,0:0:0:60:lowkick.wav
320,192,128865,1,0,0:0:0:60:lowkick.wav
448,192,128865,1,0,0:0:0:60:LR_CymbalG.wav
192,192,129039,1,0,0:0:0:0:
320,192,129269,1,0,0:0:0:0:
192,192,129558,1,0,0:0:0:0:
320,192,129673,1,0,0:0:0:0:
448,192,130250,1,0,0:0:0:0:
64,192,130481,1,0,0:0:0:60:lowkick.wav
320,192,130712,1,0,0:0:0:60:lowkick.wav
192,192,130885,1,0,0:0:0:0:
320,192,131058,1,0,0:0:0:60:SNARE ugh.wav
320,192,131404,1,0,0:0:0:0:
192,192,131519,1,0,0:0:0:0:
64,192,131635,1,0,0:0:0:60:SNARE ugh2.wav
448,192,132096,1,0,0:0:0:0:
64,192,132327,1,0,0:0:0:60:lowkick.wav
320,192,132558,1,0,0:0:0:60:lowkick.wav
192,192,132731,1,0,0:0:0:0:
448,192,132904,1,0,0:0:0:60:SNARE ugh.wav
320,192,133250,1,0,0:0:0:0:
192,192,133365,1,0,0:0:0:0:
64,192,133481,1,0,0:0:0:60:SNARE ugh2.wav
448,192,133942,1,0,0:0:0:0:
64,192,134173,1,0,0:0:0:60:lowkick.wav
320,192,134404,1,0,0:0:0:60:lowkick.wav
192,192,134577,1,0,0:0:0:0:
320,192,134750,1,0,0:0:0:60:SNARE ugh.wav
320,192,135096,1,0,0:0:0:0:
192,192,135212,1,0,0:0:0:0:
64,192,135327,1,0,0:0:0:60:SNARE ugh2.wav
448,192,135789,1,0,0:0:0:0:
64,192,136019,1,0,0:0:0:60:lowkick.wav
192,192,136250,1,0,0:0:0:60:lowkick.wav
320,192,136423,1,0,0:0:0:0:
64,192,136596,1,0,0:0:0:60:SNARE ugh.wav
192,192,136942,1,0,0:0:0:0:
320,192,137058,1,0,0:0:0:0:
448,192,137173,1,0,0:0:0:60:SNARE ugh2.wav
64,192,137635,1,0,0:0:0:0:
448,192,137865,1,0,0:0:0:60:lowkick.wav
192,192,138096,1,0,0:0:0:60:lowkick.wav
320,192,138269,1,0,0:0:0:0:
192,192,138442,1,0,0:0:0:60:SNARE ugh.wav
192,192,138789,1,0,0:0:0:0:
320,192,138904,1,0,0:0:0:0:
448,192,139019,1,0,0:0:0:60:SNARE ugh2.wav
64,192,139481,1,0,0:0:0:0:
448,192,139712,1,0,0:0:0:60:lowkick.wav
192,192,139942,1,0,0:0:0:60:lowkick.wav
320,192,140115,1,0,0:0:0:0:
64,192,140289,1,0,0:0:0:60:SNARE ugh.wav
192,192,140635,1,0,0:0:0:0:
320,192,140750,1,0,0:0:0:0:
448,192,140865,1,0,0:0:0:60:SNARE ugh2.wav
64,192,141327,1,0,0:0:0:0:
448,192,141558,1,0,0:0:0:60:lowkick.wav
192,192,141789,1,0,0:0:0:60:lowkick.wav
320,192,141962,1,0,0:0:0:0:
192,192,142135,1,0,0:0:0:60:SNARE ugh.wav
192,192,142481,1,0,0:0:0:0:
320,192,142596,1,0,0:0:0:0:
448,192,142712,1,0,0:0:0:60:SNARE ugh2.wav
64,192,143173,1,0,0:0:0:0:
320,192,143404,1,0,0:0:0:60:lowkick.wav
64,192,143635,1,0,0:0:0:60:lowkick.wav
192,192,143635,1,0,0:0:0:60:LR_CymbalG.wav
