osu file format v14

[General]
AudioFilename: audio.mp3
AudioLeadIn: 0
PreviewTime: 18220
Countdown: 0
SampleSet: Soft
StackLeniency: 0.7
Mode: 0
LetterboxInBreaks: 0
WidescreenStoryboard: 0

[Editor]
Bookmarks: 82770,137315
DistanceSpacing: 1.3
BeatDivisor: 16
GridSize: 8
TimelineZoom: 2.3

[Metadata]
Title:Kaika
TitleUnicode:回夏
Artist:cadode
ArtistUnicode:cadode
Creator:VINXIS
Version:Shadows
Source:サマータイムレンダ
Tags:kainatsu kai natsu rejuvenation summer summertime time render rendering tv theme song ending ed 1st 1 1stED テーマ TVアニメ アニメ japanese anime j-edm edm electronic dance music chillout pop j-pop eba koshi _M28 RyoTanihara Ryo Tanihara 谷原亮 departure
BeatmapID:3590290
BeatmapSetID:1754413

[Difficulty]
HPDrainRate:6
CircleSize:4
OverallDifficulty:9
ApproachRate:9
SliderMultiplier:1.4
SliderTickRate:1

[Events]
//Background and Video events
0,0,"87392545_p0.jpg",0,0
//Break Periods
2,83111,92316
2,140043,142170
2,172770,178989
//Storyboard Layer 0 (Background)
//Storyboard Layer 1 (Fail)
//Storyboard Layer 2 (Pass)
//Storyboard Layer 3 (Foreground)
//Storyboard Layer 4 (Overlay)
//Storyboard Sound Samples

[TimingPoints]
-411,340.909090909091,4,2,1,30,1,0
270,-200,4,2,1,30,0,0
952,-100,4,2,3,50,0,0
1037,-100,4,2,1,50,0,0
3679,-100,4,2,3,50,0,0
3765,-100,4,2,1,50,0,0
6407,-100,4,2,3,50,0,0
6492,-100,4,2,1,50,0,0
11861,-83.3333333333333,4,2,1,60,0,0
15270,-100,4,2,1,50,0,0
15952,-125,4,2,1,40,0,0
16633,-166.666666666667,4,2,1,30,0,0
17315,-83.3333333333333,4,2,1,60,0,0
21406,-57.1428571428571,4,2,1,100,0,0
22770,-200,4,2,1,100,0,0
24133,-57.1428571428571,4,2,2,100,0,0
25497,-133.333333333333,4,2,2,100,0,0
26861,-44.4444444444445,4,2,2,100,0,0
28224,-133.333333333333,4,2,3,70,0,0
28310,-133.333333333333,4,2,1,70,0,0
34361,-100,4,2,1,70,0,0
36406,-83.3333333333333,4,2,1,70,0,0
37770,-200,4,2,1,70,0,0
38111,-66.6666666666667,4,2,1,70,0,0
39133,-100,4,2,1,70,0,0
41349,-133.333333333333,4,2,1,70,0,0
44588,-100,4,2,1,70,0,0
49702,-66.6666666666667,4,2,1,70,0,0
50043,-66.6666666666667,4,2,2,70,0,0
53792,-100,4,2,2,70,0,0
55497,-66.6666666666667,4,2,2,70,0,0
56179,-66.6666666666667,4,2,3,100,0,0
56520,-66.6666666666667,4,2,2,70,0,0
57543,-66.6666666666667,4,2,4,100,0,0
57884,-66.6666666666667,4,2,2,70,0,0
58907,-66.6666666666667,4,2,0,70,0,0
59588,-200,4,2,2,80,0,0
60441,-100,4,2,2,80,0,0
60952,-50,4,2,5,100,0,1
61037,-50,4,2,2,100,0,1
61633,-66.6666666666667,4,2,2,100,0,1
61974,-100,4,2,2,100,0,1
63082,-66.6666666666667,4,2,2,100,0,1
63679,-50,4,2,2,100,0,1
64361,-66.6666666666667,4,2,2,100,0,1
66406,-100,4,2,2,100,0,1
66747,-80,4,2,2,100,0,1
67088,-66.6666666666667,4,2,2,100,0,1
67429,-57.1428571428571,4,2,2,100,0,1
67770,-50,4,2,2,100,0,1
68452,-66.6666666666667,4,2,2,100,0,1
70497,-50,4,2,2,100,0,1
71179,-100,4,2,1,100,0,1
71861,-66.6666666666667,4,2,5,100,0,1
71946,-66.6666666666667,4,2,2,100,0,1
74588,-100,4,2,2,100,0,1
75952,-66.6666666666667,4,2,2,100,0,1
78679,-80,4,2,2,100,0,1
80042,-50,4,2,2,100,0,1
82429,-66.6666666666667,4,2,2,100,0,1
82770,-100,4,2,5,70,0,0
93679,-100,4,2,2,70,0,0
96406,-80,4,2,2,70,0,0
97770,-100,4,2,2,70,0,0
101861,-80,4,2,2,70,0,0
104077,-100,4,2,2,70,0,0
110042,-66.6666666666667,4,2,2,70,0,0
113452,-66.6666666666667,4,2,1,70,0,0
114133,-50,4,2,2,70,0,0
115498,-50,4,2,5,100,0,1
115583,-50,4,2,2,100,0,1
116179,-66.6666666666667,4,2,2,100,0,1
116520,-100,4,2,2,100,0,1
117628,-66.6666666666667,4,2,2,100,0,1
118224,-50,4,2,2,100,0,1
118906,-66.6666666666667,4,2,2,100,0,1
120952,-100,4,2,2,100,0,1
121293,-80,4,2,2,100,0,1
121633,-66.6666666666667,4,2,2,100,0,1
121975,-57.1428571428571,4,2,2,100,0,1
122316,-50,4,2,2,100,0,1
122997,-66.6666666666667,4,2,2,100,0,1
125042,-50,4,2,2,100,0,1
125724,-100,4,2,1,100,0,1
126406,-50,4,2,5,100,0,1
126492,-50,4,2,2,100,0,1
126747,-66.6666666666667,4,2,2,100,0,1
129134,-100,4,2,2,100,0,1
130498,-66.6666666666667,4,2,2,100,0,1
133224,-80,4,2,2,100,0,1
134588,-50,4,2,2,100,0,1
136633,-66.6666666666667,4,2,2,100,0,1
136974,-100,4,2,2,100,0,1
137316,-100,4,2,5,100,0,0
137401,-133.333333333333,4,2,2,40,0,0
142770,-133.333333333333,4,2,1,60,0,0
144815,-86.9565217391304,4,2,1,60,0,0
145497,-70.4225352112676,4,2,1,60,0,0
146861,-80,4,2,1,60,0,0
148224,-66.6666666666667,4,2,2,70,0,0
149589,-80,4,2,2,70,0,0
150952,-66.6666666666667,4,2,2,70,0,0
159133,-57.1428571428571,4,2,5,70,0,0
159219,-57.1428571428571,4,2,2,70,0,0
164588,-66.6666666666667,4,2,2,70,0,0
170042,-400,4,2,1,70,0,0
170128,-400,4,2,0,30,0,0
180952,-50,4,2,5,100,0,1
181037,-50,4,2,2,100,0,1
181633,-66.6666666666667,4,2,2,100,0,1
181974,-100,4,2,2,100,0,1
183167,-66.6666666666667,4,2,2,100,0,1
183679,-50,4,2,2,100,0,1
184361,-66.6666666666667,4,2,2,100,0,1
186406,-100,4,2,2,100,0,1
186747,-80,4,2,2,100,0,1
187088,-66.6666666666667,4,2,2,100,0,1
187429,-57.1428571428571,4,2,2,100,0,1
187770,-50,4,2,2,100,0,1
188452,-66.6666666666667,4,2,2,100,0,1
190156,-50,4,2,2,100,0,1
191179,-100,4,2,1,100,0,1
191861,-66.6666666666667,4,2,5,100,0,1
191946,-66.6666666666667,4,2,2,100,0,1
194589,-100,4,2,2,100,0,1
195952,-66.6666666666667,4,2,2,100,0,1
198679,-80,4,2,2,100,0,1
200043,-50,4,2,2,100,0,1
200895,-50,4,2,1,100,0,1
201066,-50,4,2,2,100,0,1
202089,-50,4,2,0,100,0,1
202770,-200,4,2,5,100,0,0
202856,-200,4,2,0,60,0,0
207543,-133.333333333333,4,2,0,70,0,0
208054,-133.333333333333,4,2,0,30,0,0

[Colours]
Combo1 : 174,249,170
Combo2 : 249,245,176
Combo3 : 156,248,245
Combo4 : 250,175,237

[HitObjects]
253,273,270,6,0,B|253:343,1,70,2|0,0:0|0:0,0:0:0:0:
253,343,952,6,0,P|189:354|100:346,1,140,2|2,0:0|0:0,0:0:0:0:
42,281,1463,1,0,0:0:0:0:
126,267,1633,1,2,0:0:0:0:
92,356,1804,1,0,0:0:0:0:
92,356,1974,1,0,0:0:0:0:
160,178,2315,5,2,0:0:0:0:
228,0,2656,1,2,0:0:0:0:
318,58,2827,1,0,0:0:0:0:
318,58,2997,2,0,P|388:53|456:65,1,140,2|0,0:0|0:0,0:0:0:0:
452,33,3679,6,0,P|383:20|313:25,1,140,2|2,0:0|0:0,0:0:0:0:
226,101,4190,1,0,0:0:0:0:
313,119,4361,1,2,0:0:0:0:
286,27,4531,1,0,0:0:0:0:
286,27,4702,1,0,0:0:0:0:
384,334,5042,6,0,P|407:264|411:195,1,140,2|0,0:0|0:0,0:0:0:0:
109,130,5724,1,2,0:0:0:0:
109,130,5895,2,0,P|86:200|82:269,1,140
20,312,6406,6,0,P|89:316|155:339,1,140,2|2,0:0|0:0,0:0:0:0:
232,303,6917,1,0,0:0:0:0:
304,359,7088,1,2,0:0:0:0:
319,270,7258,1,0,0:0:0:0:
319,270,7429,2,0,L|336:189,1,70
268,155,7770,6,0,B|291:73|251:101|273:17,1,140,2|0,0:0|0:0,0:0:0:0:
273,17,8452,2,0,P|327:31|364:28,1,70,2|0,0:0|0:0,0:0:0:0:
366,111,8792,2,0,P|419:96|450:75,1,70,2|0,0:0|0:0,0:0:0:0:
493,145,9133,6,0,P|425:110|281:121,1,210,2|0,0:0|0:0,0:0:0:0:
254,186,9815,2,0,P|217:170|169:157,1,70,2|0,0:0|0:0,0:0:0:0:
159,87,10156,2,0,P|118:91|70:104,1,70,2|0,0:0|0:0,0:0:0:0:
27,49,10497,6,0,P|132:106|245:104,2,210,2|2|2,0:0|0:0|0:0,0:0:0:0:
58,218,11861,6,0,L|158:193,1,83.9999974365235,6|0,0:0|0:0,0:0:0:0:
220,215,12202,2,0,L|251:206,4,20.9999993591309
171,289,12542,5,2,0:3:0:0:
298,270,12713,1,0,0:0:0:0:
392,192,12883,2,0,P|395:137|384:55,1,125.999996154785,2|0,0:0|0:0,0:0:0:0:
410,40,13224,6,0,P|404:124|440:296,1,251.999992309571,2|0,0:0|0:0,0:0:0:0:
316,304,13906,1,2,0:0:0:0:
196,286,14077,1,0,0:0:0:0:
120,192,14247,2,0,P|117:137|128:55,1,125.999996154785,2|0,0:0|0:0,0:0:0:0:
113,39,14588,6,0,L|283:18,1,167.999994873047,2|0,0:0|0:0,0:0:0:0:
376,150,15270,6,0,L|205:129,1,140,2|0,0:0|0:0,0:0:0:0:
112,261,15952,6,0,L|232:246,1,112,2|0,0:0|0:0,0:0:0:0:
375,372,16634,6,0,L|277:360,1,83.9999974365235,2|0,0:0|0:0,0:0:0:0:
292,362,17315,6,0,P|289:309|297:261,1,83.9999974365235,2|0,0:0|0:0,0:0:0:0:
361,213,17656,2,0,L|358:175,4,20.9999993591309
413,288,17997,1,2,0:3:0:0:
487,230,18167,1,0,0:0:0:0:
18,262,18679,6,0,P|65:222|97:219,2,83.9999974365235,2|0|0,0:0|0:0|0:0,0:0:0:0:
205,176,19190,2,0,P|127:137|44:135,1,167.999994873047,2|0,0:0|0:0,0:0:0:0:
147,282,19702,2,0,P|177:301|228:316,1,83.9999974365235,2|0,0:0|0:0,0:0:0:0:
428,249,20042,5,2,0:2:0:0:
352,330,20213,1,0,0:0:0:0:
302,228,20383,1,0,3:0:0:0:
303,196,20468,1,0,3:0:0:0:
305,165,20553,1,0,3:0:0:0:
307,133,20640,1,0,3:0:0:0:
309,102,20725,1,2,3:3:0:0:
254,35,20895,1,0,3:0:0:0:
334,4,21066,1,0,3:0:0:0:
198,133,21236,1,0,3:0:0:0:
382,256,21406,6,0,P|456:254|503:97,1,245.000002336502,6|0,1:2|0:0,0:0:0:0:
172,54,21917,2,0,P|98:56|51:213,1,245.000002336502,6|0,1:2|0:0,0:0:0:0:
287,218,22429,2,0,L|273:76,1,122.500001168251,6|0,1:2|0:0,0:0:0:0:
418,358,22770,6,0,L|514:350,2,93.3333333333333,2|2|2,0:0|0:0|0:0,0:0:0:0:
418,358,24133,6,0,B|345:321|345:321|489:237,1,245.000002336502,6|0,1:2|0:0,0:0:0:0:
293,236,24588,2,0,B|248:167|248:167|414:166,1,245.000002336502,6|0,1:2|0:0,0:0:0:0:
245,67,25042,2,0,B|240:-14|240:-14|385:67,1,245.000002336502,6|0,1:2|0:0,0:0:0:0:
486,287,25497,6,0,P|476:254|501:190,1,105.000004005432,2|0,0:0|0:0,0:0:0:0:
379,222,25952,2,0,P|386:188|440:145,1,105.000004005432,2|0,0:0|0:0,0:0:0:0:
318,112,26406,2,0,P|341:86|409:76,1,105.000004005432,2|0,0:0|0:0,0:0:0:0:
487,112,26861,6,0,B|374:125|299:54|299:54|366:83|435:72,1,315.000012016297,6|0,1:2|0:0,0:0:0:0:
365,291,27315,2,0,B|260:246|231:147|231:147|274:205|339:230,1,315.000012016297,6|0,1:2|0:0,0:0:0:0:
173,380,27770,2,0,B|104:289|128:189|128:189|137:261|181:315,1,315.000012016297,6|0,1:2|0:0,0:0:0:0:
24,267,28224,5,6,1:2:0:0:
24,267,28395,2,0,P|27:232|10:152,1,105.000004005432
99,117,28906,1,2,0:2:0:0:
99,117,29077,2,0,P|96:82|113:1,1,105.000004005432
199,14,29588,5,2,0:3:0:0:
199,14,29758,2,0,P|200:66|188:117,1,105.000004005432
187,117,30270,1,0,0:0:0:0:
420,98,30611,1,0,0:0:0:0:
332,61,30781,1,0,0:0:0:0:
282,143,30952,6,0,P|332:167|451:172,1,157.500006008148,2|0,1:2|0:0,0:0:0:0:
397,288,31633,2,0,P|347:264|228:259,1,157.500006008148
211,187,32315,2,0,L|150:177,1,52.5000020027161,2|0,0:3|0:0,0:0:0:0:
395,382,32941,2,0,L|381:383,1,8.75000033378602
377,384,32997,6,0,L|361:259,1,105.000004005432,2|0,0:0|0:0,0:0:0:0:
279,278,33508,1,0,0:0:0:0:
237,178,33679,6,0,P|228:126|235:10,1,157.500006008148,2|0,1:2|0:0,0:0:0:0:
340,0,34361,2,0,P|349:52|332:225,1,210,2|0,0:0|0:0,0:0:0:0:
415,274,35042,6,0,L|435:230,7,35,2|0|0|0|0|0|0|0,0:3|0:0|0:0|0:0|0:0|0:0|0:0|0:0,0:0:0:0:
326,237,35724,2,0,P|261:232|227:243,2,93.3333333333333,2|0|0,0:0|0:0|0:0,0:0:0:0:
109,242,36406,6,0,P|184:167|336:152,1,251.999992309571,2|0,1:2|0:0,0:0:0:0:
452,203,37088,2,0,L|467:296,1,83.9999974365235,2|0,0:0|0:0,0:0:0:0:
465,285,37344,1,0,0:0:0:0:
465,285,37429,1,0,1:0:0:0:
409,121,37599,1,0,0:0:0:0:
363,384,37770,6,0,L|373:325,1,52.5000020027161,2|0,0:3|0:0,0:0:0:0:
381,304,38111,6,2,P|337:327|65:358,1,315.000012016297,0|0,0:0|0:0,0:0:0:0:
102,275,38792,1,2,0:0:0:0:
102,275,38963,1,0,0:0:0:0:
0,371,39133,6,0,P|8:294|31:203,1,140,2|0,1:2|0:0,0:0:0:0:
21,233,39815,2,0,P|66:228|104:217,1,70
10,133,40156,2,0,P|44:125|79:122,1,70,0|0,1:0|0:0,0:0:0:0:
168,165,40497,6,0,L|281:156,1,105,2|0,0:3|0:0,0:0:0:0:
305,185,40838,2,0,L|200:193,1,105,2|0,0:0|0:0,0:0:0:0:
200,193,41349,2,0,P|199:234|201:251,2,52.5000020027161
321,272,41861,6,0,P|359:250|477:237,1,157.500006008148,2|0,1:2|0:0,0:0:0:0:
483,155,42542,2,0,P|429:152|377:133,2,105.000004005432,2|0|2,0:0|1:0|0:3,0:0:0:0:
85,90,43792,2,0,L|117:83,1,17.500000667572
116,83,43906,6,0,P|121:127|125:148,1,52.5000020027161,2|0,0:0|0:0,0:0:0:0:
204,171,44247,2,0,P|190:209|184:262,1,78.7500030040742
205,240,44588,6,0,P|223:186|225:80,1,140,2|0,1:2|0:0,0:0:0:0:
298,260,45099,1,0,0:0:0:0:
298,260,45270,2,0,P|372:260|464:251,1,140,2|0,0:0|1:0,0:0:0:0:
482,151,45781,1,0,0:0:0:0:
482,151,45952,6,0,P|436:163|409:183,1,70,2|0,0:3|0:0,0:0:0:0:
375,105,46292,2,0,P|341:138|327:169,1,70,2|0,0:0|0:0,0:0:0:0:
264,211,46633,2,0,P|269:269|291:334,1,105,2|0,0:0|0:0,0:0:0:0:
251,335,46974,2,0,L|261:384,2,46.6666666666667
169,366,47315,5,2,1:2:0:0:
205,160,47656,2,0,L|444:166,1,210
414,165,48338,1,0,1:0:0:0:
58,291,48679,6,0,P|46:257|43:223,1,70,2|0,0:3|0:0,0:0:0:0:
148,271,49020,2,0,B|155:183|122:224|130:130,1,140,0|2,0:0|0:0,0:0:0:0:
437,174,49702,6,0,B|446:68|408:119|422:16,1,157.500006008148,2|0,0:0|0:0,0:0:0:0:
508,44,50042,6,0,B|483:128|388:147|303:117|325:4|429:20,1,315.000012016297,6|0,1:2|0:0,0:0:0:0:
367,228,50724,1,2,0:3:0:0:
367,228,51065,2,0,P|292:239|248:240,1,105.000004005432
421,19,51406,6,0,B|322:24|305:86|328:174|446:232|541:153|427:83|394:104,1,315.000012016297,2|0,1:2|0:0,0:0:0:0:
442,116,52429,5,2,0:0:0:0:
235,124,52599,1,2,0:0:0:0:
442,116,52770,6,0,B|519:93|597:216|397:290|415:173|402:162|339:146|273:168,1,315.000012016297,2|0,1:2|0:0,0:0:0:0:
162,311,53452,1,2,0:3:0:0:
162,311,53792,5,2,0:0:0:0:
134,213,53963,1,0,0:0:0:0:
231,189,54133,2,0,P|233:240|244:284,1,70,2|0,0:0|0:0,0:0:0:0:
334,280,54474,2,0,P|310:325|297:368,1,70,2|0,0:0|0:0,0:0:0:0:
425,318,54815,5,2,0:0:0:0:
512,269,54986,1,0,0:0:0:0:
500,170,55157,1,2,0:0:0:0:
409,129,55327,1,0,0:0:0:0:
318,159,55497,6,4,B|334:302|386:342|507:311|486:206|387:200,1,315.000012016297,6|0,1:2|0:0,0:0:0:0:
185,163,56179,1,2,0:3:0:0:
185,163,56520,2,0,P|184:227|175:295,1,105.000004005432
424,209,56861,6,0,B|401:256|337:255|279:196|253:135|300:68|351:82|389:143,1,315.000012016297,2|0,1:2|0:0,0:0:0:0:
74,155,57542,1,2,0:3:0:0:
74,155,57883,2,0,P|73:219|64:287,1,105.000004005432
382,132,58224,6,0,B|467:148|428:232|399:236|319:252|304:101|208:141,1,315.000012016297,2|0,1:2|0:0,0:0:0:0:
0,198,58906,2,0,L|104:179,1,105.000004005432,2|0,0:3|0:0,0:0:0:0:
146,99,59247,1,0,3:3:0:0:
146,99,59417,1,0,3:3:0:0:
158,347,59588,5,2,0:0:0:0:
243,263,59759,2,0,L|246:297,1,35,2|0,0:0|0:0,0:0:0:0:
325,256,60099,2,0,L|330:311,1,52.5,2|0,0:0|0:0,0:0:0:0:
329,308,60441,2,0,P|430:298|472:281,1,140,2|0,0:0|0:0,0:0:0:0:
232,317,60952,6,0,P|110:310|14:335,1,210,6|0,1:2|0:0,0:0:0:0:
126,274,61292,2,0,P|53:258|26:193,1,140,2|0,0:0|0:0,0:0:0:0:
172,17,61633,2,0,P|172:69|145:116,1,105.000004005432,2|0,0:3|0:0,0:0:0:0:
254,243,61974,2,0,P|185:273|144:269,1,105,2|0,0:0|0:0,0:0:0:0:
126,274,62315,6,0,L|140:199,1,70,2|0,0:0|0:0,0:0:0:0:
125,99,62656,2,0,L|1:85,1,105,0|0,1:0|0:0,0:0:0:0:
1,66,62997,1,2,0:3:0:0:
292,140,63167,2,0,P|249:161|31:183,1,262.500010013581,2|0,0:0|0:0,0:0:0:0:
247,64,63679,6,0,P|322:30|462:18,1,210,6|0,1:2|0:0,0:0:0:0:
344,62,64020,2,0,P|402:78|437:144,1,140,2|0,0:0|0:0,0:0:0:0:
260,310,64361,2,0,P|207:270|196:222,1,105.000004005432,2|0,0:3|0:0,0:0:0:0:
503,241,64702,2,0,P|453:269|337:250,1,157.500006008148,2|0,0:0|0:0,0:0:0:0:
335,249,65042,6,0,L|342:124,1,105.000004005432,2|0,0:0|0:0,0:0:0:0:
290,49,65383,1,0,1:0:0:0:
436,134,65554,5,2,0:0:0:0:
207,201,65724,1,2,0:3:0:0:
67,37,65895,2,0,P|150:78|265:82,1,210.000008010865,6|0,1:2|0:0,0:0:0:0:
88,267,66406,6,0,P|71:311|70:345,1,70,6|0,1:2|0:0,0:0:0:0:
176,215,66747,2,0,P|171:159|152:114,1,87.5,2|0,0:0|0:0,0:0:0:0:
232,323,67088,2,0,P|283:340|341:347,1,105.000004005432,2|0,0:3|0:0,0:0:0:0:
464,91,67429,2,0,P|389:98|340:121,1,122.500001168251,2|0,0:0|0:0,0:0:0:0:
102,248,67770,6,0,B|303:201|201:274|379:233,1,280,2|0,1:2|0:0,0:0:0:0:
24,307,68281,1,0,0:0:0:0:
120,338,68452,2,0,P|232:337|330:356,1,210.000008010865,2|0,0:3|0:0,0:0:0:0:
396,308,68963,1,0,0:0:0:0:
227,262,69133,5,2,1:2:0:0:
485,301,69304,2,0,P|480:239|501:90,1,210.000008010865
438,1,69815,1,2,0:3:0:0:
438,383,70156,5,2,0:0:0:0:
314,188,70327,1,0,0:0:0:0:
367,252,70497,2,0,P|371:305|336:388,1,140,6|0,1:2|0:0,0:0:0:0:
260,124,70838,2,0,P|303:94|393:82,1,140,6|0,1:2|0:0,0:0:0:0:
146,271,71179,6,0,B|98:184|204:185|315:236|279:299|207:304,1,245,2|0,1:3|0:0,0:0:0:0:
134,297,71861,6,0,P|121:255|119:183,1,105.000004005432,6|0,1:2|0:0,0:0:0:0:
209,34,72202,2,0,P|196:75|194:148,1,105.000004005432,2|0,0:0|0:0,0:0:0:0:
276,181,72542,1,2,0:3:0:0:
276,181,72713,1,0,0:0:0:0:
496,83,72883,2,0,P|426:115|344:120,1,157.500006008148,2|0,0:0|0:0,0:0:0:0:
331,105,73224,5,2,0:0:0:0:
72,114,73565,2,0,P|62:192|75:291,1,157.500006008148,2|0,1:2|0:0,0:0:0:0:
55,299,73906,1,2,0:3:0:0:
165,306,74077,1,0,0:0:0:0:
276,313,74247,2,0,P|333:300|392:293,1,105.000004005432
152,197,74588,6,0,P|76:195|6:186,2,140,2|0|2,1:2|0:0|0:3,0:0:0:0:
252,152,75440,1,0,0:0:0:0:
381,205,75611,1,0,0:0:0:0:
512,101,75781,1,0,0:0:0:0:
467,263,75952,5,2,0:0:0:0:
431,40,76123,2,0,P|431:92|437:144,1,105.000004005432,0|0,0:0|1:0,0:0:0:0:
414,361,76463,2,0,P|348:355|302:355,1,105.000004005432,2|2,0:0|0:3,0:0:0:0:
41,323,76804,2,0,P|129:317|258:295,1,210.000008010865,2|0,0:0|0:0,0:0:0:0:
512,363,77315,5,6,1:2:0:0:
512,363,77656,1,0,0:0:0:0:
464,285,77827,1,0,0:0:0:0:
496,175,77997,2,0,L|482:65,1,105.000004005432,2|0,0:3|0:0,0:0:0:0:
328,123,78338,2,0,P|359:190|368:285,1,157.500006008148
356,289,78679,6,0,P|321:205|331:27,1,262.5,6|0,1:2|0:0,0:0:0:0:
209,26,79361,2,0,L|220:112,1,87.5,2|0,0:3|0:0,0:0:0:0:
109,138,79702,2,0,P|110:68|102:33,1,87.5
180,332,80042,5,6,1:2:0:0:
180,332,80383,2,0,P|186:278|166:188,1,140,8|0,0:3|0:0,0:0:0:0:
332,52,80724,2,0,P|326:106|346:196,1,140,4|0,0:3|0:0,0:0:0:0:
256,192,81065,1,0,0:0:0:0:
432,110,81236,5,2,0:3:0:0:
130,130,81406,1,0,1:0:0:0:
251,93,81577,1,0,0:0:0:0:
303,283,81747,1,0,1:0:0:0:
182,320,81918,1,0,0:0:0:0:
182,2,82088,5,2,0:3:0:0:
256,192,82258,1,4,0:3:0:0:
464,108,82429,2,0,P|424:136|313:143,1,157.500006008148,2|0,0:0|0:0,0:0:0:0:
256,192,82770,5,6,0:0:0:0:
334,186,93679,5,6,0:0:0:0:
278,378,93849,2,0,P|266:317|281:221,1,140,0|0,0:0|1:0,0:0:0:0:
321,167,94361,5,2,0:3:0:0:
126,214,94531,2,0,P|172:173|263:138,1,140
330,146,95043,5,2,1:2:0:0:
192,0,95213,1,0,0:0:0:0:
285,76,95383,2,0,L|273:1,1,70,0|0,1:0|0:0,0:0:0:0:
274,6,96065,1,2,0:3:0:0:
164,82,96236,1,0,0:0:0:0:
307,80,96406,6,0,P|381:108|486:106,1,175,2|0,1:2|0:0,0:0:0:0:
512,37,96917,1,0,1:0:0:0:
461,228,97088,2,0,P|387:200|282:202,1,175,2|0,0:3|1:0,0:0:0:0:
221,153,97599,1,0,0:0:0:0:
86,204,97770,6,0,P|126:202|170:207,1,70,2|0,0:0|3:0,0:0:0:0:
99,302,98111,2,0,B|178:310|153:275|237:280,1,140,0|2,1:0|0:3,0:0:0:0:
311,327,98622,1,0,0:0:0:0:
348,197,98792,1,0,1:0:0:0:
457,248,98963,1,0,0:0:0:0:
512,178,99133,6,0,P|518:117|508:34,1,140,2|0,1:2|0:0,0:0:0:0:
433,1,99645,1,0,1:0:0:0:
259,173,99815,2,0,P|253:112|263:29,1,140,2|0,0:3|0:0,0:0:0:0:
190,1,100327,1,0,0:0:0:0:
4,176,100497,6,0,P|10:115|0:32,1,140,6|0,1:2|0:0,0:0:0:0:
91,6,101008,1,0,1:0:0:0:
89,233,101179,2,0,L|100:128,2,93.3333333333333,2|2|2,0:3|0:0|0:0,0:0:0:0:
347,49,101861,6,0,P|225:75|184:194,1,262.5,2|0,1:2|1:0,0:0:0:0:
250,246,102542,1,2,0:3:0:0:
117,253,102713,1,0,0:0:0:0:
321,185,102883,1,0,1:0:0:0:
243,384,103054,1,0,0:0:0:0:
390,255,103224,6,0,P|440:218|515:211,1,131.25,2|0,0:0|0:0,0:0:0:0:
507,209,103565,2,0,L|498:308,1,87.5,0|0,1:0|0:0,0:0:0:0:
495,122,103906,1,2,0:3:0:0:
321,185,104077,2,0,P|324:121|334:93,1,70,0|0,1:0|0:0,0:0:0:0:
409,118,104417,1,0,0:0:0:0:
67,135,104588,6,0,P|84:204|80:324,1,175,6|0,1:2|0:0,0:0:0:0:
83,307,105099,1,0,1:0:0:0:
297,331,105270,1,2,0:3:0:0:
215,288,105440,2,0,P|168:238|179:150,1,140
147,363,105952,6,0,P|203:332|425:308,1,280,2|2,1:2|0:3,0:0:0:0:
414,305,106974,1,0,0:0:0:0:
512,279,107145,1,0,0:0:0:0:
404,322,107315,6,0,P|365:277|358:176,1,140,2|0,1:2|0:0,0:0:0:0:
293,147,107827,1,0,0:0:0:0:
444,118,107997,1,2,0:3:0:0:
444,118,108167,2,0,P|432:158|445:221,1,105,0|0,1:0|0:0,0:0:0:0:
443,218,108508,1,0,3:0:0:0:
275,164,108679,6,0,L|289:13,1,140,2|0,1:2|0:0,0:0:0:0:
371,0,109190,1,0,1:0:0:0:
200,38,109361,1,2,0:3:0:0:
97,8,109531,1,0,0:0:0:0:
61,111,109702,1,0,0:0:0:0:
164,141,109872,1,0,1:0:0:0:
211,231,110042,6,0,P|250:163|391:136,1,210.000008010865,6|0,1:2|0:0,0:0:0:0:
481,269,110554,1,0,1:0:0:0:
512,105,110724,2,0,P|473:173|332:200,1,210.000008010865,2|0,0:3|0:0,0:0:0:0:
284,265,111236,1,0,0:0:0:0:
191,198,111406,6,0,P|205:123|200:79,1,105.000004005432,6|0,1:2|0:0,0:0:0:0:
391,21,111747,2,0,P|377:96|382:140,1,105.000004005432
335,326,112088,1,2,0:3:0:0:
355,145,112258,1,0,1:0:0:0:
318,348,112429,2,0,P|256:309|133:303,1,157.500006008148
33,341,112770,5,6,1:2:0:0:
63,73,113111,2,8,L|74:-6,2,70.0000026702882,8|8|8,0:3|0:3|0:3,0:3:0:0:
140,126,113452,5,8,1:3:0:0:
133,168,113565,1,8,1:3:0:0:
126,209,113679,1,8,1:3:0:0:
87,233,113792,5,4,1:3:0:0:
80,275,113907,1,4,1:3:0:0:
73,316,114019,1,4,1:3:0:0:
33,341,114133,5,6,1:2:0:0:
226,176,114304,2,0,L|206:325,1,140,6|0,1:2|0:0,0:0:0:0:
331,108,114645,2,0,L|294:379,1,210,6|0,1:2|0:0,0:0:0:0:
302,316,114986,2,0,P|379:286|510:278,1,210,6|0,1:2|0:0,0:0:0:0:
214,322,115327,1,0,0:0:0:0:
214,322,115412,1,0,0:0:0:0:
214,322,115497,6,0,P|146:285|1:270,1,210,6|0,1:2|0:0,0:0:0:0:
111,247,115838,2,0,P|66:195|74:127,1,140,2|0,0:0|0:0,0:0:0:0:
198,42,116179,2,0,P|249:49|290:81,1,105.000004005432,2|0,0:3|0:0,0:0:0:0:
277,346,116520,2,0,P|214:324|175:282,1,105,2|0,0:0|0:0,0:0:0:0:
157,292,116861,6,0,L|173:197,1,70,2|0,0:0|0:0,0:0:0:0:
212,128,117202,2,0,L|84:113,1,105,0|0,1:0|0:0,0:0:0:0:
85,98,117542,1,2,0:3:0:0:
348,331,117713,2,0,P|281:287|84:256,1,262.500010013581,2|0,0:0|0:0,0:0:0:0:
318,129,118224,6,0,P|381:179|546:187,1,210,6|0,1:2|0:0,0:0:0:0:
426,174,118565,2,0,P|458:100|433:17,1,140,2|0,0:0|0:0,0:0:0:0:
276,214,118906,2,0,P|242:272|245:342,1,105.000004005432,2|0,0:3|0:0,0:0:0:0:
180,135,119247,2,0,P|147:57|51:9,1,157.500006008148,2|0,0:0|0:0,0:0:0:0:
100,37,119588,6,0,L|85:176,1,105.000004005432,2|0,0:0|0:0,0:0:0:0:
132,215,119929,1,0,1:0:0:0:
9,179,120099,5,2,0:0:0:0:
259,256,120270,1,2,0:3:0:0:
52,290,120440,2,0,P|89:193|158:115,1,210.000008010865,6|0,1:2|0:0,0:0:0:0:
365,370,120952,6,0,P|414:360|453:360,1,70,6|0,1:2|0:0,0:0:0:0:
511,142,121293,2,0,P|503:178|471:241,1,87.5,2|0,0:0|0:0,0:0:0:0:
273,239,121634,2,0,P|220:222|175:179,1,105.000004005432,2|0,0:3|0:0,0:0:0:0:
360,33,121975,2,0,P|425:15|484:12,1,122.500001168251,2|0,0:0|0:0,0:0:0:0:
169,108,122316,6,0,B|126:290|213:183|163:381,1,280,2|0,1:2|0:0,0:0:0:0:
138,20,122827,1,0,0:0:0:0:
68,92,122997,2,0,P|57:176|66:341,1,210.000008010865,2|0,0:3|0:0,0:0:0:0:
7,373,123508,1,0,0:0:0:0:
140,212,123679,5,2,1:2:0:0:
368,298,123849,2,0,P|263:300|162:327,1,210.000008010865
96,384,124361,1,2,0:3:0:0:
512,188,124702,5,2,0:0:0:0:
387,130,124872,1,0,0:0:0:0:
264,169,125042,2,0,P|228:98|231:23,1,140,6|0,1:2|0:0,0:0:0:0:
130,139,125383,2,0,P|59:175|-16:172,1,140,6|0,1:2|0:0,0:0:0:0:
288,285,125724,6,0,B|288:219|364:237|392:260|413:349|347:368|318:338,1,210,2|0,1:3|0:0,0:0:0:0:
414,192,126406,6,0,P|422:103|415:47,1,140,6|0,1:2|0:0,0:0:0:0:
275,53,126747,2,0,P|286:125|284:176,1,105.000004005432
150,112,127088,1,2,0:3:0:0:
150,112,127258,1,0,0:1:0:0:
18,45,127429,2,0,P|13:131|47:243,1,157.500006008148,2|0,0:0|0:0,0:0:0:0:
49,212,127770,5,2,0:0:0:0:
380,208,128111,2,0,P|275:197|185:216,1,157.500006008148,0|0,1:0|0:0,0:0:0:0:
201,220,128452,1,2,0:3:0:0:
162,137,128622,1,0,0:3:0:0:
249,109,128792,2,0,P|259:57|258:5,1,105.000004005432,2|0,0:0|0:0,0:0:0:0:
255,331,129133,5,6,1:2:0:0:
320,269,129304,2,0,P|389:263|462:273,1,140
255,331,129815,5,2,0:3:0:0:
320,269,129986,1,0,0:0:0:0:
194,220,130156,1,2,0:0:0:0:
355,153,130327,1,0,0:0:0:0:
82,142,130497,5,2,0:0:0:0:
249,100,130668,2,0,P|242:48|223:0,1,105.000004005432,0|0,0:0|1:3,0:0:0:0:
204,306,131008,2,0,P|134:329|64:330,1,105.000004005432,2|2,0:0|0:3,0:0:0:0:
310,318,131349,2,0,P|402:285|543:264,1,210.000008010865,2|0,0:0|0:0,0:0:0:0:
33,289,131861,5,6,1:2:0:0:
33,289,132202,1,0,0:0:0:0:
124,279,132373,1,0,0:0:0:0:
101,123,132542,2,0,L|87:7,1,105.000004005432,2|0,0:3|0:0,0:0:0:0:
349,125,132883,2,0,P|273:143|213:193,1,157.500006008148
194,185,133224,6,0,P|243:134|460:104,1,262.5,2|0,1:2|0:0,0:0:0:0:
487,166,133906,2,0,L|504:273,1,87.5,2|0,0:3|0:0,0:0:0:0:
323,221,134247,2,0,P|365:200|412:192,1,87.5,2|0,0:0|0:0,0:0:0:0:
64,123,134588,5,6,1:2:0:0:
64,123,134929,2,0,L|216:98,1,140,0|0,1:3|0:0,0:0:0:0:
469,36,135270,1,0,1:0:0:0:
253,34,135440,1,0,1:0:0:0:
253,34,135781,1,0,1:0:0:0:
320,272,135952,5,6,1:2:0:0:
288,145,136122,1,8,0:3:0:0:
382,54,136292,1,4,0:3:0:0:
512,60,136463,1,12,1:3:0:0:
158,28,136633,6,0,P|110:51|58:56,1,105.000004005432,2|0,1:3|0:0,0:0:0:0:
209,108,136974,2,0,P|256:70|291:58,1,70,2|2,0:0|0:3,0:0:0:0:
426,150,137315,5,6,0:0:0:0:
426,150,137827,6,0,L|429:94,2,52.5000020027161,2|0|0,0:0|0:0|0:0,0:0:0:0:
352,197,138338,2,0,P|325:199|292:195,1,52.5000020027161,2|0,0:0|0:0,0:0:0:0:
275,225,138679,6,0,P|363:224|437:248,1,157.500006008148,2|0,0:0|0:0,0:0:0:0:
415,328,139361,2,0,L|412:384,2,52.5000020027161,2|0|0,0:0|0:0|0:0,0:0:0:0:
415,328,142770,6,0,L|426:218,1,105.000004005432,2|0,0:3|0:0,0:0:0:0:
393,145,143281,1,0,3:0:0:0:
326,195,143452,1,2,0:2:0:0:
326,195,143792,1,0,3:0:0:0:
272,126,143963,1,0,0:0:0:0:
198,175,144133,6,0,L|122:168,1,52.5000020027161,2|0,0:0|0:0,0:0:0:0:
120,84,144474,1,0,0:0:0:0:
120,84,144815,2,0,L|375:109,1,241.500004606247,2|0,3:0|0:0,0:0:0:0:
358,190,145497,6,0,B|360:189|361:189|361:189|362:186|362:186|365:187|365:187|366:187|366:187|368:185|368:185|370:185|370:185|368:185|368:185|369:185|369:185|370:185|370:185|371:185|371:185|373:183|373:183|375:184|375:184|376:184|376:184|378:184|378:184|380:182|380:182|378:184|378:184|379:183|379:183|380:182|380:182|381:182|381:182|382:180|382:180|384:181|384:181|382:180|382:180|383:180|383:180|384:181|384:181|385:181|385:181|387:178|387:178|389:179|389:179|390:179|390:179|393:180|393:180|390:179|390:179|392:179|392:179|393:180|393:180|394:178|394:178|395:178|395:178|397:176|397:176|399:177|399:177|400:177|400:177|401:175|401:175|404:176|404:176|401:175|401:175|403:175|403:175|404:176|404:176|405:175|405:175|406:173|406:173|405:175|405:175|405:174|405:174|406:173|406:173|409:175|409:175|410:174|410:174|412:176|412:176|414:174|414:174|415:173|415:173|417:175|417:175|415:173|415:173|416:174|416:174|417:175|417:175|418:173|418:173|419:172|419:172|422:174|422:174|419:172|419:172|421:172|421:172|422:174|422:174|423:172|423:172|424:172|424:172|427:173|427:173|428:171|428:171|429:171|429:171|431:172|431:172|429:171|429:171|430:172|430:172|431:172|431:172|433:170|433:170|434:170|434:170|436:171|436:171|438:170|438:170|436:171|436:171|437:171|437:171|438:170|438:170|439:169|439:169|441:168|441:168|443:169|443:169|444:169|444:169|446:167|446:167|448:169|448:169|446:167|446:167|447:168|447:168|448:169|448:169|449:168|449:168|451:170|451:170|453:168|453:168|451:170|451:170|452:169|452:169|453:168|453:168|454:168|454:168|456:169|456:169|458:168|458:168|459:168|459:168|461:166|461:166|463:167|463:167|461:166|461:166|462:166|462:166|463:167|463:167|464:167|464:167|466:166|466:166|468:167|468:167|469:167|469:167|471:166|471:166|473:167|473:167|471:166|471:166|472:166|472:166|473:167|473:167|474:167|474:167|476:166|476:166|478:167|478:167|479:167|479:167|481:166|481:166|479:167|479:167|480:167|480:167|481:166|481:166|483:167|483:167|484:167|484:167|486:169|486:169|488:167|488:167|486:169|486:169|487:168|487:168|488:167|488:167|489:167|489:167|491:169|491:169|493:167|493:167|494:168|494:168|496:166|496:166|494:168|494:168|495:167|495:167|496:166|496:166|498:168|498:168|499:168|499:168|501:170|501:170|503:168|503:168|501:170|501:170|502:169|502:169|503:168|503:168|504:168|504:168|506:167|506:167|508:169|508:169|512:169|509:169|509:169|508:169|508:169|509:169|509:169|511:167|511:167|513:169,1,298.90941608979,2|0,0:0|0:0,0:0:0:0:
474,252,146179,2,0,B|476:254|476:254|480:254|480:254|480:257|480:257|481:258|481:258|483:258|483:258|484:260|484:260|483:258|483:258|483:259|483:259|484:260|484:260|485:261|485:261|487:261|487:261|488:264|488:264|489:267|489:267|488:264|488:264|489:265|489:265|489:267|489:267|491:267|491:267|492:268|492:268|495:268|495:268|495:270|495:270|495:268|495:268|495:269|495:269|495:270|495:270|496:271|496:271|498:271|498:271|499:274|499:274|500:277|500:277|499:274|499:274|500:275|500:275|500:277|500:277|502:277|502:277|503:278|503:278|506:278|506:278|506:281|506:281|506:278|506:278|507:280|507:280|506:281|506:281|506:282|506:282|509:282|509:282|509:284|509:284|512:287|510:285|510:285|509:284|509:284|510:284|510:284|510:285|510:285|512:286|512:286|513:288,1,99.3999949948123,2|0,0:0|0:0,0:0:0:0:
433,326,146520,2,0,B|434:328|434:329|434:329|437:330|437:330|436:333|436:333|436:334|436:334|438:336|438:336|437:338|437:338|438:336|438:336|437:337|437:337|437:338|437:338|438:339|438:339|440:340|440:340|439:343|439:343|439:344|439:344|438:346|438:346|439:344|439:344|439:345|439:345|438:346|438:346|440:348|440:348|441:348|441:348|443:351|443:351|442:353|442:353|443:351|443:351|443:352|443:352|442:353|442:353|442:354|442:354|444:356|444:356|443:358|443:358|444:359|444:359|443:361|443:361|445:363|445:363|443:361|443:361|444:362|444:362|445:363|445:363|445:364|445:364|447:365|447:365|446:368|446:368|447:365|447:365|447:367|447:367|446:368|446:368|446:369|446:369|448:370|448:370|447:372|447:372|448:377|447:373|447:373|447:372|447:372|447:373|447:373|449:376|449:376|448:378,1,99.3999949948123,2|0,0:0|0:0,0:0:0:0:
250,296,146861,6,0,L|383:263,2,131.25,8|8|0,1:3|1:3|1:0,0:0:0:0:
63,384,147542,1,0,3:0:0:0:
169,322,147713,1,0,3:0:0:0:
37,281,147883,2,0,P|70:256|138:238,1,87.5,0|0,3:0|0:0,0:0:0:0:
178,92,148224,6,0,P|138:107|47:104,2,105.000004005432,6|0|0,1:2|0:0|0:0,0:0:0:0:
241,17,148736,1,0,1:0:0:0:
324,140,148906,1,0,0:0:0:0:
354,0,149077,1,0,0:0:0:0:
332,164,149247,2,0,P|409:114|502:101,1,157.500006008148,0|0,1:0|0:0,0:0:0:0:
499,115,149589,6,0,L|477:222,1,87.5,2|0,1:2|0:0,0:0:0:0:
456,227,149844,2,0,L|474:338,1,87.5,0|0,1:2|0:0,0:0:0:0:
497,336,150099,1,0,1:0:0:0:
365,266,150270,1,0,0:0:0:0:
255,384,150440,1,0,0:0:0:0:
81,306,150611,5,2,1:2:0:0:
284,302,150781,1,0,0:0:0:0:
21,239,150952,6,0,L|32:115,1,105.000004005432,2|0,1:2|0:0,0:0:0:0:
163,69,151292,2,0,B|116:47|116:47|65:60,1,105.000004005432,2|0,0:0|1:0,0:0:0:0:
184,239,151633,2,0,B|209:181|209:181|184:90,1,157.500006008148,2|0,0:0|0:0,0:0:0:0:
184,90,151974,1,0,1:0:0:0:
303,105,152145,1,0,0:0:0:0:
421,119,152315,5,2,1:2:0:0:
372,0,152486,1,0,0:0:0:0:
441,199,152656,2,0,P|466:127|457:36,1,157.500006008148,2|0,0:0|0:0,0:0:0:0:
345,168,152997,2,0,P|339:246|364:320,1,157.500006008148,2|0,0:0|0:0,0:0:0:0:
364,320,153338,1,2,0:3:0:0:
444,381,153508,1,0,1:0:0:0:
282,362,153679,6,0,P|232:333|157:327,2,105.000004005432,6|0|0,1:2|0:0|0:0,0:0:0:0:
153,247,154190,1,0,1:0:0:0:
304,221,154361,1,0,0:0:0:0:
222,188,154532,2,0,L|229:156,2,26.2500010013581
330,221,154702,2,0,P|390:243|513:240,1,157.500006008148,0|0,1:0|0:0,0:0:0:0:
512,262,155042,6,0,L|503:157,1,105.000004005432,2|0,1:2|0:0,0:0:0:0:
512,126,155298,2,0,L|406:116,1,105.000004005432,0|0,1:0|0:0,0:0:0:0:
381,140,155554,1,0,1:0:0:0:
262,53,155724,1,0,0:0:0:0:
209,194,155895,1,0,0:0:0:0:
180,3,156065,5,2,1:2:0:0:
293,238,156236,1,0,0:0:0:0:
140,79,156406,6,0,L|16:72,1,105.000004005432,2|0,1:2|0:0,0:0:0:0:
227,170,156747,2,0,B|254:126|254:126|238:43,1,105.000004005432,2|0,0:0|1:3,0:3:0:0:
198,318,157089,1,2,0:0:0:0:
209,194,157259,2,0,L|201:234,2,26.2500010013581
293,238,157429,2,0,L|414:229,1,105.000004005432,0|0,1:0|0:0,0:0:0:0:
77,158,157770,5,2,1:2:0:0:
78,318,157940,1,0,1:0:0:0:
78,318,158025,1,0,1:0:0:0:
78,318,158111,1,2,0:0:0:0:
144,240,158281,1,0,1:0:0:0:
246,227,158452,1,2,0:0:0:0:
339,271,158622,1,0,0:0:0:0:
392,359,158792,5,2,1:2:0:0:
407,98,158963,1,0,1:0:0:0:
407,98,159048,1,0,1:0:0:0:
407,98,159133,6,0,P|330:78|206:83,1,183.750001752377,6|0,1:2|0:0,0:0:0:0:
226,79,159474,2,0,P|166:91|109:112,1,122.500001168251,0|0,1:0|0:0,0:0:0:0:
10,272,159815,6,0,P|12:191|-2:141,1,122.500001168251,2|0,1:2|0:0,0:0:0:0:
0,25,160156,2,0,P|81:27|131:13,1,122.500001168251,2|0,1:2|0:0,0:0:0:0:
233,105,160497,6,0,P|180:149|167:273,1,183.750001752377,2|0,1:2|0:0,0:0:0:0:
161,257,160838,1,0,1:0:0:0:
266,366,161008,2,0,B|278:307|278:307|255:243,1,122.500001168251,2|0,0:0|1:0,0:0:0:0:
365,369,161349,1,2,0:0:0:0:
340,182,161520,5,2,1:2:0:0:
71,210,161690,1,0,0:0:0:0:
408,257,161861,6,0,P|436:192|410:65,1,183.750001752377,2|0,1:2|0:0,0:0:0:0:
420,82,162202,2,0,P|370:37|273:20,1,122.500001168251,0|0,1:0|0:0,0:0:0:0:
78,97,162542,6,0,P|159:102|216:115,1,122.500001168251,2|0,1:2|0:0,0:0:0:0:
267,227,162883,2,0,P|262:308|249:365,1,122.500001168251,2|0,1:2|0:0,0:0:0:0:
473,204,163224,5,2,1:2:0:0:
455,377,163395,1,2,0:0:0:0:
366,194,163565,6,0,B|356:86|409:152|391:14,1,183.750001752377,2|0,1:2|0:0,0:0:0:0:
255,164,163906,2,0,B|265:272|212:206|230:344,1,183.750001752377,2|0,1:2|0:0,0:0:0:0:
144,138,164247,2,0,P|75:155|18:155,1,122.500001168251,0|0,1:0|0:0,0:0:0:0:
99,324,164588,6,0,P|193:294|308:290,1,210.000008010865,6|0,1:2|0:0,0:0:0:0:
373,347,165099,1,0,1:0:0:0:
311,266,165270,2,0,P|379:243|450:243,1,105.000004005432,2|0,0:3|0:0,0:0:0:0:
512,115,165611,2,0,P|444:138|373:138,1,105.000004005432,0|0,1:0|0:0,0:0:0:0:
249,178,165952,6,0,L|88:164,2,157.500006008148,2|0|0,1:2|1:0|1:0,0:0:0:0:
436,153,166633,6,0,P|442:78|353:2,1,157.500006008148,2|0,0:3|0:0,0:0:0:0:
310,33,166974,2,0,P|304:108|393:184,1,157.500006008148,0|0,1:0|0:0,0:0:0:0:
405,239,167315,5,2,1:2:0:0:
223,202,167486,1,2,0:3:0:0:
470,311,167656,6,0,L|342:331,1,105.000004005432,2|0,1:2|0:0,0:0:0:0:
111,246,167997,5,2,0:3:0:0:
306,269,168167,1,0,0:0:0:0:
111,246,168338,1,0,1:0:0:0:
145,54,168508,1,2,0:3:0:0:
357,81,168679,6,0,L|517:54,2,157.500006008148,2|0|0,1:2|1:0|1:0,0:0:0:0:
45,144,169361,2,0,P|127:157|180:177,1,105.000004005432,2|0,0:3|0:3,0:3:0:0:
22,166,169702,1,2,0:0:0:0:
263,126,169872,1,0,1:0:0:0:
263,126,169957,1,0,1:0:0:0:
263,126,170042,6,0,L|263:266,1,140,6|2,1:2|0:0,0:0:0:0:
256,192,179589,12,0,180782,0:0:0:0:
256,192,180952,6,0,P|109:166|30:177,1,210,6|0,1:2|0:0,0:0:0:0:
53,205,181292,2,0,P|154:164|169:120,1,140,2|0,0:0|0:0,0:0:0:0:
358,0,181633,2,0,P|329:56|328:115,1,105.000004005432,2|0,0:3|0:0,0:0:0:0:
233,318,181974,2,0,P|242:256|230:195,1,105
227,199,182315,6,0,L|304:207,1,70,2|0,0:0|0:0,0:0:0:0:
384,185,182656,2,0,L|497:172,1,105,0|0,1:0|0:0,0:0:0:0:
512,148,182997,1,2,0:3:0:0:
208,52,183167,2,0,P|332:92|461:79,1,262.500010013581,2|0,0:0|0:0,0:0:0:0:
501,265,183679,6,0,P|402:282|281:373,1,210,6|0,1:2|0:0,0:0:0:0:
336,349,184020,2,0,P|366:276|336:207,1,140,2|0,0:0|0:0,0:0:0:0:
132,170,184361,2,0,P|147:243|197:263,1,105.000004005432,2|0,0:3|0:0,0:0:0:0:
435,221,184702,2,0,P|399:146|293:136,1,157.500006008148,2|0,0:0|0:0,0:0:0:0:
332,124,185042,6,0,L|321:14,1,105.000004005432,2|0,0:0|0:0,0:0:0:0:
338,212,185383,1,0,1:0:0:0:
428,36,185554,5,2,0:0:0:0:
238,0,185724,1,2,0:3:0:0:
213,187,185895,2,0,P|248:270|366:299,1,210.000008010865,6|0,1:2|0:0,0:0:0:0:
49,354,186406,6,0,P|48:302|41:267,1,70,6|0,1:2|0:0,0:0:0:0:
65,152,186747,2,0,P|101:187|148:202,1,87.5,2|0,0:0|0:0,0:0:0:0:
344,45,187088,2,0,P|272:76|242:111,1,105.000004005432,2|0,0:3|0:0,0:0:0:0:
462,289,187429,2,0,P|466:210|455:150,1,122.500001168251,2|0,0:0|0:0,0:0:0:0:
49,354,187770,6,0,B|232:310|142:389|324:346,1,280,2|0,1:2|0:0,0:0:0:0:
416,369,188281,1,0,0:0:0:0:
143,384,188452,2,0,P|184:315|347:274,1,210.000008010865,2|0,0:3|0:0,0:0:0:0:
364,203,188963,1,0,0:0:0:0:
119,254,189133,5,6,1:2:0:0:
458,258,189304,2,0,P|448:165|474:43,1,210.000008010865
392,0,189815,1,2,0:3:0:0:
392,384,190156,5,2,0:0:0:0:
256,192,190327,1,0,0:0:0:0:
375,371,190497,2,0,P|377:286|353:200,1,140,6|0,1:2|0:0,0:0:0:0:
137,13,190838,2,0,P|135:98|159:184,1,140,6|0,1:2|0:0,0:0:0:0:
439,110,191179,6,0,B|486:71|414:52|355:37|286:84|303:145|361:132,1,245,2|0,1:3|0:0,0:0:0:0:
343,147,191861,6,0,P|344:59|335:14,1,105.000004005432,6|0,1:2|0:0,0:0:0:0:
241,153,192202,2,0,P|242:241|233:286,1,105.000004005432,2|0,0:2|0:0,0:0:0:0:
228,35,192542,1,2,0:3:0:0:
228,35,192713,1,0,0:0:0:0:
0,116,192883,2,0,P|78:109|157:116,1,157.500006008148,2|0,0:0|0:0,0:0:0:0:
165,103,193224,5,2,0:0:0:0:
512,362,193565,2,0,P|436:341|356:335,1,157.500006008148,0|0,1:0|0:0,0:0:0:0:
355,307,193906,1,2,0:3:0:0:
372,212,194077,1,0,0:0:0:0:
390,116,194248,2,0,P|394:58|391:8,1,105.000004005432
95,13,194588,5,2,1:2:0:0:
186,69,194758,2,0,P|186:138|199:212,1,140
228,315,195270,5,2,0:3:0:0:
128,334,195440,1,0,0:0:0:0:
95,191,195611,1,0,0:0:0:0:
273,166,195781,1,0,0:0:0:0:
0,149,195952,5,2,0:0:0:0:
184,236,196122,1,0,0:0:0:0:
216,42,196292,1,0,1:0:0:0:
415,107,196463,2,0,P|367:106|305:92,1,105.000004005432,2|2,0:0|0:3,0:0:0:0:
197,267,196804,2,0,P|332:242|422:254,1,210.000008010865,2|0,0:0|0:0,0:0:0:0:
50,51,197315,5,6,1:2:0:0:
50,51,197656,1,0,0:0:0:0:
132,150,197827,1,0,0:0:0:0:
295,19,197997,2,0,L|407:37,1,105.000004005432,2|0,0:3|0:0,0:0:0:0:
215,82,198338,2,0,P|136:70|11:91,1,157.500006008148,2|0,0:0|0:0,0:0:0:0:
50,51,198679,6,0,P|266:134|318:137,1,262.5,6|0,1:2|0:0,0:0:0:0:
306,243,199361,2,0,L|185:224,1,87.5,2|0,0:3|0:3,0:3:0:0:
425,104,199702,2,0,P|428:147|422:190,1,87.5
191,359,200042,5,6,1:2:0:0:
341,162,200213,1,8,0:3:0:0:
341,162,200554,5,4,0:3:0:0:
341,162,200639,1,4,0:3:0:0:
341,162,200724,1,4,1:3:0:0:
160,195,200895,1,0,1:3:0:0:
193,376,201065,1,4,0:3:0:0:
374,343,201236,1,4,0:3:0:0:
75,241,201406,5,2,1:2:0:0:
75,241,201577,1,0,0:0:0:0:
437,143,201747,5,2,1:2:0:0:
437,143,201917,1,0,0:0:0:0:
256,192,202089,5,6,1:2:0:0:
256,192,202429,5,6,1:2:0:0:
279,47,202599,1,0,1:2:0:0:
233,337,202770,6,0,L|226:265,2,70,2|0|0,0:0|0:0|0:0,0:0:0:0:
256,192,203793,1,0,0:0:0:0:
136,383,204134,5,2,0:0:0:0:
67,281,204475,1,0,0:0:0:0:
64,158,204816,1,2,0:0:0:0:
141,62,205157,1,0,0:0:0:0:
40,0,205498,6,0,L|33:70,1,70,2|0,0:0|0:0,0:0:0:0:
161,178,206179,2,0,L|153:247,1,70,2|0,0:0|0:0,0:0:0:0:
297,384,206861,5,2,0:0:0:0:
256,192,207202,1,2,0:0:0:0:
467,235,207543,6,0,P|441:277|330:310,1,157.500006008148,2|0,0:0|0:0,0:0:0:0:
