osu file format v14

[General]
AudioFilename: audio.mp3
AudioLeadIn: 0
PreviewTime: 18220
Countdown: 0
SampleSet: Soft
StackLeniency: 0.7
Mode: 0
LetterboxInBreaks: 0
WidescreenStoryboard: 1

[Editor]
Bookmarks: 82770,137315
DistanceSpacing: 1.3
BeatDivisor: 4
GridSize: 8
TimelineZoom: 2.3

[Metadata]
Title:Kaika
TitleUnicode:回夏
Artist:cadode
ArtistUnicode:cadode
Creator:VINXIS
Version:Normal
Source:サマータイムレンダ
Tags:kainatsu kai natsu rejuvenation summer summertime time render rendering tv theme song ending ed 1st 1 1stED テーマ TVアニメ アニメ japanese anime j-edm edm electronic dance music chillout pop j-pop eba koshi _M28 RyoTanihara Ryo Tanihara 谷原亮 departure
BeatmapID:3598075
BeatmapSetID:1754413

[Difficulty]
HPDrainRate:3
CircleSize:3.5
OverallDifficulty:6
ApproachRate:5.5
SliderMultiplier:1
SliderTickRate:0.5

[Events]
//Background and Video events
0,0,"87392545_p0.jpg",0,0
//Break Periods
2,82970,92554
2,137516,141645
2,171606,179827
//Storyboard Layer 0 (Background)
//Storyboard Layer 1 (Fail)
//Storyboard Layer 2 (Pass)
//Storyboard Layer 3 (Foreground)
//Storyboard Layer 4 (Overlay)
//Storyboard Sound Samples

[TimingPoints]
-411,340.909090909091,4,2,1,30,1,0
952,-125,4,2,3,50,0,0
1037,-125,4,2,1,50,0,0
3679,-125,4,2,3,50,0,0
3765,-125,4,2,1,50,0,0
6407,-125,4,2,3,50,0,0
6492,-125,4,2,1,50,0,0
11861,-100,4,2,1,60,0,0
15270,-100,4,2,1,50,0,0
15952,-100,4,2,1,40,0,0
16633,-100,4,2,1,30,0,0
17316,-125,4,2,1,60,0,0
18679,-100,4,2,1,60,0,0
21407,-83.3333333333333,4,2,1,100,0,0
24133,-83.3333333333333,4,2,2,100,0,0
25498,-100,4,2,2,100,0,0
26861,-83.3333333333333,4,2,2,100,0,0
28225,-100,4,2,3,70,0,0
28310,-100,4,2,1,70,0,0
50043,-83.3333333333333,4,2,2,70,0,0
56179,-83.3333333333333,4,2,3,100,0,0
56520,-83.3333333333333,4,2,2,70,0,0
57543,-83.3333333333333,4,2,4,100,0,0
57884,-83.3333333333333,4,2,2,70,0,0
58907,-83.3333333333333,4,2,0,70,0,0
59589,-100,4,2,2,80,0,0
60952,-83.3333333333333,4,2,5,100,0,1
61037,-83.3333333333333,4,2,2,100,0,1
71179,-83.3333333333333,4,2,1,100,0,1
71861,-83.3333333333333,4,2,5,100,0,1
71946,-83.3333333333333,4,2,2,100,0,1
82770,-83.3333333333333,4,2,5,70,0,0
93679,-83.3333333333333,4,2,2,70,0,0
113452,-83.3333333333333,4,2,1,70,0,0
114133,-83.3333333333333,4,2,2,70,0,0
115498,-83.3333333333333,4,2,5,100,0,1
115583,-83.3333333333333,4,2,2,100,0,1
125724,-83.3333333333333,4,2,1,100,0,1
126406,-83.3333333333333,4,2,5,100,0,1
126492,-83.3333333333333,4,2,2,100,0,1
137316,-100,4,2,5,100,0,0
137400,-100,4,2,2,40,0,0
142770,-100,4,2,1,60,0,0
145498,-66.6666666666667,4,2,1,60,0,0
146861,-100,4,2,1,60,0,0
148224,-100,4,2,2,70,0,0
159133,-100,4,2,5,70,0,0
159219,-100,4,2,2,70,0,0
170043,-125,4,2,1,70,0,0
170128,-125,4,2,0,30,0,0
180952,-83.3333333333333,4,2,5,100,0,1
181037,-83.3333333333333,4,2,2,100,0,1
191179,-83.3333333333333,4,2,1,100,0,1
191861,-83.3333333333333,4,2,5,100,0,1
191946,-83.3333333333333,4,2,2,100,0,1
200895,-83.3333333333333,4,2,1,100,0,1
201066,-83.3333333333333,4,2,2,100,0,1
202089,-83.3333333333333,4,2,0,100,0,1
202770,-125,4,2,5,100,0,0
202856,-125,4,2,0,60,0,0
207543,-125,4,2,0,70,0,0
208054,-125,4,2,0,30,0,0

[Colours]
Combo1 : 174,249,170
Combo2 : 249,245,176
Combo3 : 156,248,245
Combo4 : 250,175,237

[HitObjects]
99,336,952,6,0,P|104:274|85:174,1,160,2|2,0:0|0:0,0:0:0:0:
262,66,2316,1,2,0:0:0:0:
86,178,2998,2,0,P|81:240|87:279,1,80,2|0,0:0|0:0,0:0:0:0:
79,361,3679,6,0,P|151:331|250:328,1,160,2|2,0:0|0:0,0:0:0:0:
465,266,5043,2,0,P|467:207|462:174,1,80,2|0,0:0|0:0,0:0:0:0:
362,162,5725,2,0,P|360:90|365:51,1,80,2|0,0:0|0:0,0:0:0:0:
263,42,6407,6,0,P|197:55|81:52,1,160,2|2,0:0|0:0,0:0:0:0:
11,102,7429,1,0,0:0:0:0:
107,140,7770,2,0,P|131:183|145:297,1,160,2|2,0:0|0:0,0:0:0:0:
223,360,8793,1,2,0:0:0:0:
269,267,9134,2,0,P|245:224|234:105,1,160,2|2,0:0|0:0,0:0:0:0:
333,89,10157,1,2,0:0:0:0:
436,75,10498,2,0,P|460:118|475:207,2,120,2|2|2,0:0|0:0|0:0,0:0:0:0:
312,35,11861,6,0,P|258:53|212:54,1,100,6|0,0:0|0:0,0:0:0:0:
252,179,12543,2,0,L|244:240,2,50,2|0|2,0:3|0:0|0:0,0:0:0:0:
186,69,13225,6,0,P|132:87|86:88,1,100,2|0,0:0|0:0,0:0:0:0:
126,213,13907,2,0,L|118:274,2,50,2|0|2,0:0|0:0|0:0,0:0:0:0:
61,102,14589,5,2,0:0:0:0:
240,103,15270,1,2,0:0:0:0:
398,188,15952,1,2,0:0:0:0:
428,365,16634,1,2,0:0:0:0:
188,379,17316,6,0,L|193:281,1,80,2|0,0:0|0:0,0:0:0:0:
271,231,17998,2,0,L|273:161,1,40,2|0,0:3|0:0,0:0:0:0:
76,80,18679,6,0,P|49:141|48:182,1,100,2|0,0:0|0:0,0:0:0:0:
79,205,19191,2,0,P|106:266|107:307,1,100,2|0,0:0|0:0,0:0:0:0:
84,337,19702,1,2,0:0:0:0:
207,297,20043,6,0,L|277:306,1,50,2|0,0:2|0:0,0:0:0:0:
297,284,20384,2,0,L|313:176,1,100,0|2,3:0|3:3,0:0:0:0:
200,116,21066,1,0,3:0:0:0:
342,57,21407,6,0,P|411:92|520:99,2,179.999994506836,6|6|6,1:2|1:2|1:2,0:0:0:0:
193,8,22770,1,2,0:0:0:0:
319,376,24134,6,0,B|436:349|436:349|406:374,2,159.999995117188,6|6|6,1:2|1:2|1:2,0:0:0:0:
154,321,25498,6,0,P|116:340|25:355,2,133.333333333333,2|2|2,0:0|0:0|0:0,0:0:0:0:
346,241,26861,6,0,B|412:218|466:225|466:225|448:230|424:244,2,159.999995117188,6|6|6,1:2|1:2|1:2,0:0:0:0:
178,214,28225,6,0,P|185:173|151:9,1,200,6|2,1:2|0:2,0:0:0:0:
26,12,29248,1,0,0:0:0:0:
42,140,29589,1,2,0:3:0:0:
447,318,30952,2,0,P|470:268|486:124,2,200,2|0|2,1:2|0:0|0:3,0:0:0:0:
187,341,32998,1,2,0:0:0:0:
395,186,33679,6,0,P|394:136|384:87,1,100,2|0,1:2|0:0,0:0:0:0:
283,2,34361,2,0,P|233:2|88:52,1,200,2|2,0:0|0:3,0:0:0:0:
159,301,35725,2,0,P|226:289|300:251,1,150,2|0,0:0|0:0,0:0:0:0:
291,207,36407,6,0,P|346:227|428:123,1,200,2|2,1:2|0:0,0:0:0:0:
458,7,37429,1,0,1:0:0:0:
329,23,37770,1,2,0:3:0:0:
199,37,38111,2,2,P|123:63|3:65,1,200,0|2,0:0|0:0,0:0:0:0:
58,183,39134,6,0,P|90:238|104:283,1,100,2|0,1:2|0:0,0:0:0:0:
203,353,39816,1,0,0:0:0:0:
298,264,40157,1,0,1:0:0:0:
416,317,40498,1,2,0:3:0:0:
54,218,41350,2,0,L|48:275,2,50
91,192,41861,6,0,P|123:137|139:1,1,200,2|2,1:2|0:0,0:0:0:0:
253,67,42884,1,0,1:0:0:0:
370,10,43225,1,2,0:3:0:0:
390,309,43907,1,2,0:0:0:0:
262,333,44248,1,0,0:0:0:0:
298,208,44589,6,0,P|311:150|308:51,1,150,2|0,1:2|0:0,0:0:0:0:
322,16,45270,2,0,P|286:16|209:27,1,100,2|0,0:0|1:0,0:0:0:0:
93,5,45952,5,2,0:3:0:0:
123,131,46293,1,2,0:0:0:0:
42,232,46634,1,2,0:0:0:0:
72,358,46975,1,0,0:0:0:0:
199,334,47316,5,2,1:2:0:0:
170,207,47657,2,0,L|378:183,1,200,0|0,0:0|1:0,0:0:0:0:
454,281,48679,5,2,0:3:0:0:
508,162,49020,2,0,P|494:99|492:55,1,100,0|2,0:0|0:0,0:0:0:0:
371,12,49702,1,2,0:0:0:0:
257,88,50043,6,0,P|181:94|212:18,1,179.999994506836,6|0,1:2|0:0,0:0:0:0:
243,0,50725,1,2,0:3:0:0:
311,284,51407,6,0,P|235:290|266:214,1,179.999994506836,2|0,1:2|0:0,0:0:0:0:
442,75,52429,2,0,L|450:138,1,59.9999981689454,2|2,0:0|0:0,0:0:0:0:
416,165,52770,6,0,P|340:171|371:95,1,179.999994506836,2|0,1:2|0:0,0:0:0:0:
365,52,53452,1,2,0:3:0:0:
209,43,53793,2,0,L|216:105,1,59.9999981689454,2|0,0:0|0:0,0:0:0:0:
201,146,54134,6,0,P|156:137|81:137,1,119.999996337891,2|2,0:0|0:0,0:0:0:0:
78,293,54816,2,0,P|123:302|198:302,1,119.999996337891,2|2,0:0|0:0,0:0:0:0:
330,223,55498,6,4,P|406:217|375:293,1,179.999994506836,6|0,1:2|0:0,0:0:0:0:
367,333,56179,1,2,0:3:0:0:
117,147,56861,6,0,P|41:141|72:217,1,179.999994506836,2|0,1:2|0:0,0:0:0:0:
80,257,57542,1,2,0:3:0:0:
334,76,58225,6,0,P|429:62|379:146,1,239.999992675781,2|2,1:2|0:3,0:0:0:0:
241,214,59248,2,0,L|249:277,1,59.9999981689454,0|0,3:3|3:3,0:0:0:0:
232,314,59589,5,2,0:0:0:0:
232,314,59759,1,2,0:0:0:0:
360,295,60100,1,2,0:0:0:0:
487,271,60441,2,0,P|472:205|470:161,1,100,2|0,0:0|0:0,0:0:0:0:
457,129,60952,6,0,P|411:147|340:153,1,119.999996337891,6|2,1:2|0:0,0:0:0:0:
227,260,61634,2,0,P|273:242|344:236,1,119.999996337891,2|2,0:3|0:0,0:0:0:0:
204,162,62316,5,2,0:0:0:0:
95,274,62657,1,0,1:0:0:0:
21,142,62998,1,2,0:3:0:0:
21,142,63168,2,0,P|40:111|127:79,1,119.999996337891,2|0,0:0|0:0,0:0:0:0:
144,112,63679,6,0,P|162:158|168:229,1,119.999996337891,6|2,1:2|0:0,0:0:0:0:
294,320,64361,2,0,P|276:274|270:203,1,119.999996337891,2|2,0:3|0:0,0:0:0:0:
412,140,65043,5,2,0:0:0:0:
441,293,65384,2,0,L|439:363,1,59.9999981689454,0|2,1:0|0:0,0:0:0:0:
402,372,65725,1,2,0:3:0:0:
402,372,65895,2,0,P|324:357|264:359,1,119.999996337891,6|0,1:2|0:0,0:0:0:0:
249,331,66407,6,0,P|265:284|270:212,1,119.999996337891,6|2,1:2|0:0,0:0:0:0:
418,165,67089,2,0,P|402:118|397:46,1,119.999996337891,2|2,0:3|0:0,0:0:0:0:
244,14,67770,6,0,P|172:41|52:40,1,179.999994506836,2|0,1:2|0:0,0:0:0:0:
29,68,68452,2,0,P|56:140|55:260,1,179.999994506836,2|0,0:3|0:0,0:0:0:0:
39,285,69134,5,2,1:2:0:0:
39,285,69304,2,0,P|94:268|226:263,1,179.999994506836,0|2,0:0|0:3,0:0:0:0:
358,331,70157,1,2,0:0:0:0:
412,184,70498,6,0,L|401:108,1,59.9999981689454,6|0,1:2|0:0,0:0:0:0:
362,107,70839,2,0,L|351:31,1,59.9999981689454,6|0,1:2|0:0,0:0:0:0:
312,30,71179,1,2,1:3:0:0:
466,12,71520,1,0,0:0:0:0:
511,161,71861,6,0,P|497:211|497:294,1,119.999996337891,6|2,1:2|0:0,0:0:0:0:
347,332,72543,2,0,L|338:266,1,59.9999981689454,2|0,0:3|0:0,0:0:0:0:
307,241,72884,2,0,P|306:181|290:123,1,119.999996337891,2|2,0:0|0:0,0:0:0:0:
144,66,73566,1,2,1:2:0:0:
26,168,73907,1,2,0:3:0:0:
32,209,74077,1,0,0:0:0:0:
38,250,74248,1,0,0:0:0:0:
173,171,74589,6,0,P|173:100|180:44,1,119.999996337891,2|0,1:2|0:0,0:0:0:0:
331,19,75270,2,0,L|396:13,1,59.9999981689454,2|0,0:3|0:0,0:0:0:0:
429,38,75611,2,0,L|435:103,1,59.9999981689454
463,132,75952,5,2,0:0:0:0:
463,132,76123,2,0,P|410:129|331:151,1,119.999996337891,0|2,0:0|0:0,0:0:0:0:
356,300,76804,2,0,P|409:303|488:281,1,119.999996337891,2|0,0:0|0:0,0:0:0:0:
498,249,77316,5,6,1:2:0:0:
138,234,77998,1,2,0:3:0:0:
269,317,78339,1,0,0:0:0:0:
390,219,78679,2,0,P|395:174|374:21,1,179.999994506836,6|0,1:2|0:0,0:0:0:0:
346,11,79361,1,2,0:3:0:0:
191,33,79702,1,0,0:0:0:0:
36,55,80043,6,0,P|32:107|37:176,1,119.999996337891,6|8,1:2|0:3,0:0:0:0:
48,218,80554,1,0,0:0:0:0:
57,262,80725,1,4,0:3:0:0:
204,208,81066,1,0,0:0:0:0:
221,250,81236,1,2,0:3:0:0:
238,292,81407,5,0,1:0:0:0:
380,226,81748,1,0,1:0:0:0:
406,263,81918,1,0,0:0:0:0:
432,300,82089,2,0,L|438:364,2,59.9999981689454,2|4|2,0:3|0:3|0:0,0:0:0:0:
499,159,82770,5,6,0:0:0:0:
72,88,93679,5,6,0:0:0:0:
72,88,93850,2,0,P|123:71|203:65,1,119.999996337891,0|0,0:0|1:0,0:0:0:0:
241,93,94361,1,2,0:3:0:0:
241,93,94532,2,0,P|292:76|372:70,1,119.999996337891
400,103,95043,2,0,L|408:165,2,59.9999981689454,2|0|0,1:2|0:0|1:0,0:0:0:0:
53,204,96066,2,0,L|61:266,1,59.9999981689454,2|0,0:3|0:0,0:0:0:0:
45,316,96407,6,0,P|93:284|215:261,1,179.999994506836,2|0,1:2|1:0,0:0:0:0:
255,292,97089,2,0,P|303:324|425:347,1,179.999994506836,2|0,0:3|0:0,0:0:0:0:
471,324,97770,2,0,P|483:258|470:201,1,119.999996337891,2|0,0:0|1:0,0:0:0:0:
341,121,98452,1,2,0:3:0:0:
201,192,98793,2,0,L|198:273,1,59.9999981689454,0|0,1:0|0:0,0:0:0:0:
154,283,99134,6,0,P|202:315|324:338,1,179.999994506836,2|0,1:2|1:0,0:0:0:0:
340,287,99816,2,0,P|388:255|510:232,1,179.999994506836,2|0,0:3|0:0,0:0:0:0:
493,284,100498,2,0,P|472:197|481:92,1,179.999994506836,6|0,1:2|1:0,0:0:0:0:
457,57,101179,1,2,0:3:0:0:
301,64,101520,1,0,0:0:0:0:
144,67,101861,6,0,P|72:74|41:234,1,239.999992675781,2|2,1:2|0:3,0:0:0:0:
69,251,102714,1,0,0:0:0:0:
69,251,102884,6,0,L|73:322,2,59.9999981689454,0|0|2,1:0|0:0|0:0,0:0:0:0:
223,228,103566,1,0,1:0:0:0:
207,72,103907,1,2,0:3:0:0:
362,56,104248,1,0,0:0:0:0:
392,208,104589,6,0,P|397:287|391:352,1,119.999996337891,6|0,1:2|0:0,0:0:0:0:
360,369,105100,2,0,L|291:363,2,59.9999981689454,0|2|0,1:0|0:3|0:0,0:0:0:0:
99,296,105952,5,2,1:2:0:0:
99,296,106123,2,0,P|93:242|99:104,1,179.999994506836,0|2,0:0|0:3,0:0:0:0:
252,105,106975,1,0,0:0:0:0:
248,158,107145,1,0,0:0:0:0:
244,211,107316,6,0,P|314:226|381:223,1,119.999996337891,2|0,1:2|0:0,0:0:0:0:
404,259,107827,2,0,L|396:324,2,59.9999981689454,0|2|0,0:0|0:3|1:0,0:0:0:0:
268,68,108679,6,0,P|196:61|82:86,1,179.999994506836,2|0,1:2|1:0,0:0:0:0:
45,110,109361,2,0,L|61:182,1,59.9999981689454,2|0,0:3|0:0,0:0:0:0:
26,212,109702,2,0,L|42:284,1,59.9999981689454,0|0,0:0|1:0,0:0:0:0:
21,321,110043,6,0,P|85:289|200:293,1,179.999994506836,6|0,1:2|1:0,0:0:0:0:
236,259,110725,2,0,P|317:295|406:289,1,179.999994506836,2|0,0:3|0:0,0:0:0:0:
443,329,111407,5,6,1:2:0:0:
452,173,111748,1,0,0:0:0:0:
298,170,112089,1,2,0:3:0:0:
289,326,112430,1,0,0:0:0:0:
136,354,112770,6,0,P|116:320|31:283,1,119.999996337891,6|8,1:2|0:3,0:0:0:0:
5,256,113282,1,0,0:0:0:0:
5,256,113452,2,0,L|12:195,1,59.9999981689454,8|0,1:3|0:0,0:0:0:0:
53,161,113793,2,0,L|114:168,1,59.9999981689454,4|0,1:3|0:0,0:0:0:0:
157,136,114134,5,6,1:2:0:0:
157,136,114304,1,6,1:2:0:0:
310,163,114645,1,6,1:2:0:0:
464,185,114986,2,0,P|449:251|446:321,1,119.999996337891,6|0,1:2|0:0,0:0:0:0:
423,346,115498,6,0,P|377:364|306:370,1,119.999996337891,6|2,1:2|0:0,0:0:0:0:
195,260,116180,2,0,P|241:242|312:236,1,119.999996337891,2|2,0:3|0:0,0:0:0:0:
372,92,116862,5,2,0:0:0:0:
216,86,117203,1,0,1:0:0:0:
63,83,117544,1,2,0:3:0:0:
63,83,117714,2,0,P|82:114|169:146,1,119.999996337891,2|0,0:0|0:0,0:0:0:0:
173,190,118225,6,0,P|191:236|197:307,1,119.999996337891,6|2,1:2|0:0,0:0:0:0:
285,177,118907,2,0,P|267:131|261:60,1,119.999996337891,2|2,0:3|0:0,0:0:0:0:
409,10,119589,5,2,0:0:0:0:
473,152,119930,2,0,L|471:222,1,59.9999981689454,0|2,1:0|0:0,0:0:0:0:
495,259,120271,1,2,0:3:0:0:
495,259,120441,2,0,P|417:244|357:246,1,119.999996337891,6|0,1:2|0:0,0:0:0:0:
329,232,120953,6,0,P|345:279|350:351,1,119.999996337891,6|2,1:2|0:0,0:0:0:0:
204,291,121635,2,0,P|207:231|225:174,1,119.999996337891,2|2,0:3|0:0,0:0:0:0:
296,35,122316,6,0,P|368:62|488:61,1,179.999994506836,2|0,1:2|0:0,0:0:0:0:
445,105,122998,2,0,P|472:177|471:297,1,179.999994506836,2|0,0:3|0:0,0:0:0:0:
434,302,123680,5,2,1:2:0:0:
434,302,123850,2,0,P|379:285|247:280,1,179.999994506836,0|2,0:0|0:3,0:0:0:0:
105,314,124703,1,2,0:0:0:0:
203,193,125044,6,0,L|192:117,1,59.9999981689454,6|0,1:2|0:0,0:0:0:0:
152,110,125385,2,0,L|141:34,1,59.9999981689454,6|0,1:2|0:0,0:0:0:0:
114,12,125725,1,2,1:3:0:0:
7,125,126066,1,0,0:0:0:0:
71,266,126407,6,0,P|57:316|57:399,1,119.999996337891,6|0,1:2|0:0,0:0:0:0:
210,367,127089,2,0,L|214:301,1,59.9999981689454,2|0,0:3|0:1,0:0:0:0:
241,267,127430,2,0,P|240:208|224:150,1,119.999996337891,2|2,0:0|0:0,0:0:0:0:
348,55,128112,1,0,1:0:0:0:
480,137,128453,1,2,0:3:0:0:
474,178,128623,1,0,0:3:0:0:
468,219,128794,1,2,0:0:0:0:
334,296,129134,5,6,1:2:0:0:
334,296,129304,2,0,P|334:225|341:169,1,119.999996337891
308,139,129816,2,0,L|243:133,1,59.9999981689454,2|0,0:3|0:0,0:0:0:0:
210,103,130157,2,0,L|216:38,1,59.9999981689454,2|0,0:0|0:0,0:0:0:0:
179,20,130498,5,2,0:0:0:0:
179,20,130669,2,0,P|126:17|47:39,1,119.999996337891,0|2,0:0|0:0,0:0:0:0:
40,186,131350,2,0,P|93:189|172:167,1,119.999996337891,2|0,0:0|0:0,0:0:0:0:
205,181,131862,5,6,1:2:0:0:
508,374,132544,1,2,0:3:0:0:
357,333,132885,1,0,0:0:0:0:
203,360,133225,2,0,P|158:365|5:344,1,179.999994506836,2|0,1:2|0:0,0:0:0:0:
3,306,133907,1,2,0:3:0:0:
115,197,134248,1,2,0:0:0:0:
270,188,134589,6,0,P|266:136|271:67,1,119.999996337891,6|0,1:2|1:3,0:0:0:0:
123,30,135271,1,0,1:0:0:0:
123,30,135441,2,0,P|127:82|122:151,1,119.999996337891,0|0,1:0|1:0,0:0:0:0:
115,197,135952,5,6,1:2:0:0:
266,237,136294,1,4,0:3:0:0:
313,230,136464,1,12,1:3:0:0:
360,223,136635,2,0,L|429:211,1,59.9999981689454,2|0,1:3|0:0,0:0:0:0:
449,175,136975,2,0,L|438:115,1,59.9999981689454,2|2,0:0|0:3,0:0:0:0:
457,71,137316,5,6,0:0:0:0:
307,21,142770,6,0,P|316:60|318:127,1,100,2|0,0:3|0:0,0:0:0:0:
440,168,143452,2,0,L|499:156,2,50,2|0|0,0:2|0:0|3:0,0:0:0:0:
312,146,144134,6,0,P|321:185|323:252,1,100,2|0,0:0|0:0,0:0:0:0:
445,293,144816,2,0,L|504:281,2,50,2|0|0,3:0|0:0|0:0,0:0:0:0:
315,275,145498,6,0,B|313:276|312:276|312:276|312:278|312:278|309:277|309:277|309:278|309:278|306:276|306:276|306:279|306:279|305:279|305:279|304:281|304:281|302:280|302:280|301:280|301:280|299:279|299:279|298:281|298:281|297:281|297:281|296:284|296:284|294:282|294:282|293:282|293:282|291:281|291:281|291:283|291:283|290:284|290:284|289:286|289:286|287:284|287:284|286:285|286:285|284:283|284:283|283:285|283:285|282:285|282:285|281:288|281:288|279:286|279:286|278:286|278:286|276:285|276:285|275:287|275:287|274:287|274:287|273:289|273:289|271:288|271:288|270:288|270:288|268:286|268:286|267:288|267:288|266:289|266:289|265:291|265:291|263:289|263:289|262:289|262:289|261:287|261:287|259:289|259:289|258:290|258:290|257:292|257:292|254:290|254:290|253:290|253:290|252:288|252:288|251:290|251:290|250:290|250:290|248:292|248:292|247:291|247:291|246:291|246:291|243:288|243:288|242:291|242:291|241:291|241:291|239:293|239:293|238:291|238:291|237:291|237:291|235:289|235:289|234:291|234:291|233:291|233:291|231:293|231:293|230:291|230:291|229:291|229:291|227:289|227:289|226:291|226:291|225:291|225:291|223:293|223:293|222:291|222:291|221:291|221:291|219:289|219:289|218:291|218:291|217:291|216:291,1,150.000005722046,2|0,0:0|0:0,0:0:0:0:
92,254,146179,2,0,B|93:252|93:251|93:251|92:249|92:249|94:248|94:248|95:248|95:248|97:247|97:247|96:245|96:245|96:244|96:244|94:242|94:242|97:241|97:241|97:240|97:240|99:239|99:239|98:237|98:237|98:236|98:236|97:234|97:234|99:233|99:233|99:232|99:232|102:232|102:232|100:230|100:230|101:229|101:229|99:227|99:227|101:226|101:226|102:225|102:225|104:224|104:224|102:222|102:222|102:221|102:221|101:219|101:219|103:218|103:218|103:217|103:217|106:216|106:216|104:214|104:214|104:213|104:213|102:211|102:211|105:210|105:210|105:209|105:209|107:208|107:208|105:206|105:206|106:205|106:205|104:204|104:204|106:202|106:202|106:201|106:201|108:200|108:200|106:198|106:198|107:197|107:197|105:196|105:196|107:194|107:194|107:193|107:193|109:192|109:192|107:191|107:191|107:190|107:190|106:188|106:188|108:187|108:187|108:186|108:186|110:184|110:184|108:182|108:182|108:181|108:181|106:179|106:179|108:178|108:178|108:177|108:177|110:175|110:175|108:174|108:174|108:173|108:173|106:171|106:171|108:170|108:170|108:169|108:169|110:167|110:167|108:166|108:166|108:165|108:165|106:163|106:163|108:162|108:162|108:161|108:161|110:159|110:159|108:158|108:158|108:157|108:156,1,150.000005722046,2|2,0:0|0:0,0:0:0:0:
171,42,146861,6,0,B|290:62|250:15|375:35,1,200,8|0,1:3|3:0,0:0:0:0:
444,139,147884,1,0,3:0:0:0:
316,112,148225,6,0,L|313:216,2,100,6|0|0,1:2|0:0|0:0,0:0:0:0:
203,45,149248,1,0,1:0:0:0:
93,114,149589,2,0,L|14:121,2,75,2|0|0,1:2|1:2|1:0,0:0:0:0:
131,136,150270,2,0,L|145:241,1,100,0|2,0:0|1:2,0:0:0:0:
122,274,150782,1,0,0:0:0:0:
122,274,150952,5,2,1:2:0:0:
250,253,151293,1,2,0:0:0:0:
378,232,151634,1,2,0:0:0:0:
468,325,151975,1,0,1:0:0:0:
339,344,152316,6,0,P|273:336|228:339,1,100,2|2,1:2|0:0,0:0:0:0:
252,207,152998,2,0,P|318:215|363:212,1,100,2|2,0:0|0:3,0:0:0:0:
447,125,153679,6,0,L|444:21,2,100,6|0|0,1:2|0:0|0:0,0:0:0:0:
328,71,154702,1,0,1:0:0:0:
200,97,155043,2,0,L|121:104,2,75,2|0|0,1:2|1:0|1:0,0:0:0:0:
227,132,155724,2,0,L|241:237,1,100,0|2,0:0|1:2,0:0:0:0:
285,253,156236,1,0,0:0:0:0:
285,253,156406,5,2,1:2:0:0:
156,273,156747,1,2,0:0:0:0:
26,286,157088,1,2,0:0:0:0:
75,165,157429,1,0,1:0:0:0:
12,50,157770,6,0,P|78:42|123:45,1,100,2|2,1:2|0:0,0:0:0:0:
149,68,158282,1,0,1:0:0:0:
188,88,158452,2,0,P|254:96|299:93,1,100,2|2,0:0|1:2,0:0:0:0:
363,199,159134,6,0,P|291:199|242:208,1,100,6|0,1:2|1:0,0:0:0:0:
136,173,159816,1,2,1:2:0:0:
36,257,160157,1,2,1:2:0:0:
130,346,160498,6,0,P|158:301|164:247,1,100,2|0,1:2|1:0,0:0:0:0:
209,249,161009,2,0,L|221:144,1,100,2|2,0:0|0:0,0:0:0:0:
201,108,161520,1,2,1:2:0:0:
323,150,161861,6,0,P|395:150|444:141,1,100,2|0,1:2|1:0,0:0:0:0:
497,252,162543,1,2,1:2:0:0:
424,360,162884,1,2,1:2:0:0:
299,322,163225,6,0,L|234:332,1,50,2|2,1:2|0:0,0:0:0:0:
214,358,163566,2,0,L|109:346,2,100,2|2|0,1:2|1:2|1:0,0:0:0:0:
263,237,164589,6,0,P|269:150|258:75,1,150,6|0,1:2|1:0,0:0:0:0:
276,45,165270,2,0,P|211:36|162:38,1,100,2|0,0:3|1:0,0:0:0:0:
98,140,165952,6,0,L|100:233,2,75,2|0|0,1:2|1:0|1:0,0:0:0:0:
61,114,166634,2,0,P|91:73|97:22,1,100,2|0,0:3|1:0,0:0:0:0:
227,17,167316,6,0,L|298:24,1,50,2|2,1:2|0:3,0:0:0:0:
313,48,167657,2,0,L|320:115,1,50,2|0,1:2|0:0,0:0:0:0:
295,136,167998,1,2,0:3:0:0:
295,136,168168,1,0,0:0:0:0:
424,145,168509,1,2,0:3:0:0:
424,145,168679,6,0,P|415:220|420:253,2,100,2|0|2,1:2|0:0|0:3,0:0:0:0:
485,30,169702,1,2,0:0:0:0:
355,13,170043,6,0,L|26:29,1,320,6|2,1:2|0:0,0:0:0:0:
141,321,180952,6,0,P|146:262|167:206,1,119.999996337891,6|2,1:2|0:0,0:0:0:0:
320,177,181634,2,0,P|315:236|294:292,1,119.999996337891,2|0,0:3|0:0,0:0:0:0:
448,322,182316,5,2,0:0:0:0:
464,166,182657,1,0,1:0:0:0:
481,14,182998,1,2,0:3:0:0:
481,14,183168,2,0,P|462:45|375:77,1,119.999996337891,2|0,0:0|0:0,0:0:0:0:
335,63,183679,6,0,P|353:109|359:180,1,119.999996337891,6|2,1:2|0:0,0:0:0:0:
244,286,184361,2,0,P|226:240|220:169,1,119.999996337891,2|2,0:3|0:0,0:0:0:0:
80,99,185043,5,2,0:0:0:0:
9,238,185384,2,0,L|14:307,1,59.9999981689454,0|2,1:0|0:0,0:0:0:0:
35,346,185725,1,2,0:3:0:0:
35,346,185895,2,0,P|113:331|173:333,1,119.999996337891,6|0,1:2|0:0,0:0:0:0:
197,351,186407,6,0,P|181:304|176:232,1,119.999996337891,6|2,1:2|0:0,0:0:0:0:
331,216,187089,2,0,P|347:169|352:97,1,119.999996337891,2|2,0:3|0:0,0:0:0:0:
505,72,187770,6,0,P|478:144|479:264,1,179.999994506836,2|0,1:2|0:0,0:0:0:0:
457,290,188452,2,0,P|385:317|265:316,1,179.999994506836,2|0,0:3|0:0,0:0:0:0:
252,289,189134,5,6,1:2:0:0:
252,289,189304,2,0,P|269:234|274:102,1,179.999994506836,0|2,0:0|0:3,0:0:0:0:
127,62,190157,1,2,0:0:0:0:
65,205,190498,6,0,L|141:216,1,59.9999981689454,6|0,1:2|0:0,0:0:0:0:
155,250,190839,2,0,L|231:239,1,59.9999981689454,6|0,1:2|0:0,0:0:0:0:
253,269,191179,1,2,1:3:0:0:
357,153,191520,1,0,0:0:0:0:
496,223,191861,6,0,P|496:163|512:105,1,119.999996337891,6|2,1:2|0:2,0:0:0:0:
396,0,192543,2,0,L|387:66,1,59.9999981689454,2|0,0:3|0:0,0:0:0:0:
375,105,192884,2,0,P|315:106|257:122,1,119.999996337891,2|2,0:0|0:0,0:0:0:0:
269,277,193566,1,0,1:0:0:0:
424,260,193907,1,2,0:3:0:0:
430,219,194077,1,0,0:0:0:0:
436,178,194248,1,0,0:0:0:0:
394,32,194589,5,2,1:2:0:0:
394,32,194759,2,0,P|323:32|267:25,1,119.999996337891
239,58,195270,2,0,L|245:123,1,59.9999981689454,2|0,0:3|0:0,0:0:0:0:
220,156,195611,2,0,L|155:162,1,59.9999981689454
128,198,195952,5,2,0:0:0:0:
128,198,196123,2,0,P|75:195|-4:217,1,119.999996337891,0|2,0:0|0:0,0:0:0:0:
28,365,196804,2,0,P|81:368|160:346,1,119.999996337891,2|0,0:0|0:0,0:0:0:0:
191,369,197316,5,6,1:2:0:0:
503,190,197998,1,2,0:3:0:0:
404,311,198339,1,2,0:0:0:0:
269,233,198679,2,0,P|274:188|253:35,1,179.999994506836,6|0,1:2|0:0,0:0:0:0:
294,21,199361,1,2,0:3:0:0:
139,40,199702,1,0,0:0:0:0:
158,194,200043,5,6,1:2:0:0:
158,194,200214,2,0,P|165:268|162:327,1,119.999996337891,8|4,0:3|0:3,0:0:0:0:
207,332,200725,2,0,L|276:328,1,59.9999981689454,4|0,1:3|1:3,0:0:0:0:
307,354,201066,2,0,L|376:350,1,59.9999981689454,4|4,0:3|0:3,0:0:0:0:
410,370,201407,5,2,1:2:0:0:
318,243,201748,1,2,1:2:0:0:
344,206,201918,1,0,0:0:0:0:
370,169,202089,1,6,1:2:0:0:
227,106,202429,1,6,1:2:0:0:
264,80,202599,1,0,1:2:0:0:
301,54,202770,5,2,0:0:0:0:
