osu file format v14

[General]
AudioFilename: tearrain.mp3
AudioLeadIn: 0
PreviewTime: 74943
Countdown: 0
SampleSet: Soft
StackLeniency: 0.2
Mode: 0
LetterboxInBreaks: 0
WidescreenStoryboard: 0

[Editor]
DistanceSpacing: 0.9
BeatDivisor: 4
GridSize: 4
TimelineZoom: 1.4

[Metadata]
Title:Tear Rain
TitleUnicode:Tear Rain
Artist:cYsmix feat. Emmy
ArtistUnicode:cYsmix feat. えみぃ
Creator:Niva
Version:Insane (2013 MBC #2 Ver.)
Source:東方紅魔郷 ~ the Embodiment of Scarlet Devil.
Tags:osu! monthly beatmapping contest #2 mbc2 amateras records emii featured artist touhou project 東方Project 魔法少女達の百年祭 mahou shoujo-tachi no hyakunensai the centennial festival for magical girls
BeatmapID:351346
BeatmapSetID:140735

[Difficulty]
HPDrainRate:7
CircleSize:5
OverallDifficulty:7
ApproachRate:8
SliderMultiplier:2
SliderTickRate:2

[Events]
//Background and Video events
0,0,"background_resized(Awan).png",0,0
//Break Periods
//Storyboard Layer 0 (Background)
//Storyboard Layer 1 (Fail)
//Storyboard Layer 2 (Pass)
//Storyboard Layer 3 (Foreground)
//Storyboard Sound Samples

[TimingPoints]
998,468.75,4,2,0,60,1,0
1818,-100,4,2,0,50,0,0
1935,-100,4,2,0,60,0,0
8498,-100,4,2,0,65,0,0
12248,-100,4,2,0,70,0,0
12599,-100,4,2,0,50,0,0
12716,-100,4,2,0,70,0,0
13068,-100,4,2,0,50,0,0
13185,-100,4,2,0,70,0,0
13537,-100,4,2,0,50,0,0
13654,-100,4,2,0,70,0,0
14474,-100,4,2,0,50,0,0
14591,-100,4,2,0,70,0,0
15060,-100,4,2,0,75,0,0
15294,-100,4,2,0,70,0,0
15998,-100,4,2,0,65,0,0
18224,-100,4,2,0,50,0,0
18341,-100,4,2,0,65,0,0
21037,-100,4,2,0,50,0,0
21154,-100,4,2,0,65,0,0
29591,-100,4,2,0,65,0,0
29708,-100,4,2,0,70,0,0
30529,-100,4,2,0,65,0,0
30998,-100,4,2,0,70,0,0
33224,-100,4,2,0,50,0,0
33341,-100,4,2,0,70,0,0
36037,-100,4,2,0,50,0,0
36154,-100,4,2,0,70,0,0
44474,-100,4,2,0,50,0,0
44591,-100,4,2,0,70,0,0
45529,-100,4,2,0,80,0,0
45998,-125,4,2,0,50,0,0
60294,-100,4,2,0,55,0,0
60529,-100,4,2,0,58,0,0
60763,-100,4,2,0,62,0,0
60998,-125,4,2,0,65,0,0
68498,-100,4,2,0,70,0,0
74591,-95.2380952380952,4,2,0,60,0,0
75060,-90.9090909090909,4,2,0,70,0,0
75529,-90.9090909090909,4,2,0,75,0,0
75998,-90.9090909090909,4,2,0,60,0,0
77404,-90.9090909090909,4,2,0,80,0,0
77873,-100,4,2,0,70,0,1
80099,-100,4,2,0,50,0,1
80216,-100,4,2,0,70,0,1
81037,-100,4,2,0,50,0,1
81154,-100,4,2,0,70,0,1
83263,-100,4,2,0,80,0,1
83498,-100,4,2,0,70,0,1
83849,-100,4,2,0,50,0,1
83966,-100,4,2,0,70,0,1
84904,-100,4,2,0,75,0,1
85373,-100,4,2,0,70,0,1
87716,-100,4,2,0,75,0,1
87951,-100,4,2,0,70,0,1
88185,-100,4,2,0,70,0,1
92404,-100,4,2,0,80,0,1
92755,-100,4,2,0,50,0,1
92873,-100,4,2,0,70,0,1
94748,-100,4,2,0,70,0,1
95099,-100,4,2,0,50,0,1
95216,-100,4,2,0,70,0,1
96037,-100,4,2,0,50,0,1
96154,-100,4,2,0,70,0,1
97794,-100,4,2,0,60,0,1
98029,-100,4,2,0,50,0,1
98263,-100,4,2,0,40,0,1
98498,-100,4,2,0,70,0,1
99904,-100,4,2,0,75,0,1
100373,-100,4,2,0,70,0,1
101193,-100,4,2,0,50,0,1
101310,-100,4,2,0,70,0,1
102716,-100,4,2,0,75,0,1
102951,-100,4,2,0,70,0,1
104591,-95.2380952380952,4,2,0,60,0,1
105060,-90.9090909090909,4,2,0,60,0,1
105529,-100,4,2,0,55,0,1
105998,-100,4,2,0,65,0,0
120998,-125,4,2,0,50,0,0
128498,-100,4,2,0,65,0,0
132248,-100,4,2,0,70,0,0
134005,-100,4,1,0,40,0,0
134123,-100,4,2,0,70,0,0
134240,-100,4,2,0,65,0,0
134357,-100,4,2,0,60,0,0
134474,-100,4,2,0,55,0,0
134591,-100,4,2,0,60,0,0
134708,-100,4,2,0,55,0,0
134826,-100,4,2,0,50,0,0
134943,-100,4,2,0,45,0,0
135060,-80,4,2,0,70,0,0
135998,-100,4,2,0,65,0,0
138224,-100,4,2,0,50,0,0
138341,-100,4,2,0,65,0,0
141037,-100,4,2,0,50,0,0
141154,-100,4,2,0,65,0,0
149708,-100,4,2,0,70,0,0
150060,-100,4,2,0,60,0,0
150529,-142.857142857143,4,2,0,40,0,0
150998,-100,4,2,0,70,0,0
153224,-100,4,2,0,50,0,0
153341,-100,4,2,0,80,0,0
153810,-100,4,2,0,70,0,0
156037,-100,4,2,0,50,0,0
156154,-100,4,2,0,70,0,0
164474,-100,4,2,0,50,0,0
164591,-100,4,2,0,70,0,0
165998,-125,4,2,0,60,0,0
178888,-125,4,2,0,55,0,0
180998,-125,4,2,0,50,0,0
188498,-125,4,2,0,60,0,0
188615,-125,4,2,0,50,0,0
191310,-125,4,2,0,20,0,0
191779,-125,4,2,0,50,0,0
192248,-125,4,2,0,55,0,0
193888,-125,4,2,0,60,0,0
195529,-100,4,2,0,60,0,0
195998,-100,4,2,0,75,0,0
197638,-100,4,2,0,60,0,0
197873,-100,4,2,0,70,0,1
220255,-100,4,2,0,50,0,1
220373,-100,4,2,0,70,0,1
224123,-100,4,2,0,70,0,0
224591,-100,4,2,0,66,0,0
225060,-100,4,2,0,62,0,0
225529,-100,4,2,0,58,0,0
225998,-100,4,2,0,54,0,0
226466,-100,4,2,0,50,0,0
226935,-100,4,2,0,46,0,0
227404,-100,4,2,0,70,0,0
227873,-125,4,2,0,50,0,0
235373,-125,4,2,0,5,0,0
235841,-125,4,2,0,8,0,0
236310,-125,4,2,0,11,0,0
236779,-125,4,2,0,14,0,0
237248,-125,4,2,0,17,0,0
237716,-125,4,2,0,20,0,0
238185,-125,4,2,0,23,0,0
238654,-125,4,2,0,26,0,0
239123,-125,4,2,0,29,0,0
239591,-125,4,2,0,32,0,0
240060,-125,4,2,0,35,0,0
240529,-125,4,2,0,38,0,0
240998,-100,4,2,0,41,0,0
241466,-100,4,2,0,44,0,0
241935,-100,4,2,0,47,0,0
242404,-100,4,2,0,50,0,0

[Colours]
Combo1 : 232,0,128
Combo2 : 218,240,254
Combo3 : 107,157,250
Combo4 : 222,185,255
Combo5 : 192,90,254
Combo6 : 120,0,191
Combo7 : 255,155,210
Combo8 : 255,83,213

[HitObjects]
93,52,998,38,0,L|104:156,1,100,4|2,1:2|0:0,0:0:0:0:
51,224,1466,2,0,P|110:186|190:202,1,150,0|0,1:2|0:0,0:0:0:0:
199,209,1935,2,0,P|249:225|295:214,1,100,2|0,1:2|0:0,0:0:0:0:
249,135,2404,1,0,1:2:0:0:
413,109,2638,1,2,0:0:0:0:
236,132,2873,6,0,P|185:128|130:124,1,100,2|0,1:2|0:0,0:0:0:0:
136,290,3341,2,0,P|186:286|240:284,1,100,0|0,1:2|0:0,0:0:0:0:
414,272,3810,1,2,1:2:0:0:
414,272,4279,2,0,L|411:373,1,100,0|0,1:2|0:0,0:0:0:0:
481,197,4748,5,2,1:2:0:0:
349,133,4982,1,0,0:0:0:0:
438,117,5216,1,0,1:2:0:0:
333,221,5451,1,0,0:0:0:0:
414,273,5685,2,0,P|348:316|248:264,1,200,0|2,1:2|1:2,0:0:0:0:
194,193,6388,1,0,0:0:0:0:
246,25,6623,86,0,P|261:73|249:121,1,100,2|0,1:2|0:0,0:0:0:0:
72,77,7091,2,0,L|173:75,1,100,0|0,1:2|0:0,0:0:0:0:
124,258,7560,2,0,P|110:211|123:164,1,100,0|2,1:2|0:0,0:0:0:0:
300,208,8029,2,0,L|201:209,1,100,0|2,1:2|0:3,0:0:0:0:
387,176,8498,5,0,1:2:0:0:
387,161,8615,1,0,0:0:0:0:
387,147,8732,1,0,0:0:0:0:
474,208,8966,2,0,B|468:239|468:239|482:270|482:270|478:313,1,100,8|0,0:0|0:0,0:0:0:0:
313,354,9435,2,0,B|341:357|360:369|360:369|381:356|407:353,1,100,0|2,1:2|0:0,0:0:0:0:
483,383,9904,1,8,0:0:0:0:
483,383,10373,5,0,1:2:0:0:
485,366,10490,1,0,0:0:0:0:
487,351,10607,1,0,0:0:0:0:
508,173,10841,2,0,L|498:276,1,100,8|0,0:0|0:0,0:0:0:0:
512,159,11310,2,0,P|466:179|416:168,1,100,0|2,1:2|0:0,0:0:0:0:
317,129,11779,1,8,0:0:0:0:
401,66,12013,1,2,0:2:0:0:
317,143,12248,86,0,B|317:187|317:187|297:240|297:240|297:295,1,150,0|0,1:2|0:0,0:0:0:0:
307,304,12716,2,0,B|275:293|237:311|237:311|199:330|160:318,1,150,8|0,0:0|0:0,0:0:0:0:
145,313,13185,2,0,B|93:314|93:314|51:358|1:340,1,150,0|0,1:2|0:0,0:0:0:0:
30,270,13654,6,0,L|36:209,1,50,8|0,0:0|0:0,0:0:0:0:
85,86,13888,2,0,L|94:142,1,50,2|2,0:0|0:0,0:0:0:0:
173,193,14123,6,0,P|241:221|307:190,1,150,8|0,0:0|0:0,0:0:0:0:
314,178,14591,2,0,L|309:280,1,100,8|0,0:0|0:0,0:0:0:0:
425,367,15060,2,0,L|418:266,1,100,4|0,1:3|0:0,0:0:0:0:
415,249,15412,1,0,0:0:0:0:
415,249,15529,1,8,1:2:0:0:
415,249,15998,86,0,B|385:250|385:250|350:264|350:264|317:264,1,100,4|2,1:2|0:0,0:0:0:0:
208,352,16466,2,0,B|233:352|256:343|256:343|280:352|305:352,1,100,10|0,0:2|0:0,0:0:0:0:
195,264,16935,2,0,B|132:265|132:265|100:297|40:301|6:264,1,200,2|10,1:2|0:2,0:0:0:0:
70,199,17638,1,2,0:0:0:0:
68,184,17755,1,0,0:0:0:0:
66,170,17873,6,0,P|142:169|187:92,1,150,2|0,1:2|0:0,0:0:0:0:
185,101,18341,2,0,P|230:110|284:120,1,100,10|0,0:2|0:0,0:0:0:0:
421,114,18810,2,0,P|389:148|355:190,1,100,2|2,1:2|0:0,0:0:0:0:
426,281,19279,2,0,P|346:224|249:235,1,200,10|0,0:0|1:2,0:0:0:0:
140,183,19982,5,2,0:0:0:0:
248,245,20216,1,10,0:0:0:0:
141,193,20451,1,0,0:0:0:0:
31,244,20685,2,0,B|26:196|26:196|39:150|39:150|33:94,1,150,2|0,1:2|0:0,0:0:0:0:
25,82,21154,2,0,P|71:101|121:88,1,100,10|2,0:0|0:0,0:0:0:0:
148,194,21623,86,0,B|199:184|235:150|235:150|285:166|336:156,1,200,2|8,1:2|0:0,0:0:0:0:
479,153,22326,1,2,0:0:0:0:
408,208,22560,1,2,1:2:0:0:
360,72,22794,1,0,0:0:0:0:
450,67,23029,1,10,0:0:0:0:
334,156,23263,1,2,0:0:0:0:
397,261,23498,6,0,P|325:198|228:219,1,200,2|10,1:2|0:0,0:0:0:0:
361,340,24201,2,0,P|455:325|477:225,1,200,2|0,0:0|0:0,0:0:0:0:
455,54,24904,2,0,L|452:164,1,100,10|2,0:0|0:0,0:0:0:0:
455,54,25373,6,0,B|410:75|358:53|358:53|308:33|260:55,1,200,0|8,1:2|0:0,0:0:0:0:
172,33,26076,1,0,0:0:0:0:
172,20,26193,1,0,0:0:0:0:
172,8,26310,1,0,1:2:0:0:
87,53,26544,1,0,0:0:0:0:
90,68,26662,1,0,0:0:0:0:
94,83,26779,2,0,P|41:73|-1:88,1,100,10|2,0:0|0:0,0:0:0:0:
167,123,27248,86,0,B|219:123|219:123|307:95|307:95|365:95,1,200,2|10,1:2|0:0,0:0:0:0:
413,13,27951,2,0,B|354:26|339:104|402:150|462:110,1,200,2|0,0:0|0:0,0:0:0:0:
500,192,28654,1,10,0:0:0:0:
455,269,28888,1,2,0:0:0:0:
502,365,29123,6,0,P|451:291|349:295,1,200,0|8,1:2|0:0,0:0:0:0:
337,304,29709,1,2,0:0:0:0:
326,313,29826,2,0,L|333:212,1,100,2|0,0:0|1:2,0:0:0:0:
335,196,30177,1,2,0:0:0:0:
337,179,30294,1,0,0:0:0:0:
212,80,30529,1,8,0:0:0:0:
213,94,30646,1,0,0:0:0:0:
215,110,30763,1,0,0:0:0:0:
218,126,30880,1,0,0:0:0:0:
221,143,30998,6,0,P|174:130|122:138,1,100,4|2,1:2|0:0,0:0:0:0:
287,78,31466,2,0,P|307:124|309:174,1,100,10|0,0:0|0:0,0:0:0:0:
286,294,31935,2,0,P|371:248|396:154,1,200,2|10,1:2|0:0,0:0:0:0:
309,174,32638,1,2,0:0:0:0:
193,202,32873,86,0,B|149:202|149:202|97:182|97:182|46:182,1,150,2|0,1:2|0:0,0:0:0:0:
46,182,33341,2,0,P|62:130|40:90,1,100,10|0,0:0|0:0,0:0:0:0:
10,260,33810,2,0,P|-6:312|16:352,1,100,2|2,1:2|0:0,0:0:0:0:
94,384,34279,2,0,B|149:389|190:365|190:365|234:339|288:347,1,200,10|0,0:0|1:2,0:0:0:0:
352,204,34982,6,0,L|366:304,2,100,2|10|0,0:0|0:0|0:0,0:0:0:0:
432,167,35685,2,0,B|388:167|388:167|333:152|333:152|279:152,1,150,2|0,1:2|0:0,0:0:0:0:
271,163,36154,2,0,P|224:178|176:163,1,100,10|2,0:0|0:0,0:0:0:0:
42,230,36623,5,2,1:2:0:0:
42,230,37091,1,8,0:0:0:0:
27,141,37326,1,2,0:0:0:0:
10,52,37560,2,0,L|123:51,1,100,2|0,1:2|0:0,0:0:0:0:
280,104,38029,2,0,L|180:104,1,100,10|2,0:0|0:0,0:0:0:0:
408,125,38498,86,0,P|315:83|312:-6,1,200,2|10,1:2|0:0,0:0:0:0:
421,229,39201,2,0,P|430:134|519:82,1,200,2|0,0:0|0:0,0:0:0:0:
494,271,39904,2,0,L|479:376,1,100,10|2,0:0|0:0,0:0:0:0:
488,374,40255,1,0,0:0:0:0:
496,378,40373,6,0,B|451:360|398:378|398:378|345:400|297:383,1,200,2|8,1:2|0:0,0:0:0:0:
208,305,41076,2,0,P|225:286|241:268,2,50,2|2|0,0:0|0:0|1:2,0:0:0:0:
94,332,41544,2,0,P|89:307|84:283,2,50,2|2|8,0:0|0:0|0:0,0:0:0:0:
97,344,41896,1,0,0:0:0:0:
101,356,42013,1,2,0:0:0:0:
189,181,42248,6,0,P|259:246|359:232,1,200,2|8,1:2|0:0,0:0:0:0:
370,239,42834,1,2,0:0:0:0:
384,245,42951,1,2,0:0:0:0:
398,251,43068,1,0,0:0:0:0:
412,256,43185,1,0,1:2:0:0:
496,180,43419,1,2,0:0:0:0:
454,340,43654,1,10,0:0:0:0:
344,225,43888,1,0,0:0:0:0:
412,256,44123,86,0,B|377:269|338:256|338:256|302:241|263:254,1,150,2|0,1:2|0:0,0:0:0:0:
253,268,44591,2,0,L|261:160,1,100,8|0,0:0|0:0,0:0:0:0:
290,344,45060,2,0,P|243:354|187:323,1,100,2|0,1:2|0:0,0:0:0:0:
188,321,45412,2,0,L|195:374,1,50,0|8,0:0|3:2,0:0:0:0:
194,370,45998,86,0,L|180:273,1,80,6|0,0:0|0:0,0:0:0:0:
150,232,46466,2,0,L|137:148,1,80,0|2,0:0|0:0,0:0:0:0:
62,114,46935,2,0,P|149:134|206:99,1,160,2|2,0:0|0:0,0:0:0:0:
206,100,47638,1,0,0:0:0:0:
188,264,47873,6,0,L|197:183,1,80,0|2,0:0|0:0,0:0:0:0:
177,365,48341,1,2,0:0:0:0:
177,365,48810,2,0,P|253:389|327:361,1,160,2|2,0:0|0:0,0:0:0:0:
397,370,49513,1,0,0:0:0:0:
371,303,49748,102,0,B|367:255|367:255|388:201|388:201|382:148,1,160,2|2,0:0|0:0,0:0:0:0:
443,85,50451,2,0,P|376:126|299:110,1,160,2|0,0:0|0:0,0:0:0:0:
229,127,51154,1,2,0:0:0:0:
179,74,51388,2,0,P|51:89|8:182,1,240,2|0,0:0|0:0,0:0:0:0:
8,179,52560,2,0,L|-2:83,1,80,2|2,0:0|0:0,0:0:0:0:
74,234,53029,2,0,P|91:196|87:151,1,80,0|2,0:0|0:0,0:0:0:0:
5,297,53498,6,0,P|71:261|153:286,1,160,2|0,0:0|0:0,0:0:0:0:
333,190,54435,2,0,B|337:143|337:143|367:91|367:91|374:37,1,160,2|0,0:0|0:0,0:0:0:0:
137,38,55373,2,0,B|144:91|144:91|174:143|174:143|179:190,1,160,2|0,0:0|0:0,0:0:0:0:
363,282,56310,2,0,P|437:260|507:297,1,160,2|0,0:0|0:0,0:0:0:0:
211,227,57248,102,0,B|211:182|256:168|256:168|290:125|324:125|341:88|324:48|288:27|256:47|256:47|224:27|188:48|171:88|188:125|222:125|256:168|256:168|301:182|301:227,1,560,2|2,0:0|0:0,0:0:0:0:
439,352,59357,1,2,0:0:0:0:
443,280,59591,1,2,0:0:0:0:
453,208,59826,1,2,0:0:0:0:
59,208,60294,1,2,0:0:0:0:
69,280,60529,1,2,0:0:0:0:
73,352,60763,1,0,0:0:0:0:
74,352,60998,6,0,L|156:352,1,80,6|0,1:2|0:0,0:0:0:0:
242,279,61466,2,0,B|220:282|207:294|207:294|191:282|169:279,1,80,0|2,1:2|0:0,0:0:0:0:
262,351,61935,2,0,B|311:350|311:350|366:375|366:375|417:375,1,160,2|2,1:2|1:2,0:0:0:0:
478,338,62638,1,0,0:0:0:0:
505,265,62873,101,2,1:2:0:0:
478,182,63107,1,2,0:0:0:0:
394,146,63341,1,2,1:2:0:0:
394,146,63810,2,0,L|400:56,1,80,2|2,1:2|0:0,0:0:0:0:
426,199,64279,2,0,P|389:185|347:191,1,80,0|2,1:2|0:0,0:0:0:0:
247,244,64748,6,0,P|170:260|105:213,1,160,2|2,1:2|1:2,0:0:0:0:
86,146,65451,2,0,L|102:315,1,160,2|0,0:0|0:0,0:0:0:0:
98,377,66154,1,2,1:2:0:0:
163,348,66388,2,0,B|225:325|278:350|278:350|337:377|402:349,1,240,2|0,0:0|1:2,0:0:0:0:
396,351,67560,2,0,P|357:344|315:352,1,80,2|2,1:2|0:0,0:0:0:0:
478,296,68029,2,0,P|485:337|506:373,1,80,2|0,1:2|0:0,0:0:0:0:
398,239,68498,5,2,1:2:0:0:
398,223,68615,1,0,0:0:0:0:
398,208,68732,1,0,0:0:0:0:
488,159,68966,2,0,P|503:113|486:63,1,100,8|0,0:0|0:0,0:0:0:0:
398,114,69435,2,0,P|382:160|397:207,1,100,0|2,1:2|0:0,0:0:0:0:
432,19,69904,1,8,0:0:0:0:
432,19,70373,5,0,1:2:0:0:
435,36,70490,1,0,0:0:0:0:
438,50,70607,2,0,P|391:33|341:44,1,100,0|8,0:0|0:0,0:0:0:0:
285,112,71076,1,0,0:0:0:0:
200,82,71310,2,0,P|147:89|106:71,1,100,0|2,1:2|0:0,0:0:0:0:
285,126,71779,2,0,L|285:228,1,100,8|2,0:0|0:0,0:0:0:0:
322,308,72248,5,0,1:2:0:0:
239,344,72482,1,2,1:2:0:0:
203,261,72716,1,8,0:0:0:0:
287,229,72951,1,2,1:2:0:0:
291,358,73185,85,0,1:2:0:0:
291,358,73302,1,0,0:0:0:0:
291,358,73419,1,2,1:2:0:0:
189,312,73654,1,8,0:0:0:0:
235,210,73888,1,2,1:2:0:0:
334,261,74123,6,0,L|437:261,1,100,8|2,0:0|1:2,0:0:0:0:
235,210,74591,2,0,L|129:210,1,104.999996795654,8|2,0:0|1:2,0:0:0:0:
327,148,75060,2,0,P|346:94|321:40,1,110.000003356934,4|0,1:3|0:0,0:0:0:0:
315,34,75412,1,0,0:0:0:0:
315,35,75529,1,8,0:0:0:0:
334,261,75763,1,8,0:0:0:0:
315,34,75998,21,4,0:0:0:0:
256,192,76115,12,6,77404,1:2:0:0:
68,361,77873,6,0,B|70:327|70:327|87:300|87:300|91:258,1,100,6|2,1:2|0:0,0:0:0:0:
90,266,78341,6,0,L|92:217,1,50,8|2,0:0|0:0,0:0:0:0:
127,153,78576,2,0,L|126:206,1,50,2|2,0:0|0:0,0:0:0:0:
97,137,78810,2,0,L|98:87,1,50,0|0,1:2|0:0,0:0:0:0:
59,42,79044,2,0,P|106:64|155:55,1,100,0|8,0:0|0:0,0:0:0:0:
236,24,79513,1,2,0:0:0:0:
467,73,79748,86,0,B|417:73|417:73|367:51|367:51|321:51,1,150,8|0,1:3|0:0,0:0:0:0:
313,38,80216,2,0,P|331:85|312:131,1,100,8|2,0:0|0:0,0:0:0:0:
260,328,80685,2,0,P|233:267|259:191,1,150,0|0,1:2|0:0,0:0:0:0:
268,180,81154,2,0,L|169:180,1,100,8|0,0:0|0:0,0:0:0:0:
151,180,81505,1,0,0:0:0:0:
135,180,81623,5,0,1:2:0:0:
149,52,81857,1,2,0:0:0:0:
22,36,82091,1,8,0:0:0:0:
8,164,82326,1,0,0:0:0:0:
82,110,82560,2,0,B|126:128|179:108|179:108|235:90|279:104,1,200,2|8,1:2|0:0,0:0:0:0:
415,31,83263,1,4,0:0:0:0:
290,92,83498,6,0,P|279:180|319:231,1,150,0|0,1:2|0:0,0:0:0:0:
313,226,83966,2,0,L|300:286,1,50,8|2,0:0|0:0,0:0:0:0:
207,341,84201,2,0,L|265:322,1,50,0|2,0:0|0:0,0:0:0:0:
360,375,84435,2,0,L|306:325,2,50,0|2|2,1:2|0:0|0:0,0:0:0:0:
359,374,84904,2,0,P|407:361|461:375,1,100,10|0,0:2|0:0,0:0:0:0:
512,280,85373,86,0,P|463:294|415:279,1,100,0|0,1:2|0:0,0:0:0:0:
358,212,85841,2,0,B|346:161|383:120|383:120|420:78|410:24,1,200,10|0,0:0|1:2,0:0:0:0:
323,51,86544,1,0,0:0:0:0:
309,59,86662,1,0,0:0:0:0:
296,68,86779,2,0,P|306:43|309:17,1,50,8|2,0:0|0:0,0:0:0:0:
232,115,87013,2,0,P|230:87|222:60,1,50,0|0,0:0|0:0,0:0:0:0:
190,173,87248,6,0,P|243:185|285:162,1,100,2|0,1:2|0:0,0:0:0:0:
485,209,87716,2,0,L|385:209,1,100,10|0,0:0|0:0,0:0:0:0:
367,195,88068,1,2,0:0:0:0:
367,195,88185,2,0,P|382:243|361:293,1,100,0|2,1:2|0:0,0:0:0:0:
205,349,88654,2,0,B|235:346|255:337|255:337|275:346|302:349,1,100,12|0,0:0|0:0,0:0:0:0:
146,287,89123,6,0,P|129:241|145:195,1,100,0|2,1:2|0:0,0:0:0:0:
221,147,89591,2,0,P|149:187|170:100,1,200,8|0,0:0|1:2,0:0:0:0:
256,50,90294,1,2,0:0:0:0:
256,35,90412,1,0,0:0:0:0:
256,19,90529,1,8,0:0:0:0:
359,104,90763,1,2,0:0:0:0:
375,98,90880,1,0,0:0:0:0:
391,90,90998,86,0,P|374:136|395:183,1,100,4|0,1:2|0:0,0:0:0:0:
467,131,91466,1,8,0:0:0:0:
486,131,91584,1,2,0:0:0:0:
316,211,91818,1,2,0:0:0:0:
297,211,91935,2,0,L|245:210,2,50,0|0|0,1:2|0:0|0:0,0:0:0:0:
226,283,92404,2,0,P|179:248|188:158,1,150,14|0,0:0|0:0,0:0:0:0:
193,148,92873,2,0,P|148:169|100:164,1,100,0|2,1:2|0:0,0:0:0:0:
230,87,93341,6,0,P|229:61|234:36,1,50,8|2,0:0|0:0,0:0:0:0:
265,146,93576,2,0,P|287:158|306:175,1,50,2|2,0:0|0:0,0:0:0:0:
193,148,93810,2,0,P|148:169|100:164,1,100,0|2,1:2|0:0,0:0:0:0:
319,236,94279,2,0,P|364:215|412:220,1,100,8|2,0:0|0:0,0:0:0:0:
292,306,94748,6,0,B|287:257|287:257|302:209|302:209|296:157,1,150,8|0,1:3|0:0,0:0:0:0:
304,145,95216,2,0,P|258:168|208:156,1,100,8|2,0:0|0:0,0:0:0:0:
116,109,95685,2,0,P|179:72|250:91,1,150,0|0,1:2|0:0,0:0:0:0:
259,75,96154,2,0,P|304:93|361:79,1,100,8|0,0:0|0:0,0:0:0:0:
365,70,96505,1,0,0:0:0:0:
376,57,96623,86,0,L|386:160,1,100,0|2,1:2|0:0,0:0:0:0:
451,363,97091,2,0,L|440:258,1,100,8|0,0:0|0:0,0:0:0:0:
447,249,97443,1,0,0:0:0:0:
454,236,97560,6,0,L|448:180,1,50,0|0,0:0|0:0,0:0:0:0:
493,122,97794,2,0,L|437:110,1,50,0|0,0:0|0:0,0:0:0:0:
401,45,98029,2,0,L|372:93,1,50,2|0,0:3|0:0,0:0:0:0:
309,119,98263,2,0,L|346:160,1,50,2|0,0:3|0:0,0:0:0:0:
337,232,98498,6,0,P|382:221|412:178,1,100,0|0,1:2|0:0,0:0:0:0:
279,294,98966,2,0,L|279:346,2,50,8|2|0,0:0|0:0|0:0,0:0:0:0:
267,281,99318,1,2,0:0:0:0:
261,265,99435,1,0,1:2:0:0:
257,248,99552,1,2,0:0:0:0:
256,228,99669,2,0,B|259:196|282:174|282:174|282:130,1,100,2|10,0:0|0:0,0:0:0:0:
258,48,100138,1,0,0:0:0:0:
195,116,100373,85,0,1:2:0:0:
346,65,100607,1,0,0:0:0:0:
181,116,100841,2,0,B|136:116|136:116|101:160|42:151,1,150,10|0,0:0|0:0,0:0:0:0:
32,137,101310,2,0,L|42:244,1,100,0|0,1:2|0:0,0:0:0:0:
37,253,101662,1,0,0:0:0:0:
31,267,101779,2,0,L|37:323,1,50,8|2,0:0|0:0,0:0:0:0:
113,364,102013,2,0,L|107:304,1,50,0|0,0:0|0:0,0:0:0:0:
106,377,102248,6,0,P|150:356|204:366,1,100,2|0,1:2|0:0,0:0:0:0:
380,279,102716,2,0,P|336:300|282:290,1,100,10|0,0:0|0:0,0:0:0:0:
277,302,103068,1,2,0:0:0:0:
266,313,103185,2,0,B|261:277|261:277|243:253|243:253|240:220,1,100,0|2,1:2|0:0,0:0:0:0:
325,94,103654,2,0,L|325:193,1,100,12|0,0:0|0:0,0:0:0:0:
381,314,104123,6,0,B|386:278|386:278|404:254|404:254|407:221,1,100,0|0,1:2|0:0,0:0:0:0:
416,206,104474,1,2,0:0:0:0:
427,192,104591,2,0,P|381:211|328:198,1,104.999996795654,8|0,0:0|0:0,0:0:0:0:
314,191,104943,1,2,0:0:0:0:
298,185,105060,2,0,P|246:168|188:181,1,110.000003356934,0|0,1:2|0:0,0:0:0:0:
177,187,105412,2,0,L|181:133,1,55.0000016784668,0|10,0:0|0:0,0:0:0:0:
500,17,105998,38,0,L|492:128,1,100,6|0,1:2|0:0,0:0:0:0:
411,204,106466,2,0,P|459:192|508:205,1,100,8|0,0:0|0:0,0:0:0:0:
336,161,106935,2,0,P|288:173|240:161,1,100,2|0,1:2|0:0,0:0:0:0:
260,355,107404,2,0,L|267:255,1,100,8|0,0:0|0:0,0:0:0:0:
176,188,107873,6,0,L|74:188,1,100,2|0,1:2|0:0,0:0:0:0:
307,33,108341,2,0,B|334:68|334:68|331:97|299:119,1,100,8|0,0:0|0:0,0:0:0:0:
206,114,108810,2,0,B|181:97|178:68|178:68|205:33,1,100,2|0,1:2|0:0,0:0:0:0:
336,188,109279,2,0,L|438:188,1,100,8|0,0:0|0:0,0:0:0:0:
356,274,109748,6,0,P|304:269|263:236,1,100,2|0,1:2|0:0,0:0:0:0:
110,326,110216,2,0,P|156:303|208:309,1,100,8|0,0:0|0:0,0:0:0:0:
145,220,110685,2,0,L|131:116,1,100,2|0,1:2|0:0,0:0:0:0:
256,36,111154,2,0,L|246:141,1,100,8|0,0:0|0:0,0:0:0:0:
228,275,111623,86,0,P|276:263|327:274,1,100,2|0,1:2|0:0,0:0:0:0:
394,97,112091,2,0,P|346:109|298:99,1,100,8|0,0:0|0:0,0:0:0:0:
424,303,112560,2,0,L|409:204,1,100,2|0,1:2|0:0,0:0:0:0:
199,69,113029,2,0,L|214:170,1,100,8|0,0:0|0:0,0:0:0:0:
153,348,113498,6,0,L|129:240,1,100,2|0,1:2|0:0,0:0:0:0:
153,348,113966,2,0,P|199:333|249:347,1,100,8|0,0:0|0:0,0:0:0:0:
333,372,114435,2,0,P|380:385|427:370,1,100,2|0,1:2|0:0,0:0:0:0:
492,282,114904,2,0,L|482:180,1,100,8|0,0:0|0:0,0:0:0:0:
512,52,115373,6,0,P|467:72|418:65,1,100,2|0,1:2|0:0,0:0:0:0:
210,132,115841,2,0,B|236:128|257:116|257:116|279:126|305:130,1,100,8|0,0:0|0:0,0:0:0:0:
93,65,116310,2,0,P|45:72|0:52,1,100,2|0,1:2|0:0,0:0:0:0:
256,148,116779,2,0,L|256:252,1,100,8|0,0:0|0:0,0:0:0:0:
208,92,117248,86,0,P|257:75|302:92,1,100,2|0,1:2|0:0,0:0:0:0:
303,204,117716,2,0,P|254:221|209:204,1,100,8|0,0:0|0:0,0:0:0:0:
353,144,118185,2,0,L|465:144,1,100,2|0,1:2|0:0,0:0:0:0:
159,144,118654,2,0,L|47:144,1,100,8|0,0:0|0:0,0:0:0:0:
255,102,119123,6,0,L|238:1,1,100,2|0,1:2|0:0,0:0:0:0:
226,187,119591,2,0,P|275:172|320:186,1,100,8|0,0:0|0:0,0:0:0:0:
489,158,120060,2,0,P|442:173|395:159,1,100,2|0,1:2|0:0,0:0:0:0:
460,243,120529,2,0,L|477:342,1,100,8|0,0:0|0:0,0:0:0:0:
395,158,120998,70,0,L|402:73,2,80,4|2|2,0:0|0:0|0:0,0:0:0:0:
465,11,121701,1,0,0:0:0:0:
466,12,121935,2,0,P|399:55|324:37,1,160,2|2,0:0|0:0,0:0:0:0:
256,13,122638,1,0,0:0:0:0:
169,73,122873,6,0,P|158:111|173:153,1,80,0|2,0:0|0:0,0:0:0:0:
228,190,123341,2,0,B|278:190|278:190|333:166|333:166|383:165,1,160,2|0,0:0|0:0,0:0:0:0:
129,165,124279,1,2,0:0:0:0:
382,165,124748,102,0,L|400:85,1,80,0|2,0:0|0:0,0:0:0:0:
400,87,125216,1,0,0:0:0:0:
436,216,125451,2,0,P|362:238|310:182,1,160,2|0,0:0|0:0,0:0:0:0:
310,183,126154,2,0,L|319:273,1,80,2|2,0:0|0:0,0:0:0:0:
330,379,126623,5,0,0:0:0:0:
330,380,127326,2,0,B|290:389|252:367|252:367|217:345|174:354,1,160,2|2,0:0|0:0,0:0:0:0:
51,369,128029,1,2,0:0:0:0:
172,341,128263,1,0,0:0:0:0:
44,357,128498,6,0,L|49:307,2,50,0|0|0,1:2|0:0|0:0,0:0:0:0:
12,244,128966,2,0,P|55:264|110:251,1,100,8|0,0:0|0:0,0:0:0:0:
190,283,129435,2,0,P|234:262|282:271,1,100,0|2,1:2|0:0,0:0:0:0:
381,193,129904,1,10,0:0:0:0:
380,193,130373,6,0,L|389:135,2,50,2|0|0,1:2|0:0|0:0,0:0:0:0:
363,322,130841,1,8,0:0:0:0:
433,265,131076,1,0,0:0:0:0:
308,250,131310,1,0,1:2:0:0:
183,234,131544,1,2,0:0:0:0:
59,213,131779,2,0,P|44:168|61:119,1,100,8|2,0:0|0:0,0:0:0:0:
27,277,132248,6,0,P|81:283|114:255,1,100,0|2,1:2|1:2,0:0:0:0:
207,148,132716,2,0,P|176:185|182:233,1,100,8|0,0:0|1:2,0:0:0:0:
229,372,133185,1,0,1:2:0:0:
229,372,133302,1,2,0:0:0:0:
229,372,133419,2,0,P|211:326|166:307,2,100,0|8|0,1:2|0:0|1:2,0:0:0:0:
312,337,134123,6,0,L|313:297,6,25,4|0|0|0|0|0|0,1:3|1:0|1:0|1:0|1:0|1:0|1:0,1:1:0:0:
387,374,134591,2,0,L|416:352,6,25,8|0|0|0|0|0|0,3:2|3:0|3:0|3:0|3:0|3:0|3:0,3:3:0:0:
503,384,135060,6,0,B|520:321|472:267|472:267|424:215|436:152,1,250,0|0,0:0|1:2,0:0:0:0:
436,155,135998,53,4,1:2:0:0:
430,244,136232,1,2,0:0:0:0:
340,237,136466,1,10,0:0:0:0:
350,147,136701,1,0,0:0:0:0:
376,308,136935,2,0,B|311:332|269:280|269:280|183:280,1,200,2|10,1:2|0:0,0:0:0:0:
128,355,137638,1,2,0:0:0:0:
22,281,137873,6,0,P|23:201|80:157,1,150,2|0,1:2|0:0,0:0:0:0:
68,144,138341,2,0,P|126:161|167:154,1,100,10|0,0:0|0:0,0:0:0:0:
255,4,138810,2,0,L|255:104,1,100,2|2,1:2|0:0,0:0:0:0:
414,271,139279,2,0,P|323:283|254:209,1,200,10|0,0:0|1:2,0:0:0:0:
254,209,139982,6,0,L|266:308,1,100,2|10,0:0|0:0,0:0:0:0:
266,308,140451,1,0,0:0:0:0:
178,172,140685,2,0,P|252:183|312:142,1,150,2|0,1:2|0:0,0:0:0:0:
305,129,141154,2,0,L|415:129,1,100,10|2,0:0|0:0,0:0:0:0:
456,277,141623,1,2,1:2:0:0:
456,277,142091,85,8,0:0:0:0:
468,366,142326,1,2,0:0:0:0:
497,218,142560,2,0,P|453:237|402:230,1,100,2|0,1:2|0:0,0:0:0:0:
224,213,143029,2,0,P|268:194|319:201,1,100,10|2,0:0|0:0,0:0:0:0:
280,282,143498,6,0,B|271:211|271:211|282:158|282:158|271:84,1,200,2|10,1:2|0:0,0:0:0:0:
362,82,144201,2,0,B|269:83|269:83|230:35|167:51,1,200,2|0,0:0|0:0,0:0:0:0:
100,101,144904,2,0,P|141:128|190:129,1,100,10|2,0:0|0:0,0:0:0:0:
200,118,145255,1,0,0:0:0:0:
208,108,145373,6,0,B|219:159|190:203|190:203|160:249|175:299,1,200,0|8,1:2|0:0,0:0:0:0:
256,338,146076,2,0,L|256:281,2,50,0|0|0,0:0|0:0|1:2,0:0:0:0:
337,300,146544,2,0,L|337:246,1,50,0|0,0:0|0:0,0:0:0:0:
351,241,146779,2,0,B|351:206|351:206|371:180|371:180|371:145,1,100,10|2,0:0|0:0,0:0:0:0:
201,88,147248,86,0,B|242:76|256:10|256:10|269:76|315:88,1,200,2|10,1:2|0:0,0:0:0:0:
248,154,147951,2,0,P|155:156|122:69,1,200,2|0,0:0|0:0,0:0:0:0:
207,19,148654,2,0,L|307:19,1,100,10|2,0:0|0:0,0:0:0:0:
456,99,149123,6,0,P|448:176|339:202,1,200,0|8,1:2|0:0,0:0:0:0:
337,218,149709,1,2,0:0:0:0:
332,233,149826,1,2,0:0:0:0:
277,319,150060,2,0,L|175:318,1,100,2|0,1:2|0:0,0:0:0:0:
163,318,150412,1,0,0:0:0:0:
149,317,150529,70,0,P|113:305|148:257,1,104.999996795654,2|0,0:0|0:0,0:0:0:0:
128,240,150998,54,0,P|176:258|228:243,1,100,4|2,1:2|0:0,0:0:0:0:
184,65,151466,2,0,L|179:164,1,100,10|0,0:0|0:0,0:0:0:0:
170,340,151935,2,0,B|231:344|272:312|272:312|370:311,1,200,2|10,1:2|0:0,0:0:0:0:
447,345,152638,1,2,0:0:0:0:
434,255,152873,86,0,P|404:189|436:117,1,150,2|0,1:2|0:0,0:0:0:0:
443,108,153341,2,0,P|401:130|346:124,1,100,14|4,0:0|0:0,0:0:0:0:
280,67,153810,1,2,1:2:0:0:
292,192,154044,1,2,0:0:0:0:
295,206,154162,1,0,0:0:0:0:
299,220,154279,2,0,B|249:231|202:202|202:202|153:174|106:186,1,200,10|0,0:0|1:2,0:0:0:0:
29,139,154982,6,0,P|15:187|30:234,1,100,2|10,0:0|0:0,0:0:0:0:
6,53,155451,1,0,0:0:0:0:
6,53,155685,2,0,P|49:111|122:105,1,150,2|0,1:2|0:0,0:0:0:0:
128,118,156154,2,0,P|176:102|227:110,1,100,10|2,0:0|0:0,0:0:0:0:
353,167,156623,6,0,P|277:226|186:197,1,200,2|8,1:2|0:0,0:0:0:0:
261,124,157326,1,2,0:0:0:0:
354,167,157560,2,0,L|346:274,1,100,2|0,1:2|0:0,0:0:0:0:
454,346,158029,2,0,L|437:237,1,100,10|2,0:0|0:0,0:0:0:0:
457,362,158498,86,0,B|408:385|360:365|360:365|312:345|262:366,1,200,2|10,1:2|0:0,0:0:0:0:
176,384,159201,2,0,P|95:371|61:267,1,200,2|0,0:0|0:0,0:0:0:0:
96,88,159904,2,0,P|105:136|94:185,1,100,10|2,0:0|0:0,0:0:0:0:
87,201,160255,1,0,0:0:0:0:
87,201,160373,6,0,B|150:200|150:200|217:226|217:226|291:226,1,200,2|8,1:2|0:0,0:0:0:0:
385,136,161076,2,0,L|360:180,2,50,2|2|0,0:0|0:0|1:2,0:0:0:0:
386,312,161544,1,2,0:0:0:0:
386,312,161662,1,2,0:0:0:0:
386,312,161779,2,0,L|361:269,2,50,8|0|2,0:0|0:0|0:0,0:0:0:0:
308,362,162248,6,0,B|265:332|257:278|257:278|249:332|209:363,1,200,2|8,1:2|0:0,0:0:0:0:
193,369,162834,1,2,0:0:0:0:
176,372,162951,1,2,0:0:0:0:
159,369,163068,1,0,0:0:0:0:
145,361,163185,2,0,B|96:347|96:347|47:365,1,100,0|2,1:2|0:0,0:0:0:0:
132,277,163654,2,0,B|181:291|181:291|230:273,1,100,10|0,0:0|0:0,0:0:0:0:
302,223,164123,86,0,P|327:156|295:85,1,150,2|0,1:2|0:0,0:0:0:0:
306,76,164591,2,0,P|255:88|210:75,1,100,8|0,0:0|0:0,0:0:0:0:
88,32,165060,2,0,P|123:70|135:115,1,100,2|0,1:2|0:0,0:0:0:0:
155,240,165529,1,2,0:0:0:0:
155,240,165763,2,0,P|166:208|185:183,1,50,0|0,3:0|3:0,3:3:0:0:
111,297,165998,86,0,P|142:312|187:303,1,80,6|0,0:2|0:0,0:0:0:0:
294,368,166466,2,0,B|272:364|257:355|257:355|242:364|218:367,1,80,0|2,0:0|0:0,0:0:0:0:
326,303,166935,2,0,B|391:304|391:304|421:348|474:338,1,160,2|2,0:0|0:0,0:0:0:0:
456,265,167638,1,0,0:0:0:0:
436,193,167873,6,0,L|441:106,2,80,0|2|2,0:0|0:0|0:0,0:0:0:0:
502,47,168810,2,0,P|438:89|358:74,1,160,2|2,0:0|0:0,0:0:0:0:
312,20,169513,1,0,0:0:0:0:
312,20,169748,102,0,B|317:69|317:69|339:123|339:123|341:179,1,160,2|2,0:0|0:0,0:0:0:0:
294,301,170451,2,0,B|289:252|289:252|267:198|267:198|265:142,1,160,2|0,0:0|0:0,0:0:0:0:
341,175,171154,1,2,0:0:0:0:
216,270,171388,2,0,P|105:304|21:218,1,240,2|0,0:0|0:0,0:0:0:0:
23,226,172560,2,0,L|30:305,1,80,2|2,0:0|0:0,0:0:0:0:
95,232,173029,2,0,L|86:143,1,80,0|2,0:0|0:0,0:0:0:0:
8,95,173498,6,0,B|58:95|58:95|95:143|156:132,1,160,2|0,0:0|0:0,0:0:0:0:
324,263,174435,2,0,B|366:280|403:263|403:263|350:322,1,160,2|0,0:0|0:0,0:0:0:0:
162,322,175373,2,0,B|109:263|109:263|146:280|190:263,1,160,2|0,0:0|0:0,0:0:0:0:
356,132,176310,2,0,B|416:143|453:95|453:95|503:95,1,160,2|0,0:0|0:0,0:0:0:0:
256,270,177248,102,0,B|292:244|292:244|340:284|316:343|269:367|201:375|145:306|157:224|237:194|237:194|191:189|170:148|172:98|216:76,1,560,2|2,0:0|0:0,0:0:0:0:
506,120,179357,1,2,0:0:0:0:
434,114,179591,1,2,0:0:0:0:
362,107,179826,1,2,0:0:0:0:
107,280,180294,1,2,0:0:0:0:
179,274,180529,1,2,0:0:0:0:
250,266,180763,1,0,0:0:0:0:
250,266,180998,6,0,P|261:224|247:185,1,80,2|0,0:0|0:0,0:0:0:0:
107,280,181466,2,0,P|96:322|110:361,1,80,0|2,0:0|0:0,0:0:0:0:
35,369,181935,2,0,B|78:369|78:369|150:384|150:384|195:384,1,160,2|2,0:0|0:0,0:0:0:0:
256,333,182638,1,0,0:0:0:0:
318,281,182873,2,0,L|400:281,2,80,0|2|2,0:0|0:0|0:0,0:0:0:0:
455,242,183810,102,0,P|468:279|457:317,1,80,2|0,0:0|0:0,0:0:0:0:
444,169,184279,2,0,P|483:174|512:202,1,80,2|0,0:0|0:0,0:0:0:0:
360,145,184748,2,0,P|438:151|485:86,1,160,2|0,0:0|0:0,0:0:0:0:
450,11,185451,2,0,P|373:4|325:64,1,160,2|0,0:0|0:0,0:0:0:0:
405,79,186154,1,2,0:0:0:0:
405,79,186623,6,0,B|351:106|291:77|291:77|236:51|174:78,1,240,2|0,0:0|0:0,0:0:0:0:
106,51,187560,1,2,0:0:0:0:
116,122,187794,1,2,0:0:0:0:
130,201,188029,1,2,0:0:0:0:
146,286,188263,1,0,0:0:0:0:
165,380,188498,53,2,0:0:0:0:
256,192,188615,12,0,191310,0:0:0:0:
53,233,191779,37,0,0:0:0:0:
51,249,191896,1,0,0:0:0:0:
48,264,192013,1,0,0:0:0:0:
45,280,192130,1,0,0:0:0:0:
42,295,192248,2,0,P|112:261|194:280,1,160,2|0,0:0|0:0,0:0:0:0:
251,314,192951,2,0,P|367:334|450:257,1,240,2|0,0:0|0:0,0:0:0:0:
436,137,193888,5,2,0:0:0:0:
436,137,194357,2,0,B|381:137|381:137|335:122|335:122|277:122,1,160,2|2,0:0|0:0,0:0:0:0:
168,180,195060,2,0,B|223:180|223:180|269:195|269:195|327:195,1,160,2|2,0:0|0:0,0:0:0:0:
325,195,195763,1,0,0:0:0:0:
362,132,195998,53,0,1:2:0:0:
386,235,196232,1,2,0:0:0:0:
291,259,196466,1,0,3:0:0:0:
267,156,196701,1,0,0:0:0:0:
386,235,196935,2,0,L|383:291,1,50,2|0,0:0|0:0,0:0:0:0:
291,259,197169,2,0,L|288:315,1,50,2|0,0:0|0:0,0:0:0:0:
195,279,197404,1,0,1:2:0:0:
195,279,197873,70,0,L|188:383,2,100,6|0|8,1:2|0:0|0:0,0:0:0:0:
177,191,198576,1,2,0:0:0:0:
263,212,198810,2,0,B|311:235|358:212|358:212|406:188|456:210,1,200,2|10,1:2|0:0,0:0:0:0:
407,285,199513,1,0,0:0:0:0:
315,140,199748,6,0,L|301:37,1,100,0|2,1:2|0:0,0:0:0:0:
263,213,200216,2,0,P|342:223|399:131,1,200,10|2,0:0|1:2,0:0:0:0:
398,130,201154,2,0,L|394:235,1,100,10|0,0:0|0:0,0:0:0:0:
483,270,201623,6,0,B|422:270|422:270|349:247|349:247|286:247,1,200,2|8,1:2|0:0,0:0:0:0:
144,300,202326,2,0,B|205:300|205:300|278:323|278:323|341:323,1,200,2|0,0:0|0:0,0:0:0:0:
444,193,203029,1,10,0:0:0:0:
444,193,203263,2,0,P|486:107|431:21,1,200,2|0,0:0|0:0,0:0:0:0:
294,66,203966,1,8,0:0:0:0:
294,66,204435,2,0,P|247:77|197:67,1,100,2|2,1:2|0:0,0:0:0:0:
33,129,204904,2,0,P|81:117|130:128,1,100,8|2,0:0|0:0,0:0:0:0:
192,193,205373,86,0,P|257:256|316:187,1,200,2|8,1:2|0:0,0:0:0:0:
256,122,206076,1,0,0:0:0:0:
256,321,206310,2,0,B|315:322|357:271|357:271|446:270,1,200,2|8,1:2|0:0,0:0:0:0:
512,191,207013,1,0,0:0:0:0:
440,113,207248,6,0,B|357:113|357:113|315:62|256:63,1,200,2|8,1:2|0:0,0:0:0:0:
234,150,207951,1,0,0:0:0:0:
234,150,208185,2,0,P|300:208|232:265,1,200,2|8,1:2|0:0,0:0:0:0:
161,209,208888,1,0,0:0:0:0:
335,209,209123,6,0,B|399:209|399:209|461:241|461:241|528:241,1,200,2|8,1:2|0:0,0:0:0:0:
484,161,209826,2,0,B|500:114|500:114|479:63,1,100,0|0,0:0|1:2,0:0:0:0:
382,290,210294,2,0,B|366:337|366:337|387:388,1,100,0|8,0:0|0:0,0:0:0:0:
469,351,210763,86,0,B|418:358|370:338|370:338|322:320|270:330,1,200,2|2,0:0|0:0,0:0:0:0:
192,370,211466,1,10,0:0:0:0:
108,334,211701,2,0,P|54:254|102:173,1,200,2|2,0:0|0:0,0:0:0:0:
185,141,212404,1,10,0:0:0:0:
185,141,212638,1,0,0:0:0:0:
235,67,212873,5,6,1:2:0:0:
262,186,213107,1,0,0:0:0:0:
144,212,213341,1,8,0:0:0:0:
117,93,213576,1,2,0:0:0:0:
185,141,213810,2,0,B|231:160|281:137|281:137|334:114|379:133,1,200,2|10,1:2|0:0,0:0:0:0:
462,99,214513,1,0,0:0:0:0:
436,286,214748,6,0,L|447:187,1,100,2|2,1:2|0:0,0:0:0:0:
504,368,215216,2,0,P|431:306|335:330,1,200,10|2,0:0|1:2,0:0:0:0:
203,367,215919,1,2,0:0:0:0:
237,221,216154,1,8,0:0:0:0:
336,328,216388,1,2,0:0:0:0:
174,253,216623,86,0,P|259:287|306:208,1,200,2|8,1:2|0:0,0:0:0:0:
287,119,217326,2,0,B|351:119|351:119|415:161|478:116,1,200,2|0,0:0|0:0,0:0:0:0:
415,51,218029,1,10,0:0:0:0:
287,120,218263,2,0,B|281:182|281:182|314:248|314:248|306:315,1,200,2|0,0:0|0:0,0:0:0:0:
174,253,218966,1,8,0:0:0:0:
174,253,219435,2,0,L|75:253,1,100,2|2,1:2|0:0,0:0:0:0:
161,322,219904,2,0,P|233:293|241:229,1,150,8|0,0:0|0:0,0:0:0:0:
235,214,220373,6,0,B|305:214|305:214|363:235|363:235|433:236,1,200,6|8,1:2|0:0,0:0:0:0:
509,316,221076,2,0,P|460:232|490:140,1,200,2|0,0:0|0:0,0:0:0:0:
424,67,221779,2,0,P|470:58|522:42,1,100,10|0,0:0|0:0,0:0:0:0:
385,151,222248,6,0,B|337:164|287:147|287:147|241:130|188:143,1,200,2|8,1:2|0:0,0:0:0:0:
132,225,222951,1,0,0:0:0:0:
75,309,223185,2,0,P|126:305|175:303,1,100,2|0,1:2|0:0,0:0:0:0:
346,255,223654,2,0,P|297:250|244:243,1,100,10|0,0:0|0:0,0:0:0:0:
132,225,224123,53,2,0:0:0:0:
256,192,224240,12,0,227404,1:2:0:0:
169,59,227873,6,0,L|161:144,1,80,6|0,0:0|0:0,0:0:0:0:
123,279,228341,2,0,P|166:278|206:286,1,80,0|0,0:0|0:0,0:0:0:0:
343,325,228810,2,0,L|351:240,1,80,2|0,0:0|0:0,0:0:0:0:
389,105,229279,2,0,P|346:106|306:98,1,80,0|0,0:0|0:0,0:0:0:0:
216,132,229748,102,0,L|210:212,1,80,2|0,0:0|0:0,0:0:0:0:
196,230,230216,2,0,P|234:226|279:234,1,80,0|0,0:0|0:0,0:0:0:0:
295,251,230685,2,0,L|302:172,1,80,2|0,0:0|0:0,0:0:0:0:
315,153,231154,2,0,P|275:157|236:151,1,80,0|0,0:0|0:0,0:0:0:0:
380,188,231623,6,0,P|391:151|380:112,1,80,2|0,0:0|0:0,0:0:0:0:
358,257,232091,2,0,L|438:257,1,80,0|0,0:0|0:0,0:0:0:0:
288,240,232560,2,0,L|208:240,1,80,2|0,0:0|0:0,0:0:0:0:
267,308,233029,2,0,P|255:345|266:384,1,80,0|0,0:0|0:0,0:0:0:0:
208,239,233498,102,0,L|194:154,1,80,2|0,0:0|0:0,0:0:0:0:
328,78,233966,2,0,P|368:82|405:70,1,80,0|0,0:0|0:0,0:0:0:0:
183,78,234435,2,0,P|143:82|106:70,1,80,2|0,0:0|0:0,0:0:0:0:
317,160,234904,2,0,L|304:239,1,80,0|0,0:0|0:0,0:0:0:0:
256,192,235373,12,2,242638,0:0:0:0:
