osu file format v14

[General]
AudioFilename: tearrain.mp3
AudioLeadIn: 0
PreviewTime: 74943
Countdown: 0
SampleSet: Soft
StackLeniency: 0.4
Mode: 0
LetterboxInBreaks: 0
WidescreenStoryboard: 0

[Editor]
DistanceSpacing: 1.4
BeatDivisor: 4
GridSize: 4
TimelineZoom: 1.4

[Metadata]
Title:Tear Rain
TitleUnicode:Tear Rain
Artist:cYsmix feat. Emmy
ArtistUnicode:cYsmix feat. えみぃ
Creator:Niva
Version:Hard
Source:東方紅魔郷 ~ the Embodiment of Scarlet Devil.
Tags:osu! monthly beatmapping contest #2 mbc2 amateras records emii featured artist touhou project 東方Project 魔法少女達の百年祭 mahou shoujo-tachi no hyakunensai the centennial festival for magical girls
BeatmapID:1668450
BeatmapSetID:140735

[Difficulty]
HPDrainRate:6
CircleSize:4
OverallDifficulty:6
ApproachRate:7.5
SliderMultiplier:1.25
SliderTickRate:2

[Events]
//Background and Video events
0,0,"background_resized(Awan).png",0,0
//Break Periods
//Storyboard Layer 0 (Background)
//Storyboard Layer 1 (Fail)
//Storyboard Layer 2 (Pass)
//Storyboard Layer 3 (Foreground)
//Storyboard Sound Samples

[TimingPoints]
998,468.75,4,2,0,60,1,0
8380,-100,4,2,0,50,0,0
8498,-100,4,2,0,65,0,0
10255,-100,4,2,0,50,0,0
10373,-100,4,2,0,65,0,0
12248,-100,4,2,0,70,0,0
15060,-100,4,2,0,75,0,0
15294,-100,4,2,0,70,0,0
15998,-100,4,2,0,65,0,0
29591,-100,4,2,0,65,0,0
29708,-100,4,2,0,70,0,0
30529,-100,4,2,0,65,0,0
30998,-100,4,2,0,70,0,0
45529,-100,4,2,0,80,0,0
45998,-125,4,2,0,50,0,0
60294,-100,4,2,0,55,0,0
60529,-100,4,2,0,58,0,0
60763,-100,4,2,0,62,0,0
60998,-100,4,2,0,65,0,0
61115,-100,4,2,0,60,0,0
68380,-100,4,2,0,50,0,0
68498,-100,4,2,0,70,0,0
70255,-100,4,2,0,50,0,0
70373,-100,4,2,0,70,0,0
74591,-100,4,2,0,60,0,0
75060,-100,4,2,0,70,0,0
75529,-100,4,2,0,75,0,0
75998,-125,4,2,0,60,0,0
77404,-100,4,2,0,80,0,0
77755,-100,4,2,0,50,0,0
77873,-100,4,2,0,70,0,1
80099,-100,4,2,0,50,0,1
80216,-100,4,2,0,70,0,1
81037,-100,4,2,0,50,0,1
81154,-100,4,2,0,70,0,1
83263,-100,4,2,0,80,0,1
83498,-100,4,2,0,70,0,1
84904,-100,4,2,0,75,0,1
85373,-100,4,2,0,70,0,1
86193,-100,4,2,0,50,0,1
86310,-100,4,2,0,70,0,1
87716,-100,4,2,0,75,0,1
87951,-100,4,2,0,70,0,1
88185,-100,4,2,0,70,0,1
92404,-100,4,2,0,80,0,1
92755,-100,4,2,0,50,0,1
92873,-100,4,2,0,70,0,1
94748,-100,4,2,0,70,0,1
95099,-100,4,2,0,50,0,1
95216,-100,4,2,0,70,0,1
96037,-100,4,2,0,50,0,1
96154,-100,4,2,0,70,0,1
97794,-100,4,2,0,60,0,1
98029,-100,4,2,0,50,0,1
98263,-100,4,2,0,40,0,1
98498,-100,4,2,0,70,0,1
99904,-100,4,2,0,75,0,1
100373,-100,4,2,0,70,0,1
101193,-100,4,2,0,50,0,1
101310,-100,4,2,0,70,0,1
102716,-100,4,2,0,75,0,1
102951,-100,4,2,0,70,0,1
104591,-100,4,2,0,60,0,1
105529,-125,4,2,0,55,0,1
105880,-125,4,2,0,50,0,1
105998,-100,4,2,0,65,0,0
120998,-125,4,2,0,50,0,0
128498,-100,4,2,0,65,0,0
130255,-100,4,2,0,50,0,0
130373,-100,4,2,0,65,0,0
132248,-100,4,2,0,70,0,0
134005,-100,4,1,0,40,0,0
134123,-100,4,2,0,70,0,0
134240,-100,4,2,0,65,0,0
134357,-100,4,2,0,60,0,0
134474,-100,4,2,0,55,0,0
134591,-100,4,2,0,60,0,0
134708,-100,4,2,0,55,0,0
134826,-100,4,2,0,50,0,0
134943,-100,4,2,0,45,0,0
135060,-100,4,2,0,70,0,0
135998,-100,4,2,0,65,0,0
149708,-100,4,2,0,70,0,0
150060,-100,4,2,0,60,0,0
150529,-125,4,2,0,40,0,0
150998,-100,4,2,0,70,0,0
153341,-100,4,2,0,80,0,0
153810,-100,4,2,0,70,0,0
165412,-100,4,2,0,50,0,0
165529,-100,4,2,0,70,0,0
165998,-125,4,2,0,60,0,0
178888,-125,4,2,0,55,0,0
180998,-125,4,2,0,50,0,0
188498,-125,4,2,0,60,0,0
188615,-125,4,2,0,50,0,0
191310,-125,4,2,0,20,0,0
191779,-125,4,2,0,50,0,0
192248,-125,4,2,0,55,0,0
193888,-125,4,2,0,60,0,0
195998,-100,4,2,0,75,0,0
197638,-100,4,2,0,60,0,0
197873,-100,4,2,0,70,0,1
220255,-100,4,2,0,50,0,1
220373,-100,4,2,0,70,0,1
224123,-100,4,2,0,70,0,0
224591,-100,4,2,0,66,0,0
225060,-100,4,2,0,62,0,0
225529,-100,4,2,0,58,0,0
225998,-100,4,2,0,54,0,0
226466,-100,4,2,0,50,0,0
226935,-100,4,2,0,46,0,0
227404,-100,4,2,0,70,0,0
227873,-125,4,2,0,50,0,0
235373,-125,4,2,0,5,0,0
235841,-125,4,2,0,8,0,0
236310,-125,4,2,0,11,0,0
236779,-125,4,2,0,14,0,0
237248,-125,4,2,0,17,0,0
237716,-125,4,2,0,20,0,0
238185,-125,4,2,0,23,0,0
238654,-125,4,2,0,26,0,0
239123,-125,4,2,0,29,0,0
239591,-125,4,2,0,32,0,0
240060,-125,4,2,0,35,0,0
240529,-125,4,2,0,38,0,0
240998,-100,4,2,0,41,0,0
241466,-100,4,2,0,44,0,0
241935,-100,4,2,0,47,0,0
242404,-100,4,2,0,50,0,0

[Colours]
Combo1 : 232,0,128
Combo2 : 218,240,254
Combo3 : 107,157,250
Combo4 : 222,185,255
Combo5 : 192,90,254
Combo6 : 120,0,191
Combo7 : 255,155,210
Combo8 : 255,83,213

[HitObjects]
485,146,998,38,0,P|453:140|414:135,1,62.5,4|2,1:2|0:0,0:0:0:0:
361,73,1466,2,0,P|325:78|281:82,1,62.5,0|0,1:2|0:0,0:0:0:0:
221,122,1935,2,0,P|157:122|87:122,1,125,2|0,1:2|1:2,0:0:0:0:
10,101,2638,1,2,0:0:0:0:
28,200,2873,6,0,P|33:230|40:277,1,62.5,2|0,1:2|0:0,0:0:0:0:
74,342,3341,2,0,P|39:341|3:342,1,62.5,0|0,1:2|0:0,0:0:0:0:
123,265,3810,1,2,1:2:0:0:
158,374,4044,1,0,0:0:0:0:
123,265,4279,2,0,P|154:265|192:265,1,62.5,0|0,1:2|0:0,0:0:0:0:
292,288,4748,6,0,P|289:257|286:220,1,62.5,2|0,1:2|0:0,0:0:0:0:
348,163,5216,2,0,P|326:142|302:116,1,62.5,0|0,1:2|0:0,0:0:0:0:
333,36,5685,2,0,P|286:75|221:82,1,125,0|2,1:2|1:2,0:0:0:0:
140,77,6388,1,0,0:0:0:0:
223,167,6623,86,0,P|222:199|221:235,1,62.5,2|0,1:2|0:0,0:0:0:0:
208,318,7091,2,0,P|240:317|273:318,1,62.5,0|0,1:2|0:0,0:0:0:0:
132,266,7560,1,0,1:2:0:0:
124,366,7794,1,2,0:0:0:0:
132,266,8029,2,0,P|134:218|137:159,1,93.75,0|0,1:2|0:0,0:0:0:0:
129,160,8498,6,0,L|89:160,2,31.25,0|0|0,1:2|0:0|0:0,0:0:0:0:
213,120,8966,2,0,P|244:121|280:122,1,62.5,8|0,0:0|0:0,0:0:0:0:
354,75,9435,2,0,P|368:104|391:147,1,62.5,0|2,1:2|0:0,0:0:0:0:
479,140,9904,2,0,P|486:195|455:246,1,93.75,8|0,0:0|0:0,0:0:0:0:
464,241,10373,6,0,L|415:241,2,31.25,0|0|0,1:2|0:0|0:0,0:0:0:0:
462,329,10841,2,0,P|431:329|400:329,1,62.5,8|0,0:0|0:0,0:0:0:0:
315,357,11310,2,0,P|281:356|245:357,1,62.5,0|2,1:2|0:0,0:0:0:0:
169,327,11779,2,0,P|136:327|99:327,1,62.5,8|2,0:0|0:0,0:0:0:0:
31,272,12248,86,0,P|91:280|143:229,1,125,0|8,1:2|0:0,0:0:0:0:
129,153,12951,1,0,0:0:0:0:
121,65,13185,2,0,P|184:60|246:51,1,125,0|8,1:2|0:0,0:0:0:0:
349,6,13888,1,2,0:0:0:0:
349,6,14005,1,2,0:0:0:0:
349,6,14123,6,0,P|354:68|361:140,1,125,8|8,0:0|0:0,0:0:0:0:
396,210,14826,1,0,0:0:0:0:
439,286,15060,2,0,P|415:314|383:325,1,62.5,4|0,1:3|0:0,0:0:0:0:
389,336,15412,1,0,0:0:0:0:
386,349,15529,2,0,P|351:348|317:349,1,62.5,8|0,1:2|0:0,0:0:0:0:
215,368,15998,6,0,P|219:334|225:288,1,62.5,4|2,1:2|0:0,0:0:0:0:
281,240,16466,2,0,P|253:228|215:209,1,62.5,10|0,0:2|0:0,0:0:0:0:
151,165,16935,2,0,P|215:164|273:146,1,125,2|10,1:2|0:2,0:0:0:0:
359,159,17638,1,2,0:0:0:0:
445,103,17873,86,0,P|442:68|440:32,1,62.5,2|0,1:2|0:0,0:0:0:0:
355,96,18341,2,0,P|357:128|359:159,1,62.5,10|0,0:2|0:0,0:0:0:0:
363,245,18810,1,2,1:2:0:0:
285,204,19044,1,2,0:0:0:0:
289,291,19279,2,0,P|291:323|293:354,1,62.5,10|0,0:0|0:0,0:0:0:0:
201,325,19748,6,0,P|168:325|132:325,1,62.5,0|2,1:2|0:0,0:0:0:0:
69,379,20216,2,0,P|37:379|3:379,1,62.5,10|0,0:0|0:0,0:0:0:0:
23,293,20685,2,0,P|1:237|25:176,1,125,2|10,1:2|0:0,0:0:0:0:
73,105,21388,1,2,0:0:0:0:
35,21,21623,6,0,P|90:51|159:43,1,125,2|8,1:2|0:0,0:0:0:0:
225,106,22326,1,2,0:0:0:0:
225,106,22560,2,0,P|257:103|290:102,1,62.5,2|0,1:2|0:0,0:0:0:0:
357,39,23029,2,0,P|388:40|425:41,1,62.5,10|2,0:0|0:0,0:0:0:0:
495,125,23498,86,0,P|457:173|383:171,1,125,2|10,1:2|0:0,0:0:0:0:
311,156,24201,2,0,B|272:156|272:156|231:170|231:170|188:170,1,125,2|0,0:0|0:0,0:0:0:0:
105,126,24904,1,10,0:0:0:0:
168,65,25138,1,2,0:0:0:0:
188,170,25373,6,0,P|195:204|205:252,1,62.5,0|0,1:2|0:0,0:0:0:0:
190,325,25841,2,0,P|221:318|253:312,1,62.5,8|0,0:0|0:0,0:0:0:0:
325,257,26310,2,0,P|358:259|395:261,1,62.5,0|0,1:2|0:0,0:0:0:0:
397,347,26779,1,10,0:0:0:0:
486,343,27013,1,2,0:0:0:0:
478,241,27248,6,0,P|472:179|466:104,1,125,2|10,1:2|0:0,0:0:0:0:
512,40,27951,2,0,P|458:70|389:64,1,125,2|0,0:0|0:0,0:0:0:0:
309,54,28654,1,10,0:0:0:0:
346,133,28888,1,2,0:0:0:0:
238,127,29123,86,0,B|193:124|193:124|155:135|155:135|108:131,1,125,0|8,1:2|0:0,0:0:0:0:
114,131,29709,1,2,0:0:0:0:
114,131,29826,1,2,0:0:0:0:
105,219,30060,2,0,L|54:215,2,31.25,0|2|0,1:2|0:0|0:0,0:0:0:0:
94,304,30529,2,0,L|51:300,2,31.25,8|0|0,0:0|0:0|0:0,0:0:0:0:
100,316,30880,1,0,0:0:0:0:
106,327,30998,6,0,P|138:325|180:325,1,62.5,4|2,1:2|0:0,0:0:0:0:
243,280,31466,2,0,P|274:283|323:286,1,62.5,10|0,0:0|0:0,0:0:0:0:
378,333,31935,2,0,P|435:346|490:294,1,125,2|10,1:2|0:0,0:0:0:0:
502,222,32638,1,2,0:0:0:0:
477,137,32873,6,0,P|474:106|473:70,1,62.5,2|0,1:2|0:0,0:0:0:0:
387,111,33341,2,0,P|357:111|320:111,1,62.5,10|0,0:0|0:0,0:0:0:0:
243,143,33810,1,2,1:2:0:0:
257,56,34044,1,2,0:0:0:0:
324,111,34279,2,0,P|330:146|336:189,1,62.5,10|0,0:0|0:0,0:0:0:0:
367,267,34748,86,0,P|334:264|294:261,1,62.5,0|2,1:2|0:0,0:0:0:0:
222,224,35216,2,0,P|191:227|148:229,1,62.5,10|0,0:0|0:0,0:0:0:0:
172,315,35685,2,0,P|129:271|63:254,1,125,2|10,1:2|0:0,0:0:0:0:
60,166,36388,1,2,0:0:0:0:
4,98,36623,6,0,P|65:107|139:115,1,125,2|8,1:2|0:0,0:0:0:0:
216,63,37326,1,2,0:0:0:0:
216,63,37560,2,0,P|223:92|233:125,1,62.5,2|0,1:2|0:0,0:0:0:0:
334,130,38029,2,0,P|326:163|318:204,1,62.5,10|2,0:0|0:0,0:0:0:0:
369,275,38498,6,0,B|312:247|312:247|282:249|242:247,1,125,2|10,1:2|0:0,0:0:0:0:
220,327,39201,2,0,B|187:326|159:328|159:328|99:306,1,125,2|0,0:0|0:0,0:0:0:0:
14,270,39904,1,10,0:0:0:0:
67,199,40138,1,2,0:0:0:0:
99,306,40373,86,0,P|106:337|115:371,1,62.5,2|0,1:2|0:0,0:0:0:0:
190,323,40841,2,0,P|223:323|259:323,1,62.5,8|2,0:0|0:0,0:0:0:0:
333,357,41310,2,0,P|357:348|398:342,1,62.5,0|2,1:2|0:0,0:0:0:0:
480,335,41779,1,8,0:0:0:0:
427,264,42013,1,2,0:0:0:0:
503,202,42248,6,0,P|498:139|495:76,1,125,2|8,1:2|0:0,0:0:0:0:
411,103,42951,1,2,0:0:0:0:
432,18,43185,2,0,P|401:20|368:21,1,62.5,0|2,1:2|0:0,0:0:0:0:
296,68,43654,2,0,P|265:67|225:66,1,62.5,10|0,0:0|0:0,0:0:0:0:
154,4,44123,6,0,P|107:43|44:46,1,125,2|8,1:2|0:0,0:0:0:0:
86,135,44826,1,0,0:0:0:0:
86,135,45060,2,0,P|84:168|81:214,1,62.5,2|0,1:2|0:0,0:0:0:0:
81,212,45412,1,0,0:0:0:0:
80,228,45529,1,8,3:2:0:0:
80,228,45998,54,0,P|79:251|77:281,1,50,6|0,0:0|0:0,0:0:0:0:
56,360,46466,2,0,P|82:358|123:357,1,50,0|2,0:0|0:0,0:0:0:0:
180,315,46935,2,0,P|223:340|285:337,1,100,2|2,0:0|0:0,0:0:0:0:
354,363,47638,1,0,0:0:0:0:
436,343,47873,6,0,P|466:343|492:345,1,50,0|2,0:0|0:0,0:0:0:0:
479,259,48341,2,0,P|430:258|358:255,1,100,2|2,0:0|0:0,0:0:0:0:
209,238,49279,1,2,0:0:0:0:
243,315,49513,1,0,0:0:0:0:
294,247,49748,102,0,P|312:203|290:151,1,100,2|2,0:0|0:0,0:0:0:0:
219,115,50451,2,0,B|180:117|180:117|156:110|156:110|116:111,1,100,2|0,0:0|0:0,0:0:0:0:
56,54,51154,1,2,0:0:0:0:
56,54,51388,2,0,P|96:119|84:189,1,150,2|0,0:0|0:0,0:0:0:0:
84,188,52560,6,0,P|87:218|91:252,1,50,2|2,0:0|0:0,0:0:0:0:
172,256,53029,2,0,P|175:288|179:320,1,50,0|2,0:0|0:0,0:0:0:0:
143,383,53498,102,0,P|188:363|238:368,1,100,2|0,0:0|0:0,0:0:0:0:
376,270,54435,2,0,P|425:273|484:280,1,100,2|0,0:0|0:0,0:0:0:0:
475,105,55373,6,0,P|426:110|375:114,1,100,2|0,0:0|0:0,0:0:0:0:
237,16,56310,2,0,P|188:21|143:1,1,100,2|0,0:0|0:0,0:0:0:0:
214,157,57248,102,0,B|225:191|260:201|297:191|317:159|315:123|297:98|258:94|258:94|209:110|161:96,1,300,2|0,0:0|0:0,0:0:0:0:
89,48,58888,6,0,B|97:68|110:93|110:93|96:120|87:143,1,100,2|2,0:0|0:0,0:0:0:0:
103,222,59591,1,2,0:0:0:0:
118,305,59826,2,0,P|166:295|215:305,1,100,2|2,0:0|0:0,0:0:0:0:
300,335,60529,1,2,0:0:0:0:
389,299,60763,1,0,0:0:0:0:
485,331,60998,6,0,P|482:300|480:258,1,62.5,6|0,1:2|0:0,0:0:0:0:
510,183,61466,2,0,P|477:173|443:160,1,62.5,0|2,1:2|0:0,0:0:0:0:
483,78,61935,2,0,P|435:116|372:114,1,125,2|2,1:2|1:2,0:0:0:0:
288,92,62638,1,0,0:0:0:0:
315,178,62873,6,0,P|283:175|248:174,1,62.5,2|2,1:2|0:0,0:0:0:0:
169,148,63341,2,0,P|106:149|43:148,1,125,2|2,1:2|1:2,0:0:0:0:
28,234,64044,1,2,0:0:0:0:
10,320,64279,2,0,P|5:351|-1:384,1,62.5,0|2,1:2|0:0,0:0:0:0:
96,363,64748,6,0,B|140:362|140:362|177:376|177:376|225:375,1,125,2|2,1:2|1:2,0:0:0:0:
301,346,65451,2,0,P|361:362|421:349,1,125,2|0,0:0|0:0,0:0:0:0:
501,384,66154,1,2,1:2:0:0:
501,384,66388,2,0,P|457:307|501:226,1,187.5,2|2,0:0|1:2,0:0:0:0:
499,226,67560,86,0,P|492:192|487:155,1,62.5,2|2,1:2|0:0,0:0:0:0:
511,79,68029,2,0,P|463:84|407:61,1,93.75,2|0,1:2|0:0,0:0:0:0:
409,74,68498,6,0,L|412:26,2,31.25,2|0|0,1:2|0:0|0:0,0:0:0:0:
356,143,68966,2,0,P|357:175|359:217,1,62.5,8|0,0:0|0:0,0:0:0:0:
341,296,69435,2,0,P|373:290|411:286,1,62.5,0|2,1:2|0:0,0:0:0:0:
277,236,69904,2,0,P|232:241|177:235,1,93.75,8|0,0:0|0:0,0:0:0:0:
172,240,70373,6,0,L|127:238,2,31.25,0|0|0,1:2|0:0|0:0,0:0:0:0:
167,152,70841,2,0,P|197:155|241:159,1,62.5,8|0,0:0|0:0,0:0:0:0:
277,236,71310,2,0,P|309:233|354:230,1,62.5,0|2,1:2|0:0,0:0:0:0:
417,190,71779,2,0,P|450:192|492:194,1,62.5,8|2,0:0|0:0,0:0:0:0:
500,296,72248,85,0,1:2:0:0:
500,296,72482,1,2,1:2:0:0:
500,296,72716,2,0,P|467:294|425:292,1,62.5,8|2,0:0|1:2,0:0:0:0:
354,236,73185,1,0,1:2:0:0:
354,236,73419,1,2,1:2:0:0:
354,236,73654,2,0,P|342:271|329:307,1,62.5,8|2,0:0|1:2,0:0:0:0:
254,375,74123,6,0,P|246:345|234:305,1,62.5,8|2,0:0|1:2,0:0:0:0:
206,207,74591,2,0,P|235:215|276:224,1,62.5,8|2,0:0|1:2,0:0:0:0:
333,295,75060,1,4,1:3:0:0:
237,314,75294,1,0,0:0:0:0:
234,328,75412,1,0,0:0:0:0:
232,341,75529,2,0,P|199:338|157:337,1,62.5,8|8,0:0|0:0,0:0:0:0:
96,271,75998,70,0,P|69:273|41:275,1,50,4|0,0:0|0:0,0:0:0:0:
102,189,76466,2,0,P|75:191|47:193,1,50,2|0,0:0|0:0,0:0:0:0:
107,107,76935,2,0,P|80:109|52:111,1,50,2|0,0:0|0:0,0:0:0:0:
184,153,77404,102,0,P|232:163|280:153,1,93.75,6|0,1:2|0:0,0:0:0:0:
287,146,77873,86,0,P|292:178|299:214,1,62.5,6|2,1:2|0:0,0:0:0:0:
332,298,78341,1,8,0:0:0:0:
332,298,78459,1,2,0:0:0:0:
332,298,78576,2,0,L|377:290,2,31.25,2|2|0,0:0|0:0|1:2,0:0:0:0:
256,341,79044,1,0,0:0:0:0:
179,297,79279,2,0,P|145:300|108:304,1,62.5,8|2,0:0|0:0,0:0:0:0:
56,223,79748,6,0,P|101:219|155:214,1,93.75,8|0,1:3|0:0,0:0:0:0:
166,219,80216,1,8,0:0:0:0:
200,138,80451,1,2,0:0:0:0:
228,55,80685,2,0,P|274:64|322:56,1,93.75,0|0,1:2|0:0,0:0:0:0:
322,72,81154,1,8,0:0:0:0:
414,31,81388,1,0,0:0:0:0:
414,31,81505,1,0,0:0:0:0:
414,31,81623,6,0,P|418:69|423:107,1,62.5,0|2,1:2|0:0,0:0:0:0:
473,167,82091,2,0,P|470:203|466:237,1,62.5,8|0,0:0|0:0,0:0:0:0:
507,307,82560,2,0,P|455:273|389:273,1,125,2|8,1:2|0:0,0:0:0:0:
372,167,83263,1,4,0:0:0:0:
295,235,83498,86,0,P|235:248|157:211,1,125,0|8,1:2|0:0,0:0:0:0:
162,233,84084,2,0,B|169:201|169:201|160:167,2,62.5,2|2|2,0:0|0:0|0:0,0:0:0:0:
148,239,84669,1,2,0:0:0:0:
64,271,84904,2,0,B|56:302|56:302|65:333,1,62.5,10|0,0:2|0:0,0:0:0:0:
150,376,85373,5,0,1:2:0:0:
202,306,85607,1,0,0:0:0:0:
148,239,85841,2,0,P|163:195|142:147,1,93.75,10|0,0:0|0:0,0:0:0:0:
157,142,86310,1,0,1:2:0:0:
213,74,86544,2,0,L|210:33,2,31.25,0|0|10,0:0|0:0|0:0,0:0:0:0:
299,125,87013,1,0,0:0:0:0:
299,125,87130,1,0,0:0:0:0:
299,125,87248,6,0,P|330:131|363:125,1,62.5,2|0,1:2|0:0,0:0:0:0:
437,166,87716,1,10,0:0:0:0:
480,242,87951,2,0,L|519:240,2,31.25,0|2|0,0:0|0:0|1:2,0:0:0:0:
459,327,88419,1,2,0:0:0:0:
382,370,88654,2,0,B|352:365|352:365|319:370,1,62.5,12|0,0:0|0:0,0:0:0:0:
352,279,89123,85,0,1:2:0:0:
352,191,89357,1,2,0:0:0:0:
275,233,89591,2,0,P|219:257|150:244,1,125,8|0,0:0|1:2,0:0:0:0:
108,320,90294,1,2,0:0:0:0:
109,321,90529,2,0,P|87:303|68:273,1,62.5,8|2,0:0|0:0,0:0:0:0:
54,176,90998,6,0,P|56:144|59:106,1,62.5,4|0,1:2|0:0,0:0:0:0:
148,130,91466,1,8,0:0:0:0:
148,130,91584,2,0,P|145:97|142:55,2,62.5,2|2|0,0:0|0:0|0:0,0:0:0:0:
149,145,92169,1,0,0:0:0:0:
210,209,92404,2,0,P|258:221|308:208,1,93.75,14|0,0:0|0:0,0:0:0:0:
316,206,92873,6,0,P|314:240|314:287,1,62.5,0|2,1:2|0:0,0:0:0:0:
346,358,93341,1,8,0:0:0:0:
346,358,93459,1,2,0:0:0:0:
346,358,93576,2,0,L|405:355,2,31.25,2|2|0,0:0|0:0|1:2,0:0:0:0:
255,335,94044,1,0,0:0:0:0:
169,316,94279,2,0,P|137:318|104:319,1,62.5,8|2,0:0|0:0,0:0:0:0:
25,363,94748,86,0,P|14:322|27:273,1,93.75,8|0,1:3|0:0,0:0:0:0:
18,262,95216,1,8,0:0:0:0:
109,268,95451,1,2,0:0:0:0:
201,273,95685,2,0,B|236:272|236:272|262:281|262:281|296:280,1,93.75,0|0,1:2|0:0,0:0:0:0:
309,280,96154,1,8,0:0:0:0:
394,337,96388,1,0,0:0:0:0:
394,337,96505,1,0,0:0:0:0:
394,337,96623,6,0,P|428:335|467:335,1,62.5,0|2,1:2|0:0,0:0:0:0:
509,265,97091,2,0,P|516:234|508:203,1,62.5,8|0,0:0|0:0,0:0:0:0:
499,196,97443,1,0,0:0:0:0:
488,188,97560,2,0,L|492:141,3,31.25,0|0|0|0,0:0|0:0|0:0|0:0,0:0:0:0:
410,173,98029,2,0,L|414:137,3,31.25,2|0|2|0,0:3|0:0|0:3|0:0,0:0:0:0:
329,161,98498,6,0,P|268:165|201:162,1,125,0|8,1:2|0:0,0:0:0:0:
193,172,99084,2,0,P|178:141|158:108,2,62.5,2|2|2,0:0|0:0|0:0,0:0:0:0:
183,184,99669,1,2,0:0:0:0:
116,245,99904,2,0,P|119:281|122:329,1,62.5,10|0,0:0|0:0,0:0:0:0:
189,384,100373,85,0,1:2:0:0:
276,371,100607,1,0,0:0:0:0:
362,356,100841,2,0,P|408:365|455:356,1,93.75,10|0,0:0|0:0,0:0:0:0:
465,365,101310,1,0,1:2:0:0:
484,276,101544,2,0,L|489:240,2,31.25,0|0|10,0:0|0:0|0:0,0:0:0:0:
396,262,102013,1,0,0:0:0:0:
396,262,102130,1,0,0:0:0:0:
396,262,102248,6,0,P|363:264|328:265,1,62.5,2|0,1:2|0:0,0:0:0:0:
247,251,102716,1,10,0:0:0:0:
280,331,102951,2,0,L|281:364,2,31.25,0|2|0,0:0|0:0|1:2,0:0:0:0:
334,264,103419,1,2,0:0:0:0:
271,200,103654,2,0,P|269:166|268:130,1,62.5,12|0,0:0|0:0,0:0:0:0:
263,37,104123,5,0,1:2:0:0:
347,58,104357,2,0,L|350:15,2,31.25,0|2|8,0:0|0:0|0:0,0:0:0:0:
431,76,104826,2,0,L|434:32,2,31.25,0|2|0,0:0|0:0|1:2,0:0:0:0:
512,99,105294,1,0,0:0:0:0:
512,113,105412,1,0,0:0:0:0:
510,127,105529,6,0,P|507:177|505:219,1,75,10|0,0:0|0:0,0:0:0:0:
512,219,105998,38,0,P|477:218|446:220,1,62.5,6|0,1:2|0:0,0:0:0:0:
367,189,106466,2,0,P|304:190|228:189,1,125,8|2,0:0|1:2,0:0:0:0:
154,189,107169,1,0,0:0:0:0:
196,267,107404,2,0,P|208:298|226:346,1,62.5,8|0,0:0|0:0,0:0:0:0:
308,368,107873,6,0,P|314:335|322:299,1,62.5,2|0,1:2|0:0,0:0:0:0:
218,325,108341,2,0,B|188:334|157:325|157:325|123:315|92:324,1,125,8|2,0:0|1:2,0:0:0:0:
64,240,109044,1,0,0:0:0:0:
35,157,109279,2,0,P|37:124|39:89,1,62.5,8|0,0:0|0:0,0:0:0:0:
23,0,109748,86,0,P|55:5|98:11,1,62.5,2|0,1:2|0:0,0:0:0:0:
160,53,110216,2,0,B|201:51|201:51|239:68|239:68|281:65,1,125,8|2,0:0|1:2,0:0:0:0:
366,42,110919,1,0,0:0:0:0:
342,126,111154,2,0,P|347:158|354:206,1,62.5,8|0,0:0|0:0,0:0:0:0:
432,255,111623,6,0,P|427:286|423:325,1,62.5,2|0,1:2|0:0,0:0:0:0:
474,384,112091,2,0,P|415:362|349:364,1,125,8|2,0:0|1:2,0:0:0:0:
270,336,112794,1,0,0:0:0:0:
182,346,113029,2,0,P|149:349|106:354,1,62.5,8|0,0:0|0:0,0:0:0:0:
56,263,113498,6,0,P|88:260|132:255,1,62.5,2|0,1:2|0:0,0:0:0:0:
104,169,113966,2,0,P|141:217|206:224,1,125,8|2,0:0|1:2,0:0:0:0:
287,244,114669,1,0,0:0:0:0:
372,226,114904,2,0,P|370:263|368:303,1,62.5,8|0,0:0|0:0,0:0:0:0:
411,375,115373,86,0,P|377:380|343:386,1,62.5,2|0,1:2|0:0,0:0:0:0:
266,357,115841,2,0,P|203:357|132:357,1,125,8|2,0:0|1:2,0:0:0:0:
57,383,116544,1,0,0:0:0:0:
72,296,116779,2,0,P|64:265|54:226,1,62.5,8|0,0:0|0:0,0:0:0:0:
156,236,117248,6,0,P|159:206|164:162,1,62.5,2|0,1:2|0:0,0:0:0:0:
125,93,117716,2,0,P|175:128|244:124,1,125,8|2,0:0|1:2,0:0:0:0:
319,155,118419,1,0,0:0:0:0:
323,242,118654,2,0,P|325:275|327:306,1,62.5,8|0,0:0|0:0,0:0:0:0:
230,274,119123,6,0,P|199:276|167:278,1,62.5,2|0,1:2|0:0,0:0:0:0:
101,334,119591,2,0,P|40:334|-2:291,1,125,8|2,0:0|1:2,0:0:0:0:
19,205,120294,1,0,0:0:0:0:
38,119,120529,2,0,P|35:84|33:41,1,62.5,8|0,0:0|0:0,0:0:0:0:
124,68,120998,53,4,0:0:0:0:
124,68,121232,2,0,P|121:39|119:3,2,50,2|2|0,0:0|0:0|0:0,0:0:0:0:
112,152,121935,2,0,P|139:149|173:148,1,50,2|0,0:0|0:0,0:0:0:0:
241,118,122404,2,0,P|290:122|357:126,1,100,2|0,0:0|0:0,0:0:0:0:
425,131,123107,5,2,0:0:0:0:
425,131,123341,1,2,0:0:0:0:
254,198,123810,1,0,0:0:0:0:
449,234,124279,1,2,0:0:0:0:
247,308,124748,102,0,P|220:310|190:311,2,50,0|2|0,0:0|0:0|0:0,0:0:0:0:
328,332,125451,2,0,P|376:339|420:312,1,100,2|0,0:0|0:0,0:0:0:0:
449,234,126154,2,0,P|447:211|445:179,1,50,2|2,0:0|0:0,0:0:0:0:
437,88,126623,5,0,0:0:0:0:
437,88,127326,2,0,P|434:61|431:28,1,50,2|0,0:0|0:0,0:0:0:0:
352,69,127794,1,2,0:0:0:0:
352,69,128029,2,0,P|317:69|261:69,1,75,2|0,0:0|0:0,0:0:0:0:
265,75,128498,6,0,L|268:30,2,31.25,0|0|0,1:2|0:0|0:0,0:0:0:0:
255,161,128966,2,0,P|252:191|248:242,1,62.5,8|0,0:0|0:0,0:0:0:0:
236,313,129435,2,0,P|265:307|308:301,1,62.5,0|2,1:2|0:0,0:0:0:0:
168,256,129904,2,0,P|122:265|73:252,1,93.75,10|0,0:0|0:0,0:0:0:0:
66,248,130373,6,0,L|72:302,2,31.25,2|0|0,1:2|0:0|0:0,0:0:0:0:
12,178,130841,2,0,P|42:162|71:147,1,62.5,8|0,0:0|0:0,0:0:0:0:
63,59,131310,2,0,P|93:67|135:76,1,62.5,0|2,1:2|0:0,0:0:0:0:
203,110,131779,2,0,P|234:106|274:104,1,62.5,8|2,0:0|0:0,0:0:0:0:
359,60,132248,5,0,1:2:0:0:
359,60,132482,1,2,1:2:0:0:
359,60,132716,2,0,P|364:92|369:136,1,62.5,8|0,0:0|1:2,0:0:0:0:
429,200,133185,1,0,1:2:0:0:
429,200,133419,1,0,1:2:0:0:
429,200,133654,2,0,P|423:236|421:279,1,62.5,8|0,0:0|1:2,0:0:0:0:
393,349,134123,6,0,L|397:377,6,15.625,4|0|0|0|0|0|0,1:3|1:0|1:0|1:0|1:0|1:0|1:0,1:1:0:0:
314,310,134591,2,0,L|316:282,6,15.625,8|0|0|0|0|0|0,3:2|3:0|3:0|3:0|3:0|3:0|3:0,3:3:0:0:
234,345,135060,2,0,B|202:353|172:344|172:344|139:333|106:344,1,125,0|0,0:0|1:2,0:0:0:0:
110,342,135998,86,0,P|113:313|118:276,1,62.5,4|2,1:2|0:0,0:0:0:0:
28,290,136466,2,0,P|32:257|38:221,1,62.5,10|0,0:0|0:0,0:0:0:0:
55,142,136935,2,0,P|115:157|175:144,1,125,2|10,1:2|0:0,0:0:0:0:
259,114,137638,1,2,0:0:0:0:
360,82,137873,6,0,P|391:85|430:89,1,62.5,2|0,1:2|0:0,0:0:0:0:
511,93,138341,2,0,P|519:125|509:161,1,62.5,10|0,0:0|0:0,0:0:0:0:
509,243,138810,1,2,1:2:0:0:
506,332,139044,1,2,0:0:0:0:
418,324,139279,2,0,P|387:325|353:326,1,62.5,10|0,0:0|0:0,0:0:0:0:
275,384,139748,86,0,P|267:353|257:317,1,62.5,0|2,1:2|0:0,0:0:0:0:
338,265,140216,2,0,P|347:299|356:329,1,62.5,10|0,0:0|0:0,0:0:0:0:
259,323,140685,2,0,B|225:330|196:323|196:323|169:316|132:323,1,125,2|10,1:2|0:0,0:0:0:0:
62,377,141388,1,2,0:0:0:0:
52,277,141623,6,0,P|45:217|38:148,1,125,2|8,1:2|0:0,0:0:0:0:
25,64,142326,1,2,0:0:0:0:
25,64,142560,2,0,P|56:64|97:64,1,62.5,2|0,1:2|0:0,0:0:0:0:
174,89,143029,2,0,P|206:88|252:89,1,62.5,10|2,0:0|0:0,0:0:0:0:
195,0,143498,6,0,P|247:33|316:24,1,125,2|10,1:2|0:0,0:0:0:0:
387,70,144201,2,0,B|430:67|430:67|468:80|468:80|514:75,1,125,2|0,0:0|0:0,0:0:0:0:
504,163,144904,1,10,0:0:0:0:
496,250,145138,1,2,0:0:0:0:
512,346,145373,86,0,P|481:337|432:328,1,62.5,0|0,1:2|0:0,0:0:0:0:
370,298,145841,2,0,P|336:302|300:305,1,62.5,8|0,0:0|0:0,0:0:0:0:
220,316,146310,2,0,P|187:316|138:317,1,62.5,0|0,1:2|0:0,0:0:0:0:
69,316,146779,1,10,0:0:0:0:
115,241,147013,1,2,0:0:0:0:
18,228,147248,6,0,P|24:166|28:95,1,125,2|10,1:2|0:0,0:0:0:0:
0,13,147951,2,0,P|45:53|119:52,1,125,2|0,0:0|0:0,0:0:0:0:
193,39,148654,1,10,0:0:0:0:
278,56,148888,1,2,0:0:0:0:
380,39,149123,6,0,P|442:39|511:39,1,125,0|8,1:2|0:0,0:0:0:0:
504,39,149709,1,2,0:0:0:0:
504,39,149826,1,2,0:0:0:0:
471,124,150060,2,0,P|476:158|482:204,1,62.5,2|0,1:2|0:0,0:0:0:0:
475,198,150412,1,0,0:0:0:0:
467,209,150529,2,0,L|473:251,2,25,2|0|0,0:0|0:0|0:0,0:0:0:0:
368,179,150998,86,0,P|337:181|297:183,1,62.5,4|2,1:2|0:0,0:0:0:0:
237,244,151466,2,0,P|224:213|204:169,1,62.5,10|0,0:0|0:0,0:0:0:0:
236,103,151935,2,0,P|191:144|123:143,1,125,2|10,1:2|0:0,0:0:0:0:
45,118,152638,1,2,0:0:0:0:
30,222,152873,6,0,P|35:250|41:291,1,62.5,2|0,1:2|0:0,0:0:0:0:
24,383,153341,1,14,0:0:0:0:
40,283,153576,1,4,0:0:0:0:
24,383,153810,2,0,P|53:377|95:371,1,62.5,2|2,1:2|0:0,0:0:0:0:
164,319,154279,2,0,P|195:319|243:318,1,62.5,10|0,0:0|0:0,0:0:0:0:
309,272,154748,6,0,P|315:305|324:351,1,62.5,0|2,1:2|0:0,0:0:0:0:
237,380,155216,2,0,P|231:346|222:301,1,62.5,10|0,0:0|0:0,0:0:0:0:
320,333,155685,2,0,B|361:330|361:330|402:341|402:341|443:338,1,125,2|10,1:2|0:0,0:0:0:0:
477,257,156388,1,2,0:0:0:0:
512,162,156623,86,0,P|505:100|499:25,1,125,2|8,1:2|0:0,0:0:0:0:
419,0,157326,1,2,0:0:0:0:
419,0,157560,2,0,P|410:37|396:66,1,62.5,2|0,1:2|0:0,0:0:0:0:
335,117,158029,2,0,P|303:132|262:136,1,62.5,10|2,0:0|0:0,0:0:0:0:
323,216,158498,6,0,P|266:193|204:193,1,125,2|10,1:2|0:0,0:0:0:0:
127,141,159201,2,0,P|64:142|-11:141,1,125,2|0,0:0|0:0,0:0:0:0:
11,229,159904,1,10,0:0:0:0:
22,317,160138,1,2,0:0:0:0:
111,265,160373,6,0,P|142:264|188:265,1,62.5,2|0,1:2|0:0,0:0:0:0:
242,328,160841,2,0,P|271:309|309:286,1,62.5,8|2,0:0|0:0,0:0:0:0:
383,321,161310,2,0,P|391:287|405:242,1,62.5,0|2,1:2|0:0,0:0:0:0:
387,172,161779,1,8,0:0:0:0:
376,84,162013,1,2,0:0:0:0:
417,0,162248,86,0,P|363:30|296:27,1,125,2|8,1:2|0:0,0:0:0:0:
214,57,162951,1,2,0:0:0:0:
131,85,163185,2,0,P|97:84|62:82,1,62.5,0|2,1:2|0:0,0:0:0:0:
31,166,163654,2,0,P|63:167|99:168,1,62.5,10|0,0:0|0:0,0:0:0:0:
56,249,164123,6,0,P|110:222|176:218,1,125,2|8,1:2|0:0,0:0:0:0:
256,182,164826,1,0,0:0:0:0:
340,213,165060,2,0,B|373:211|373:211|397:218|397:218|432:215,1,93.75,2|0,1:2|0:0,0:0:0:0:
449,213,165529,1,2,0:0:0:0:
256,182,165998,70,0,P|227:184|190:187,1,50,6|0,0:2|0:0,0:0:0:0:
145,125,166466,2,0,P|125:149|106:173,1,50,0|2,0:0|0:0,0:0:0:0:
31,185,166935,2,0,P|54:229|99:248,1,100,2|2,0:0|0:0,0:0:0:0:
183,233,167638,1,0,0:0:0:0:
266,249,167873,6,0,P|293:248|330:249,1,50,0|2,0:0|0:0,0:0:0:0:
394,281,168341,2,0,P|444:286|492:244,1,100,2|2,0:0|0:0,0:0:0:0:
473,88,169279,1,2,0:0:0:0:
478,173,169513,1,0,0:0:0:0:
483,259,169748,102,0,P|485:309|490:367,1,100,2|2,0:0|0:0,0:0:0:0:
404,349,170451,2,0,B|378:352|355:358|355:358|328:351|303:349,1,100,2|0,0:0|0:0,0:0:0:0:
221,334,171154,1,2,0:0:0:0:
137,351,171388,2,0,P|67:352|33:284,1,150,2|0,0:0|0:0,0:0:0:0:
32,287,172560,6,0,P|33:257|35:220,1,50,2|2,0:0|0:0,0:0:0:0:
118,200,173029,2,0,P|117:226|116:261,1,50,0|2,0:0|0:0,0:0:0:0:
124,333,173498,102,0,P|174:332|223:333,1,100,2|0,0:0|0:0,0:0:0:0:
374,254,174435,2,0,P|419:277|484:269,1,100,2|0,0:0|0:0,0:0:0:0:
467,108,175373,6,0,P|417:107|374:130,1,100,2|0,0:0|0:0,0:0:0:0:
223,50,176310,2,0,P|173:52|124:51,1,100,2|0,0:0|0:0,0:0:0:0:
74,223,177248,102,0,B|18:248|-26:211|-37:160|-5:116|49:116|94:129|94:129|141:142,1,300,2|0,0:0|0:0,0:0:0:0:
223,164,178888,6,0,P|271:171|321:144,1,100,2|2,0:0|0:0,0:0:0:0:
378,99,179591,1,2,0:0:0:0:
378,99,179826,2,0,P|376:150|375:210,1,100,2|2,0:0|0:0,0:0:0:0:
370,284,180529,1,2,0:0:0:0:
446,246,180763,1,0,0:0:0:0:
375,198,180998,102,0,P|348:200|307:202,1,50,2|0,0:0|0:0,0:0:0:0:
250,241,181466,2,0,P|223:239|190:239,1,50,0|2,0:0|0:0,0:0:0:0:
117,216,181935,2,0,P|67:219|23:189,1,100,2|2,0:0|0:0,0:0:0:0:
13,108,182638,1,0,0:0:0:0:
26,193,182873,6,0,P|28:220|32:257,1,50,0|2,0:0|0:0,0:0:0:0:
115,280,183341,2,0,P|105:329|98:382,1,100,2|2,0:0|0:0,0:0:0:0:
133,178,184279,1,2,0:0:0:0:
116,94,184513,1,0,0:0:0:0:
78,18,184748,102,0,P|123:37|181:31,1,100,2|0,0:0|0:0,0:0:0:0:
252,64,185451,2,0,B|287:63|287:63|316:71|316:71|356:69,1,100,2|0,0:0|0:0,0:0:0:0:
423,24,186154,1,2,0:0:0:0:
511,168,186623,6,0,P|486:244|423:262,1,150,2|0,0:0|0:0,0:0:0:0:
346,296,187560,2,0,P|320:291|293:288,1,50,2|2,0:0|0:0,0:0:0:0:
222,247,188029,2,0,P|198:250|168:254,1,50,2|0,0:0|0:0,0:0:0:0:
88,268,188498,21,2,0:0:0:0:
256,192,188615,12,0,191310,0:0:0:0:
440,335,191779,70,0,L|436:304,3,25
442,349,192248,6,0,P|395:333|345:337,1,100,2|0,0:0|0:0,0:0:0:0:
263,359,192951,2,0,P|190:365|124:318,1,150,2|0,0:0|0:0,0:0:0:0:
101,243,193888,101,2,0:0:0:0:
101,243,194357,2,0,P|102:217|103:187,1,50,2|0,0:0|0:0,0:0:0:0:
56,121,194826,1,2,0:0:0:0:
56,121,195060,2,0,P|82:110|117:95,1,50,2|0,0:0|0:0,0:0:0:0:
105,16,195529,2,0,P|134:22|167:28,1,50,2|0,0:0|0:0,0:0:0:0:
255,0,195998,101,0,1:2:0:0:
305,96,196232,1,2,0:0:0:0:
238,173,196466,1,0,3:0:0:0:
149,123,196701,1,0,0:0:0:0:
154,25,196935,2,0,L|106:23,2,31.25,2|0|2,0:0|0:0|0:0,0:0:0:0:
165,23,197287,1,0,0:0:0:0:
177,21,197404,1,0,1:2:0:0:
177,21,197873,38,0,P|210:22|246:23,1,62.5,6|0,1:2|0:0,0:0:0:0:
323,0,198341,2,0,P|332:29|346:66,1,62.5,8|2,0:0|0:0,0:0:0:0:
433,50,198810,2,0,P|415:113|368:146,1,125,2|10,1:2|0:0,0:0:0:0:
364,233,199513,1,0,0:0:0:0:
408,319,199748,6,0,P|374:322|334:328,1,62.5,0|2,1:2|0:0,0:0:0:0:
279,269,200216,2,0,P|246:269|204:268,1,62.5,10|0,0:0|0:0,0:0:0:0:
134,302,200685,2,0,P|131:270|128:239,1,62.5,2|0,1:2|0:0,0:0:0:0:
202,185,201154,1,10,0:0:0:0:
192,99,201388,1,0,0:0:0:0:
152,13,201623,6,0,P|206:42|269:38,1,125,2|8,1:2|0:0,0:0:0:0:
356,21,202326,2,0,B|400:19|400:19|437:31|437:31|483:29,1,125,2|0,0:0|0:0,0:0:0:0:
495,117,203029,1,10,0:0:0:0:
512,203,203263,1,2,0:0:0:0:
410,192,203498,86,0,P|415:224|423:264,1,62.5,0|0,1:2|0:0,0:0:0:0:
466,332,203966,2,0,P|434:335|403:338,1,62.5,8|0,0:0|0:0,0:0:0:0:
318,312,204435,1,2,1:2:0:0:
234,338,204669,1,2,0:0:0:0:
150,312,204904,2,0,P|117:312|85:312,1,62.5,8|2,0:0|0:0,0:0:0:0:
17,243,205373,6,0,P|76:257|127:219,1,125,2|8,1:2|0:0,0:0:0:0:
217,246,206076,1,0,0:0:0:0:
217,246,206310,2,0,P|211:183|208:112,1,125,2|8,1:2|0:0,0:0:0:0:
148,57,207013,1,0,0:0:0:0:
148,57,207248,6,0,P|209:70|269:59,1,125,2|8,1:2|0:0,0:0:0:0:
286,145,207951,1,0,0:0:0:0:
286,145,208185,2,0,P|340:116|360:54,1,125,2|8,1:2|0:0,0:0:0:0:
432,133,208888,1,0,0:0:0:0:
432,133,209123,86,0,P|437:195|446:275,1,125,2|8,1:2|0:0,0:0:0:0:
454,344,209826,1,0,0:0:0:0:
376,383,210060,2,0,P|343:383|311:383,1,62.5,0|0,1:2|0:0,0:0:0:0:
247,325,210529,1,8,0:0:0:0:
147,354,210763,6,0,P|87:364|30:329,1,125,2|2,0:0|0:0,0:0:0:0:
6,247,211466,1,10,0:0:0:0:
6,247,211701,2,0,P|11:185|17:110,1,125,2|2,0:0|0:0,0:0:0:0:
24,34,212404,1,10,0:0:0:0:
115,46,212638,1,0,0:0:0:0:
109,154,212873,6,0,P|141:156|185:160,1,62.5,6|0,1:2|0:0,0:0:0:0:
212,80,213341,2,0,P|243:80|279:80,1,62.5,8|2,0:0|0:0,0:0:0:0:
356,124,213810,2,0,P|419:125|485:124,1,125,2|10,1:2|0:0,0:0:0:0:
498,210,214513,1,0,0:0:0:0:
511,309,214748,86,0,P|508:342|505:376,1,62.5,2|2,1:2|0:0,0:0:0:0:
423,322,215216,2,0,P|420:356|417:389,1,62.5,10|0,0:0|0:0,0:0:0:0:
335,332,215685,1,2,1:2:0:0:
246,342,215919,1,2,0:0:0:0:
159,348,216154,2,0,P|126:346|90:346,1,62.5,8|2,0:0|0:0,0:0:0:0:
10,312,216623,6,0,P|68:295|119:249,1,125,2|8,1:2|0:0,0:0:0:0:
159,168,217326,2,0,P|163:107|148:39,1,125,2|0,0:0|0:0,0:0:0:0:
240,30,218029,1,10,0:0:0:0:
328,17,218263,1,2,0:0:0:0:
312,114,218498,6,0,P|344:109|374:105,1,62.5,0|0,1:2|0:0,0:0:0:0:
440,43,218966,2,0,P|452:72|471:113,1,62.5,8|0,0:0|0:0,0:0:0:0:
501,179,219435,1,2,1:2:0:0:
437,241,219669,1,2,0:0:0:0:
362,191,219904,2,0,P|314:191|257:191,1,93.75,8|0,0:0|0:0,0:0:0:0:
260,176,220373,86,0,P|210:211|148:200,1,125,6|8,1:2|0:0,0:0:0:0:
85,143,221076,2,0,P|93:205|101:272,1,125,2|0,0:0|0:0,0:0:0:0:
135,348,221779,2,0,P|106:359|73:371,1,62.5,10|0,0:0|0:0,0:0:0:0:
185,277,222248,6,0,P|247:289|311:277,1,125,2|8,1:2|0:0,0:0:0:0:
386,315,222951,1,0,0:0:0:0:
376,228,223185,2,0,P|410:231|454:236,1,62.5,2|0,1:2|0:0,0:0:0:0:
448,321,223654,2,0,P|413:317|370:313,1,62.5,10|0,0:0|0:0,0:0:0:0:
256,298,224123,85,2,0:0:0:0:
256,192,224240,12,0,227404,1:2:0:0:
80,120,227873,102,0,P|77:151|74:186,1,50,6|0,0:0|0:0,0:0:0:0:
68,256,228341,2,0,P|108:285|158:281,1,100,0|2,0:0|0:0,0:0:0:0:
238,258,229044,1,0,0:0:0:0:
319,235,229279,2,0,P|345:236|379:238,1,50,0|0,0:0|0:0,0:0:0:0:
458,255,229748,6,0,P|454:229|452:203,1,50,2|0,0:0|0:0,0:0:0:0:
506,140,230216,2,0,P|456:147|407:128,1,100,0|2,0:0|0:0,0:0:0:0:
325,140,230919,1,0,0:0:0:0:
240,148,231154,2,0,P|209:146|179:145,1,50,0|0,0:0|0:0,0:0:0:0:
126,86,231623,102,0,P|110:112|93:139,1,50,2|0,0:0|0:0,0:0:0:0:
58,202,232091,2,0,P|49:251|74:291,1,100,0|2,0:0|0:0,0:0:0:0:
63,376,232794,1,0,0:0:0:0:
142,345,233029,2,0,P|168:344|195:343,1,50,0|0,0:0|0:0,0:0:0:0:
272,307,233498,6,0,P|274:335|277:368,1,50,2|0,0:0|0:0,0:0:0:0:
358,331,233966,2,0,B|394:330|394:330|423:338|423:338|463:337,1,100,0|2,0:0|0:0,0:0:0:0:
495,261,234669,1,0,0:0:0:0:
470,179,234904,2,0,P|471:148|473:119,1,50,0|0,0:0|0:0,0:0:0:0:
256,192,235373,12,2,242638,0:0:0:0:
