osu file format v14

[General]
AudioFilename: audio.mp3
AudioLeadIn: 0
PreviewTime: 87012
Countdown: 0
SampleSet: Soft
StackLeniency: 0.4
Mode: 0
LetterboxInBreaks: 0
EpilepsyWarning: 1
WidescreenStoryboard: 1

[Editor]
Bookmarks: 27012,39012,63012
DistanceSpacing: 0.8
BeatDivisor: 8
GridSize: 32
TimelineZoom: 2.3

[Metadata]
Title:triangles
TitleUnicode:triangles
Artist:cYsmix
ArtistUnicode:cYsmix
Creator:yf_bmp
Version:Yugu's Insane
Source:osu!
Tags:electronic instrumental lazer triangles contest featured artist fa TtmnZk Chaoslitz Yugu Yumeno Himiko
BeatmapID:3783213
BeatmapSetID:1841885

[Difficulty]
HPDrainRate:5.5
CircleSize:4
OverallDifficulty:7.8
ApproachRate:9
SliderMultiplier:1.8
SliderTickRate:1

[Events]
//Background and Video events
0,0,"bg.png",0,0
//Break Periods
2,63212,74412
//Storyboard Layer 0 (Background)
//Storyboard Layer 1 (Fail)
//Storyboard Layer 2 (Pass)
//Storyboard Layer 3 (Foreground)
Sprite,Foreground,CentreLeft,"SB\text\exo2_a42.png",-67,415 C,0,63012,,41,67,28 S,0,63012,,0.1 F,0,63293,63793,0,0.75 F,0,75012,75199,0.75,0
Sprite,Foreground,CentreLeft,"SB\text\exo2_a65.png",-61,415 C,0,63012,,41,67,28 S,0,63012,,0.1 F,0,63293,63793,0,0.75 F,0,75012,75199,0.75,0
Sprite,Foreground,CentreLeft,"SB\text\exo2_a61.png",0,0 C,0,63012,,41,67,28 S,0,63012,,0.1 M,0,63012,75012,-55.8,415 F,0,63293,63793,0,0.75 F,0,75012,75199,0.75,0
Sprite,Foreground,CentreLeft,"SB\text\exo2_a74.png",0,0 C,0,63012,,41,67,28 S,0,63012,,0.1 M,0,63012,75012,-50.5,415 F,0,63293,63793,0,0.75 F,0,75012,75199,0.75,0
Sprite,Foreground,CentreLeft,"SB\text\exo2_a6d.png",0,0 C,0,63012,,41,67,28 S,0,63012,,0.1 M,0,63012,75012,-46.8,415 F,0,63293,63793,0,0.75 F,0,75012,75199,0.75,0
Sprite,Foreground,CentreLeft,"SB\text\exo2_a61.png",0,0 C,0,63012,,41,67,28 S,0,63012,,0.1 M,0,63012,75012,-38.4,415 F,0,63293,63793,0,0.75 F,0,75012,75199,0.75,0
Sprite,Foreground,CentreLeft,"SB\text\exo2_a70.png",0,0 C,0,63012,,41,67,28 S,0,63012,,0.1 M,0,63012,75012,-33.1,415 F,0,63293,63793,0,0.75 F,0,75012,75199,0.75,0
Sprite,Foreground,CentreLeft,"SB\text\exo2_a3a.png",0,0 C,0,63012,,41,67,28 S,0,63012,,0.1 M,0,63012,75012,-27.5,415 F,0,63293,63793,0,0.75 F,0,75012,75199,0.75,0
Sprite,Foreground,CentreLeft,"SB\text\exo2_a59.png",0,0 C,0,63012,,41,67,28 S,0,63012,,0.1 M,0,63012,75012,-23.1,415 F,0,63293,63793,0,0.75 F,0,75012,75199,0.75,0
Sprite,Foreground,CentreLeft,"SB\text\exo2_a75.png",0,0 C,0,63012,,41,67,28 S,0,63012,,0.1 M,0,63012,75012,-17.6,415 F,0,63293,63793,0,0.75 F,0,75012,75199,0.75,0
Sprite,Foreground,CentreLeft,"SB\text\exo2_a67.png",0,0 C,0,63012,,41,67,28 S,0,63012,,0.1 M,0,63012,75012,-12.1,415 F,0,63293,63793,0,0.75 F,0,75012,75199,0.75,0
Sprite,Foreground,CentreLeft,"SB\text\exo2_a75.png",0,0 C,0,63012,,41,67,28 S,0,63012,,0.1 M,0,63012,75012,-6.7,415 F,0,63293,63793,0,0.75 F,0,75012,75199,0.75,0
Sprite,Foreground,CentreLeft,"SB\text\exo2_a48.png",-67,425 C,0,63012,,41,67,28 S,0,63012,,0.1 F,0,63293,63793,0,0.75 F,0,75012,75199,0.75,0
Sprite,Foreground,CentreLeft,"SB\text\exo2_a69.png",0,0 C,0,63012,,41,67,28 S,0,63012,,0.1 M,0,63012,75012,-60.6,425 F,0,63293,63793,0,0.75 F,0,75012,75199,0.75,0
Sprite,Foreground,CentreLeft,"SB\text\exo2_a74.png",0,0 C,0,63012,,41,67,28 S,0,63012,,0.1 M,0,63012,75012,-58.2,425 F,0,63293,63793,0,0.75 F,0,75012,75199,0.75,0
Sprite,Foreground,CentreLeft,"SB\text\exo2_a73.png",0,0 C,0,63012,,41,67,28 S,0,63012,,0.1 M,0,63012,75012,-54.5,425 F,0,63293,63793,0,0.75 F,0,75012,75199,0.75,0
Sprite,Foreground,CentreLeft,"SB\text\exo2_a6f.png",0,0 C,0,63012,,41,67,28 S,0,63012,,0.1 M,0,63012,75012,-49.6,425 F,0,63293,63793,0,0.75 F,0,75012,75199,0.75,0
Sprite,Foreground,CentreLeft,"SB\text\exo2_a75.png",0,0 C,0,63012,,41,67,28 S,0,63012,,0.1 M,0,63012,75012,-44.1,425 F,0,63293,63793,0,0.75 F,0,75012,75199,0.75,0
Sprite,Foreground,CentreLeft,"SB\text\exo2_a6e.png",0,0 C,0,63012,,41,67,28 S,0,63012,,0.1 M,0,63012,75012,-38.6,425 F,0,63293,63793,0,0.75 F,0,75012,75199,0.75,0
Sprite,Foreground,CentreLeft,"SB\text\exo2_a64.png",-33,425 C,0,63012,,41,67,28 S,0,63012,,0.1 F,0,63293,63793,0,0.75 F,0,75012,75199,0.75,0
Sprite,Foreground,CentreLeft,"SB\text\exo2_a73.png",0,0 C,0,63012,,41,67,28 S,0,63012,,0.1 M,0,63012,75012,-27.5,425 F,0,63293,63793,0,0.75 F,0,75012,75199,0.75,0
Sprite,Foreground,CentreLeft,"SB\text\exo2_a3a.png",0,0 C,0,63012,,41,67,28 S,0,63012,,0.1 M,0,63012,75012,-22.6,425 F,0,63293,63793,0,0.75 F,0,75012,75199,0.75,0
Sprite,Foreground,CentreLeft,"SB\text\exo2_a54.png",0,0 C,0,63012,,41,67,28 S,0,63012,,0.1 M,0,63012,75012,-18.2,425 F,0,63293,63793,0,0.75 F,0,75012,75199,0.75,0
Sprite,Foreground,CentreLeft,"SB\text\exo2_a74.png",0,0 C,0,63012,,41,67,28 S,0,63012,,0.1 M,0,63012,75012,-12.6,425 F,0,63293,63793,0,0.75 F,0,75012,75199,0.75,0
Sprite,Foreground,CentreLeft,"SB\text\exo2_a6d.png",0,0 C,0,63012,,41,67,28 S,0,63012,,0.1 M,0,63012,75012,-8.9,425 F,0,63293,63793,0,0.75 F,0,75012,75199,0.75,0
Sprite,Foreground,CentreLeft,"SB\text\exo2_a6e.png",0,0 C,0,63012,,41,67,28 S,0,63012,,0.1 M,0,63012,75012,-0.5,425 F,0,63293,63793,0,0.75 F,0,75012,75199,0.75,0
Sprite,Foreground,CentreLeft,"SB\text\exo2_a5a.png",0,0 C,0,63012,,41,67,28 S,0,63012,,0.1 M,0,63012,75012,5.1,425 F,0,63293,63793,0,0.75 F,0,75012,75199,0.75,0
Sprite,Foreground,CentreLeft,"SB\text\exo2_a6b.png",0,0 C,0,63012,,41,67,28 S,0,63012,,0.1 M,0,63012,75012,10.5,425 F,0,63293,63793,0,0.75 F,0,75012,75199,0.75,0
Sprite,Foreground,CentreLeft,"SB\text\exo2_a53.png",-67,435 C,0,63012,,41,67,28 S,0,63012,,0.1 F,0,63293,63793,0,0.75 F,0,75012,75199,0.75,0
Sprite,Foreground,CentreLeft,"SB\text\exo2_a74.png",0,0 C,0,63012,,41,67,28 S,0,63012,,0.1 M,0,63012,75012,-61.6,435 F,0,63293,63793,0,0.75 F,0,75012,75199,0.75,0
Sprite,Foreground,CentreLeft,"SB\text\exo2_a6f.png",0,0 C,0,63012,,41,67,28 S,0,63012,,0.1 M,0,63012,75012,-57.9,435 F,0,63293,63793,0,0.75 F,0,75012,75199,0.75,0
Sprite,Foreground,CentreLeft,"SB\text\exo2_a72.png",0,0 C,0,63012,,41,67,28 S,0,63012,,0.1 M,0,63012,75012,-52.4,435 F,0,63293,63793,0,0.75 F,0,75012,75199,0.75,0
Sprite,Foreground,CentreLeft,"SB\text\exo2_a79.png",0,0 C,0,63012,,41,67,28 S,0,63012,,0.1 M,0,63012,75012,-48.6,435 F,0,63293,63793,0,0.75 F,0,75012,75199,0.75,0
Sprite,Foreground,CentreLeft,"SB\text\exo2_a62.png",0,0 C,0,63012,,41,67,28 S,0,63012,,0.1 M,0,63012,75012,-43.5,435 F,0,63293,63793,0,0.75 F,0,75012,75199,0.75,0
Sprite,Foreground,CentreLeft,"SB\text\exo2_a6f.png",-38,435 C,0,63012,,41,67,28 S,0,63012,,0.1 F,0,63293,63793,0,0.75 F,0,75012,75199,0.75,0
Sprite,Foreground,CentreLeft,"SB\text\exo2_a61.png",0,0 C,0,63012,,41,67,28 S,0,63012,,0.1 M,0,63012,75012,-32.5,435 F,0,63293,63793,0,0.75 F,0,75012,75199,0.75,0
Sprite,Foreground,CentreLeft,"SB\text\exo2_a72.png",0,0 C,0,63012,,41,67,28 S,0,63012,,0.1 M,0,63012,75012,-27.2,435 F,0,63293,63793,0,0.75 F,0,75012,75199,0.75,0
Sprite,Foreground,CentreLeft,"SB\text\exo2_a64.png",0,0 C,0,63012,,41,67,28 S,0,63012,,0.1 M,0,63012,75012,-23.4,435 F,0,63293,63793,0,0.75 F,0,75012,75199,0.75,0
Sprite,Foreground,CentreLeft,"SB\text\exo2_a3a.png",0,0 C,0,63012,,41,67,28 S,0,63012,,0.1 M,0,63012,75012,-17.9,435 F,0,63293,63793,0,0.75 F,0,75012,75199,0.75,0
Sprite,Foreground,CentreLeft,"SB\text\exo2_a59.png",0,0 C,0,63012,,41,67,28 S,0,63012,,0.1 M,0,63012,75012,-13.5,435 F,0,63293,63793,0,0.75 F,0,75012,75199,0.75,0
Sprite,Foreground,CentreLeft,"SB\text\exo2_a75.png",0,0 C,0,63012,,41,67,28 S,0,63012,,0.1 M,0,63012,75012,-8,435 F,0,63293,63793,0,0.75 F,0,75012,75199,0.75,0
Sprite,Foreground,CentreLeft,"SB\text\exo2_a6d.png",0,0 C,0,63012,,41,67,28 S,0,63012,,0.1 M,0,63012,75012,-2.5,435 F,0,63293,63793,0,0.75 F,0,75012,75199,0.75,0
Sprite,Foreground,CentreLeft,"SB\text\exo2_a65.png",0,0 C,0,63012,,41,67,28 S,0,63012,,0.1 M,0,63012,75012,5.9,435 F,0,63293,63793,0,0.75 F,0,75012,75199,0.75,0
Sprite,Foreground,CentreLeft,"SB\text\exo2_a6e.png",0,0 C,0,63012,,41,67,28 S,0,63012,,0.1 M,0,63012,75012,11.1,435 F,0,63293,63793,0,0.75 F,0,75012,75199,0.75,0
Sprite,Foreground,CentreLeft,"SB\text\exo2_a6f.png",0,0 C,0,63012,,41,67,28 S,0,63012,,0.1 M,0,63012,75012,16.7,435 F,0,63293,63793,0,0.75 F,0,75012,75199,0.75,0
Sprite,Foreground,CentreLeft,"SB\text\exo2_a48.png",0,0 C,0,63012,,41,67,28 S,0,63012,,0.1 M,0,63012,75012,24.3,435 F,0,63293,63793,0,0.75 F,0,75012,75199,0.75,0
Sprite,Foreground,CentreLeft,"SB\text\exo2_a69.png",0,0 C,0,63012,,41,67,28 S,0,63012,,0.1 M,0,63012,75012,30.7,435 F,0,63293,63793,0,0.75 F,0,75012,75199,0.75,0
Sprite,Foreground,CentreLeft,"SB\text\exo2_a6d.png",0,0 C,0,63012,,41,67,28 S,0,63012,,0.1 M,0,63012,75012,33.1,435 F,0,63293,63793,0,0.75 F,0,75012,75199,0.75,0
Sprite,Foreground,CentreLeft,"SB\text\exo2_a69.png",0,0 C,0,63012,,41,67,28 S,0,63012,,0.1 M,0,63012,75012,41.5,435 F,0,63293,63793,0,0.75 F,0,75012,75199,0.75,0
Sprite,Foreground,CentreLeft,"SB\text\exo2_a6b.png",0,0 C,0,63012,,41,67,28 S,0,63012,,0.1 M,0,63012,75012,43.9,435 F,0,63293,63793,0,0.75 F,0,75012,75199,0.75,0
Sprite,Foreground,CentreLeft,"SB\text\exo2_a6f.png",0,0 C,0,63012,,41,67,28 S,0,63012,,0.1 M,0,63012,75012,48.8,435 F,0,63293,63793,0,0.75 F,0,75012,75199,0.75,0
Sprite,Foreground,CentreLeft,"SB\text\exo2_a2c.png",0,0 C,0,63012,,41,67,28 S,0,63012,,0.1 M,0,63012,75012,54.3,435 F,0,63293,63793,0,0.75 F,0,75012,75199,0.75,0
Sprite,Foreground,CentreLeft,"SB\text\exo2_a79.png",0,0 C,0,63012,,41,67,28 S,0,63012,,0.1 M,0,63012,75012,58.6,435 F,0,63293,63793,0,0.75 F,0,75012,75199,0.75,0
Sprite,Foreground,CentreLeft,"SB\text\exo2_a66.png",0,0 C,0,63012,,41,67,28 S,0,63012,,0.1 M,0,63012,75012,63.7,435 F,0,63293,63793,0,0.75 F,0,75012,75199,0.75,0
Sprite,Foreground,CentreLeft,"SB\text\exo2_a5f.png",0,0 C,0,63012,,41,67,28 S,0,63012,,0.1 M,0,63012,75012,67.3,435 F,0,63293,63793,0,0.75 F,0,75012,75199,0.75,0
Sprite,Foreground,CentreLeft,"SB\text\exo2_a62.png",0,0 C,0,63012,,41,67,28 S,0,63012,,0.1 M,0,63012,75012,71.5,435 F,0,63293,63793,0,0.75 F,0,75012,75199,0.75,0
Sprite,Foreground,CentreLeft,"SB\text\exo2_a6d.png",77,435 C,0,63012,,41,67,28 S,0,63012,,0.1 F,0,63293,63793,0,0.75 F,0,75012,75199,0.75,0
Sprite,Foreground,CentreLeft,"SB\text\exo2_a70.png",0,0 C,0,63012,,41,67,28 S,0,63012,,0.1 M,0,63012,75012,85.4,435 F,0,63293,63793,0,0.75 F,0,75012,75199,0.75,0
Sprite,Foreground,CentreLeft,"SB\text\exo2_a2c.png",91,435 C,0,63012,,41,67,28 S,0,63012,,0.1 F,0,63293,63793,0,0.75 F,0,75012,75199,0.75,0
Sprite,Foreground,CentreLeft,"SB\text\exo2_a43.png",0,0 C,0,63012,,41,67,28 S,0,63012,,0.1 M,0,63012,75012,95.3,435 F,0,63293,63793,0,0.75 F,0,75012,75199,0.75,0
Sprite,Foreground,CentreLeft,"SB\text\exo2_a68.png",0,0 C,0,63012,,41,67,28 S,0,63012,,0.1 M,0,63012,75012,100.8,435 F,0,63293,63793,0,0.75 F,0,75012,75199,0.75,0
Sprite,Foreground,CentreLeft,"SB\text\exo2_a61.png",0,0 C,0,63012,,41,67,28 S,0,63012,,0.1 M,0,63012,75012,106.4,435 F,0,63293,63793,0,0.75 F,0,75012,75199,0.75,0
Sprite,Foreground,CentreLeft,"SB\text\exo2_a6f.png",0,0 C,0,63012,,41,67,28 S,0,63012,,0.1 M,0,63012,75012,111.7,435 F,0,63293,63793,0,0.75 F,0,75012,75199,0.75,0
Sprite,Foreground,CentreLeft,"SB\text\exo2_a73.png",0,0 C,0,63012,,41,67,28 S,0,63012,,0.1 M,0,63012,75012,117.2,435 F,0,63293,63793,0,0.75 F,0,75012,75199,0.75,0
Sprite,Foreground,CentreLeft,"SB\text\exo2_a6c.png",0,0 C,0,63012,,41,67,28 S,0,63012,,0.1 M,0,63012,75012,122.1,435 F,0,63293,63793,0,0.75 F,0,75012,75199,0.75,0
Sprite,Foreground,CentreLeft,"SB\text\exo2_a69.png",125,435 C,0,63012,,41,67,28 S,0,63012,,0.1 F,0,63293,63793,0,0.75 F,0,75012,75199,0.75,0
Sprite,Foreground,CentreLeft,"SB\text\exo2_a74.png",0,0 C,0,63012,,41,67,28 S,0,63012,,0.1 M,0,63012,75012,127.4,435 F,0,63293,63793,0,0.75 F,0,75012,75199,0.75,0
Sprite,Foreground,CentreLeft,"SB\text\exo2_a7a.png",0,0 C,0,63012,,41,67,28 S,0,63012,,0.1 M,0,63012,75012,131.1,435 F,0,63293,63793,0,0.75 F,0,75012,75199,0.75,0
//Storyboard Sound Samples

[TimingPoints]
1512,375,4,2,2,80,1,0
1512,-83.3333333333333,4,2,2,80,0,0
1699,-83.3333333333333,4,2,1,80,0,0
1887,-83.3333333333333,4,2,2,80,0,0
2074,-55.5555555555556,4,2,2,80,0,0
3012,375,4,2,1,80,1,0
3387,-125,4,2,2,80,0,0
3574,-125,4,2,1,80,0,0
3762,-125,4,2,2,80,0,0
3949,-125,4,2,1,80,0,0
4137,-125,4,2,2,80,0,0
4324,-125,4,2,1,80,0,0
4512,-125,4,2,2,80,0,0
4699,-125,4,2,1,80,0,0
4887,-125,4,2,2,80,0,0
5074,-125,4,2,1,80,0,0
5262,-125,4,2,2,80,0,0
5543,-125,4,2,2,5,0,0
5637,-125,4,2,2,80,0,0
5918,-125,4,2,2,5,0,0
6012,-125,4,2,2,80,0,0
6293,-125,4,2,2,5,0,0
6387,-125,4,2,2,80,0,0
6574,-125,4,2,1,80,0,0
6621,-125,4,2,2,80,0,0
6855,-125,4,2,2,5,0,0
6949,-125,4,2,1,80,0,0
7137,-125,4,2,2,80,0,0
7418,-125,4,2,1,80,0,0
7512,-125,4,2,2,80,0,0
7699,-125,4,2,1,80,0,0
7887,-125,4,2,2,80,0,0
8074,-125,4,2,1,80,0,0
8262,-125,4,2,2,80,0,0
8449,-125,4,2,1,80,0,0
8637,-125,4,2,2,80,0,0
8824,-125,4,2,1,80,0,0
9012,-125,4,2,2,80,0,0
9199,-125,4,2,1,80,0,0
9387,-125,4,2,2,80,0,0
9574,-125,4,2,1,80,0,0
9762,-125,4,2,2,80,0,0
9949,-125,4,2,1,80,0,0
10137,-125,4,2,2,80,0,0
10324,-125,4,2,1,80,0,0
10512,-125,4,2,2,80,0,0
10699,-125,4,2,1,80,0,0
10887,-125,4,2,2,80,0,0
11074,-125,4,2,1,80,0,0
11262,-125,4,2,2,80,0,0
11449,-125,4,2,1,80,0,0
11637,-125,4,2,2,80,0,0
11824,-125,4,2,1,80,0,0
12012,-125,4,2,3,80,0,0
12199,-125,4,2,1,80,0,0
12387,-125,4,2,2,80,0,0
12574,-125,4,2,1,80,0,0
12668,-125,4,2,2,80,0,0
12949,-125,4,2,1,80,0,0
13043,-125,4,2,2,80,0,0
13324,-125,4,2,1,80,0,0
13418,-125,4,2,2,80,0,0
13699,-125,4,2,1,80,0,0
13887,-125,4,2,2,80,0,0
14074,-125,4,2,1,80,0,0
14168,-125,4,2,2,80,0,0
14262,-125,4,2,2,80,0,0
14543,-100,4,2,2,80,0,0
14730,-100,4,2,1,80,0,0
14918,-100,4,2,2,80,0,0
15199,-83.3333333333333,4,2,2,80,0,0
20917,-83.3333333333333,4,2,2,80,0,0
21012,-83.3333333333333,4,2,2,85,0,0
24012,-83.3333333333333,4,2,1,75,0,0
25512,-83.3333333333333,4,2,1,80,0,0
26637,-83.3333333333333,4,2,2,60,0,0
27012,-83.3333333333333,4,2,2,75,0,0
27199,-83.3333333333333,4,2,1,75,0,0
27387,-83.3333333333333,4,2,2,75,0,0
27480,-83.3333333333333,4,2,1,75,0,0
28043,-83.3333333333333,4,2,2,75,0,0
28230,-83.3333333333333,4,2,1,75,0,0
28324,-100,4,2,1,75,0,0
28887,-66.6666666666667,4,2,1,65,0,0
29074,-66.6666666666667,4,2,2,65,0,0
29262,-76.9230769230769,4,2,2,85,0,0
30012,-76.9230769230769,4,2,2,75,0,0
30199,-100,4,2,1,75,0,0
30387,-100,4,2,2,75,0,0
30480,-100,4,2,1,75,0,0
30573,-100,4,2,1,75,0,0
30668,-100,4,2,1,75,0,0
30855,-100,4,2,1,75,0,0
30949,-100,4,2,1,75,0,0
31043,-100,4,2,2,75,0,0
31230,-100,4,2,1,75,0,0
31512,-100,4,2,2,85,0,0
31699,-83.3333333333333,4,2,1,85,0,0
31887,-83.3333333333333,4,2,2,85,0,0
31980,-83.3333333333333,4,2,1,85,0,0
32073,-83.3333333333333,4,2,1,85,0,0
32168,-83.3333333333333,4,2,1,85,0,0
32355,-83.3333333333333,4,2,1,85,0,0
32449,-83.3333333333333,4,2,1,85,0,0
32543,-83.3333333333333,4,2,2,85,0,0
32730,-83.3333333333333,4,2,1,85,0,0
33012,-83.3333333333333,4,2,2,90,0,0
33199,-90.9090909090909,4,2,2,90,0,0
33573,-90.9090909090909,4,2,1,90,0,0
33668,-90.9090909090909,4,2,2,90,0,0
33855,-90.9090909090909,4,2,1,90,0,0
33949,-90.9090909090909,4,2,2,90,0,0
34512,-71.4285714285714,4,2,2,90,0,0
36012,-71.4285714285714,4,2,2,70,0,0
37137,-111.111111111111,4,2,2,70,0,0
37792,-111.111111111111,4,2,1,70,0,0
37887,-62.5,4,2,1,95,0,0
38262,-62.5,4,2,1,65,0,0
38355,-62.5,4,2,1,75,0,0
38449,-62.5,4,2,1,85,0,0
38637,-83.3333333333333,4,2,2,95,0,0
39012,-83.3333333333333,4,2,2,92,0,1
40512,-125,4,2,2,92,0,1
40699,-66.6666666666667,4,2,2,92,0,1
41824,-76.9230769230769,4,2,2,92,0,1
43512,-125,4,2,2,92,0,1
43699,-76.9230769230769,4,2,2,92,0,1
44355,-76.9230769230769,4,2,1,92,0,1
44449,-76.9230769230769,4,2,2,92,0,1
46512,-125,4,2,2,92,0,1
46699,-66.6666666666667,4,2,2,92,0,1
47262,-76.9230769230769,4,2,2,92,0,1
47449,-76.9230769230769,4,2,2,92,0,1
48292,-76.9230769230769,4,2,1,92,0,1
48387,-76.9230769230769,4,2,2,92,0,1
48855,-76.9230769230769,4,2,1,92,0,1
48949,-76.9230769230769,4,2,2,92,0,1
49699,-86.9565217391304,4,2,2,92,0,1
49792,-86.9565217391304,4,2,1,92,0,1
49887,-86.9565217391304,4,2,2,92,0,1
50355,-86.9565217391304,4,2,1,92,0,1
50449,-86.9565217391304,4,2,2,92,0,1
50918,-86.9565217391304,4,2,2,92,0,0
51012,-86.9565217391304,4,2,2,92,0,1
52512,-125,4,2,2,92,0,1
52699,-66.6666666666667,4,2,2,92,0,1
53824,-76.9230769230769,4,2,2,92,0,1
55512,-125,4,2,2,92,0,1
55699,-76.9230769230769,4,2,2,92,0,1
56355,-76.9230769230769,4,2,1,92,0,1
56449,-76.9230769230769,4,2,2,92,0,1
57012,-76.9230769230769,4,2,2,80,0,1
57762,-76.9230769230769,4,2,2,80,0,1
58417,-76.9230769230769,4,2,1,80,0,1
58512,-90.9090909090909,4,2,2,80,0,1
59917,-90.9090909090909,4,2,1,80,0,1
60012,-90.9090909090909,4,2,2,80,0,1
60762,-90.9090909090909,4,2,2,75,0,1
61512,-90.9090909090909,4,2,2,70,0,1
62262,-90.9090909090909,4,2,2,60,0,1
63012,-90.9090909090909,4,2,2,80,0,0
75012,-90.9090909090909,4,2,1,75,0,0
75574,-125,4,2,2,75,0,0
76324,-125,4,2,1,75,0,0
76512,-125,4,2,1,75,0,0
77074,-125,4,2,2,75,0,0
77824,-125,4,2,1,75,0,0
78012,-95.2380952380952,4,2,1,75,0,0
78105,-95.2380952380952,4,2,2,75,0,0
79137,-95.2380952380952,4,2,1,75,0,0
79324,-86.9565217391304,4,2,2,75,0,0
80824,-86.9565217391304,4,2,1,75,0,0
81574,-111.111111111111,4,2,2,75,0,0
82324,-111.111111111111,4,2,1,75,0,0
82512,-111.111111111111,4,2,1,75,0,0
83074,-111.111111111111,4,2,2,75,0,0
83824,-111.111111111111,4,2,1,75,0,0
84012,-166.666666666667,4,2,2,75,0,0
85324,-100,4,2,2,75,0,0
86167,-100,4,2,1,70,0,0
86262,-100,4,2,2,40,0,0
86355,-100,4,2,2,50,0,0
86449,-100,4,2,2,25,0,0
86637,-100,4,2,2,80,0,0
87012,-100,4,2,1,95,0,1
87574,-66.6666666666667,4,2,1,95,0,1
88042,-66.6666666666667,4,2,2,95,0,1
88137,-33.2240563078253,4,2,2,95,0,1
88418,-33.2240563078253,4,2,1,95,0,1
89074,-66.6666666666667,4,2,1,95,0,1
89542,-66.6666666666667,4,2,2,95,0,1
89730,-66.6666666666667,4,2,1,95,0,1
89824,-66.6666666666667,4,2,2,95,0,1
89917,-66.6666666666667,4,2,1,95,0,1
90012,-66.6666666666667,4,2,2,95,0,1
90574,-125,4,2,2,95,0,1
90762,-66.6666666666667,4,2,1,95,0,1
91137,-66.6666666666667,4,2,2,95,0,1
92637,-52.6315789473684,4,2,2,95,0,1
92918,-52.6315789473684,4,2,1,95,0,1
93012,-52.6315789473684,4,2,1,95,0,1
93574,-66.6666666666667,4,2,1,95,0,1
94042,-66.6666666666667,4,2,2,95,0,1
94137,-32.9549902448058,4,2,2,95,0,1
95074,-66.6666666666667,4,2,2,95,0,1
95730,-66.6666666666667,4,2,1,95,0,1
95824,-66.6666666666667,4,2,2,95,0,1
95917,-66.6666666666667,4,2,1,95,0,1
96012,-66.6666666666667,4,2,2,95,0,1
96762,-66.6666666666667,4,2,1,95,0,1
97137,-66.6666666666667,4,2,2,95,0,1
97512,-66.6666666666667,4,2,2,80,0,1
98262,-125,4,2,1,90,0,1
98637,-125,4,2,2,80,0,1
98730,-125,4,2,1,80,0,1
98918,-125,4,2,1,80,0,0
99012,-66.6666666666667,4,2,1,95,0,1
99574,-55.5555555555556,4,2,1,95,0,1
100042,-55.5555555555556,4,2,2,95,0,1
100137,-41.7879667852586,4,2,2,95,0,1
100512,-66.6666666666667,4,2,2,95,0,1
101074,-55.5555555555556,4,2,2,95,0,1
101918,-55.5555555555556,4,2,1,95,0,1
102012,-55.5555555555556,4,2,2,95,0,1
102574,-45.4545454545455,4,2,2,95,0,1
102762,-45.4545454545455,4,2,1,95,0,1
102949,-55.5555555555556,4,2,1,95,0,1
103137,-55.5555555555556,4,2,2,95,0,1
103512,-76.9230769230769,4,2,2,95,0,1
104074,-66.6666666666667,4,2,2,95,0,1
104355,-66.6666666666667,4,2,1,95,0,1
104637,-66.6666666666667,4,2,2,95,0,1
104824,-55.5555555555556,4,2,2,95,0,1
104870,-55.5555555555556,4,2,1,95,0,1
104917,-55.5555555555556,4,2,2,95,0,1
105199,-66.6666666666667,4,2,1,95,0,1
105574,-55.5555555555556,4,2,1,95,0,1
106042,-55.5555555555556,4,2,2,95,0,1
106137,-41.3267809123673,4,2,2,95,0,1
106512,-66.6666666666667,4,2,2,95,0,1
107074,-55.5555555555556,4,2,2,95,0,1
108855,-55.5555555555556,4,2,1,95,0,1
109137,-125,4,2,2,95,0,1
109324,-66.6666666666667,4,2,2,95,0,1
109512,-66.6666666666667,4,2,2,80,0,1
110262,-125,4,2,1,90,0,1
110637,-125,4,2,2,80,0,1
110730,-125,4,2,1,80,0,1
111012,-83.3333333333333,4,2,2,85,0,0
111855,-83.3333333333333,4,2,1,85,0,0
111949,-66.6666666666667,4,2,2,85,0,0
112137,-66.6666666666667,4,2,1,85,0,0
112512,-66.6666666666667,4,2,3,85,0,0
112699,-66.6666666666667,4,2,2,85,0,0
112793,-66.6666666666667,4,2,1,85,0,0
113262,-83.3333333333333,4,2,2,85,0,0
113637,-83.3333333333333,4,2,1,85,0,0
114012,-83.3333333333333,4,2,2,85,0,0
115137,-83.3333333333333,4,2,1,85,0,0
115512,-83.3333333333333,4,2,2,85,0,0
116355,-83.3333333333333,4,2,1,85,0,0
116449,-83.3333333333333,4,2,2,85,0,0
116917,-83.3333333333333,4,2,1,85,0,0
117012,-83.3333333333333,4,2,2,85,0,0
117855,-83.3333333333333,4,2,1,85,0,0
117949,-83.3333333333333,4,2,2,85,0,0
118137,-83.3333333333333,4,2,1,85,0,0
118512,-83.3333333333333,4,2,3,85,0,0
118699,-83.3333333333333,4,2,2,85,0,0
118793,-83.3333333333333,4,2,1,85,0,0
119262,-83.3333333333333,4,2,2,85,0,0
119637,-83.3333333333333,4,2,1,85,0,0
120012,-83.3333333333333,4,2,2,80,0,0
120949,-83.3333333333333,4,2,1,80,0,0
121137,-83.3333333333333,4,2,2,80,0,0
121324,-83.3333333333333,4,2,1,80,0,0
121512,-83.3333333333333,4,2,2,80,0,0
122355,-83.3333333333333,4,2,1,80,0,0
122637,-83.3333333333333,4,2,1,75,0,0
122824,-83.3333333333333,4,2,1,55,0,0
122918,-500,4,2,1,55,0,0
123011,-500,4,2,1,5,0,0

[Colours]
Combo1 : 240,51,153
Combo2 : 104,67,206
Combo3 : 238,170,1
Combo4 : 166,203,2

[HitObjects]
237,83,1512,6,0,L|218:134,1,54,0|0,3:1|2:0,2:0:0:0:
171,261,1699,2,0,L|224:252,1,54,0|0,1:0|2:0,2:0:0:0:
357,229,1887,2,0,L|323:188,1,54,0|0,3:0|2:0,2:0:0:0:
231,65,2074,6,2,B|156:271|156:271|373:233|373:233|231:65,1,647.999999999999,8|8,1:3|3:0,2:0:0:0:
4,46,3012,5,4,3:0:0:0:
115,100,3199,1,2,2:0:0:0:
37,120,3387,2,2,P|47:158|53:198,1,72,8|2,1:2|2:0,2:0:0:0:
221,324,3762,5,8,1:3:0:0:
83,357,3949,1,2,2:0:0:0:
143,304,4137,2,2,P|153:265|159:225,1,72,8|2,1:2|2:0,2:0:0:0:
0,254,4512,2,0,P|39:264|79:270,1,72,8|2,1:3|2:0,2:0:0:0:
197,145,4887,2,2,P|161:150|126:160,1,72,8|2,1:2|2:0,2:0:0:0:
307,337,5262,6,0,L|421:303,1,108,8|0,1:3|2:0,2:0:0:0:
352,207,5637,6,2,L|324:324,1,108,8|0,1:2|2:0,2:0:0:0:
442,312,6012,6,0,L|354:229,1,108,8|0,1:3|2:0,2:0:0:0:
280,177,6387,1,8,1:2:0:0:
280,177,6574,2,0,L|252:294,1,108,2|0,2:0|2:0,2:0:0:0:
244,384,6949,1,2,2:0:0:0:
244,384,7137,2,2,L|359:349,1,108,8|0,1:2|2:0,2:0:0:0:
442,312,7512,6,0,P|450:277|460:242,1,72,8|2,1:3|2:0,2:0:0:0:
347,111,7887,2,2,P|356:145|365:180,1,72,8|2,1:2|2:0,2:0:0:0:
458,319,8262,2,0,P|466:284|476:249,1,72,8|2,1:3|2:0,2:0:0:0:
413,56,8637,5,8,1:2:0:0:
267,82,8824,5,2,2:0:0:0:
362,195,9012,6,0,P|371:161|380:126,1,72,8|2,1:3|2:0,2:0:0:0:
248,12,9387,2,2,P|258:47|267:82,1,72,8|2,1:2|2:0,2:0:0:0:
258,256,9762,1,8,1:3:0:0:
113,232,9949,1,2,2:0:0:0:
191,214,10137,2,2,P|200:180|209:145,1,72,8|2,1:2|2:0,2:0:0:0:
18,33,10512,6,0,P|14:67|34:97,1,72,8|2,1:3|2:0,2:0:0:0:
113,232,10887,2,2,P|117:266|97:296,1,72,8|2,1:2|2:0,2:0:0:0:
37,179,11262,2,0,P|70:166|103:151,1,72,8|2,1:3|2:0,2:0:0:0:
164,371,11637,5,8,1:2:0:0:
18,345,11824,5,2,2:0:0:0:
113,232,12012,6,0,P|146:219|179:204,1,72,10|2,2:0|2:0,2:0:0:0:
298,348,12387,2,0,P|265:335|232:320,1,72,8|2,1:2|2:0,2:0:0:0:
229,314,12668,1,0,2:0:0:0:
225,307,12762,1,8,1:3:0:0:
272,205,12949,1,2,2:0:0:0:
276,198,13043,1,0,2:0:0:0:
279,191,13137,1,8,1:2:0:0:
232,89,13324,1,2,2:0:0:0:
228,82,13418,1,0,2:0:0:0:
225,75,13512,5,8,1:3:0:0:
272,0,13699,1,2,2:0:0:0:
344,137,13887,2,0,P|353:102|364:68,1,72,8|2,1:2|2:0,2:0:0:0:
371,65,14168,1,0,2:0:0:0:
377,62,14262,1,8,1:3:0:0:
472,112,14449,5,8,1:3:0:0:
508,137,14543,2,0,P|509:159|512:181,1,45,8|8,3:0|2:0,2:0:0:0:
395,208,14730,2,0,P|413:195|431:182,1,45,4|0,3:0|1:0,2:0:0:0:
512,271,14918,2,0,P|491:261|471:252,1,45,8|8,3:0|1:3,2:0:0:0:
186,156,15199,6,0,L|79:173,1,108,2|8,2:3|1:2,2:0:0:0:
322,149,15574,2,0,L|360:48,1,108,2|8,2:3|1:3,2:0:0:0:
259,270,15949,2,0,L|328:354,1,108,2|8,2:3|1:2,2:0:0:0:
256,192,16324,5,0,2:0:0:0:
256,192,16512,1,8,1:3:0:0:
151,335,16699,6,0,L|189:234,1,108,2|8,2:3|1:2,2:0:0:0:
183,29,17074,2,0,L|252:113,1,108,2|8,2:3|1:3,2:0:0:0:
432,210,17449,2,0,L|326:227,1,108,2|8,2:3|1:2,2:0:0:0:
256,192,17824,5,0,2:0:0:0:
256,192,18012,1,8,1:3:0:0:
320,304,18199,6,0,B|321:274|295:260|295:260|268:246|269:216,1,108,2|8,2:3|1:2,2:0:0:0:
256,192,18480,1,0,2:0:0:0:
270,167,18574,2,0,B|296:153|295:123|295:123|294:94|321:80,1,108,2|8,2:3|1:3,2:0:0:0:
126,191,18949,6,0,B|151:207|177:191|177:191|202:175|227:191,1,108,2|8,2:3|1:2,2:0:0:0:
256,192,19230,1,0,2:0:0:0:
269,216,19324,2,0,B|268:246|295:260|295:260|321:274|320:304,1,108,0|8,2:0|1:3,2:0:0:0:
191,79,19699,6,0,B|190:109|217:124|217:124|244:137|243:168,1,108,2|8,2:3|1:2,2:0:0:0:
256,192,19980,1,0,2:0:0:0:
242,217,20074,2,0,B|216:231|217:261|217:261|218:290|191:304,1,108,2|8,2:3|1:3,2:0:0:0:
386,193,20449,6,0,B|361:176|335:193|335:193|310:209|285:193,1,108,2|8,2:3|1:2,2:0:0:0:
256,192,20730,1,0,2:0:0:0:
242,168,20824,2,0,P|236:142|217:124,1,54,0|0,2:3|2:0,2:0:0:0:
47,45,21012,6,0,L|72:204,1,162,8|0,3:0|2:0,2:0:0:0:
37,275,21387,2,0,L|162:172,1,162,8|0,3:2|2:0,2:0:0:0:
242,168,21762,2,0,L|90:110,1,162,8|0,3:0|2:0,2:0:0:0:
210,67,22137,5,8,3:2:0:0:
302,49,22324,1,0,2:0:0:0:
465,123,22512,6,0,L|440:282,1,162,8|0,3:0|2:0,2:0:0:0:
475,353,22887,2,0,L|350:250,1,162,8|0,3:2|2:0,2:0:0:0:
270,246,23262,2,0,L|422:188,1,162,8|0,3:0|2:0,2:0:0:0:
302,353,23637,5,8,3:2:0:0:
210,335,23824,1,0,2:0:0:0:
54,382,24012,6,0,P|46:356|36:331,1,54,12|0,1:3|1:0,1:0:0:0:
75,253,24199,1,0,1:0:0:0:
113,233,24293,1,0,1:0:0:0:
151,213,24387,2,0,P|143:187|133:162,1,54,0|0,1:0|1:0,1:0:0:0:
122,334,24574,2,0,P|132:359|139:384,1,54,0|0,3:0|3:0,1:0:0:0:
458,382,24762,6,0,P|466:356|476:331,1,54,12|0,1:3|1:0,1:0:0:0:
437,253,24949,1,0,1:0:0:0:
399,233,25043,1,0,1:0:0:0:
361,213,25137,2,0,P|369:187|379:162,1,54,0|0,1:0|1:0,1:0:0:0:
390,334,25324,2,0,P|379:359|372:384,1,54,0|0,3:0|1:0,1:0:0:0:
210,335,25512,6,0,P|202:309|191:284,1,54,0|0,1:0|2:0,1:0:0:0:
302,335,25699,2,0,P|309:309|320:284,1,54,8|0,1:3|2:0,1:0:0:0:
131,220,25887,6,0,P|156:212|181:201,1,54,0|0,1:0|2:0,1:0:0:0:
381,219,26074,2,0,P|355:212|330:201,1,54,8|0,1:2|2:0,1:0:0:0:
256,2,26262,1,0,1:0:0:0:
256,192,26449,1,4,1:3:0:0:
256,192,26637,6,0,L|243:144,6,27,0|0|0|0|0|0|0,2:0|2:0|2:0|2:0|2:0|2:0|2:0,2:0:0:0:
276,270,27012,5,10,2:3:0:0:
177,171,27199,1,2,3:2:0:0:
313,134,27387,1,0,1:2:0:0:
313,134,27480,1,2,3:2:0:0:
198,249,27668,5,0,3:0:0:0:
198,249,27762,1,2,3:2:0:0:
235,113,27949,1,0,3:0:0:0:
235,113,28043,1,0,1:2:0:0:
334,212,28230,1,0,3:0:0:0:
334,212,28324,2,0,L|390:227,1,45,2|0,3:2|3:0,3:0:0:0:
403,301,28512,6,0,L|413:340,3,22.5,0|0|0|0,3:0|3:0|3:0|3:0,3:0:0:0:
390,40,28887,6,0,L|381:7,2,33.75,4|0|0,3:0|2:0|2:0,2:0:0:0:
426,155,29074,5,0,3:0:0:0:
426,155,29168,1,0,3:0:0:0:
426,155,29262,2,0,B|508:132|508:132|500:99,1,117,2|0,1:0|2:0,2:0:0:0:
300,18,29543,1,2,2:1:0:0:
300,18,29637,2,0,L|315:74,1,58.5,0|0,1:0|2:0,2:0:0:0:
320,238,29824,2,0,L|377:223,1,58.5,2|0,1:0|2:0,2:0:0:0:
168,170,30012,5,10,2:3:0:0:
164,286,30199,2,0,P|176:266|179:244,1,45,2|0,3:2|3:0,3:0:0:0:
238,75,30387,1,8,3:2:0:0:
238,75,30480,2,0,P|216:82|200:99,1,45,2|0,3:2|2:0,3:0:0:0:
53,202,30668,1,0,3:0:0:0:
53,202,30762,2,0,P|74:208|96:204,1,45,2|0,3:2|2:0,3:0:0:0:
278,207,30949,1,0,3:0:0:0:
278,207,31043,2,0,P|264:189|243:179,1,45,8|8,2:0|3:0,3:0:0:0:
99,72,31230,1,2,3:2:0:0:
99,72,31324,2,0,P|100:94|110:114,1,45,6|0,3:0|3:0,3:0:0:0:
168,170,31512,5,8,2:3:0:0:
164,286,31699,2,0,P|150:308|148:334,1,54,2|0,2:0|2:0,2:0:0:0:
238,75,31887,1,8,3:2:0:0:
238,75,31980,2,0,P|262:64|279:44,1,54,2|0,2:0|2:0,2:0:0:0:
53,202,32168,1,0,3:0:0:0:
53,202,32262,2,0,P|27:196|0:202,1,54,2|0,2:0|2:0,2:0:0:0:
278,207,32449,1,0,3:0:0:0:
278,207,32543,2,0,P|294:227|319:237,1,54,8|8,2:0|3:0,2:0:0:0:
99,72,32730,1,2,3:2:0:0:
99,72,32824,2,0,P|96:45|82:23,1,54,6|0,3:0|2:0,2:0:0:0:
168,170,33012,5,10,2:3:0:0:
7,52,33199,2,0,P|10:79|24:101,1,49.5,0|0,3:0|2:0,2:0:0:0:
214,52,33387,1,2,3:0:0:0:
214,52,33480,2,0,P|192:68|180:91,1,49.5,0|0,3:0|2:0,2:0:0:0:
317,231,33668,1,0,3:0:0:0:
317,231,33762,2,0,P|292:220|266:221,1,49.5,2|0,3:0|2:0,2:0:0:0:
99,72,33949,1,0,2:0:0:0:
99,72,34043,2,0,P|96:45|82:23,1,49.5,0|2,3:0|2:3,2:0:0:0:
243,142,34230,1,0,3:0:0:0:
243,142,34324,2,0,P|264:125|276:102,1,49.5,0|0,3:0|2:0,2:0:0:0:
254,301,34512,6,0,L|261:364,1,63,10|0,3:0|2:0,2:0:0:0:
398,284,34699,2,0,B|405:271|405:271|393:175|393:175|383:165,1,126,4|2,3:0|3:0,2:0:0:0:
356,94,34980,5,0,1:0:0:0:
405,88,35074,1,0,1:0:0:0:
455,82,35168,1,0,1:0:0:0:
504,75,35262,2,0,L|369:60,1,126,2|0,3:0|1:0,2:0:0:0:
274,0,35543,1,0,1:0:0:0:
265,4,35637,5,2,3:0:0:0:
271,53,35730,1,0,2:0:0:0:
277,103,35824,1,0,3:0:0:0:
284,152,35918,1,0,2:0:0:0:
291,201,36012,5,0,2:0:0:0:
373,150,36199,1,0,2:0:0:0:
374,247,36387,1,8,2:0:0:0:
182,288,36574,5,0,2:0:0:0:
112,244,36762,1,0,2:0:0:0:
111,327,36949,1,0,2:0:0:0:
312,367,37137,6,0,B|361:332|361:332|396:381,1,121.5,8|0,2:0|2:0,2:0:0:0:
232,352,37512,1,2,2:3:0:0:
454,319,37699,2,0,L|460:279,1,40.5,8|0,2:3|2:0,2:0:0:0:
450,40,37887,2,0,L|437:110,1,72,0|0,1:0|2:0,2:0:0:0:
396,381,38074,1,0,1:0:0:0:
512,211,38262,5,0,1:0:0:0:
458,201,38355,1,0,1:0:0:0:
404,191,38449,1,0,1:0:0:0:
350,181,38543,1,0,1:0:0:0:
296,171,38637,2,0,L|304:227,1,54,0|0,1:0|1:0,1:0:0:0:
486,239,38824,2,2,L|477:183,1,54,0|0,2:0|2:0,2:0:0:0:
450,40,39012,5,8,1:3:0:0:
486,239,39199,1,0,3:0:0:0:
296,171,39387,1,8,2:1:0:0:
296,171,39480,1,0,3:0:0:0:
372,59,39668,5,0,2:0:0:0:
380,110,39762,1,0,3:0:0:0:
408,258,39949,1,0,1:0:0:0:
358,240,40043,1,0,3:0:0:0:
218,190,40230,1,0,1:0:0:0:
257,155,40324,1,0,3:0:0:0:
154,290,40512,6,0,P|145:306|142:323,1,36,8|0,1:3|2:0,2:0:0:0:
196,384,40699,6,2,P|244:340|234:276,1,135,0|8,3:2|2:1,2:0:0:0:
98,228,40980,2,2,P|49:271|59:335,1,135,0|0,3:0|2:3,2:0:0:0:
138,154,41262,5,0,3:0:0:0:
11,31,41449,1,0,1:0:0:0:
64,22,41543,2,0,B|55:86|55:86|59:103|59:103|52:156,1,135,0|0,3:0|1:0,2:0:0:0:
137,64,41824,2,0,B|144:6,1,58.5,0|0,3:0|2:0,2:0:0:0:
233,20,42012,5,8,1:3:0:0:
269,219,42199,1,0,3:0:0:0:
423,88,42387,1,8,2:1:0:0:
423,88,42480,1,0,3:0:0:0:
311,1,42668,5,0,2:0:0:0:
319,52,42762,1,0,3:0:0:0:
347,200,42949,1,0,1:0:0:0:
386,165,43043,1,0,3:0:0:0:
501,69,43230,1,0,1:0:0:0:
451,51,43324,1,0,3:0:0:0:
168,118,43512,6,0,P|186:124|203:127,1,36,8|0,1:3|2:0,2:0:0:0:
286,134,43699,6,0,P|228:141|179:171,1,117,0|8,3:0|2:1,2:0:0:0:
109,347,43980,2,0,P|51:339|2:309,1,117,0|0,3:0|2:0,2:0:0:0:
52,248,44262,6,0,P|74:266|102:271,1,58.5,0|0,3:0|2:0,2:0:0:0:
229,233,44449,1,0,1:0:0:0:
229,233,44543,2,0,P|251:214|279:209,1,58.5,0|8,3:0|2:1,2:0:0:0:
403,274,44730,1,0,1:0:0:0:
403,274,44824,2,0,P|425:292|453:297,1,58.5,0|0,3:0|2:0,2:0:0:0:
361,193,45012,5,8,1:3:0:0:
206,323,45199,1,0,3:0:0:0:
170,125,45387,1,8,2:1:0:0:
170,125,45480,1,0,3:0:0:0:
305,134,45668,5,0,2:0:0:0:
266,169,45762,1,0,3:0:0:0:
151,265,45949,1,0,1:0:0:0:
142,212,46043,1,0,3:0:0:0:
115,67,46230,1,0,1:0:0:0:
164,84,46324,1,0,3:0:0:0:
67,251,46512,6,0,L|60:215,1,36,8|0,1:3|2:0,2:0:0:0:
162,169,46699,6,2,L|139:302,1,135,0|8,3:0|2:1,2:0:0:0:
30,283,46980,2,0,L|53:150,1,135,0|0,3:0|2:0,2:0:0:0:
146,92,47262,6,2,L|157:149,2,58.5,0|0|0,3:0|2:0|1:3,2:0:0:0:
12,75,47543,2,0,B|27:67|27:67|67:76,1,58.5,0|8,3:0|2:1,2:0:0:0:
277,63,47730,1,0,1:0:0:0:
277,63,47824,2,0,B|262:71|262:71|222:62,1,58.5,0|0,3:0|2:0,2:0:0:0:
127,12,48012,5,8,1:3:0:0:
172,233,48199,2,0,L|161:290,1,58.5,0|0,3:0|2:0,2:0:0:0:
334,254,48387,1,8,2:1:0:0:
291,272,48480,2,0,L|348:283,1,58.5,0|0,3:0|2:0,2:0:0:0:
322,123,48668,5,0,2:0:0:0:
336,157,48762,2,0,L|347:100,1,58.5,0|0,3:0|2:0,2:0:0:0:
196,123,48949,1,0,1:0:0:0:
221,112,49043,2,0,L|164:101,1,58.5,0|8,3:0|2:1,2:0:0:0:
256,192,49230,1,0,1:0:0:0:
256,192,49324,1,0,3:0:0:0:
203,26,49512,5,8,1:3:0:0:
85,154,49699,2,0,P|92:180|95:205,1,51.75,0|0,3:0|2:0,2:0:0:0:
144,317,49887,1,8,2:1:0:0:
151,341,49980,2,0,P|157:315|160:290,1,51.75,0|0,3:0|2:0,2:0:0:0:
44,267,50168,5,0,2:0:0:0:
24,274,50262,2,0,P|49:280|74:283,1,51.75,0|0,3:0|2:0,2:0:0:0:
195,214,50449,1,0,1:0:0:0:
180,208,50543,2,0,P|205:201|230:198,1,51.75,0|8,3:0|2:1,2:0:0:0:
336,246,50730,1,0,1:0:0:0:
336,246,50824,1,0,3:0:0:0:
410,301,51012,5,8,1:3:0:0:
453,102,51199,1,0,3:0:0:0:
261,165,51387,1,8,2:1:0:0:
261,165,51480,1,0,3:0:0:0:
469,238,51668,5,0,2:0:0:0:
478,185,51762,1,0,3:0:0:0:
512,39,51949,1,0,1:0:0:0:
461,56,52043,1,0,3:0:0:0:
320,102,52230,1,0,1:0:0:0:
359,136,52324,1,0,3:0:0:0:
373,34,52512,6,0,P|372:16|365:0,1,36,8|0,1:3|2:0,2:0:0:0:
247,64,52699,6,2,B|237:72|237:72|128:62|128:62|119:52,1,135,0|8,3:0|2:1,2:0:0:0:
108,153,52980,2,2,B|117:144|117:144|226:154|226:154|235:164,1,135,0|0,3:0|2:3,2:0:0:0:
45,97,53262,1,0,3:0:0:0:
73,285,53449,1,0,1:0:0:0:
37,244,53543,2,0,L|171:232,1,135,0|0,3:0|1:0,2:0:0:0:
58,324,53824,2,0,L|0:329,1,58.5,0|0,3:0|2:0,2:0:0:0:
144,357,54012,5,8,1:3:0:0:
206,163,54199,1,0,3:0:0:0:
341,313,54387,1,8,2:1:0:0:
341,313,54480,1,0,3:0:0:0:
124,272,54668,5,0,2:0:0:0:
141,222,54762,1,0,3:0:0:0:
186,80,54949,1,0,1:0:0:0:
221,118,55043,1,0,3:0:0:0:
321,229,55230,1,0,1:0:0:0:
269,238,55324,1,0,3:0:0:0:
235,4,55512,6,0,L|274:47,1,36,8|0,1:3|2:0,2:0:0:0:
305,146,55699,6,0,L|340:34,1,117,0|8,3:0|2:1,2:0:0:0:
512,96,55980,2,0,L|434:10,1,117,0|0,3:0|2:0,2:0:0:0:
384,173,56262,2,0,L|401:117,1,58.5,0|0,3:0|2:0,2:0:0:0:
492,291,56449,1,0,1:0:0:0:
492,291,56543,2,0,L|452:247,1,58.5,0|8,3:0|2:1,2:0:0:0:
295,280,56730,1,0,1:0:0:0:
295,280,56824,2,0,L|352:267,1,58.5,0|0,3:0|2:0,2:0:0:0:
161,350,57012,6,0,B|217:363|217:363|199:306,1,117,0|0,1:0|2:0,2:0:0:0:
56,273,57387,1,8,2:1:0:0:
56,273,57480,2,2,B|16:315|16:315|73:328,1,117,0|0,2:0|2:0,2:0:0:0:
172,222,57762,2,0,B|154:166|154:166|115:208,1,117,0|0,1:0|2:0,2:0:0:0:
161,350,58137,1,8,2:1:0:0:
161,350,58230,2,0,B|217:363|217:363|199:306,1,117,0|2,2:0|2:3,2:0:0:0:
340,189,58512,6,0,B|354:142|354:142|387:178,1,99,0|0,1:0|2:0,2:0:0:0:
350,298,58887,1,8,2:1:0:0:
350,298,58980,2,2,B|302:309|302:309|316:263,1,99,0|0,2:0|2:0,2:0:0:0:
440,234,59262,6,0,B|472:270|472:270|425:281,1,99,0|0,1:0|2:0,2:0:0:0:
340,189,59637,1,8,2:1:0:0:
340,189,59730,2,0,B|354:142|354:142|387:178,1,99,0|2,2:0|2:3,2:0:0:0:
244,217,60012,5,8,1:3:0:0:
238,211,60199,1,0,2:0:0:0:
180,5,60387,1,8,1:2:0:0:
178,12,60574,1,0,2:0:0:0:
28,167,60762,1,8,1:3:0:0:
36,163,60949,1,0,2:0:0:0:
236,185,61137,5,8,1:2:0:0:
230,181,61324,1,0,2:0:0:0:
156,27,61512,1,8,1:3:0:0:
155,34,61699,1,0,2:0:0:0:
59,175,61887,1,8,1:2:0:0:
65,172,62074,1,0,2:0:0:0:
221,159,62262,5,8,2:3:0:0:
216,157,62449,1,0,2:0:0:0:
141,52,62637,1,8,3:2:0:0:
142,58,62824,1,0,3:2:0:0:
89,175,63012,1,0,2:0:0:0:
148,139,75012,5,2,2:3:0:0:
143,152,75199,1,2,2:1:0:0:
139,166,75387,1,2,2:3:0:0:
191,244,75574,6,2,B|333:219|333:219|240:109,1,288,2|0,2:0|2:0,2:0:0:0:
264,312,76512,5,2,2:3:0:0:
277,309,76699,1,2,2:1:0:0:
291,306,76887,1,2,2:3:0:0:
333,219,77074,6,2,B|240:109|240:109|190:248,1,288,2|0,2:0|2:0,2:0:0:0:
361,228,78012,6,0,B|237:81|237:81|171:262|171:262|361:228,1,567,2|2,3:2|3:2,2:0:0:0:
132,85,79324,6,2,B|407:133|407:133|227:348|227:348|132:85,1,828,2|2,2:0|2:0,2:0:0:0:
262,209,81012,5,2,2:3:0:0:
273,239,81199,1,2,2:1:0:0:
285,270,81387,1,2,2:3:0:0:
228,348,81574,6,2,B|117:43,1,324,2|0,2:0|2:0,2:0:0:0:
221,142,82512,5,2,2:3:0:0:
189,137,82699,1,2,2:1:0:0:
157,132,82887,1,2,2:3:0:0:
117,43,83074,6,2,B|435:100,1,324,2|2,2:0|2:0,2:0:0:0:
228,348,84012,6,2,B|436:100,1,323.999999999999,2|0,2:0|2:0,2:0:0:0:
327,351,85324,6,2,B|453:199|453:199|520:385|520:385|327:351,1,585,2|0,2:1|2:0,2:0:0:0:
202,384,86637,1,8,1:0:0:0:
202,384,86824,1,8,2:1:0:0:
58,147,87012,5,4,1:0:0:0:
189,302,87199,1,2,2:1:0:0:
256,111,87387,1,8,2:0:0:0:
102,297,87574,6,0,B|160:138|160:138|268:267,1,337.5,2|0,2:0|2:0,2:0:0:0:
93,300,88137,6,2,B|97:290|97:290|96:286|96:286|101:282|101:282|104:272|104:272|103:266|103:266|107:262|107:262|111:254|111:254|110:248|110:248|114:244|114:244|118:234|118:234|117:229|117:229|121:225|121:225|125:216|125:216|124:210|124:210|128:206|128:206|132:197|132:197|130:191|130:191|135:187|135:187|138:179|138:179|137:172|137:172|142:168|142:168|145:159|145:159|144:153|144:153|148:149|148:149|152:140|152:140|151:135|151:135|155:131|155:131|157:125|157:125|160:129|160:129|166:131|166:131|167:137|167:137|173:144|173:144|178:146|178:146|179:152|179:152|186:159|186:159|191:161|191:161|192:167|192:167|199:175|199:175|204:176|204:176|205:182|205:182|212:190|212:190|217:192|217:192|218:198|218:198|224:205|224:205|230:207|230:207|231:213|231:213|237:220|237:220|243:222|243:222|244:228|244:228|250:236|250:236|256:238|256:238|256:243|256:243|263:251|263:251|268:253|268:253|269:259|269:259|280:271,1,406.332082841442,8|0,3:1|2:0,2:3:0:0:
369,234,88512,5,4,1:3:0:0:
500,79,88699,1,2,2:1:0:0:
302,43,88887,1,8,2:0:0:0:
456,229,89074,6,0,B|398:70|398:70|290:199,1,337.5,2|0,2:0|2:0,2:0:0:0:
369,234,89637,2,0,B|345:170,1,67.5,8|0,2:1|2:0,2:0:0:0:
302,43,89824,2,0,B|258:94,1,67.5,0|0,2:0|2:0,2:0:0:0:
171,197,90012,5,8,3:0:0:0:
197,191,90199,2,0,B|173:127,1,67.5,8|0,2:1|2:0,2:0:0:0:
130,0,90387,2,0,B|86:51,1,67.5,8|0,2:1|2:0,2:0:0:0:
0,154,90574,6,2,L|34:145,1,36,0|0,2:3|2:3,2:0:0:0:
14,22,90762,6,0,B|41:46|41:46|74:208,1,202.5,4|0,1:0|2:3,1:0:0:0:
0,334,91137,2,0,B|50:289,1,67.5,8|0,2:1|2:0,2:0:0:0:
195,290,91324,2,0,B|130:268,1,67.5,8|0,2:1|2:0,2:0:0:0:
12,338,91512,5,8,2:3:0:0:
188,299,91699,1,2,2:0:0:0:
109,363,91887,1,8,2:1:0:0:
91,274,92074,1,2,2:3:0:0:
364,332,92262,6,0,B|347:317|347:317|502:296|502:296|488:315,1,202.5,2|0,2:3|2:0,2:0:0:0:
433,382,92637,6,0,B|427:356|427:356|451:279|451:279|432:215|432:215|397:195|397:195|401:211|401:211|423:223,1,256.5,8|0,2:1|2:0,2:0:0:0:
511,204,93012,5,4,1:0:0:0:
384,64,93199,1,2,2:1:0:0:
327,244,93387,1,8,2:0:0:0:
469,56,93574,6,0,B|417:216|417:216|304:91,1,337.5,2|0,2:0|2:0,2:0:0:0:
478,48,94137,6,2,B|473:63|473:63|469:67|469:67|470:72|470:72|467:82|467:82|462:86|462:86|464:91|464:91|461:101|461:101|456:105|456:105|457:110|457:110|454:120|454:120|450:124|450:124|451:129|451:129|448:139|448:139|444:142|444:142|445:148|445:148|442:158|442:158|437:161|437:161|439:167|439:167|436:177|436:177|431:180|431:180|432:186|432:186|429:196|429:196|425:199|425:199|426:205|426:205|423:215|423:215|419:218|419:218|420:224|420:224|419:227|419:227|414:222|414:222|413:216|413:216|408:214|408:214|401:207|401:207|400:201|400:201|394:200|394:200|388:192|388:192|386:186|386:186|381:185|381:185|374:177|374:177|373:172|373:172|368:170|368:170|361:162|361:162|360:157|360:157|354:155|354:155|347:148|347:148|346:142|346:142|341:140|341:140|334:133|334:133|333:127|333:127|327:125|327:125|321:118|321:118|320:112|320:112|314:110|314:110|307:103|307:103|306:97|306:97|301:96|301:96|293:87|293:87|292:86,1,409.649643338244,8|0,3:1|2:0,2:3:0:0:
207,41,94512,5,8,1:3:0:0:
80,181,94699,1,2,2:1:0:0:
23,1,94887,1,8,2:0:0:0:
165,189,95074,6,0,B|113:29|113:29|0:154,1,337.5,2|0,2:0|2:0,2:0:0:0:
80,181,95637,2,0,B|100:245,1,67.5,8|0,2:1|2:0,2:0:0:0:
4,384,95824,2,0,B|50:334,1,67.5,0|0,2:0|2:0,2:0:0:0:
151,333,96012,6,0,B|218:348|218:348|170:201,1,202.5,8|0,3:0|2:0,2:0:0:0:
144,123,96387,2,0,B|98:173,1,67.5,8|0,2:1|2:0,2:0:0:0:
30,246,96574,2,2,L|96:260,1,67.5,8|0,2:1|2:3,2:0:0:0:
274,240,96762,6,0,B|212:48,1,202.5,4|0,1:0|2:3,1:0:0:0:
212,47,97137,1,8,2:1:0:0:
75,197,97324,1,8,2:1:0:0:
75,197,97418,1,0,2:0:0:0:
75,197,97512,5,8,2:3:0:0:
175,219,97699,1,2,2:3:0:0:
270,255,97887,1,8,2:1:0:0:
369,276,98074,1,2,2:3:0:0:
468,317,98262,6,2,B|456:282,1,36,2|2,2:0|2:0,2:0:0:0:
368,178,98449,6,2,B|379:143,1,36,2|2,2:0|2:0,2:0:0:0:
468,84,98637,5,10,2:1:0:0:
464,70,98730,5,2,2:0:0:0:
460,55,98824,5,2,2:0:0:0:
457,40,98918,5,2,2:0:0:0:
420,22,99012,6,0,B|387:32|387:32|355:39,1,67.5,4|0,1:0|2:0,2:0:0:0:
253,70,99199,2,0,B|278:92|278:92|300:117,1,67.5,2|0,2:1|2:0,2:0:0:0:
378,191,99387,2,0,B|384:157|384:157|395:126,1,67.5,10|0,2:0|2:0,2:0:0:0:
433,11,99574,6,0,B|237:64|237:64|380:207,1,405,2|0,2:0|2:0,2:0:0:0:
498,133,100137,6,2,B|483:129|483:129|477:133|477:133|473:126|473:126|464:124|464:124|460:118|460:118|454:121|454:121|444:119|444:119|438:122|438:122|435:116|435:116|426:114|426:114|422:108|422:108|416:111|416:111|406:109|406:109|400:112|400:112|397:106|397:106|387:104|387:104|383:97|383:97|377:101|377:101|368:98|368:98|361:102|361:102|358:96|358:96|348:93|348:93|345:87|345:87|339:91|339:91|329:88|329:88|323:92|323:92|319:86|319:86|310:83|310:83|306:77|306:77|300:80|300:80|290:78|290:78|284:81|284:81|281:75|281:75|271:73|271:73|267:67|267:67|261:70|261:70|252:68|252:68|245:71|245:71|242:65|242:65|238:64|238:64|237:64,1,323.059508240117,8|0,3:1|2:0,2:3:0:0:
46,102,100512,6,0,B|79:112|79:112|111:119,1,67.5,8|0,1:3|2:0,2:0:0:0:
213,150,100699,2,0,B|188:172|188:172|166:197,1,67.5,2|0,2:1|2:0,2:0:0:0:
88,271,100887,2,0,B|82:237|82:237|71:206,1,67.5,8|0,2:0|2:0,2:0:0:0:
33,91,101074,6,0,B|229:144|229:144|86:287,1,405,2|0,2:0|2:0,2:0:0:0:
0,163,101637,2,0,B|234:226,1,243,8|0,2:1|2:1,2:0:0:0:
329,360,102012,5,4,1:3:0:0:
316,330,102199,2,0,B|311:313|311:313|325:251,1,80.9999999999999,8|0,2:1|2:0,2:0:0:0:
294,105,102387,2,0,B|299:88|299:88|284:26,1,80.9999999999999,8|0,2:1|2:0,2:0:0:0:
267,189,102574,6,2,B|362:163,1,98.9999999999999,0|0,2:3|2:3,2:0:0:0:
406,276,102762,5,4,1:0:0:0:
419,306,102949,2,0,B|424:323|424:323|410:385,1,80.9999999999999,2|0,2:0|2:3,2:0:0:0:
488,200,103137,2,0,B|505:120,1,80.9999999999999,10|0,2:1|2:0,2:0:0:0:
512,298,103324,2,0,B|494:377,1,80.9999999999999,8|0,2:1|2:0,2:0:0:0:
475,170,103512,6,0,B|512:0,1,175.5,8|0,2:3|2:0,2:0:0:0:
512,0,103887,1,8,2:1:0:0:
399,111,104074,2,0,B|206:172,1,202.5,2|0,2:3|2:0,2:0:0:0:
206,172,104449,1,10,2:0:0:0:
355,308,104637,1,8,2:1:0:0:
355,308,104824,2,0,B|363:268,2,40.5,2|0|0,2:0|2:0|2:0,2:0:0:0:
279,359,105012,5,2,1:0:0:0:
265,312,105105,1,2,2:1:0:0:
261,344,105199,2,0,L|194:330,1,67.5,2|0,3:2|2:0,2:0:0:0:
66,215,105387,2,0,L|0:201,1,67.5,2|0,1:0|2:0,2:0:0:0:
122,384,105574,6,0,B|111:345|111:345|178:89|178:89|150:94|150:94|130:162,1,405,2|0,2:0|2:0,2:0:0:0:
48,283,106137,6,2,B|52:268|52:268|48:262|48:262|54:258|54:258|57:249|57:249|63:245|63:245|59:239|59:239|62:229|62:229|58:223|58:223|64:220|64:220|67:210|67:210|73:206|73:206|69:200|69:200|72:191|72:191|68:185|68:185|74:181|74:181|77:171|77:171|83:168|83:168|79:162|79:162|82:152|82:152|78:146|78:146|85:142|85:142|87:133|87:133|93:129|93:129|90:123|90:123|92:113|92:113|88:107|88:107|95:104|95:104|97:94|97:94|103:90|103:90|100:84|100:84|102:75|102:75|98:69|98:69|105:65|105:65|107:55|107:55|113:52|113:52|110:46|110:46|112:36|112:36|109:30|109:30|115:26|115:26|116:21,1,326.664688174637,8|0,3:1|2:0,2:3:0:0:
21,5,106512,6,0,B|9:26|9:26|17:68,1,67.5,8|0,1:3|2:0,2:0:0:0:
105,131,106699,2,0,B|176:117,1,67.5,2|0,2:1|2:0,2:0:0:0:
255,188,106887,2,0,B|267:209|267:209|259:251,1,67.5,8|0,2:0|2:0,2:0:0:0:
280,332,107074,6,0,B|471:266|471:266|318:132,1,405,2|0,2:0|2:0,2:0:0:0:
264,350,107637,2,0,B|493:270,1,243,8|0,1:0|2:0,2:0:0:0:
308,111,108012,6,0,B|263:356,1,242.999992584229,4|0,1:3|2:0,2:0:0:0:
264,350,108387,1,8,2:1:0:0:
493,269,108574,2,2,B|307:110,1,242.999992584229,8|0,2:1|2:0,2:0:0:0:
308,111,108949,1,0,2:0:0:0:
201,233,109137,6,0,P|183:236|170:248,1,36,8|0,2:1|2:0,2:0:0:0:
116,357,109324,2,0,P|97:329|103:297,1,67.5,8|0,2:1|2:0,2:0:0:0:
114,173,109512,5,8,2:3:0:0:
182,97,109699,1,2,2:3:0:0:
132,10,109887,1,8,2:1:0:0:
33,31,110074,1,2,2:3:0:0:
21,130,110262,6,0,P|28:147|33:165,1,36,2|2,2:0|2:0,2:0:0:0:
89,251,110449,6,0,P|82:267|77:285,1,36,2|2,2:0|2:0,2:0:0:0:
3,383,110637,5,10,2:1:0:0:
0,369,110730,1,2,2:0:0:0:
3,354,110824,1,2,2:0:0:0:
13,343,110918,1,2,2:0:0:0:
51,321,111012,6,0,P|100:342|149:366,1,108,10|0,2:3|2:0,2:0:0:0:
253,234,111387,1,8,2:1:0:0:
175,286,111574,2,0,P|164:206|158:125,1,162,0|0,2:0|2:0,2:0:0:0:
81,201,111949,2,0,P|54:221|27:241,1,67.5,0|0,2:3|2:3,2:0:0:0:
149,366,112137,1,10,3:2:0:0:
81,201,112324,1,2,3:2:0:0:
123,53,112512,5,10,2:0:0:0:
64,115,112699,1,0,2:0:0:0:
64,115,112793,1,2,2:0:0:0:
258,225,113074,1,2,3:2:0:0:
140,139,113262,2,0,B|214:126|214:126|230:128|230:128|302:117,1,162,8|0,1:3|2:0,2:0:0:0:
395,85,113637,2,0,B|387:93|387:93|375:134,1,54,10|0,3:2|2:0,2:0:0:0:
263,0,113824,2,0,B|255:8|255:8|243:49,1,54,2|0,3:2|2:0,2:0:0:0:
299,117,114012,5,8,1:3:0:0:
491,55,114199,1,2,2:3:0:0:
447,252,114387,1,8,2:1:0:0:
373,184,114574,1,0,2:3:0:0:
254,310,114762,2,0,P|331:291|403:324,1,162,8|0,3:0|2:0,2:0:0:0:
470,382,115137,2,0,P|476:355|493:335,1,54,10|0,3:2|2:0,2:0:0:0:
396,230,115324,2,0,P|389:204|373:184,1,54,2|0,3:2|2:3,2:0:0:0:
469,154,115512,5,10,1:3:0:0:
469,154,115699,1,0,2:3:0:0:
499,256,115887,1,8,2:1:0:0:
384,147,116074,2,0,B|369:103|403:73|403:73|437:43|423:0,1,162,2|0,2:3|2:0,2:0:0:0:
423,0,116449,1,0,2:0:0:0:
312,64,116637,2,0,P|285:60|258:54,1,54,8|0,2:1|2:0,2:0:0:0:
186,90,116824,2,0,P|159:86|132:80,1,54,0|0,3:0|2:0,2:0:0:0:
0,8,117012,6,0,P|44:35|49:87,1,108,10|0,2:3|2:0,2:0:0:0:
110,236,117387,1,8,2:1:0:0:
33,275,117574,2,0,P|35:196|98:150,1,162,0|0,2:0|2:0,2:0:0:0:
187,197,117949,1,0,2:3:0:0:
207,204,118043,1,0,2:3:0:0:
227,211,118137,1,10,3:2:0:0:
106,323,118324,1,2,3:2:0:0:
264,372,118512,5,10,2:0:0:0:
199,302,118699,1,0,2:0:0:0:
199,302,118793,1,2,2:0:0:0:
43,103,119074,1,2,3:2:0:0:
79,233,119262,2,0,B|89:172|89:172|118:148|118:148|127:86,1,162,8|0,1:3|2:0,2:0:0:0:
89,13,119637,2,0,L|35:20,1,54,10|0,3:2|2:0,2:0:0:0:
79,233,119824,2,0,L|25:240,1,54,2|0,3:2|2:0,2:0:0:0:
135,159,120012,5,10,2:3:0:0:
288,312,120387,5,8,2:1:0:0:
344,103,120762,5,8,2:3:0:0:
256,192,120949,5,2,3:2:0:0:
256,192,121137,1,8,2:3:0:0:
380,215,121324,6,0,P|407:211|431:199,1,54,2|0,1:2|2:0,2:0:0:0:
317,79,121512,2,2,P|321:53|317:26,1,54,8|0,1:3|2:0,2:0:0:0:
168,98,121699,2,2,P|144:86|118:81,1,54,0|0,2:3|2:3,2:0:0:0:
140,245,121887,2,2,P|121:264|108:288,1,54,8|0,2:0|2:0,2:0:0:0:
271,318,122074,2,2,P|283:342|302:361,1,54,0|0,1:0|2:0,2:0:0:0:
301,194,122262,5,10,2:3:0:0:
272,149,122355,1,2,2:0:0:0:
220,163,122449,1,2,2:0:0:0:
217,217,122543,1,2,2:0:0:0:
268,233,122637,1,10,2:0:0:0:
292,193,122730,1,2,2:0:0:0:
269,157,122824,1,2,2:0:0:0:
227,168,122918,2,0,L|239:176,1,9,2|0,2:0|2:0,2:0:0:0:
