osu file format v14

[General]
AudioFilename: audio.mp3
AudioLeadIn: 0
PreviewTime: 87012
Countdown: 0
SampleSet: Soft
StackLeniency: 0.6
Mode: 0
LetterboxInBreaks: 0
EpilepsyWarning: 1
WidescreenStoryboard: 1

[Editor]
Bookmarks: 14262,15012,24012,27012,33012,36012,39012,45012,48762,51012,57012,57199,60012,63012,75012,87012,93012,99012,105012,111012,123012
DistanceSpacing: 0.9
BeatDivisor: 2
GridSize: 32
TimelineZoom: 2.2

[Metadata]
Title:triangles
TitleUnicode:triangles
Artist:cYsmix
ArtistUnicode:cYsmix
Creator:yf_bmp
Version:Tt's Normal
Source:osu!
Tags:electronic instrumental lazer triangles contest featured artist fa TtmnZk Chaoslitz Yugu Yumeno Himiko
BeatmapID:3783212
BeatmapSetID:1841885

[Difficulty]
HPDrainRate:3.5
CircleSize:3.8
OverallDifficulty:4
ApproachRate:5
SliderMultiplier:1.3
SliderTickRate:1

[Events]
//Background and Video events
0,0,"bg.png",0,0
//Break Periods
2,63212,73812
//Storyboard Layer 0 (Background)
//Storyboard Layer 1 (Fail)
//Storyboard Layer 2 (Pass)
//Storyboard Layer 3 (Foreground)
Sprite,Foreground,CentreLeft,"SB\text\exo2_a42.png",-67,415 S,0,63012,,0.1 C,0,63012,,41,67,28 F,0,63293,63793,0,0.75 F,0,75012,75199,0.75,0
Sprite,Foreground,CentreLeft,"SB\text\exo2_a65.png",-61,415 S,0,63012,,0.1 C,0,63012,,41,67,28 F,0,63293,63793,0,0.75 F,0,75012,75199,0.75,0
Sprite,Foreground,CentreLeft,"SB\text\exo2_a61.png",0,0 S,0,63012,,0.1 C,0,63012,,41,67,28 M,0,63012,75012,-55.8,415 F,0,63293,63793,0,0.75 F,0,75012,75199,0.75,0
Sprite,Foreground,CentreLeft,"SB\text\exo2_a74.png",0,0 S,0,63012,,0.1 C,0,63012,,41,67,28 M,0,63012,75012,-50.5,415 F,0,63293,63793,0,0.75 F,0,75012,75199,0.75,0
Sprite,Foreground,CentreLeft,"SB\text\exo2_a6d.png",0,0 S,0,63012,,0.1 C,0,63012,,41,67,28 M,0,63012,75012,-46.8,415 F,0,63293,63793,0,0.75 F,0,75012,75199,0.75,0
Sprite,Foreground,CentreLeft,"SB\text\exo2_a61.png",0,0 S,0,63012,,0.1 C,0,63012,,41,67,28 M,0,63012,75012,-38.4,415 F,0,63293,63793,0,0.75 F,0,75012,75199,0.75,0
Sprite,Foreground,CentreLeft,"SB\text\exo2_a70.png",0,0 S,0,63012,,0.1 C,0,63012,,41,67,28 M,0,63012,75012,-33.1,415 F,0,63293,63793,0,0.75 F,0,75012,75199,0.75,0
Sprite,Foreground,CentreLeft,"SB\text\exo2_a3a.png",0,0 S,0,63012,,0.1 C,0,63012,,41,67,28 M,0,63012,75012,-27.5,415 F,0,63293,63793,0,0.75 F,0,75012,75199,0.75,0
Sprite,Foreground,CentreLeft,"SB\text\exo2_a54.png",0,0 S,0,63012,,0.1 C,0,63012,,41,67,28 M,0,63012,75012,-23.1,415 F,0,63293,63793,0,0.75 F,0,75012,75199,0.75,0
Sprite,Foreground,CentreLeft,"SB\text\exo2_a74.png",0,0 S,0,63012,,0.1 C,0,63012,,41,67,28 M,0,63012,75012,-17.5,415 F,0,63293,63793,0,0.75 F,0,75012,75199,0.75,0
Sprite,Foreground,CentreLeft,"SB\text\exo2_a6d.png",0,0 S,0,63012,,0.1 C,0,63012,,41,67,28 M,0,63012,75012,-13.8,415 F,0,63293,63793,0,0.75 F,0,75012,75199,0.75,0
Sprite,Foreground,CentreLeft,"SB\text\exo2_a6e.png",0,0 S,0,63012,,0.1 C,0,63012,,41,67,28 M,0,63012,75012,-5.4,415 F,0,63293,63793,0,0.75 F,0,75012,75199,0.75,0
Sprite,Foreground,CentreLeft,"SB\text\exo2_a5a.png",0,0 S,0,63012,,0.1 C,0,63012,,41,67,28 M,0,63012,75012,0.2,415 F,0,63293,63793,0,0.75 F,0,75012,75199,0.75,0
Sprite,Foreground,CentreLeft,"SB\text\exo2_a6b.png",0,0 S,0,63012,,0.1 C,0,63012,,41,67,28 M,0,63012,75012,5.6,415 F,0,63293,63793,0,0.75 F,0,75012,75199,0.75,0
Sprite,Foreground,CentreLeft,"SB\text\exo2_a48.png",-67,425 S,0,63012,,0.1 C,0,63012,,41,67,28 F,0,63293,63793,0,0.75 F,0,75012,75199,0.75,0
Sprite,Foreground,CentreLeft,"SB\text\exo2_a69.png",0,0 S,0,63012,,0.1 C,0,63012,,41,67,28 M,0,63012,75012,-60.6,425 F,0,63293,63793,0,0.75 F,0,75012,75199,0.75,0
Sprite,Foreground,CentreLeft,"SB\text\exo2_a74.png",0,0 S,0,63012,,0.1 C,0,63012,,41,67,28 M,0,63012,75012,-58.2,425 F,0,63293,63793,0,0.75 F,0,75012,75199,0.75,0
Sprite,Foreground,CentreLeft,"SB\text\exo2_a73.png",0,0 S,0,63012,,0.1 C,0,63012,,41,67,28 M,0,63012,75012,-54.5,425 F,0,63293,63793,0,0.75 F,0,75012,75199,0.75,0
Sprite,Foreground,CentreLeft,"SB\text\exo2_a6f.png",0,0 S,0,63012,,0.1 C,0,63012,,41,67,28 M,0,63012,75012,-49.6,425 F,0,63293,63793,0,0.75 F,0,75012,75199,0.75,0
Sprite,Foreground,CentreLeft,"SB\text\exo2_a75.png",0,0 S,0,63012,,0.1 C,0,63012,,41,67,28 M,0,63012,75012,-44.1,425 F,0,63293,63793,0,0.75 F,0,75012,75199,0.75,0
Sprite,Foreground,CentreLeft,"SB\text\exo2_a6e.png",0,0 S,0,63012,,0.1 C,0,63012,,41,67,28 M,0,63012,75012,-38.6,425 F,0,63293,63793,0,0.75 F,0,75012,75199,0.75,0
Sprite,Foreground,CentreLeft,"SB\text\exo2_a64.png",-33,425 S,0,63012,,0.1 C,0,63012,,41,67,28 F,0,63293,63793,0,0.75 F,0,75012,75199,0.75,0
Sprite,Foreground,CentreLeft,"SB\text\exo2_a73.png",0,0 S,0,63012,,0.1 C,0,63012,,41,67,28 M,0,63012,75012,-27.5,425 F,0,63293,63793,0,0.75 F,0,75012,75199,0.75,0
Sprite,Foreground,CentreLeft,"SB\text\exo2_a3a.png",0,0 S,0,63012,,0.1 C,0,63012,,41,67,28 M,0,63012,75012,-22.6,425 F,0,63293,63793,0,0.75 F,0,75012,75199,0.75,0
Sprite,Foreground,CentreLeft,"SB\text\exo2_a54.png",0,0 S,0,63012,,0.1 C,0,63012,,41,67,28 M,0,63012,75012,-18.2,425 F,0,63293,63793,0,0.75 F,0,75012,75199,0.75,0
Sprite,Foreground,CentreLeft,"SB\text\exo2_a74.png",0,0 S,0,63012,,0.1 C,0,63012,,41,67,28 M,0,63012,75012,-12.6,425 F,0,63293,63793,0,0.75 F,0,75012,75199,0.75,0
Sprite,Foreground,CentreLeft,"SB\text\exo2_a6d.png",0,0 S,0,63012,,0.1 C,0,63012,,41,67,28 M,0,63012,75012,-8.9,425 F,0,63293,63793,0,0.75 F,0,75012,75199,0.75,0
Sprite,Foreground,CentreLeft,"SB\text\exo2_a6e.png",0,0 S,0,63012,,0.1 C,0,63012,,41,67,28 M,0,63012,75012,-0.5,425 F,0,63293,63793,0,0.75 F,0,75012,75199,0.75,0
Sprite,Foreground,CentreLeft,"SB\text\exo2_a5a.png",0,0 S,0,63012,,0.1 C,0,63012,,41,67,28 M,0,63012,75012,5.1,425 F,0,63293,63793,0,0.75 F,0,75012,75199,0.75,0
Sprite,Foreground,CentreLeft,"SB\text\exo2_a6b.png",0,0 S,0,63012,,0.1 C,0,63012,,41,67,28 M,0,63012,75012,10.5,425 F,0,63293,63793,0,0.75 F,0,75012,75199,0.75,0
Sprite,Foreground,CentreLeft,"SB\text\exo2_a53.png",-67,435 S,0,63012,,0.1 C,0,63012,,41,67,28 F,0,63293,63793,0,0.75 F,0,75012,75199,0.75,0
Sprite,Foreground,CentreLeft,"SB\text\exo2_a74.png",0,0 S,0,63012,,0.1 C,0,63012,,41,67,28 M,0,63012,75012,-61.6,435 F,0,63293,63793,0,0.75 F,0,75012,75199,0.75,0
Sprite,Foreground,CentreLeft,"SB\text\exo2_a6f.png",0,0 S,0,63012,,0.1 C,0,63012,,41,67,28 M,0,63012,75012,-57.9,435 F,0,63293,63793,0,0.75 F,0,75012,75199,0.75,0
Sprite,Foreground,CentreLeft,"SB\text\exo2_a72.png",0,0 S,0,63012,,0.1 C,0,63012,,41,67,28 M,0,63012,75012,-52.4,435 F,0,63293,63793,0,0.75 F,0,75012,75199,0.75,0
Sprite,Foreground,CentreLeft,"SB\text\exo2_a79.png",0,0 S,0,63012,,0.1 C,0,63012,,41,67,28 M,0,63012,75012,-48.6,435 F,0,63293,63793,0,0.75 F,0,75012,75199,0.75,0
Sprite,Foreground,CentreLeft,"SB\text\exo2_a62.png",0,0 S,0,63012,,0.1 C,0,63012,,41,67,28 M,0,63012,75012,-43.5,435 F,0,63293,63793,0,0.75 F,0,75012,75199,0.75,0
Sprite,Foreground,CentreLeft,"SB\text\exo2_a6f.png",-38,435 S,0,63012,,0.1 C,0,63012,,41,67,28 F,0,63293,63793,0,0.75 F,0,75012,75199,0.75,0
Sprite,Foreground,CentreLeft,"SB\text\exo2_a61.png",0,0 S,0,63012,,0.1 C,0,63012,,41,67,28 M,0,63012,75012,-32.5,435 F,0,63293,63793,0,0.75 F,0,75012,75199,0.75,0
Sprite,Foreground,CentreLeft,"SB\text\exo2_a72.png",0,0 S,0,63012,,0.1 C,0,63012,,41,67,28 M,0,63012,75012,-27.2,435 F,0,63293,63793,0,0.75 F,0,75012,75199,0.75,0
Sprite,Foreground,CentreLeft,"SB\text\exo2_a64.png",0,0 S,0,63012,,0.1 C,0,63012,,41,67,28 M,0,63012,75012,-23.4,435 F,0,63293,63793,0,0.75 F,0,75012,75199,0.75,0
Sprite,Foreground,CentreLeft,"SB\text\exo2_a3a.png",0,0 S,0,63012,,0.1 C,0,63012,,41,67,28 M,0,63012,75012,-17.9,435 F,0,63293,63793,0,0.75 F,0,75012,75199,0.75,0
Sprite,Foreground,CentreLeft,"SB\text\exo2_a59.png",0,0 S,0,63012,,0.1 C,0,63012,,41,67,28 M,0,63012,75012,-13.5,435 F,0,63293,63793,0,0.75 F,0,75012,75199,0.75,0
Sprite,Foreground,CentreLeft,"SB\text\exo2_a75.png",0,0 S,0,63012,,0.1 C,0,63012,,41,67,28 M,0,63012,75012,-8,435 F,0,63293,63793,0,0.75 F,0,75012,75199,0.75,0
Sprite,Foreground,CentreLeft,"SB\text\exo2_a6d.png",0,0 S,0,63012,,0.1 C,0,63012,,41,67,28 M,0,63012,75012,-2.5,435 F,0,63293,63793,0,0.75 F,0,75012,75199,0.75,0
Sprite,Foreground,CentreLeft,"SB\text\exo2_a65.png",0,0 S,0,63012,,0.1 C,0,63012,,41,67,28 M,0,63012,75012,5.9,435 F,0,63293,63793,0,0.75 F,0,75012,75199,0.75,0
Sprite,Foreground,CentreLeft,"SB\text\exo2_a6e.png",0,0 S,0,63012,,0.1 C,0,63012,,41,67,28 M,0,63012,75012,11.1,435 F,0,63293,63793,0,0.75 F,0,75012,75199,0.75,0
Sprite,Foreground,CentreLeft,"SB\text\exo2_a6f.png",0,0 S,0,63012,,0.1 C,0,63012,,41,67,28 M,0,63012,75012,16.7,435 F,0,63293,63793,0,0.75 F,0,75012,75199,0.75,0
Sprite,Foreground,CentreLeft,"SB\text\exo2_a48.png",0,0 S,0,63012,,0.1 C,0,63012,,41,67,28 M,0,63012,75012,24.3,435 F,0,63293,63793,0,0.75 F,0,75012,75199,0.75,0
Sprite,Foreground,CentreLeft,"SB\text\exo2_a69.png",0,0 S,0,63012,,0.1 C,0,63012,,41,67,28 M,0,63012,75012,30.7,435 F,0,63293,63793,0,0.75 F,0,75012,75199,0.75,0
Sprite,Foreground,CentreLeft,"SB\text\exo2_a6d.png",0,0 S,0,63012,,0.1 C,0,63012,,41,67,28 M,0,63012,75012,33.1,435 F,0,63293,63793,0,0.75 F,0,75012,75199,0.75,0
Sprite,Foreground,CentreLeft,"SB\text\exo2_a69.png",0,0 S,0,63012,,0.1 C,0,63012,,41,67,28 M,0,63012,75012,41.5,435 F,0,63293,63793,0,0.75 F,0,75012,75199,0.75,0
Sprite,Foreground,CentreLeft,"SB\text\exo2_a6b.png",0,0 S,0,63012,,0.1 C,0,63012,,41,67,28 M,0,63012,75012,43.9,435 F,0,63293,63793,0,0.75 F,0,75012,75199,0.75,0
Sprite,Foreground,CentreLeft,"SB\text\exo2_a6f.png",0,0 S,0,63012,,0.1 C,0,63012,,41,67,28 M,0,63012,75012,48.8,435 F,0,63293,63793,0,0.75 F,0,75012,75199,0.75,0
Sprite,Foreground,CentreLeft,"SB\text\exo2_a2c.png",0,0 S,0,63012,,0.1 C,0,63012,,41,67,28 M,0,63012,75012,54.3,435 F,0,63293,63793,0,0.75 F,0,75012,75199,0.75,0
Sprite,Foreground,CentreLeft,"SB\text\exo2_a79.png",0,0 S,0,63012,,0.1 C,0,63012,,41,67,28 M,0,63012,75012,58.6,435 F,0,63293,63793,0,0.75 F,0,75012,75199,0.75,0
Sprite,Foreground,CentreLeft,"SB\text\exo2_a66.png",0,0 S,0,63012,,0.1 C,0,63012,,41,67,28 M,0,63012,75012,63.7,435 F,0,63293,63793,0,0.75 F,0,75012,75199,0.75,0
Sprite,Foreground,CentreLeft,"SB\text\exo2_a5f.png",0,0 S,0,63012,,0.1 C,0,63012,,41,67,28 M,0,63012,75012,67.3,435 F,0,63293,63793,0,0.75 F,0,75012,75199,0.75,0
Sprite,Foreground,CentreLeft,"SB\text\exo2_a62.png",0,0 S,0,63012,,0.1 C,0,63012,,41,67,28 M,0,63012,75012,71.5,435 F,0,63293,63793,0,0.75 F,0,75012,75199,0.75,0
Sprite,Foreground,CentreLeft,"SB\text\exo2_a6d.png",77,435 S,0,63012,,0.1 C,0,63012,,41,67,28 F,0,63293,63793,0,0.75 F,0,75012,75199,0.75,0
Sprite,Foreground,CentreLeft,"SB\text\exo2_a70.png",0,0 S,0,63012,,0.1 C,0,63012,,41,67,28 M,0,63012,75012,85.4,435 F,0,63293,63793,0,0.75 F,0,75012,75199,0.75,0
Sprite,Foreground,CentreLeft,"SB\text\exo2_a2c.png",91,435 S,0,63012,,0.1 C,0,63012,,41,67,28 F,0,63293,63793,0,0.75 F,0,75012,75199,0.75,0
Sprite,Foreground,CentreLeft,"SB\text\exo2_a43.png",0,0 S,0,63012,,0.1 C,0,63012,,41,67,28 M,0,63012,75012,95.3,435 F,0,63293,63793,0,0.75 F,0,75012,75199,0.75,0
Sprite,Foreground,CentreLeft,"SB\text\exo2_a68.png",0,0 S,0,63012,,0.1 C,0,63012,,41,67,28 M,0,63012,75012,100.8,435 F,0,63293,63793,0,0.75 F,0,75012,75199,0.75,0
Sprite,Foreground,CentreLeft,"SB\text\exo2_a61.png",0,0 S,0,63012,,0.1 C,0,63012,,41,67,28 M,0,63012,75012,106.4,435 F,0,63293,63793,0,0.75 F,0,75012,75199,0.75,0
Sprite,Foreground,CentreLeft,"SB\text\exo2_a6f.png",0,0 S,0,63012,,0.1 C,0,63012,,41,67,28 M,0,63012,75012,111.7,435 F,0,63293,63793,0,0.75 F,0,75012,75199,0.75,0
Sprite,Foreground,CentreLeft,"SB\text\exo2_a73.png",0,0 S,0,63012,,0.1 C,0,63012,,41,67,28 M,0,63012,75012,117.2,435 F,0,63293,63793,0,0.75 F,0,75012,75199,0.75,0
Sprite,Foreground,CentreLeft,"SB\text\exo2_a6c.png",0,0 S,0,63012,,0.1 C,0,63012,,41,67,28 M,0,63012,75012,122.1,435 F,0,63293,63793,0,0.75 F,0,75012,75199,0.75,0
Sprite,Foreground,CentreLeft,"SB\text\exo2_a69.png",125,435 S,0,63012,,0.1 C,0,63012,,41,67,28 F,0,63293,63793,0,0.75 F,0,75012,75199,0.75,0
Sprite,Foreground,CentreLeft,"SB\text\exo2_a74.png",0,0 S,0,63012,,0.1 C,0,63012,,41,67,28 M,0,63012,75012,127.4,435 F,0,63293,63793,0,0.75 F,0,75012,75199,0.75,0
Sprite,Foreground,CentreLeft,"SB\text\exo2_a7a.png",0,0 S,0,63012,,0.1 C,0,63012,,41,67,28 M,0,63012,75012,131.1,435 F,0,63293,63793,0,0.75 F,0,75012,75199,0.75,0
//Storyboard Layer 4 (Overlay)
//Storyboard Sound Samples

[TimingPoints]
1512,375,4,2,2,80,1,0
1699,-100,4,2,1,80,0,0
1887,-100,4,2,2,80,0,0
3012,375,4,2,1,80,1,0
3387,-100,4,2,2,80,0,0
3574,-100,4,2,1,80,0,0
3762,-100,4,2,2,80,0,0
3949,-100,4,2,1,80,0,0
4137,-100,4,2,2,80,0,0
4699,-100,4,2,1,80,0,0
4887,-100,4,2,2,80,0,0
6574,-100,4,2,1,80,0,0
6621,-100,4,2,2,80,0,0
6949,-100,4,2,1,80,0,0
7137,-100,4,2,2,80,0,0
8824,-100,4,2,1,80,0,0
9012,-100,4,2,2,80,0,0
9574,-100,4,2,1,80,0,0
9762,-100,4,2,2,80,0,0
9949,-100,4,2,1,80,0,0
10137,-100,4,2,2,80,0,0
10699,-100,4,2,1,80,0,0
10887,-100,4,2,2,80,0,0
11824,-100,4,2,1,80,0,0
12011,-100,4,2,3,80,0,0
12387,-100,4,2,2,80,0,0
13699,-100,4,2,1,80,0,0
13887,-100,4,2,2,80,0,0
14262,-100,4,2,2,80,0,0
14824,-100,4,2,1,80,0,0
15012,-100,4,2,2,80,0,0
21012,-100,4,2,2,85,0,0
21949,-100,4,2,1,85,0,0
22137,-100,4,2,2,85,0,0
23449,-100,4,2,1,85,0,0
23637,-100,4,2,2,85,0,0
24012,-100,4,2,1,75,0,0
25512,-100,4,2,1,80,0,0
27012,-100,4,2,2,75,0,0
27199,-100,4,2,1,75,0,0
28043,-100,4,2,2,75,0,0
28324,-100,4,2,1,75,0,0
28887,-100,4,2,1,65,0,0
29074,-100,4,2,2,65,0,0
29262,-100,4,2,2,85,0,0
30012,-100,4,2,2,75,0,0
30199,-100,4,2,1,75,0,0
31043,-100,4,2,2,75,0,0
31324,-100,4,2,1,75,0,0
31511,-100,4,2,2,85,0,0
31699,-100,4,2,1,85,0,0
32543,-100,4,2,2,85,0,0
32824,-100,4,2,1,85,0,0
33012,-100,4,2,2,90,0,0
34512,-100,4,2,2,90,0,0
36012,-100,4,2,2,70,0,0
37887,-100,4,2,1,95,0,0
38262,-100,4,2,1,65,0,0
38637,-100,4,2,2,95,0,0
39012,-100,4,2,2,92,0,1
47449,-100,4,2,1,92,0,1
47543,-100,4,2,2,92,0,1
47637,-100,4,2,1,92,0,1
47824,-100,4,2,2,92,0,1
50918,-100,4,2,2,92,0,0
51012,-100,4,2,2,92,0,1
57012,-100,4,2,2,80,0,1
60199,-100,4,2,2,80,0,1
60949,-111.111111111111,4,2,2,75,0,1
61699,-125,4,2,2,70,0,1
62449,-142.857142857143,4,2,2,60,0,1
63012,-142.857142857143,4,2,2,80,0,0
75012,-111.111111111111,4,2,1,75,0,0
75574,-111.111111111111,4,2,2,75,0,0
76137,-111.111111111111,4,2,1,75,0,0
76512,-111.111111111111,4,2,1,75,0,0
77074,-111.111111111111,4,2,2,75,0,0
77262,-111.111111111111,4,2,1,75,0,0
78105,-111.111111111111,4,2,2,75,0,0
78574,-111.111111111111,4,2,1,75,0,0
79137,-111.111111111111,4,2,1,75,0,0
79324,-111.111111111111,4,2,2,75,0,0
80262,-111.111111111111,4,2,1,75,0,0
80637,-111.111111111111,4,2,1,75,0,0
80824,-111.111111111111,4,2,1,75,0,0
81574,-111.111111111111,4,2,2,75,0,0
82324,-111.111111111111,4,2,1,75,0,0
82512,-111.111111111111,4,2,1,75,0,0
83074,-111.111111111111,4,2,2,75,0,0
83637,-111.111111111111,4,2,1,75,0,0
83824,-111.111111111111,4,2,1,75,0,0
84012,-111.111111111111,4,2,2,75,0,0
86637,-111.111111111111,4,2,2,80,0,0
87012,-100,4,2,1,95,0,1
87762,-100,4,2,2,95,0,1
88324,-100,4,2,1,95,0,1
88512,-100,4,2,1,95,0,1
89262,-100,4,2,2,95,0,1
90762,-100,4,2,1,95,0,1
91137,-100,4,2,2,95,0,1
93012,-100,4,2,1,95,0,1
93762,-100,4,2,2,95,0,1
94324,-100,4,2,1,95,0,1
94512,-100,4,2,2,95,0,1
96762,-100,4,2,1,95,0,1
97137,-100,4,2,2,95,0,1
97512,-100,4,2,2,80,0,1
98262,-100,4,2,1,90,0,1
98637,-100,4,2,2,80,0,1
98824,-100,4,2,1,80,0,1
98918,-100,4,2,1,80,0,0
99012,-100,4,2,1,95,0,1
99762,-100,4,2,2,95,0,1
101449,-100,4,2,1,95,0,1
101637,-100,4,2,2,95,0,1
101824,-100,4,2,1,95,0,1
102012,-100,4,2,2,95,0,1
102762,-100,4,2,1,95,0,1
103137,-100,4,2,2,95,0,1
103699,-100,4,2,106,95,0,1
103887,-100,4,2,2,95,0,1
105199,-100,4,2,1,95,0,1
105762,-100,4,2,2,95,0,1
107449,-100,4,2,1,95,0,1
107637,-100,4,2,2,95,0,1
108762,-100,4,2,1,95,0,1
109137,-100,4,2,2,95,0,1
109512,-100,4,2,2,80,0,1
110262,-100,4,2,1,90,0,1
110637,-100,4,2,2,80,0,1
110824,-100,4,2,1,80,0,1
111012,-100,4,2,2,85,0,0
112137,-100,4,2,1,85,0,0
112512,-100,4,2,3,85,0,0
112793,-100,4,2,1,85,0,0
114012,-100,4,2,2,85,0,0
115137,-100,4,2,1,85,0,0
115512,-100,4,2,2,85,0,0
118137,-100,4,2,1,85,0,0
118512,-100,4,2,3,85,0,0
118793,-100,4,2,1,85,0,0
120012,-100,4,2,2,80,0,0
121324,-100,4,2,1,80,0,0
121512,-100,4,2,2,80,0,0
122637,-100,4,2,1,75,0,0
122918,-100,4,2,1,55,0,0

[Colours]
Combo1 : 240,51,153
Combo2 : 104,67,206
Combo3 : 238,170,1
Combo4 : 166,203,2

[HitObjects]
347,98,1512,6,0,L|400:-17,1,65,0|0,3:1|1:0,2:0:0:0:
426,35,1887,1,0,3:0:0:0:
431,42,2074,2,2,B|520:168|520:168|333:184,1,260,8|8,1:3|3:0,2:0:0:0:
363,182,3012,5,4,3:0:0:0:
284,239,3387,2,0,B|235:488,2,130,8|8|8,1:2|1:3|1:2,2:0:0:0:
273,142,4512,2,0,B|186:67,1,65,8|2,1:3|2:0,2:3:0:0:
202,52,4887,1,8,1:2:0:0:
105,40,5262,1,8,1:3:0:0:
46,118,5637,1,8,1:2:0:0:
84,208,6012,6,0,B|48:244|48:244|182:297,1,130,8|8,1:3|1:2,2:0:0:0:
170,292,6574,2,0,L|148:47,1,130,2|2,2:0|2:0,2:0:0:0:
131,118,7137,1,8,1:2:0:0:
202,52,7512,2,0,B|212:37|212:37|418:13,1,130,8|8,1:3|1:2,2:0:0:0:
420,13,8262,1,8,1:3:0:0:
469,97,8637,2,0,L|410:203,1,65,8|2,1:2|2:0,2:0:0:0:
391,178,9012,5,8,1:3:0:0:
304,133,9387,2,0,L|177:32,2,130,8|8|8,1:2|1:3|1:2,2:0:0:0:
391,178,10512,2,0,L|381:293,1,65,8|2,1:3|2:0,2:0:0:0:
414,286,10887,2,0,P|323:308|352:269,1,130,8|8,1:2|1:3,2:0:0:0:
278,297,11637,1,8,1:2:0:0:
283,303,11824,2,0,B|256:321|256:321|200:284,1,65,2|10,2:0|2:0,2:0:0:0:
138,338,12387,6,0,L|-53:308,2,130,8|8|8,1:2|1:3|1:2,2:0:0:0:
154,242,13512,2,0,L|60:227,1,65,8|2,1:3|2:0,2:0:0:0:
77,181,13887,1,8,1:2:0:0:
115,91,14262,1,8,1:3:0:0:
163,71,14449,2,8,L|183:-52,2,65,8|8|0,1:3|2:0|1:0,2:0:0:0:
202,106,15012,5,8,1:3:0:0:
206,112,15199,2,0,B|326:93,1,65,2|8,2:3|1:2,2:0:0:0:
306,64,15574,1,2,2:3:0:0:
402,80,15949,2,0,B|358:197,1,65,2|8,2:3|1:2,2:0:0:0:
393,191,16324,1,0,2:0:0:0:
331,266,16699,2,0,B|250:167,1,65,2|8,2:3|1:2,2:0:0:0:
239,203,17074,1,2,2:3:0:0:
206,111,17449,2,0,P|111:176|139:198,1,130,2|0,2:3|2:0,2:0:0:0:
95,180,18012,5,8,1:3:0:0:
98,187,18199,2,0,B|54:304,1,65,2|8,2:3|1:2,2:0:0:0:
26,265,18574,1,2,2:3:0:0:
81,345,18949,2,0,B|201:326,1,65,2|8,2:3|1:2,2:0:0:0:
185,369,19324,1,0,2:0:0:0:
224,279,19699,2,0,B|143:180,1,65,2|8,2:3|1:2,2:0:0:0:
191,177,20074,1,2,2:3:0:0:
255,104,20449,2,0,B|266:130|266:130|489:164,1,130,2|0,2:3|2:3,2:0:0:0:
387,193,21012,5,8,3:0:0:0:
327,270,21387,1,8,3:2:0:0:
380,352,21762,2,0,P|453:337|449:311,1,65,8|0,3:0|2:0,2:0:0:0:
474,325,22137,1,8,3:2:0:0:
479,227,22512,1,8,3:0:0:0:
387,193,22887,1,8,3:2:0:0:
327,270,23262,2,0,P|251:250|256:226,1,65,8|0,3:0|2:0,2:0:0:0:
233,243,23637,1,8,3:2:0:0:
148,291,24012,6,0,L|-60:249,1,130,12|0,1:3|1:0,1:0:0:0:
4,216,24574,1,0,3:0:0:0:
1,209,24762,2,0,L|169:17,1,130,12|0,1:3|1:0,1:0:0:0:
137,122,25324,1,0,3:0:0:0:
140,129,25512,2,0,L|181:249,2,65,0|8|0,1:0|1:3|1:0,1:0:0:0:
145,31,26262,1,0,1:0:0:0:
339,109,27012,5,10,2:3:0:0:
338,101,27199,2,0,B|369:63|369:63|405:132,1,97.5,2|2,3:2|3:2,3:0:0:0:
430,180,27762,2,0,B|442:204|442:204|341:194,1,97.5,2|0,3:2|1:2,3:0:0:0:
289,189,28324,1,2,3:2:0:0:
142,136,28887,2,0,B|113:121|113:121|41:177,1,65,4|0,3:0|3:0,2:0:0:0:
43,168,29262,2,0,B|46:162|46:162|19:46,2,97.5,2|2|2,1:0|2:1|1:0,2:0:0:0:
57,218,30012,5,10,2:3:0:0:
53,225,30199,2,0,B|-4:233|-4:233|31:292,1,97.5,2|2,3:2|3:2,3:0:0:0:
58,339,30762,2,0,B|71:362|71:362|133:282,1,97.5,2|8,3:2|2:0,3:0:0:0:
139,226,31324,2,0,B|168:211|168:211|240:267,1,65,6|8,3:0|2:3,3:0:0:0:
237,260,31699,2,0,L|248:133,1,97.5,2|2,2:0|2:0,2:0:0:0:
228,82,32262,2,0,L|123:8,2,97.5,2|8|6,2:0|2:0|3:0,2:0:0:0:
280,88,33012,5,10,2:3:0:0:
285,81,33199,2,0,B|287:58|287:58|290:56|290:56|391:64,1,97.5,0|0,3:0|3:0,2:0:0:0:
443,69,33762,1,2,3:0:0:0:
503,126,34043,2,0,L|440:221,1,97.5,0|0,3:0|3:0,2:0:0:0:
421,251,34512,1,10,3:0:0:0:
417,257,34699,2,0,B|394:291|394:291|354:214,1,97.5,4|0,3:0|1:0,2:0:0:0:
330,167,35262,2,0,L|272:55,2,97.5,2|0|0,3:0|1:0|3:0,2:0:0:0:
293,204,36012,6,0,B|239:188|239:188|235:190|235:190|203:300,1,130,0|8,2:0|2:0,2:0:0:0:
245,299,36574,2,0,B|226:365|226:365|221:368|221:368|59:320,1,130,0|0,2:0|2:0,2:0:0:0:
139,309,37137,1,8,2:0:0:0:
61,367,37512,2,0,P|6:312|21:291,1,65,2|8,2:3|2:3,2:0:0:0:
0,291,37887,1,0,1:0:0:0:
42,203,38262,1,0,1:0:0:0:
138,185,38637,2,0,B|165:203|165:203|232:144,1,65,0|0,1:0|2:0,1:0:0:0:
213,135,39012,5,8,1:3:0:0:
185,91,39199,2,0,L|61:57,1,97.5,0|0,3:0|3:0,2:0:0:0:
20,108,39762,2,0,L|49:233,1,97.5,0|0,3:0|3:0,2:0:0:0:
94,267,40324,2,0,B|103:248|103:248|211:165,1,130,0|0,3:0|3:2,2:0:0:0:
271,194,40980,5,0,3:0:0:0:
318,263,41262,2,0,B|292:389,2,97.5,0|0|0,3:0|3:0|3:0,2:0:0:0:
355,226,42012,5,8,1:3:0:0:
351,174,42199,2,0,L|473:199,1,97.5,0|0,3:0|3:0,2:0:0:0:
512,143,42762,2,0,L|474:21,1,97.5,0|0,3:0|3:0,2:0:0:0:
417,0,43324,2,0,B|393:4|393:4|284:176,1,130,0|0,3:0|3:0,2:0:0:0:
256,115,43980,5,0,3:0:0:0:
197,57,44262,1,0,3:0:0:0:
122,92,44543,2,0,B|131:101|131:101|115:215,1,97.5,0|0,3:0|3:0,2:0:0:0:
151,226,45012,5,8,1:3:0:0:
199,206,45199,2,0,L|324:190,1,97.5,0|0,3:0|3:0,2:0:0:0:
375,219,45762,2,0,L|326:336,1,97.5,0|0,3:0|3:0,2:0:0:0:
289,376,46324,2,0,B|270:378|270:378|181:255,1,130,0|0,3:0|3:0,2:0:0:0:
151,226,46980,5,0,3:0:0:0:
74,256,47262,2,0,L|24:373,2,97.5,0|0|0,3:0|3:0|3:0,2:0:0:0:
69,204,48012,5,8,1:3:0:0:
98,161,48199,2,0,L|43:54,1,97.5,0|0,3:0|3:0,2:0:0:0:
108,12,48762,2,0,L|230:0,1,97.5,0|0,3:0|3:0,2:0:0:0:
269,55,49324,2,0,L|198:212,1,130,0|0,3:0|3:0,2:0:0:0:
151,226,49980,5,0,3:0:0:0:
207,287,50262,2,0,L|334:267,1,97.5,0|0,3:0|3:0,2:0:0:0:
355,207,50824,2,0,L|477:239,1,65,0|8,3:0|1:3,2:0:0:0:
469,235,51199,6,0,B|474:221|474:221|432:116,1,97.5,0|0,3:0|3:0,2:0:0:0:
411,68,51762,2,0,B|396:29|396:29|331:86,1,97.5,0|0,3:0|3:0,2:0:0:0:
292,120,52324,2,0,B|229:174|229:174|303:193,1,130,0|0,3:0|3:0,2:0:0:0:
355,207,52980,5,0,3:0:0:0:
377,287,53262,2,0,L|407:397,2,97.5,0|0|0,3:0|3:0|3:0,2:0:0:0:
329,307,54012,5,8,1:3:0:0:
297,266,54199,2,0,B|295:272|295:272|194:330,1,97.5,0|0,3:0|3:0,2:0:0:0:
147,364,54762,2,0,B|139:358|139:358|107:253,1,97.5,0|0,3:0|3:0,2:0:0:0:
106,192,55324,2,0,B|116:186|116:186|315:241,1,130,0|0,3:0|3:0,2:0:0:0:
297,266,55980,5,0,3:0:0:0:
355,207,56262,1,0,3:0:0:0:
298,147,56543,2,0,L|342:27,1,97.5,0|0,3:0|3:0,2:0:0:0:
366,16,57012,5,0,1:0:0:0:
411,42,57199,2,0,L|486:144,1,97.5,0|0,2:0|2:0,2:0:0:0:
425,191,57762,1,0,1:0:0:0:
419,197,57949,2,2,L|292:216,2,65,0|8|2,2:0|2:1|2:3,2:0:0:0:
462,227,58512,5,0,1:0:0:0:
459,279,58699,2,0,L|393:386,1,97.5,0|0,2:0|2:0,2:0:0:0:
331,330,59262,1,0,1:0:0:0:
325,325,59449,2,2,L|289:248,2,65,0|8|2,2:0|2:1|2:3,2:0:0:0:
287,361,60012,5,8,1:3:0:0:
243,334,60199,2,2,L|73:351,1,130,0|0,2:0|2:0,2:0:0:0:
59,266,60949,6,2,L|151:62,1,117,0|0,2:0|2:0,2:0:0:0:
204,150,61699,6,2,L|321:310,1,104,0|0,2:0|2:0,2:0:0:0:
224,322,62449,6,2,L|45:341,1,90.9999999999999,0|0,2:0|3:2,2:0:0:0:
90,357,63012,5,0,2:0:0:0:
131,70,75012,6,0,B|106:32|106:32|23:178,1,117,2|2,2:3|2:3,2:0:0:0:
44,140,75574,2,2,B|-5:226|-5:226|-1:232|-1:232|125:222,1,175.5,2|0,2:0|2:0,2:0:0:0:
167,217,76512,2,0,B|225:212|225:212|132:71,1,175.5,2|2,2:3|2:0,2:0:0:0:
131,70,77262,1,2,3:2:0:0:
210,9,77637,1,2,3:2:0:0:
302,47,78012,6,0,P|318:144|294:132,1,116.999996429443,2|0,3:2|2:0,2:0:0:0:
351,142,78574,1,2,2:0:0:0:
410,288,79137,1,2,3:2:0:0:
414,294,79324,2,2,B|393:326|393:326|398:334|398:334|530:314|530:314|534:306|534:306|463:172,1,292.499991073609,2|0,2:0|2:0,2:0:0:0:
404,150,80637,2,0,P|335:161|333:185,1,58.4999982147217,2|2,2:0|2:0,2:0:0:0:
307,171,81012,6,0,B|300:152|300:152|134:58,1,117,2|2,2:0|2:3,2:0:0:0:
170,79,81574,2,2,B|128:54|128:54|119:59|119:59|83:286,1,234,2|0,2:0|2:0,2:0:0:0:
83,284,82512,2,0,B|94:290|94:290|239:209,1,117,2|2,2:3|2:3,2:0:0:0:
231,213,83074,1,2,2:0:0:0:
324,341,83637,2,0,P|397:315|395:305,1,58.5000000000001,2|2,2:0|2:0,2:0:0:0:
425,333,84012,6,2,B|486:175|486:175|319:203|319:203|389:289,1,409.5,2|2,2:0|2:1,2:0:0:0:
298,43,86637,5,8,1:0:0:0:
256,13,86824,1,8,2:1:0:0:
213,43,87012,6,0,B|202:82|202:82|1:109,1,130,4|8,1:0|2:0,2:0:0:0:
75,129,87574,1,2,2:0:0:0:
80,135,87762,1,2,2:1:0:0:
95,231,88137,2,2,B|117:255|117:255|193:200,1,65,8|0,3:1|2:0,2:3:0:0:
187,207,88512,6,0,B|222:211|222:211|225:214|225:214|207:390,1,130,4|8,1:3|2:0,2:0:0:0:
248,345,89074,1,2,2:0:0:0:
297,328,89262,2,0,B|349:367|349:367|437:289,1,130,8|8,1:3|2:1,2:0:0:0:
409,227,90012,5,8,3:0:0:0:
447,192,90199,2,0,B|560:238,2,65,8|8|0,2:1|2:1|2:3,2:0:0:0:
440,140,90762,1,4,1:0:0:0:
385,59,91137,5,8,2:1:0:0:
347,24,91324,2,0,L|107:52,1,130,8|2,2:1|2:0,2:0:0:0:
195,86,91887,2,0,L|281:182,1,65,8|2,2:1|2:3,2:3:0:0:
273,173,92262,2,0,B|316:222|316:222|369:122,1,130,2|8,2:3|2:1,2:0:0:0:
440,140,93012,6,0,B|470:157|470:157|432:372,1,130,4|8,1:0|2:0,2:0:0:0:
471,300,93574,1,2,2:0:0:0:
468,307,93762,1,2,2:1:0:0:
375,338,94137,2,2,B|353:362|353:362|277:307,1,65,8|0,3:1|2:0,2:3:0:0:
288,308,94512,6,0,B|240:313|240:313|235:310|235:310|231:314|231:314|100:327,1,130,8|8,1:3|2:0,2:0:0:0:
123,357,95074,1,2,2:0:0:0:
75,336,95262,2,0,B|39:282|39:282|121:173,1,130,8|8,1:3|2:1,2:0:0:0:
172,204,96012,6,0,B|180:223|180:223|388:201,1,130,8|8,3:0|2:1,2:0:0:0:
337,192,96574,1,8,2:1:0:0:
343,140,96762,2,0,L|226:-1,1,130,4|8,1:0|2:1,2:1:0:0:
208,46,97324,1,8,2:1:0:0:
204,53,97512,6,0,L|162:156,2,65,8|2|8,2:3|2:3|2:1,2:0:0:0:
116,11,98262,2,2,P|70:68|94:91,1,65,2|2,2:0|2:0,2:0:0:0:
43,90,98637,2,0,L|71:213,1,65,10|2,2:1|2:0,2:0:0:0:
81,200,99012,6,0,L|189:182,2,65,4|2|10,1:0|2:1|2:0,2:0:0:0:
46,239,99574,1,2,2:0:0:0:
69,286,99762,2,0,P|164:298|157:283,1,130,2|8,2:1|3:1,2:0:0:0:
212,302,100512,5,8,1:3:0:0:
236,348,100699,2,0,B|261:369|261:369|332:317,1,65,2|8,2:1|2:0,2:0:0:0:
321,310,101074,2,0,L|496:332,1,130,2|0,2:0|2:0,2:0:0:0:
482,285,101637,2,0,L|444:181,1,65,8|0,2:1|2:0,2:0:0:0:
435,178,102012,5,4,1:3:0:0:
383,177,102199,2,0,B|321:276,2,65,8|8|0,2:1|2:1|2:3,2:0:0:0:
359,131,102762,1,4,1:0:0:0:
319,42,103137,5,10,2:1:0:0:
275,15,103324,2,0,B|205:24|205:24|187:57|187:57|216:137,1,130,8|0,2:1|2:0,2:0:0:0:
188,129,103887,1,8,2:1:0:0:
144,157,104074,1,2,2:3:0:0:
95,139,104262,2,0,B|115:163|115:163|99:329,1,130,0|8,2:0|2:1,2:0:0:0:
143,297,104824,1,2,2:0:0:0:
230,341,105199,6,0,B|256:360|256:360|332:306,1,65,2|2,3:2|1:0,2:0:0:0:
324,309,105574,1,2,2:0:0:0:
370,334,105762,2,0,B|394:328|394:328|435:140,1,130,2|8,2:1|3:1,2:0:0:0:
437,130,106512,5,8,1:3:0:0:
391,106,106699,2,0,P|333:145|352:174,1,65,2|8,2:1|2:0,2:0:0:0:
313,171,107074,2,0,P|211:157|227:140,1,130,2|0,2:0|2:0,2:0:0:0:
199,197,107637,1,8,1:0:0:0:
104,219,108012,6,0,L|-42:8,1,130,4|8,1:3|2:1,2:0:0:0:
0,70,108574,1,8,2:1:0:0:
29,27,108762,2,0,L|281:6,1,130,4|8,1:0|2:1,2:1:0:0:
192,56,109324,1,8,2:1:0:0:
195,63,109512,6,0,L|146:167,2,65,4|2|8,2:3|2:3|2:1,2:0:0:0:
291,47,110262,2,0,P|337:108|328:115,1,65,2|2,2:0|2:0,2:0:0:0:
360,117,110637,2,0,P|436:101|432:85,1,65,10|2,2:1|2:0,2:0:0:0:
455,105,111012,5,10,2:3:0:0:
487,197,111387,1,8,2:1:0:0:
488,205,111574,2,0,L|443:367,1,130,0|0,2:0|2:3,2:0:0:0:
416,367,112137,2,0,L|326:279,1,65,10|2,3:2|3:2,2:0:0:0:
332,285,112512,2,0,L|404:214,2,97.5,10|2|2,2:0|2:0|3:2,2:0:0:0:
192,355,113637,6,0,P|134:309|142:298,1,65,10|2,3:2|3:2,2:0:0:0:
112,298,114012,2,0,L|-14:307,2,65,8|2|8,1:3|2:3|2:1,2:0:0:0:
193,243,114762,2,0,B|223:185|223:185|155:85,1,130,8|10,3:0|3:2,2:0:0:0:
144,102,115324,1,2,3:2:0:0:
138,107,115512,1,10,1:3:0:0:
41,116,115887,1,8,2:1:0:0:
36,121,116074,2,0,L|49:329,1,130,2|0,2:3|2:0,2:0:0:0:
48,303,116637,2,0,P|108:360|105:365,1,65,8|0,2:1|3:0,2:0:0:0:
133,361,117012,5,10,2:3:0:0:
202,292,117387,1,8,2:1:0:0:
206,299,117574,2,0,L|404:345,1,130,0|0,2:0|2:3,2:0:0:0:
361,285,118137,2,0,L|324:163,1,65,10|2,3:2|3:2,2:0:0:0:
327,173,118512,2,0,B|222:229,2,97.5,10|2|2,2:0|2:0|3:2,2:0:0:0:
481,197,119637,6,0,L|492:97,1,65,10|2,3:2|3:2,2:0:0:0:
512,86,120012,2,0,P|411:40|418:95,1,130,10|8,2:3|2:1,2:0:0:0:
414,50,120574,2,0,B|389:71|389:71|310:20,1,65,2|8,2:3|2:3,2:0:0:0:
328,14,120949,1,2,2:3:0:0:
250,72,121324,1,2,1:2:0:0:
244,77,121512,2,2,L|154:-3,1,65,8|0,1:3|2:3,2:0:0:0:
145,20,121887,2,2,L|94:127,1,65,8|0,2:0|1:0,2:0:0:0:
95,126,122262,2,0,B|67:184|67:184|72:190|72:190|254:161,1,227.5,10|2,2:3|2:0,2:0:0:0:
