osu file format v14

[General]
AudioFilename: audio.mp3
AudioLeadIn: 0
PreviewTime: 87012
Countdown: 0
SampleSet: Soft
StackLeniency: 0.4
Mode: 0
LetterboxInBreaks: 0
EpilepsyWarning: 1
WidescreenStoryboard: 1

[Editor]
Bookmarks: 27012,39012,40512,63012
DistanceSpacing: 1.2
BeatDivisor: 4
GridSize: 4
TimelineZoom: 2.3

[Metadata]
Title:triangles
TitleUnicode:triangles
Artist:cYsmix
ArtistUnicode:cYsmix
Creator:yf_bmp
Version:Hard
Source:osu!
Tags:electronic instrumental lazer triangles contest featured artist fa TtmnZk Chaoslitz Yugu Yumeno Himiko
BeatmapID:3783211
BeatmapSetID:1841885

[Difficulty]
HPDrainRate:5
CircleSize:4
OverallDifficulty:6.6
ApproachRate:8
SliderMultiplier:1.5
SliderTickRate:1

[Events]
//Background and Video events
0,0,"bg.png",0,0
//Break Periods
2,63212,74262
//Storyboard Layer 0 (Background)
//Storyboard Layer 1 (Fail)
//Storyboard Layer 2 (Pass)
//Storyboard Layer 3 (Foreground)
Sprite,Foreground,CentreLeft,"SB\text\exo2_a42.png",-67,415 S,0,63012,,0.1 C,0,63012,,41,67,28 F,0,63293,63793,0,0.75 F,0,75012,75199,0.75,0
Sprite,Foreground,CentreLeft,"SB\text\exo2_a65.png",-61,415 S,0,63012,,0.1 C,0,63012,,41,67,28 F,0,63293,63793,0,0.75 F,0,75012,75199,0.75,0
Sprite,Foreground,CentreLeft,"SB\text\exo2_a61.png",0,0 S,0,63012,,0.1 C,0,63012,,41,67,28 M,0,63012,75012,-55.8,415 F,0,63293,63793,0,0.75 F,0,75012,75199,0.75,0
Sprite,Foreground,CentreLeft,"SB\text\exo2_a74.png",0,0 S,0,63012,,0.1 C,0,63012,,41,67,28 M,0,63012,75012,-50.5,415 F,0,63293,63793,0,0.75 F,0,75012,75199,0.75,0
Sprite,Foreground,CentreLeft,"SB\text\exo2_a6d.png",0,0 S,0,63012,,0.1 C,0,63012,,41,67,28 M,0,63012,75012,-46.8,415 F,0,63293,63793,0,0.75 F,0,75012,75199,0.75,0
Sprite,Foreground,CentreLeft,"SB\text\exo2_a61.png",0,0 S,0,63012,,0.1 C,0,63012,,41,67,28 M,0,63012,75012,-38.4,415 F,0,63293,63793,0,0.75 F,0,75012,75199,0.75,0
Sprite,Foreground,CentreLeft,"SB\text\exo2_a70.png",0,0 S,0,63012,,0.1 C,0,63012,,41,67,28 M,0,63012,75012,-33.1,415 F,0,63293,63793,0,0.75 F,0,75012,75199,0.75,0
Sprite,Foreground,CentreLeft,"SB\text\exo2_a3a.png",0,0 S,0,63012,,0.1 C,0,63012,,41,67,28 M,0,63012,75012,-27.5,415 F,0,63293,63793,0,0.75 F,0,75012,75199,0.75,0
Sprite,Foreground,CentreLeft,"SB\text\exo2_a79.png",0,0 S,0,63012,,0.1 C,0,63012,,41,67,28 M,0,63012,75012,-23.1,415 F,0,63293,63793,0,0.75 F,0,75012,75199,0.75,0
Sprite,Foreground,CentreLeft,"SB\text\exo2_a66.png",0,0 S,0,63012,,0.1 C,0,63012,,41,67,28 M,0,63012,75012,-18,415 F,0,63293,63793,0,0.75 F,0,75012,75199,0.75,0
Sprite,Foreground,CentreLeft,"SB\text\exo2_a5f.png",0,0 S,0,63012,,0.1 C,0,63012,,41,67,28 M,0,63012,75012,-14.4,415 F,0,63293,63793,0,0.75 F,0,75012,75199,0.75,0
Sprite,Foreground,CentreLeft,"SB\text\exo2_a62.png",0,0 S,0,63012,,0.1 C,0,63012,,41,67,28 M,0,63012,75012,-10.2,415 F,0,63293,63793,0,0.75 F,0,75012,75199,0.75,0
Sprite,Foreground,CentreLeft,"SB\text\exo2_a6d.png",0,0 S,0,63012,,0.1 C,0,63012,,41,67,28 M,0,63012,75012,-4.7,415 F,0,63293,63793,0,0.75 F,0,75012,75199,0.75,0
Sprite,Foreground,CentreLeft,"SB\text\exo2_a70.png",0,0 S,0,63012,,0.1 C,0,63012,,41,67,28 M,0,63012,75012,3.7,415 F,0,63293,63793,0,0.75 F,0,75012,75199,0.75,0
Sprite,Foreground,CentreLeft,"SB\text\exo2_a48.png",-67,425 S,0,63012,,0.1 C,0,63012,,41,67,28 F,0,63293,63793,0,0.75 F,0,75012,75199,0.75,0
Sprite,Foreground,CentreLeft,"SB\text\exo2_a69.png",0,0 S,0,63012,,0.1 C,0,63012,,41,67,28 M,0,63012,75012,-60.6,425 F,0,63293,63793,0,0.75 F,0,75012,75199,0.75,0
Sprite,Foreground,CentreLeft,"SB\text\exo2_a74.png",0,0 S,0,63012,,0.1 C,0,63012,,41,67,28 M,0,63012,75012,-58.2,425 F,0,63293,63793,0,0.75 F,0,75012,75199,0.75,0
Sprite,Foreground,CentreLeft,"SB\text\exo2_a73.png",0,0 S,0,63012,,0.1 C,0,63012,,41,67,28 M,0,63012,75012,-54.5,425 F,0,63293,63793,0,0.75 F,0,75012,75199,0.75,0
Sprite,Foreground,CentreLeft,"SB\text\exo2_a6f.png",0,0 S,0,63012,,0.1 C,0,63012,,41,67,28 M,0,63012,75012,-49.6,425 F,0,63293,63793,0,0.75 F,0,75012,75199,0.75,0
Sprite,Foreground,CentreLeft,"SB\text\exo2_a75.png",0,0 S,0,63012,,0.1 C,0,63012,,41,67,28 M,0,63012,75012,-44.1,425 F,0,63293,63793,0,0.75 F,0,75012,75199,0.75,0
Sprite,Foreground,CentreLeft,"SB\text\exo2_a6e.png",0,0 S,0,63012,,0.1 C,0,63012,,41,67,28 M,0,63012,75012,-38.6,425 F,0,63293,63793,0,0.75 F,0,75012,75199,0.75,0
Sprite,Foreground,CentreLeft,"SB\text\exo2_a64.png",-33,425 S,0,63012,,0.1 C,0,63012,,41,67,28 F,0,63293,63793,0,0.75 F,0,75012,75199,0.75,0
Sprite,Foreground,CentreLeft,"SB\text\exo2_a73.png",0,0 S,0,63012,,0.1 C,0,63012,,41,67,28 M,0,63012,75012,-27.5,425 F,0,63293,63793,0,0.75 F,0,75012,75199,0.75,0
Sprite,Foreground,CentreLeft,"SB\text\exo2_a3a.png",0,0 S,0,63012,,0.1 C,0,63012,,41,67,28 M,0,63012,75012,-22.6,425 F,0,63293,63793,0,0.75 F,0,75012,75199,0.75,0
Sprite,Foreground,CentreLeft,"SB\text\exo2_a54.png",0,0 S,0,63012,,0.1 C,0,63012,,41,67,28 M,0,63012,75012,-18.2,425 F,0,63293,63793,0,0.75 F,0,75012,75199,0.75,0
Sprite,Foreground,CentreLeft,"SB\text\exo2_a74.png",0,0 S,0,63012,,0.1 C,0,63012,,41,67,28 M,0,63012,75012,-12.6,425 F,0,63293,63793,0,0.75 F,0,75012,75199,0.75,0
Sprite,Foreground,CentreLeft,"SB\text\exo2_a6d.png",0,0 S,0,63012,,0.1 C,0,63012,,41,67,28 M,0,63012,75012,-8.9,425 F,0,63293,63793,0,0.75 F,0,75012,75199,0.75,0
Sprite,Foreground,CentreLeft,"SB\text\exo2_a6e.png",0,0 S,0,63012,,0.1 C,0,63012,,41,67,28 M,0,63012,75012,-0.5,425 F,0,63293,63793,0,0.75 F,0,75012,75199,0.75,0
Sprite,Foreground,CentreLeft,"SB\text\exo2_a5a.png",0,0 S,0,63012,,0.1 C,0,63012,,41,67,28 M,0,63012,75012,5.1,425 F,0,63293,63793,0,0.75 F,0,75012,75199,0.75,0
Sprite,Foreground,CentreLeft,"SB\text\exo2_a6b.png",0,0 S,0,63012,,0.1 C,0,63012,,41,67,28 M,0,63012,75012,10.5,425 F,0,63293,63793,0,0.75 F,0,75012,75199,0.75,0
Sprite,Foreground,CentreLeft,"SB\text\exo2_a53.png",-67,435 S,0,63012,,0.1 C,0,63012,,41,67,28 F,0,63293,63793,0,0.75 F,0,75012,75199,0.75,0
Sprite,Foreground,CentreLeft,"SB\text\exo2_a74.png",0,0 S,0,63012,,0.1 C,0,63012,,41,67,28 M,0,63012,75012,-61.6,435 F,0,63293,63793,0,0.75 F,0,75012,75199,0.75,0
Sprite,Foreground,CentreLeft,"SB\text\exo2_a6f.png",0,0 S,0,63012,,0.1 C,0,63012,,41,67,28 M,0,63012,75012,-57.9,435 F,0,63293,63793,0,0.75 F,0,75012,75199,0.75,0
Sprite,Foreground,CentreLeft,"SB\text\exo2_a72.png",0,0 S,0,63012,,0.1 C,0,63012,,41,67,28 M,0,63012,75012,-52.4,435 F,0,63293,63793,0,0.75 F,0,75012,75199,0.75,0
Sprite,Foreground,CentreLeft,"SB\text\exo2_a79.png",0,0 S,0,63012,,0.1 C,0,63012,,41,67,28 M,0,63012,75012,-48.6,435 F,0,63293,63793,0,0.75 F,0,75012,75199,0.75,0
Sprite,Foreground,CentreLeft,"SB\text\exo2_a62.png",0,0 S,0,63012,,0.1 C,0,63012,,41,67,28 M,0,63012,75012,-43.5,435 F,0,63293,63793,0,0.75 F,0,75012,75199,0.75,0
Sprite,Foreground,CentreLeft,"SB\text\exo2_a6f.png",-38,435 S,0,63012,,0.1 C,0,63012,,41,67,28 F,0,63293,63793,0,0.75 F,0,75012,75199,0.75,0
Sprite,Foreground,CentreLeft,"SB\text\exo2_a61.png",0,0 S,0,63012,,0.1 C,0,63012,,41,67,28 M,0,63012,75012,-32.5,435 F,0,63293,63793,0,0.75 F,0,75012,75199,0.75,0
Sprite,Foreground,CentreLeft,"SB\text\exo2_a72.png",0,0 S,0,63012,,0.1 C,0,63012,,41,67,28 M,0,63012,75012,-27.2,435 F,0,63293,63793,0,0.75 F,0,75012,75199,0.75,0
Sprite,Foreground,CentreLeft,"SB\text\exo2_a64.png",0,0 S,0,63012,,0.1 C,0,63012,,41,67,28 M,0,63012,75012,-23.4,435 F,0,63293,63793,0,0.75 F,0,75012,75199,0.75,0
Sprite,Foreground,CentreLeft,"SB\text\exo2_a3a.png",0,0 S,0,63012,,0.1 C,0,63012,,41,67,28 M,0,63012,75012,-17.9,435 F,0,63293,63793,0,0.75 F,0,75012,75199,0.75,0
Sprite,Foreground,CentreLeft,"SB\text\exo2_a59.png",0,0 S,0,63012,,0.1 C,0,63012,,41,67,28 M,0,63012,75012,-13.5,435 F,0,63293,63793,0,0.75 F,0,75012,75199,0.75,0
Sprite,Foreground,CentreLeft,"SB\text\exo2_a75.png",0,0 S,0,63012,,0.1 C,0,63012,,41,67,28 M,0,63012,75012,-8,435 F,0,63293,63793,0,0.75 F,0,75012,75199,0.75,0
Sprite,Foreground,CentreLeft,"SB\text\exo2_a6d.png",0,0 S,0,63012,,0.1 C,0,63012,,41,67,28 M,0,63012,75012,-2.5,435 F,0,63293,63793,0,0.75 F,0,75012,75199,0.75,0
Sprite,Foreground,CentreLeft,"SB\text\exo2_a65.png",0,0 S,0,63012,,0.1 C,0,63012,,41,67,28 M,0,63012,75012,5.9,435 F,0,63293,63793,0,0.75 F,0,75012,75199,0.75,0
Sprite,Foreground,CentreLeft,"SB\text\exo2_a6e.png",0,0 S,0,63012,,0.1 C,0,63012,,41,67,28 M,0,63012,75012,11.1,435 F,0,63293,63793,0,0.75 F,0,75012,75199,0.75,0
Sprite,Foreground,CentreLeft,"SB\text\exo2_a6f.png",0,0 S,0,63012,,0.1 C,0,63012,,41,67,28 M,0,63012,75012,16.7,435 F,0,63293,63793,0,0.75 F,0,75012,75199,0.75,0
Sprite,Foreground,CentreLeft,"SB\text\exo2_a48.png",0,0 S,0,63012,,0.1 C,0,63012,,41,67,28 M,0,63012,75012,24.3,435 F,0,63293,63793,0,0.75 F,0,75012,75199,0.75,0
Sprite,Foreground,CentreLeft,"SB\text\exo2_a69.png",0,0 S,0,63012,,0.1 C,0,63012,,41,67,28 M,0,63012,75012,30.7,435 F,0,63293,63793,0,0.75 F,0,75012,75199,0.75,0
Sprite,Foreground,CentreLeft,"SB\text\exo2_a6d.png",0,0 S,0,63012,,0.1 C,0,63012,,41,67,28 M,0,63012,75012,33.1,435 F,0,63293,63793,0,0.75 F,0,75012,75199,0.75,0
Sprite,Foreground,CentreLeft,"SB\text\exo2_a69.png",0,0 S,0,63012,,0.1 C,0,63012,,41,67,28 M,0,63012,75012,41.5,435 F,0,63293,63793,0,0.75 F,0,75012,75199,0.75,0
Sprite,Foreground,CentreLeft,"SB\text\exo2_a6b.png",0,0 S,0,63012,,0.1 C,0,63012,,41,67,28 M,0,63012,75012,43.9,435 F,0,63293,63793,0,0.75 F,0,75012,75199,0.75,0
Sprite,Foreground,CentreLeft,"SB\text\exo2_a6f.png",0,0 S,0,63012,,0.1 C,0,63012,,41,67,28 M,0,63012,75012,48.8,435 F,0,63293,63793,0,0.75 F,0,75012,75199,0.75,0
Sprite,Foreground,CentreLeft,"SB\text\exo2_a2c.png",0,0 S,0,63012,,0.1 C,0,63012,,41,67,28 M,0,63012,75012,54.3,435 F,0,63293,63793,0,0.75 F,0,75012,75199,0.75,0
Sprite,Foreground,CentreLeft,"SB\text\exo2_a79.png",0,0 S,0,63012,,0.1 C,0,63012,,41,67,28 M,0,63012,75012,58.6,435 F,0,63293,63793,0,0.75 F,0,75012,75199,0.75,0
Sprite,Foreground,CentreLeft,"SB\text\exo2_a66.png",0,0 S,0,63012,,0.1 C,0,63012,,41,67,28 M,0,63012,75012,63.7,435 F,0,63293,63793,0,0.75 F,0,75012,75199,0.75,0
Sprite,Foreground,CentreLeft,"SB\text\exo2_a5f.png",0,0 S,0,63012,,0.1 C,0,63012,,41,67,28 M,0,63012,75012,67.3,435 F,0,63293,63793,0,0.75 F,0,75012,75199,0.75,0
Sprite,Foreground,CentreLeft,"SB\text\exo2_a62.png",0,0 S,0,63012,,0.1 C,0,63012,,41,67,28 M,0,63012,75012,71.5,435 F,0,63293,63793,0,0.75 F,0,75012,75199,0.75,0
Sprite,Foreground,CentreLeft,"SB\text\exo2_a6d.png",77,435 S,0,63012,,0.1 C,0,63012,,41,67,28 F,0,63293,63793,0,0.75 F,0,75012,75199,0.75,0
Sprite,Foreground,CentreLeft,"SB\text\exo2_a70.png",0,0 S,0,63012,,0.1 C,0,63012,,41,67,28 M,0,63012,75012,85.4,435 F,0,63293,63793,0,0.75 F,0,75012,75199,0.75,0
Sprite,Foreground,CentreLeft,"SB\text\exo2_a2c.png",91,435 S,0,63012,,0.1 C,0,63012,,41,67,28 F,0,63293,63793,0,0.75 F,0,75012,75199,0.75,0
Sprite,Foreground,CentreLeft,"SB\text\exo2_a43.png",0,0 S,0,63012,,0.1 C,0,63012,,41,67,28 M,0,63012,75012,95.3,435 F,0,63293,63793,0,0.75 F,0,75012,75199,0.75,0
Sprite,Foreground,CentreLeft,"SB\text\exo2_a68.png",0,0 S,0,63012,,0.1 C,0,63012,,41,67,28 M,0,63012,75012,100.8,435 F,0,63293,63793,0,0.75 F,0,75012,75199,0.75,0
Sprite,Foreground,CentreLeft,"SB\text\exo2_a61.png",0,0 S,0,63012,,0.1 C,0,63012,,41,67,28 M,0,63012,75012,106.4,435 F,0,63293,63793,0,0.75 F,0,75012,75199,0.75,0
Sprite,Foreground,CentreLeft,"SB\text\exo2_a6f.png",0,0 S,0,63012,,0.1 C,0,63012,,41,67,28 M,0,63012,75012,111.7,435 F,0,63293,63793,0,0.75 F,0,75012,75199,0.75,0
Sprite,Foreground,CentreLeft,"SB\text\exo2_a73.png",0,0 S,0,63012,,0.1 C,0,63012,,41,67,28 M,0,63012,75012,117.2,435 F,0,63293,63793,0,0.75 F,0,75012,75199,0.75,0
Sprite,Foreground,CentreLeft,"SB\text\exo2_a6c.png",0,0 S,0,63012,,0.1 C,0,63012,,41,67,28 M,0,63012,75012,122.1,435 F,0,63293,63793,0,0.75 F,0,75012,75199,0.75,0
Sprite,Foreground,CentreLeft,"SB\text\exo2_a69.png",125,435 S,0,63012,,0.1 C,0,63012,,41,67,28 F,0,63293,63793,0,0.75 F,0,75012,75199,0.75,0
Sprite,Foreground,CentreLeft,"SB\text\exo2_a74.png",0,0 S,0,63012,,0.1 C,0,63012,,41,67,28 M,0,63012,75012,127.4,435 F,0,63293,63793,0,0.75 F,0,75012,75199,0.75,0
Sprite,Foreground,CentreLeft,"SB\text\exo2_a7a.png",0,0 S,0,63012,,0.1 C,0,63012,,41,67,28 M,0,63012,75012,131.1,435 F,0,63293,63793,0,0.75 F,0,75012,75199,0.75,0
//Storyboard Layer 4 (Overlay)
//Storyboard Sound Samples

[TimingPoints]
1512,375,4,2,2,80,1,0
1699,-100,4,2,1,80,0,0
1887,-100,4,2,2,80,0,0
2074,-125,4,2,2,80,0,0
3012,375,4,2,1,80,1,0
3387,-100,4,2,2,80,0,0
3574,-100,4,2,1,80,0,0
3762,-100,4,2,2,80,0,0
3949,-100,4,2,1,80,0,0
4137,-100,4,2,2,80,0,0
4324,-100,4,2,1,80,0,0
4512,-100,4,2,2,80,0,0
4699,-100,4,2,1,80,0,0
4887,-100,4,2,2,80,0,0
5074,-100,4,2,1,80,0,0
5262,-100,4,2,2,80,0,0
5449,-100,4,2,1,80,0,0
5637,-100,4,2,2,80,0,0
5824,-100,4,2,1,80,0,0
6012,-100,4,2,2,80,0,0
6293,-100,4,2,2,5,0,0
6387,-100,4,2,2,80,0,0
6574,-100,4,2,1,80,0,0
6621,-100,4,2,2,80,0,0
6855,-100,4,2,2,5,0,0
6949,-100,4,2,1,80,0,0
7137,-100,4,2,2,80,0,0
7324,-100,4,2,1,80,0,0
7512,-100,4,2,2,80,0,0
7699,-100,4,2,1,80,0,0
7887,-100,4,2,2,80,0,0
8074,-100,4,2,1,80,0,0
8262,-100,4,2,2,80,0,0
8449,-100,4,2,1,80,0,0
8637,-100,4,2,2,80,0,0
8824,-100,4,2,1,80,0,0
9012,-100,4,2,2,80,0,0
9574,-100,4,2,1,80,0,0
9762,-100,4,2,2,80,0,0
9949,-100,4,2,1,80,0,0
10137,-100,4,2,2,80,0,0
10324,-100,4,2,1,80,0,0
10512,-100,4,2,2,80,0,0
10699,-100,4,2,1,80,0,0
10887,-100,4,2,2,80,0,0
11074,-100,4,2,1,80,0,0
11262,-100,4,2,2,80,0,0
11449,-100,4,2,1,80,0,0
11637,-100,4,2,2,80,0,0
11824,-100,4,2,1,80,0,0
12012,-100,4,2,3,80,0,0
12199,-100,4,2,1,80,0,0
12387,-100,4,2,2,80,0,0
12574,-100,4,2,1,80,0,0
12762,-100,4,2,2,80,0,0
12949,-100,4,2,1,80,0,0
13137,-100,4,2,2,80,0,0
13324,-100,4,2,1,80,0,0
13512,-100,4,2,2,80,0,0
13699,-100,4,2,1,80,0,0
13887,-100,4,2,2,80,0,0
14074,-100,4,2,1,80,0,0
14262,-100,4,2,2,80,0,0
14730,-100,4,2,1,80,0,0
14918,-100,4,2,2,80,0,0
21012,-100,4,2,2,85,0,0
21199,-100,4,2,1,85,0,0
21387,-100,4,2,2,85,0,0
21574,-100,4,2,1,85,0,0
21762,-100,4,2,2,85,0,0
21949,-100,4,2,1,85,0,0
22137,-100,4,2,2,85,0,0
22699,-100,4,2,1,85,0,0
22887,-100,4,2,2,85,0,0
23074,-100,4,2,1,85,0,0
23262,-100,4,2,2,85,0,0
23449,-100,4,2,1,85,0,0
23637,-100,4,2,2,85,0,0
24012,-100,4,2,1,75,0,0
25512,-100,4,2,1,80,0,0
26637,-100,4,2,2,60,0,0
27012,-100,4,2,2,75,0,0
27199,-100,4,2,1,75,0,0
27386,-100,4,2,2,75,0,0
27480,-100,4,2,1,75,0,0
28043,-100,4,2,2,75,0,0
28324,-100,4,2,1,75,0,0
28887,-100,4,2,1,65,0,0
29074,-100,4,2,2,65,0,0
29262,-100,4,2,2,85,0,0
30012,-100,4,2,2,75,0,0
30199,-100,4,2,1,75,0,0
30386,-100,4,2,2,75,0,0
30480,-100,4,2,1,75,0,0
31043,-100,4,2,2,75,0,0
31324,-100,4,2,1,75,0,0
31512,-100,4,2,2,85,0,0
31699,-100,4,2,1,85,0,0
31886,-100,4,2,2,85,0,0
31980,-100,4,2,1,85,0,0
32543,-100,4,2,2,85,0,0
32824,-100,4,2,1,85,0,0
33012,-100,4,2,2,90,0,0
34511,-100,4,2,2,90,0,0
36012,-100,4,2,2,70,0,0
36855,-100,4,2,1,70,0,0
36949,-100,4,2,2,70,0,0
37887,-83.3333333333333,4,2,1,95,0,0
38168,-83.3333333333333,4,2,1,5,0,0
38262,-71.4285714285714,4,2,1,65,0,0
38543,-71.4285714285714,4,2,1,5,0,0
38637,-71.4285714285714,4,2,2,95,0,0
39012,-71.4285714285714,4,2,2,92,0,1
39668,-90.9090909090909,4,2,2,92,0,1
40137,-90.9090909090909,4,2,2,92,0,1
40324,-90.9090909090909,4,2,2,92,0,1
41637,-90.9090909090909,4,2,2,92,0,1
41824,-90.9090909090909,4,2,2,92,0,1
43137,-90.9090909090909,4,2,2,92,0,1
43324,-90.9090909090909,4,2,2,92,0,1
45105,-90.9090909090909,4,2,1,92,0,1
45199,-90.9090909090909,4,2,2,92,0,1
46137,-90.9090909090909,4,2,2,92,0,1
46324,-90.9090909090909,4,2,2,92,0,1
48105,-90.9090909090909,4,2,1,92,0,1
48199,-90.9090909090909,4,2,2,92,0,1
49605,-90.9090909090909,4,2,1,92,0,1
49699,-90.9090909090909,4,2,2,92,0,1
50918,-90.9090909090909,4,2,2,92,0,0
51012,-90.9090909090909,4,2,2,92,0,1
51105,-90.9090909090909,4,2,1,92,0,1
51199,-90.9090909090909,4,2,2,92,0,1
51574,-90.9090909090909,4,2,1,92,0,1
51762,-90.9090909090909,4,2,2,92,0,1
52137,-90.9090909090909,4,2,2,92,0,1
52324,-90.9090909090909,4,2,2,92,0,1
53074,-90.9090909090909,4,2,1,92,0,1
53262,-90.9090909090909,4,2,2,92,0,1
53637,-90.9090909090909,4,2,2,92,0,1
53824,-90.9090909090909,4,2,2,92,0,1
54105,-90.9090909090909,4,2,1,92,0,1
54199,-90.9090909090909,4,2,2,92,0,1
54574,-90.9090909090909,4,2,1,92,0,1
54762,-90.9090909090909,4,2,2,92,0,1
55137,-90.9090909090909,4,2,2,92,0,1
55324,-90.9090909090909,4,2,2,92,0,1
56074,-90.9090909090909,4,2,1,92,0,1
56262,-90.9090909090909,4,2,2,92,0,1
57012,-90.9090909090909,4,2,2,80,0,1
57762,-90.9090909090909,4,2,2,80,0,1
58417,-90.9090909090909,4,2,1,80,0,1
58512,-90.9090909090909,4,2,2,80,0,1
59917,-90.9090909090909,4,2,1,80,0,1
60012,-76.9230769230769,4,2,2,80,0,1
60387,-83.3333333333333,4,2,2,80,0,1
60762,-90.9090909090909,4,2,2,75,0,1
61137,-100,4,2,2,75,0,1
61512,-111.111111111111,4,2,2,70,0,1
61887,-125,4,2,2,70,0,1
62262,-142.857142857143,4,2,2,60,0,1
62637,-166.666666666667,4,2,2,60,0,1
63012,-166.666666666667,4,2,2,80,0,0
75012,-166.666666666667,4,2,1,75,0,0
75574,-100,4,2,2,75,0,0
76324,-100,4,2,1,75,0,0
76512,-100,4,2,1,75,0,0
77074,-100,4,2,2,75,0,0
77824,-100,4,2,1,75,0,0
78012,-100,4,2,1,75,0,0
78105,-100,4,2,2,75,0,0
78574,-100,4,2,1,75,0,0
79137,-100,4,2,1,75,0,0
79324,-100,4,2,2,75,0,0
80824,-100,4,2,1,75,0,0
81574,-100,4,2,2,75,0,0
82324,-100,4,2,1,75,0,0
82512,-100,4,2,1,75,0,0
83074,-100,4,2,2,75,0,0
83824,-100,4,2,1,75,0,0
84012,-100,4,2,2,75,0,0
84574,-100,4,2,2,75,0,0
85137,-100,4,2,2,75,0,0
86168,-100,4,2,1,70,0,0
86262,-100,4,2,2,40,0,0
86355,-100,4,2,2,50,0,0
86449,-100,4,2,2,25,0,0
86636,-100,4,2,2,80,0,0
87012,-90.9090909090909,4,2,1,95,0,1
87293,-90.9090909090909,4,2,1,95,0,1
87387,-90.9090909090909,4,2,1,95,0,1
87855,-90.9090909090909,4,2,1,95,0,1
88137,-90.9090909090909,4,2,2,95,0,1
88324,-90.9090909090909,4,2,1,95,0,1
88512,-90.9090909090909,4,2,1,95,0,1
88793,-90.9090909090909,4,2,1,95,0,1
88887,-90.9090909090909,4,2,1,95,0,1
89074,-90.9090909090909,4,2,2,95,0,1
89262,-90.9090909090909,4,2,1,95,0,1
89449,-90.9090909090909,4,2,1,95,0,1
89637,-90.9090909090909,4,2,1,95,0,1
89824,-90.9090909090909,4,2,2,95,0,1
90762,-90.9090909090909,4,2,1,95,0,1
91137,-90.9090909090909,4,2,2,95,0,1
93012,-90.9090909090909,4,2,1,95,0,1
93293,-90.9090909090909,4,2,1,95,0,1
93387,-90.9090909090909,4,2,1,95,0,1
93855,-90.9090909090909,4,2,1,95,0,1
94137,-90.9090909090909,4,2,2,95,0,1
94324,-90.9090909090909,4,2,1,95,0,1
94512,-90.9090909090909,4,2,2,95,0,1
94793,-90.9090909090909,4,2,1,95,0,1
94887,-90.9090909090909,4,2,2,95,0,1
95262,-90.9090909090909,4,2,1,95,0,1
95449,-90.9090909090909,4,2,1,95,0,1
95637,-90.9090909090909,4,2,1,95,0,1
95824,-90.9090909090909,4,2,2,95,0,1
96949,-90.9090909090909,4,2,1,95,0,1
97137,-90.9090909090909,4,2,2,95,0,1
97512,-90.9090909090909,4,2,2,80,0,1
98262,-90.9090909090909,4,2,1,90,0,1
98637,-90.9090909090909,4,2,2,80,0,1
98730,-90.9090909090909,4,2,1,80,0,1
98918,-90.9090909090909,4,2,1,80,0,0
99012,-83.3333333333333,4,2,1,95,0,1
99949,-83.3333333333333,4,2,1,95,0,1
100137,-83.3333333333333,4,2,2,95,0,1
100230,-83.3333333333333,4,2,1,95,0,1
100512,-83.3333333333333,4,2,2,95,0,1
101449,-83.3333333333333,4,2,1,95,0,1
101637,-83.3333333333333,4,2,2,95,0,1
101730,-83.3333333333333,4,2,1,95,0,1
102012,-83.3333333333333,4,2,2,95,0,1
102762,-83.3333333333333,4,2,1,95,0,1
103137,-83.3333333333333,4,2,2,95,0,1
105199,-83.3333333333333,4,2,1,95,0,1
105949,-83.3333333333333,4,2,1,95,0,1
106137,-83.3333333333333,4,2,2,95,0,1
106230,-83.3333333333333,4,2,1,95,0,1
106512,-83.3333333333333,4,2,2,95,0,1
107449,-83.3333333333333,4,2,1,95,0,1
107637,-83.3333333333333,4,2,2,95,0,1
107824,-83.3333333333333,4,2,1,95,0,1
108012,-83.3333333333333,4,2,2,95,0,1
108199,-83.3333333333333,4,2,1,95,0,1
108386,-83.3333333333333,4,2,2,95,0,1
108949,-83.3333333333333,4,2,1,95,0,1
109137,-83.3333333333333,4,2,2,95,0,1
109512,-83.3333333333333,4,2,2,80,0,1
110262,-90.9090909090909,4,2,1,90,0,1
110637,-90.9090909090909,4,2,2,80,0,1
110730,-90.9090909090909,4,2,1,80,0,1
111012,-100,4,2,2,85,0,0
111855,-100,4,2,1,85,0,0
111949,-100,4,2,2,85,0,0
112137,-100,4,2,1,85,0,0
112230,-100,4,2,1,85,0,0
112324,-100,4,2,1,85,0,0
112512,-100,4,2,3,85,0,0
112699,-100,4,2,2,85,0,0
112793,-100,4,2,1,85,0,0
112980,-100,4,2,1,85,0,0
113074,-100,4,2,1,85,0,0
113261,-100,4,2,2,85,0,0
113637,-100,4,2,1,85,0,0
114012,-100,4,2,2,85,0,0
115137,-100,4,2,1,85,0,0
115512,-100,4,2,2,85,0,0
117855,-100,4,2,1,85,0,0
117949,-100,4,2,2,85,0,0
118137,-100,4,2,1,85,0,0
118230,-100,4,2,1,85,0,0
118324,-100,4,2,1,85,0,0
118512,-100,4,2,3,85,0,0
118699,-100,4,2,2,85,0,0
118793,-100,4,2,1,85,0,0
118980,-100,4,2,1,85,0,0
119074,-100,4,2,1,85,0,0
119261,-100,4,2,2,85,0,0
119637,-100,4,2,1,85,0,0
120012,-100,4,2,2,80,0,0
121137,-100,4,2,2,80,0,0
121324,-100,4,2,1,80,0,0
121512,-100,4,2,2,80,0,0
122355,-100,4,2,1,80,0,0
122637,-100,4,2,1,75,0,0
122824,-100,4,2,1,55,0,0

[Colours]
Combo1 : 240,51,153
Combo2 : 104,67,206
Combo3 : 238,170,1
Combo4 : 166,203,2

[HitObjects]
312,99,1512,5,0,3:1:0:0:
256,0,1699,1,0,1:0:0:0:
199,98,1887,1,0,3:0:0:0:
256,151,2074,6,2,B|251:184|251:184|256:192|256:192|251:218|251:218|256:226|256:226|251:259|251:259|256:268|256:268|251:301|251:301|256:310|256:310|251:343|251:343|256:352|256:352|251:385|251:385,1,240,8|8,1:3|3:0,2:0:0:0:
174,329,3012,6,0,L|86:345,1,75,4|2,3:0|2:0,2:0:0:0:
10,357,3387,2,2,L|40:272,1,75,8|2,1:2|2:0,2:0:0:0:
74,205,3762,2,0,L|131:273,1,75,8|2,1:3|2:0,2:0:0:0:
174,329,4137,6,2,B|216:309|248:345|236:353|264:385|306:372,1,150,8|8,1:2|1:3,2:0:0:0:
382,325,4699,1,2,2:0:0:0:
312,266,4887,2,2,P|308:230|329:200,1,75,8|2,1:2|2:0,2:0:0:0:
450,179,5262,6,0,L|466:91,1,75,8|0,1:3|2:0,2:0:0:0:
478,15,5637,2,2,L|393:45,1,75,8|0,1:2|2:0,2:0:0:0:
326,79,6012,6,0,P|374:115|413:152,1,112.5,8|0,1:3|2:0,2:0:0:0:
450,179,6387,1,8,1:2:0:0:
478,15,6574,6,0,P|422:38|371:53,1,112.5,2|0,2:0|2:0,2:0:0:0:
326,79,6949,1,2,2:0:0:0:
450,179,7137,2,2,P|453:141|461:105,1,75,8|0,1:2|2:0,2:0:0:0:
498,251,7512,6,0,L|514:331,1,75,8|2,1:3|2:0,2:0:0:0:
428,356,7887,2,2,P|392:364|336:364,1,75,8|2,1:2|2:0,2:0:0:0:
268,332,8262,2,0,L|252:252,1,75,8|2,1:3|2:0,2:0:0:0:
376,268,8637,5,8,1:2:0:0:
404,184,8824,1,2,2:0:0:0:
316,200,9012,6,0,B|280:230|240:203|249:192|214:169|177:192,1,150,8|8,1:3|1:2,2:0:0:0:
96,224,9574,1,2,2:0:0:0:
16,184,9762,6,0,B|28:148|28:148|25:111,1,75,8|2,1:3|2:0,2:0:0:0:
32,4,10137,2,2,B|57:32|57:32|90:48,1,75,8|2,1:2|2:0,2:0:0:0:
180,104,10512,2,0,B|142:111|142:111|112:132,1,75,8|2,1:3|2:0,2:0:0:0:
96,224,10887,6,2,B|158:229|158:229|172:209|172:209|234:215,1,150,8|8,1:2|1:3,2:0:0:0:
295,279,11449,1,2,2:0:0:0:
345,161,11637,5,8,1:2:0:0:
405,225,11824,1,2,2:0:0:0:
428,137,12012,6,0,P|413:103|383:80,1,75,10|2,2:0|2:0,2:0:0:0:
320,16,12387,2,0,P|298:46|293:83,1,75,8|2,1:2|2:0,2:0:0:0:
273,171,12762,2,0,P|310:175|345:160,1,75,8|2,1:3|2:0,2:0:0:0:
208,109,13137,6,2,B|165:89|133:125|145:134|117:165|75:152,1,150,8|8,1:2|1:3,2:0:0:0:
1,201,13699,1,2,2:0:0:0:
68,261,13887,2,0,L|77:335,1,75,8|2,1:2|2:0,2:0:0:0:
156,291,14262,1,8,1:3:0:0:
216,357,14449,1,8,1:3:0:0:
245,352,14543,1,8,3:0:0:0:
274,347,14637,2,0,L|311:341,4,37.5,8|4|0|8|8,2:0|3:0|1:0|3:0|1:3,2:0:0:0:
390,371,15199,6,0,B|403:381|403:381|415:303,1,75,2|8,2:3|1:2,2:0:0:0:
423,228,15574,2,0,B|425:211|425:211|351:239,1,75,2|8,2:3|1:3,2:0:0:0:
283,269,15949,2,0,B|267:274|267:274|329:324,1,75,2|8,2:3|1:2,2:0:0:0:
256,192,16324,5,0,2:0:0:0:
256,192,16512,1,8,1:3:0:0:
228,114,16699,6,0,B|244:109|244:109|182:59,1,75,2|8,2:3|1:2,2:0:0:0:
121,12,17074,2,0,B|108:2|108:2|96:80,1,75,2|8,2:3|1:3,2:0:0:0:
88,155,17449,2,0,B|86:172|86:172|160:144,1,75,2|8,2:3|1:2,2:0:0:0:
256,192,17824,5,0,2:0:0:0:
256,192,18012,1,8,1:3:0:0:
295,259,18199,6,0,B|331:269|331:269|321:233,1,75,2|8,2:3|1:2,2:0:0:0:
292,123,18574,2,0,B|282:87|282:87|256:113,1,75,2|8,2:3|1:3,2:0:0:0:
178,195,18949,2,0,B|151:221|151:221|187:230,1,75,2|8,2:3|1:2,2:0:0:0:
256,192,19324,5,0,2:0:0:0:
256,192,19512,1,8,1:3:0:0:
333,191,19699,6,0,B|360:165|360:165|324:156,1,75,2|8,2:3|1:2,2:0:0:0:
214,126,20074,2,0,B|178:116|178:116|187:152,1,75,2|8,2:3|1:3,2:0:0:0:
219,261,20449,2,0,B|228:297|228:297|254:270,1,75,2|8,2:3|1:2,2:0:0:0:
256,192,20824,5,0,2:3:0:0:
333,269,21012,6,0,P|370:260|407:256,1,75,8|0,3:0|2:0,2:0:0:0:
349,345,21387,2,0,P|385:336|422:332,1,75,8|0,3:2|2:0,2:0:0:0:
406,256,21762,2,0,P|397:219|393:182,1,75,8|0,3:0|2:0,2:0:0:0:
482,240,22137,2,0,P|473:203|469:166,1,75,8|0,3:2|2:0,2:0:0:0:
393,182,22512,6,0,P|356:191|319:195,1,75,8|0,3:0|2:0,2:0:0:0:
377,106,22887,2,0,P|340:114|303:118,1,75,8|0,3:2|2:0,2:0:0:0:
319,194,23262,2,0,P|328:230|332:267,1,75,8|0,3:0|2:0,2:0:0:0:
243,210,23637,2,0,P|251:246|255:283,1,75,8|0,3:2|2:0,2:0:0:0:
155,350,24012,6,0,L|27:380,1,112.5,12|0,1:3|1:0,1:0:0:0:
2,384,24387,2,0,L|29:295,1,75,0|0,1:0|3:0,1:0:0:0:
155,350,24762,2,0,L|64:255,1,112.5,12|0,1:3|1:0,1:0:0:0:
46,241,25137,2,0,L|19:328,1,75,0|0,1:0|3:0,1:0:0:0:
126,207,25512,6,0,L|149:136,1,75,0|8,1:0|1:3,1:0:0:0:
18,89,25887,2,0,L|67:144,1,75,0|8,1:0|1:2,1:0:0:0:
174,54,26262,2,0,L|101:69,1,75,0|4,1:0|1:3,1:0:0:0:
126,207,26637,6,0,L|166:211,3,37.5,0|0|0|0,2:0|2:0|2:0|2:0,2:0:0:0:
182,213,27012,5,10,2:3:0:0:
271,224,27199,2,0,B|291:252|291:252|291:292,1,75,2|0,3:2|1:2,3:0:0:0:
283,304,27480,2,0,L|371:312,1,75,2|0,3:2|3:0,3:0:0:0:
351,324,27762,2,0,L|212:311,2,112.5,2|0|2,3:2|1:2|3:2,3:0:0:0:
454,370,28887,6,0,L|459:313,2,37.5,4|4|0,3:0|2:3|3:0,2:0:0:0:
512,270,29262,2,0,B|466:234|466:234|417:259,1,112.5,2|2,1:0|2:1,2:0:0:0:
404,264,29637,2,0,L|396:178,1,75,0|2,1:0|1:0,2:0:0:0:
278,137,30012,5,10,2:3:0:0:
189,126,30199,2,0,B|169:98|169:98|169:58,1,75,2|8,3:2|3:2,3:0:0:0:
177,46,30480,2,0,L|89:38,1,75,2|0,3:2|3:0,3:0:0:0:
109,26,30762,2,0,L|248:39,2,112.5,2|8|6,3:2|2:0|3:0,3:0:0:0:
189,126,31512,5,8,2:3:0:0:
278,137,31699,2,0,B|298:165|298:165|298:205,1,75,2|8,2:0|3:2,2:0:0:0:
290,217,31980,2,0,L|378:225,1,75,2|0,2:0|3:0,2:0:0:0:
358,237,32262,2,0,L|219:224,2,112.5,2|8|6,2:0|2:0|3:0,2:0:0:0:
249,317,33012,6,0,B|249:357|249:357|223:381,1,75,10|0,2:3|3:0,2:0:0:0:
121,333,33387,1,2,3:0:0:0:
121,333,33480,2,0,B|121:293|121:293|148:270,1,75,0|0,3:0|3:0,2:0:0:0:
121,233,33762,6,0,L|37:253,1,75,2|0,3:0|2:0,2:0:0:0:
61,205,34043,2,0,L|86:123,1,75,0|0,3:0|3:0,2:0:0:0:
117,165,34324,2,0,L|177:228,1,75,0|10,3:0|3:0,2:0:0:0:
288,164,34699,1,4,3:0:0:0:
288,72,34887,1,2,3:0:0:0:
288,72,34980,2,0,B|328:72|328:72|351:99,1,75,0|0,1:0|1:0,2:0:0:0:
388,72,35262,6,0,L|368:-12,1,75,2|0,3:0|1:0,2:0:0:0:
416,12,35543,2,0,L|498:37,1,75,0|0,1:0|2:0,2:0:0:0:
456,68,35824,2,0,L|393:128,1,75,0|0,3:0|2:0,2:0:0:0:
339,180,36199,5,0,2:0:0:0:
429,197,36387,1,8,2:0:0:0:
372,264,36574,1,0,2:0:0:0:
462,281,36762,2,0,P|483:287|510:289,2,37.5,0|0|0,2:0|2:0|2:0,2:0:0:0:
372,264,37137,2,0,P|312:285|301:327,1,112.5,8|0,2:0|2:0,2:0:0:0:
284,340,37512,5,2,2:3:0:0:
204,296,37699,1,8,2:3:0:0:
177,208,37887,6,0,L|253:84,1,134.999995880127,0|0,1:0|2:0,2:0:0:0:
265,60,38262,6,0,L|87:55,1,157.499995193482,0|0,1:0|2:0,2:0:0:0:
69,56,38637,6,0,L|137:179,1,104.999996795654,0|0,1:0|2:0,2:0:0:0:
60,228,39012,5,8,1:3:0:0:
20,136,39199,1,0,3:0:0:0:
120,148,39387,1,8,2:1:0:0:
128,144,39480,1,0,3:0:0:0:
60,228,39668,2,0,L|56:272,1,41.25,0|0,2:0|3:0,2:0:0:0:
20,136,39949,1,0,1:0:0:0:
13,132,40043,1,0,3:0:0:0:
7,127,40137,2,0,P|19:79|71:47,1,82.5,8|0,2:1|3:0,2:0:0:0:
164,68,40512,5,8,1:3:0:0:
256,108,40699,1,0,3:2:0:0:
244,8,40887,1,8,2:1:0:0:
248,0,40980,1,0,3:0:0:0:
164,68,41168,2,0,L|120:72,1,41.25,0|0,2:3|3:0,2:0:0:0:
256,108,41449,1,0,1:0:0:0:
260,115,41543,1,0,3:0:0:0:
265,121,41637,2,0,P|313:109|345:57,1,82.5,8|0,2:1|3:0,2:0:0:0:
436,152,42012,5,8,1:3:0:0:
476,244,42199,1,0,3:0:0:0:
376,232,42387,1,8,2:1:0:0:
368,236,42480,1,0,3:0:0:0:
436,152,42668,2,0,L|440:108,1,41.25,0|0,2:0|3:0,2:0:0:0:
476,244,42949,1,0,1:0:0:0:
483,248,43043,1,0,3:0:0:0:
489,253,43137,2,0,P|477:301|425:333,1,82.5,8|0,2:1|3:0,2:0:0:0:
332,312,43512,5,8,1:3:0:0:
240,272,43699,1,0,3:0:0:0:
252,372,43887,1,8,2:1:0:0:
248,380,43980,1,0,3:0:0:0:
332,312,44168,2,0,L|376:308,1,41.25,0|0,2:0|3:0,2:0:0:0:
240,272,44449,1,0,1:0:0:0:
236,265,44543,1,0,3:0:0:0:
231,259,44637,2,0,P|180:264|132:228,1,82.5,8|0,2:1|3:0,2:0:0:0:
116,136,45012,6,0,L|124:80,2,41.25,8|0|0,1:3|2:0|3:0,2:0:0:0:
44,204,45387,2,0,L|36:260,1,41.25,8|0,2:1|3:0,2:0:0:0:
24,112,45668,1,0,2:0:0:0:
16,120,45762,1,0,3:0:0:0:
108,144,45949,6,0,L|116:88,1,41.25,0|0,1:0|3:0,2:0:0:0:
120,64,46137,2,0,L|192:116,1,82.5,8|0,2:1|3:0,2:0:0:0:
264,176,46512,6,0,L|320:168,2,41.25,8|0|0,1:3|2:0|3:0,2:0:0:0:
196,248,46887,2,0,L|140:256,1,41.25,8|0,2:1|3:0,2:0:0:0:
288,268,47168,1,0,2:0:0:0:
280,276,47262,1,0,3:0:0:0:
256,184,47449,6,0,L|312:176,1,41.25,0|0,1:3|3:0,2:0:0:0:
336,172,47637,2,0,L|284:100,1,82.5,8|0,2:1|3:0,2:0:0:0:
164,96,48012,6,0,P|163:75|176:40,2,41.25,8|0|0,1:3|2:0|3:0,2:0:0:0:
72,72,48387,2,0,P|58:87|25:104,1,41.25,8|0,2:1|3:0,2:0:0:0:
72,188,48668,2,0,P|89:176|102:161,1,41.25,0|0,2:0|3:0,2:0:0:0:
140,248,48949,6,0,P|141:269|128:304,1,41.25,0|0,1:0|3:0,2:0:0:0:
92,308,49137,2,0,L|188:316,1,82.5,8|0,2:1|3:0,2:0:0:0:
280,372,49512,6,0,P|259:371|224:384,2,41.25,8|0|0,1:3|2:0|3:0,2:0:0:0:
256,280,49887,2,0,P|271:266|288:233,1,41.25,8|0,2:1|3:0,2:0:0:0:
372,280,50168,2,0,P|360:297|345:310,1,41.25,0|0,2:0|3:0,2:0:0:0:
432,348,50449,6,0,P|453:349|488:336,1,41.25,0|0,1:0|3:0,2:0:0:0:
492,300,50637,2,0,L|500:396,1,82.5,8|0,2:1|3:0,2:0:0:0:
440,216,51012,6,0,L|468:184,2,41.25,8|0|0,1:3|2:0|3:0,2:0:0:0:
384,136,51387,1,8,2:1:0:0:
384,136,51480,1,0,3:0:0:0:
384,136,51574,1,0,2:0:0:0:
476,102,51762,6,0,L|467:184,1,82.5,0|0,3:0|1:0,2:0:0:0:
440,216,52043,1,0,3:0:0:0:
440,216,52137,2,0,L|358:228,1,82.5,8|0,2:1|3:0,2:0:0:0:
264,204,52512,6,0,L|232:176,2,41.25,8|0|0,1:3|2:0|3:0,2:0:0:0:
184,260,52887,1,8,2:1:0:0:
184,260,52980,1,0,3:0:0:0:
184,260,53074,1,0,2:0:0:0:
150,168,53262,6,0,L|232:177,1,82.5,0|0,3:0|1:0,2:0:0:0:
264,204,53543,1,0,3:0:0:0:
264,204,53637,2,0,L|276:286,1,82.5,8|0,2:1|3:0,2:0:0:0:
104,316,54012,6,0,L|136:344,2,41.25,8|0|0,1:3|2:0|3:0,2:0:0:0:
184,260,54387,1,8,2:1:0:0:
184,260,54480,1,0,3:0:0:0:
184,260,54574,1,0,2:0:0:0:
218,352,54762,6,0,L|136:343,1,82.5,0|0,3:0|1:0,2:0:0:0:
104,316,55043,1,0,3:0:0:0:
104,316,55137,2,0,L|92:234,1,82.5,8|0,2:1|3:0,2:0:0:0:
116,140,55512,6,0,L|144:108,2,41.25,8|0|0,1:3|2:0|3:0,2:0:0:0:
60,60,55887,1,8,2:1:0:0:
60,60,55980,1,0,3:0:0:0:
60,60,56074,1,0,3:0:0:0:
152,26,56262,6,0,L|143:108,1,82.5,0|0,3:0|1:0,2:0:0:0:
116,140,56543,1,0,3:0:0:0:
116,140,56637,2,0,L|34:152,1,82.5,8|0,2:1|3:0,2:0:0:0:
48,268,57012,6,0,L|130:256,1,82.5,0|0,1:0|2:0,2:0:0:0:
220,220,57387,1,8,2:1:0:0:
220,220,57480,2,2,B|228:204|228:204|240:300,1,82.5,0|0,2:0|2:0,2:0:0:0:
200,300,57762,6,0,L|282:288,1,82.5,0|0,1:0|2:0,2:0:0:0:
372,252,58137,1,8,2:1:0:0:
372,252,58230,2,0,B|380:236|380:236|392:332,1,82.5,0|2,2:0|2:3,2:0:0:0:
352,332,58512,6,0,L|434:320,1,82.5,0|0,1:0|2:0,2:0:0:0:
472,228,58887,1,8,2:1:0:0:
472,228,58980,2,2,B|464:244|464:244|452:148,1,82.5,0|0,2:0|2:0,2:0:0:0:
500,200,59262,6,0,L|418:188,1,82.5,0|0,1:0|2:0,2:0:0:0:
388,88,59637,1,8,2:1:0:0:
388,88,59730,2,0,B|380:104|380:104|368:8,1,82.5,0|2,2:0|2:3,2:0:0:0:
328,20,60012,6,0,B|307:-15|307:-15|286:20|286:20|306:20,1,97.5,8|0,1:3|2:0,2:0:0:0:
176,60,60387,6,0,B|194:29|194:29|212:60|212:60|195:60,1,90,8|0,1:2|2:0,2:0:0:0:
312,128,60762,6,0,B|294:99|294:99|278:128|278:128|294:128,1,82.5,8|0,1:3|2:0,2:0:0:0:
188,180,61137,6,0,B|203:154|203:154|218:180|218:180|204:180,1,75,8|0,1:2|2:0,2:0:0:0:
308,236,61512,6,0,B|294:212|294:212|280:236|280:236|293:236,1,67.5000000000001,8|0,1:3|2:0,2:0:0:0:
196,284,61887,6,0,B|208:263|208:263|220:284|220:284|209:284,1,60,8|0,1:2|2:0,2:0:0:0:
303,331,62262,6,0,B|293:313|293:313|282:331|282:331|292:331,1,52.4999999999999,8|0,2:3|2:0,2:0:0:0:
204,372,62637,6,0,B|213:357|213:357|222:372|222:372|213:372,1,44.9999999999999,8|0,3:2|3:2,2:0:0:0:
212,372,63012,5,0,2:0:0:0:
440,40,75012,5,2,2:3:0:0:
432,52,75199,1,2,2:1:0:0:
424,64,75387,1,2,2:3:0:0:
432,152,75574,6,2,L|120:32,1,300,2|0,2:0|2:0,2:0:0:0:
32,108,76512,5,2,2:3:0:0:
46,109,76699,1,2,2:1:0:0:
61,110,76887,1,2,2:3:0:0:
133,59,77074,6,2,L|185:389,1,300,2|0,2:0|2:0,2:0:0:0:
256,293,78012,6,0,L|437:146,2,225,2|2|2,3:2|2:0|3:2,2:0:0:0:
139,210,79324,6,2,B|330:283|330:283|297:82|297:82|129:216,1,600,2|2,2:0|2:0,2:0:0:0:
150,305,81012,5,2,2:3:0:0:
138,313,81199,1,2,2:1:0:0:
126,321,81387,1,2,2:3:0:0:
216,368,81574,6,2,L|96:56,1,300,2|0,2:0|2:0,2:0:0:0:
199,34,82512,5,2,2:3:0:0:
198,20,82699,1,2,2:1:0:0:
197,5,82887,1,2,2:3:0:0:
123,69,83074,6,2,L|453:121,1,300,2|2,2:0|2:0,2:0:0:0:
367,195,84012,6,2,L|199:402,2,225,2|0|0,2:0|2:0|2:0,2:0:0:0:
264,97,85324,6,2,B|148:251|148:251|357:273|357:273|284:117,1,525,2|8,2:1|1:0,2:0:0:0:
264,97,86824,5,8,2:1:0:0:
144,176,87012,6,0,B|178:84|178:84|119:96,1,123.75,4|0,1:0|2:0,2:0:0:0:
124,97,87387,1,8,2:0:0:0:
144,176,87574,6,0,B|71:110|71:110|97:103,1,123.75,2|0,2:0|2:0,2:0:0:0:
124,97,87949,1,0,2:0:0:0:
56,0,88137,2,2,P|17:21|8:72,1,82.5,8|0,3:1|2:0,2:3:0:0:
28,219,88512,6,0,B|173:177,1,123.75,4|0,1:3|2:0,2:0:0:0:
176,177,88887,1,8,2:0:0:0:
141,335,89074,1,2,2:0:0:0:
84,278,89262,2,0,L|28:219,1,82.5,2|8,3:2|2:3,2:0:0:0:
160,258,89637,2,0,L|182:150,1,82.5,8|0,2:0|2:0,2:0:0:0:
208,64,90012,1,8,3:0:0:0:
280,132,90199,6,0,P|303:139|335:139,2,41.25,8|0|8,2:1|2:0|2:1,2:0:0:0:
304,36,90574,2,2,P|327:43|359:43,1,41.25,0|0,2:3|2:3,2:0:0:0:
388,16,90762,6,0,P|376:75|405:128,1,123.75,4|0,1:0|2:3,1:0:0:0:
452,140,91137,1,8,2:1:0:0:
332,184,91324,6,0,P|280:155|168:296,1,247.5,8|8,2:1|2:1,2:0:0:0:
196,344,92074,2,0,P|248:373|360:232,1,247.5,2|8,2:3|2:1,2:0:0:0:
156,88,93012,6,0,B|122:180|122:180|181:168,1,123.75,4|0,1:0|2:0,2:0:0:0:
176,167,93387,1,8,2:0:0:0:
156,88,93574,6,0,B|229:154|229:154|203:161,1,123.75,2|0,2:0|2:0,2:0:0:0:
176,167,93949,1,0,2:0:0:0:
244,264,94137,2,2,P|283:243|292:192,1,82.5,8|0,3:1|2:0,2:3:0:0:
300,104,94512,6,0,B|435:154,1,123.75,8|0,1:3|2:0,2:0:0:0:
448,161,94887,1,8,2:0:0:0:
424,4,95074,1,2,2:0:0:0:
300,104,95262,2,0,L|368:46,1,82.5,2|8,2:2|2:3,2:0:0:0:
448,161,95637,2,0,L|436:80,1,82.5,8|0,2:0|2:0,2:0:0:0:
384,228,96012,6,0,P|403:260|341:344,1,123.75,8|0,3:0|2:0,2:0:0:0:
345,343,96387,1,8,2:1:0:0:
259,319,96574,2,2,P|239:286|320:197,1,165,8|0,2:1|2:0,2:0:0:0:
300,104,97137,2,0,P|259:103|221:87,1,82.5,8|8,2:1|2:1,2:0:0:0:
98,64,97512,6,0,B|73:31|73:31|53:72,1,82.5000025177003,8|2,2:3|2:3,2:0:0:0:
41,160,97887,2,0,L|124:153,1,82.5,8|2,2:1|2:3,2:0:0:0:
44,248,98262,2,2,P|32:272|32:304,3,41.25,2|2|2|2,2:0|2:0|2:0|2:0,2:0:0:0:
48,328,98637,2,0,P|72:340|104:340,3,41.25,10|2|2|2,2:1|2:0|2:0|2:0,2:0:0:0:
128,324,99012,6,0,B|172:296|220:328|200:340|244:376|292:349,1,180,4|10,1:0|2:0,2:0:0:0:
432,292,99574,2,0,B|388:320|340:288|360:276|316:240|267:266,1,180,2|0,2:0|2:0,2:0:0:0:
368,380,100137,2,2,P|388:387|411:385,2,45,8|0|2,3:1|2:0|2:0,2:3:0:0:
432,292,100512,6,0,B|460:248|428:200|416:220|380:176|407:128,1,180,8|8,1:3|2:0,2:0:0:0:
264,240,101074,2,0,B|270:185|325:169|323:193|377:172|380:120,1,180,2|0,2:0|2:0,2:0:0:0:
440,48,101637,2,0,P|421:37|398:35,2,45,8|0|2,2:1|2:0|2:0,2:0:0:0:
312,60,102012,5,4,1:3:0:0:
224,32,102199,2,0,P|224:80|244:124,1,90,8|8,2:1|2:1,2:0:0:0:
144,116,102574,2,2,P|140:88|124:60,1,45,0|0,2:3|2:3,2:0:0:0:
96,52,102762,6,0,P|56:84|72:180,1,135,4|0,1:0|2:3,2:0:0:0:
84,192,103137,1,10,2:1:0:0:
178,207,103324,6,0,P|75:208|67:352,1,270,8|8,3:1|2:1,2:0:0:0:
128,284,104074,1,8,2:0:0:0:
68,354,104262,2,0,P|152:374|216:310,1,180,2|8,2:0|2:1,2:0:0:0:
196,224,104824,1,2,2:0:0:0:
134,151,105012,6,0,P|170:129|219:134,1,90,2|2,1:0|3:2,2:0:0:0:
356,191,105387,1,2,1:0:0:0:
356,191,105574,2,0,B|312:163|264:195|284:207|240:243|191:217,1,180,2|0,2:0|2:0,2:0:0:0:
300,96,106137,2,2,P|320:90|343:94,2,45,8|0|2,3:1|2:0|2:0,2:3:0:0:
346,276,106512,6,0,P|364:235|356:191,1,90,8|2,1:3|2:1,2:0:0:0:
304,363,106887,1,8,2:0:0:0:
304,363,107074,2,0,B|301:311|247:290|249:314|194:298|188:243,1,180,2|0,2:0|2:0,2:0:0:0:
144,160,107637,2,0,P|122:154|52:188,1,90,8|0,1:0|2:0,2:0:0:0:
0,284,108012,5,4,1:3:0:0:
68,348,108199,2,0,P|89:353|159:319,1,90,2|8,2:0|2:1,2:0:0:0:
268,284,108574,2,2,B|281:223|281:223|380:316,1,180,8|0,2:1|2:0,2:0:0:0:
464,224,109137,1,8,2:1:0:0:
380,316,109324,6,0,B|252:356|252:356|281:223,1,270,8|8,2:1|2:1,2:0:0:0:
300,136,110074,1,2,2:3:0:0:
392,132,110262,6,0,P|404:108|404:76,3,41.25,2|2|2|2,2:0|2:0|2:0|2:0,2:0:0:0:
372,56,110637,2,0,P|384:32|384:0,3,41.25,10|2|2|2,2:1|2:0|2:0|2:0,2:0:0:0:
336,8,111012,6,0,P|300:32|252:40,1,75,10|0,2:3|2:0,2:0:0:0:
180,24,111387,1,8,2:1:0:0:
208,108,111574,2,0,P|211:158|208:232,1,112.5,0|0,2:0|2:0,2:0:0:0:
200,232,111949,1,0,2:3:0:0:
132,172,112137,2,0,L|84:132,2,37.5,10|0|2,3:2|2:0|3:2,2:0:0:0:
48,268,112512,6,0,P|92:272|124:252,1,75,10|0,2:0|2:0,2:0:0:0:
144,296,112793,2,0,P|140:332|117:361,1,75,2|0,2:0|2:0,2:0:0:0:
232,344,113074,2,0,P|213:303|180:286,1,75,2|8,3:2|1:3,2:0:0:0:
372,152,113637,2,0,L|352:252,1,75,10|2,3:2|3:2,2:0:0:0:
340,312,114012,5,8,1:3:0:0:
424,284,114199,1,2,2:3:0:0:
508,256,114387,1,8,2:1:0:0:
508,256,114762,6,0,L|392:232,1,112.5,8|0,3:0|2:0,2:0:0:0:
357,225,115137,1,10,3:2:0:0:
452,152,115324,1,2,3:2:0:0:
396,80,115512,6,0,P|328:86|298:155,1,150,10|8,1:3|2:1,2:0:0:0:
220,200,116074,2,0,P|152:194|122:125,1,150,2|0,2:3|2:0,2:0:0:0:
152,44,116637,2,0,P|112:40|70:52,1,75,8|0,2:1|3:0,2:0:0:0:
0,96,117012,6,0,P|24:132|32:180,1,75,10|0,2:3|2:0,2:0:0:0:
16,252,117387,1,8,2:1:0:0:
100,224,117574,2,0,P|150:221|224:224,1,112.5,0|0,2:0|2:0,2:0:0:0:
224,232,117949,1,0,2:3:0:0:
164,300,118137,2,0,L|124:348,2,37.5,10|0|2,3:2|2:0|3:2,2:0:0:0:
260,384,118512,6,0,P|264:340|244:308,1,75,10|0,2:0|2:0,2:0:0:0:
288,288,118793,2,0,P|324:292|353:315,1,75,2|0,2:0|2:0,2:0:0:0:
336,200,119074,2,0,P|295:219|278:252,1,75,2|8,3:2|1:3,2:0:0:0:
132,72,119637,2,0,L|232:92,1,75,10|2,3:2|3:2,2:0:0:0:
292,108,120012,5,10,2:3:0:0:
72,144,120387,1,8,2:1:0:0:
216,320,120762,1,8,2:3:0:0:
288,104,121137,1,8,2:1:0:0:
288,104,121324,1,2,1:2:0:0:
268,196,121512,6,2,B|233:205|233:205|260:233,1,75,8|0,1:3|2:3,2:0:0:0:
385,197,121887,2,2,B|394:162|394:162|356:172,1,75,8|0,2:0|1:0,2:0:0:0:
321,299,122262,2,0,B|349:327,3,37.5,10|2|2|2,2:3|2:0|2:0|2:0,2:0:0:0:
354,323,122637,2,0,B|365:287,3,37.5,10|2|2|2,2:0|2:0|2:0|2:0,2:0:0:0:
