osu file format v14

[General]
AudioFilename: audio.mp3
AudioLeadIn: 0
PreviewTime: 87012
Countdown: 0
SampleSet: Soft
StackLeniency: 0.7
Mode: 0
LetterboxInBreaks: 0
EpilepsyWarning: 1
WidescreenStoryboard: 1

[Editor]
Bookmarks: 14262,15012,24012,27012,33012,36012,39012,45012,48762,51012,52512,57012,60012,63012,75012,87012,93012,99012,105012,111012,123012
DistanceSpacing: 1
BeatDivisor: 2
GridSize: 4
TimelineZoom: 2.2

[Metadata]
Title:triangles
TitleUnicode:triangles
Artist:cYsmix
ArtistUnicode:cYsmix
Creator:yf_bmp
Version:Easy
Source:osu!
Tags:electronic instrumental lazer triangles contest featured artist fa TtmnZk Chaoslitz Yugu Yumeno Himiko
BeatmapID:3783210
BeatmapSetID:1841885

[Difficulty]
HPDrainRate:2
CircleSize:2.7
OverallDifficulty:3
ApproachRate:4
SliderMultiplier:0.9
SliderTickRate:1

[Events]
//Background and Video events
0,0,"bg.png",0,0
//Break Periods
2,63212,73692
//Storyboard Layer 0 (Background)
//Storyboard Layer 1 (Fail)
//Storyboard Layer 2 (Pass)
//Storyboard Layer 3 (Foreground)
Sprite,Foreground,CentreLeft,"SB\text\exo2_a42.png",-67,415 S,0,63012,,0.1 C,0,63012,,41,67,28 F,0,63293,63793,0,0.75 F,0,75012,75199,0.75,0
Sprite,Foreground,CentreLeft,"SB\text\exo2_a65.png",-61,415 S,0,63012,,0.1 C,0,63012,,41,67,28 F,0,63293,63793,0,0.75 F,0,75012,75199,0.75,0
Sprite,Foreground,CentreLeft,"SB\text\exo2_a61.png",0,0 S,0,63012,,0.1 C,0,63012,,41,67,28 M,0,63012,75012,-55.8,415 F,0,63293,63793,0,0.75 F,0,75012,75199,0.75,0
Sprite,Foreground,CentreLeft,"SB\text\exo2_a74.png",0,0 S,0,63012,,0.1 C,0,63012,,41,67,28 M,0,63012,75012,-50.5,415 F,0,63293,63793,0,0.75 F,0,75012,75199,0.75,0
Sprite,Foreground,CentreLeft,"SB\text\exo2_a6d.png",0,0 S,0,63012,,0.1 C,0,63012,,41,67,28 M,0,63012,75012,-46.8,415 F,0,63293,63793,0,0.75 F,0,75012,75199,0.75,0
Sprite,Foreground,CentreLeft,"SB\text\exo2_a61.png",0,0 S,0,63012,,0.1 C,0,63012,,41,67,28 M,0,63012,75012,-38.4,415 F,0,63293,63793,0,0.75 F,0,75012,75199,0.75,0
Sprite,Foreground,CentreLeft,"SB\text\exo2_a70.png",0,0 S,0,63012,,0.1 C,0,63012,,41,67,28 M,0,63012,75012,-33.1,415 F,0,63293,63793,0,0.75 F,0,75012,75199,0.75,0
Sprite,Foreground,CentreLeft,"SB\text\exo2_a3a.png",0,0 S,0,63012,,0.1 C,0,63012,,41,67,28 M,0,63012,75012,-27.5,415 F,0,63293,63793,0,0.75 F,0,75012,75199,0.75,0
Sprite,Foreground,CentreLeft,"SB\text\exo2_a79.png",0,0 S,0,63012,,0.1 C,0,63012,,41,67,28 M,0,63012,75012,-23.1,415 F,0,63293,63793,0,0.75 F,0,75012,75199,0.75,0
Sprite,Foreground,CentreLeft,"SB\text\exo2_a66.png",0,0 S,0,63012,,0.1 C,0,63012,,41,67,28 M,0,63012,75012,-18,415 F,0,63293,63793,0,0.75 F,0,75012,75199,0.75,0
Sprite,Foreground,CentreLeft,"SB\text\exo2_a5f.png",0,0 S,0,63012,,0.1 C,0,63012,,41,67,28 M,0,63012,75012,-14.4,415 F,0,63293,63793,0,0.75 F,0,75012,75199,0.75,0
Sprite,Foreground,CentreLeft,"SB\text\exo2_a62.png",0,0 S,0,63012,,0.1 C,0,63012,,41,67,28 M,0,63012,75012,-10.2,415 F,0,63293,63793,0,0.75 F,0,75012,75199,0.75,0
Sprite,Foreground,CentreLeft,"SB\text\exo2_a6d.png",0,0 S,0,63012,,0.1 C,0,63012,,41,67,28 M,0,63012,75012,-4.7,415 F,0,63293,63793,0,0.75 F,0,75012,75199,0.75,0
Sprite,Foreground,CentreLeft,"SB\text\exo2_a70.png",0,0 S,0,63012,,0.1 C,0,63012,,41,67,28 M,0,63012,75012,3.7,415 F,0,63293,63793,0,0.75 F,0,75012,75199,0.75,0
Sprite,Foreground,CentreLeft,"SB\text\exo2_a48.png",-67,425 S,0,63012,,0.1 C,0,63012,,41,67,28 F,0,63293,63793,0,0.75 F,0,75012,75199,0.75,0
Sprite,Foreground,CentreLeft,"SB\text\exo2_a69.png",0,0 S,0,63012,,0.1 C,0,63012,,41,67,28 M,0,63012,75012,-60.6,425 F,0,63293,63793,0,0.75 F,0,75012,75199,0.75,0
Sprite,Foreground,CentreLeft,"SB\text\exo2_a74.png",0,0 S,0,63012,,0.1 C,0,63012,,41,67,28 M,0,63012,75012,-58.2,425 F,0,63293,63793,0,0.75 F,0,75012,75199,0.75,0
Sprite,Foreground,CentreLeft,"SB\text\exo2_a73.png",0,0 S,0,63012,,0.1 C,0,63012,,41,67,28 M,0,63012,75012,-54.5,425 F,0,63293,63793,0,0.75 F,0,75012,75199,0.75,0
Sprite,Foreground,CentreLeft,"SB\text\exo2_a6f.png",0,0 S,0,63012,,0.1 C,0,63012,,41,67,28 M,0,63012,75012,-49.6,425 F,0,63293,63793,0,0.75 F,0,75012,75199,0.75,0
Sprite,Foreground,CentreLeft,"SB\text\exo2_a75.png",0,0 S,0,63012,,0.1 C,0,63012,,41,67,28 M,0,63012,75012,-44.1,425 F,0,63293,63793,0,0.75 F,0,75012,75199,0.75,0
Sprite,Foreground,CentreLeft,"SB\text\exo2_a6e.png",0,0 S,0,63012,,0.1 C,0,63012,,41,67,28 M,0,63012,75012,-38.6,425 F,0,63293,63793,0,0.75 F,0,75012,75199,0.75,0
Sprite,Foreground,CentreLeft,"SB\text\exo2_a64.png",-33,425 S,0,63012,,0.1 C,0,63012,,41,67,28 F,0,63293,63793,0,0.75 F,0,75012,75199,0.75,0
Sprite,Foreground,CentreLeft,"SB\text\exo2_a73.png",0,0 S,0,63012,,0.1 C,0,63012,,41,67,28 M,0,63012,75012,-27.5,425 F,0,63293,63793,0,0.75 F,0,75012,75199,0.75,0
Sprite,Foreground,CentreLeft,"SB\text\exo2_a3a.png",0,0 S,0,63012,,0.1 C,0,63012,,41,67,28 M,0,63012,75012,-22.6,425 F,0,63293,63793,0,0.75 F,0,75012,75199,0.75,0
Sprite,Foreground,CentreLeft,"SB\text\exo2_a54.png",0,0 S,0,63012,,0.1 C,0,63012,,41,67,28 M,0,63012,75012,-18.2,425 F,0,63293,63793,0,0.75 F,0,75012,75199,0.75,0
Sprite,Foreground,CentreLeft,"SB\text\exo2_a74.png",0,0 S,0,63012,,0.1 C,0,63012,,41,67,28 M,0,63012,75012,-12.6,425 F,0,63293,63793,0,0.75 F,0,75012,75199,0.75,0
Sprite,Foreground,CentreLeft,"SB\text\exo2_a6d.png",0,0 S,0,63012,,0.1 C,0,63012,,41,67,28 M,0,63012,75012,-8.9,425 F,0,63293,63793,0,0.75 F,0,75012,75199,0.75,0
Sprite,Foreground,CentreLeft,"SB\text\exo2_a6e.png",0,0 S,0,63012,,0.1 C,0,63012,,41,67,28 M,0,63012,75012,-0.5,425 F,0,63293,63793,0,0.75 F,0,75012,75199,0.75,0
Sprite,Foreground,CentreLeft,"SB\text\exo2_a5a.png",0,0 S,0,63012,,0.1 C,0,63012,,41,67,28 M,0,63012,75012,5.1,425 F,0,63293,63793,0,0.75 F,0,75012,75199,0.75,0
Sprite,Foreground,CentreLeft,"SB\text\exo2_a6b.png",0,0 S,0,63012,,0.1 C,0,63012,,41,67,28 M,0,63012,75012,10.5,425 F,0,63293,63793,0,0.75 F,0,75012,75199,0.75,0
Sprite,Foreground,CentreLeft,"SB\text\exo2_a53.png",-67,435 S,0,63012,,0.1 C,0,63012,,41,67,28 F,0,63293,63793,0,0.75 F,0,75012,75199,0.75,0
Sprite,Foreground,CentreLeft,"SB\text\exo2_a74.png",0,0 S,0,63012,,0.1 C,0,63012,,41,67,28 M,0,63012,75012,-61.6,435 F,0,63293,63793,0,0.75 F,0,75012,75199,0.75,0
Sprite,Foreground,CentreLeft,"SB\text\exo2_a6f.png",0,0 S,0,63012,,0.1 C,0,63012,,41,67,28 M,0,63012,75012,-57.9,435 F,0,63293,63793,0,0.75 F,0,75012,75199,0.75,0
Sprite,Foreground,CentreLeft,"SB\text\exo2_a72.png",0,0 S,0,63012,,0.1 C,0,63012,,41,67,28 M,0,63012,75012,-52.4,435 F,0,63293,63793,0,0.75 F,0,75012,75199,0.75,0
Sprite,Foreground,CentreLeft,"SB\text\exo2_a79.png",0,0 S,0,63012,,0.1 C,0,63012,,41,67,28 M,0,63012,75012,-48.6,435 F,0,63293,63793,0,0.75 F,0,75012,75199,0.75,0
Sprite,Foreground,CentreLeft,"SB\text\exo2_a62.png",0,0 S,0,63012,,0.1 C,0,63012,,41,67,28 M,0,63012,75012,-43.5,435 F,0,63293,63793,0,0.75 F,0,75012,75199,0.75,0
Sprite,Foreground,CentreLeft,"SB\text\exo2_a6f.png",-38,435 S,0,63012,,0.1 C,0,63012,,41,67,28 F,0,63293,63793,0,0.75 F,0,75012,75199,0.75,0
Sprite,Foreground,CentreLeft,"SB\text\exo2_a61.png",0,0 S,0,63012,,0.1 C,0,63012,,41,67,28 M,0,63012,75012,-32.5,435 F,0,63293,63793,0,0.75 F,0,75012,75199,0.75,0
Sprite,Foreground,CentreLeft,"SB\text\exo2_a72.png",0,0 S,0,63012,,0.1 C,0,63012,,41,67,28 M,0,63012,75012,-27.2,435 F,0,63293,63793,0,0.75 F,0,75012,75199,0.75,0
Sprite,Foreground,CentreLeft,"SB\text\exo2_a64.png",0,0 S,0,63012,,0.1 C,0,63012,,41,67,28 M,0,63012,75012,-23.4,435 F,0,63293,63793,0,0.75 F,0,75012,75199,0.75,0
Sprite,Foreground,CentreLeft,"SB\text\exo2_a3a.png",0,0 S,0,63012,,0.1 C,0,63012,,41,67,28 M,0,63012,75012,-17.9,435 F,0,63293,63793,0,0.75 F,0,75012,75199,0.75,0
Sprite,Foreground,CentreLeft,"SB\text\exo2_a59.png",0,0 S,0,63012,,0.1 C,0,63012,,41,67,28 M,0,63012,75012,-13.5,435 F,0,63293,63793,0,0.75 F,0,75012,75199,0.75,0
Sprite,Foreground,CentreLeft,"SB\text\exo2_a75.png",0,0 S,0,63012,,0.1 C,0,63012,,41,67,28 M,0,63012,75012,-8,435 F,0,63293,63793,0,0.75 F,0,75012,75199,0.75,0
Sprite,Foreground,CentreLeft,"SB\text\exo2_a6d.png",0,0 S,0,63012,,0.1 C,0,63012,,41,67,28 M,0,63012,75012,-2.5,435 F,0,63293,63793,0,0.75 F,0,75012,75199,0.75,0
Sprite,Foreground,CentreLeft,"SB\text\exo2_a65.png",0,0 S,0,63012,,0.1 C,0,63012,,41,67,28 M,0,63012,75012,5.9,435 F,0,63293,63793,0,0.75 F,0,75012,75199,0.75,0
Sprite,Foreground,CentreLeft,"SB\text\exo2_a6e.png",0,0 S,0,63012,,0.1 C,0,63012,,41,67,28 M,0,63012,75012,11.1,435 F,0,63293,63793,0,0.75 F,0,75012,75199,0.75,0
Sprite,Foreground,CentreLeft,"SB\text\exo2_a6f.png",0,0 S,0,63012,,0.1 C,0,63012,,41,67,28 M,0,63012,75012,16.7,435 F,0,63293,63793,0,0.75 F,0,75012,75199,0.75,0
Sprite,Foreground,CentreLeft,"SB\text\exo2_a48.png",0,0 S,0,63012,,0.1 C,0,63012,,41,67,28 M,0,63012,75012,24.3,435 F,0,63293,63793,0,0.75 F,0,75012,75199,0.75,0
Sprite,Foreground,CentreLeft,"SB\text\exo2_a69.png",0,0 S,0,63012,,0.1 C,0,63012,,41,67,28 M,0,63012,75012,30.7,435 F,0,63293,63793,0,0.75 F,0,75012,75199,0.75,0
Sprite,Foreground,CentreLeft,"SB\text\exo2_a6d.png",0,0 S,0,63012,,0.1 C,0,63012,,41,67,28 M,0,63012,75012,33.1,435 F,0,63293,63793,0,0.75 F,0,75012,75199,0.75,0
Sprite,Foreground,CentreLeft,"SB\text\exo2_a69.png",0,0 S,0,63012,,0.1 C,0,63012,,41,67,28 M,0,63012,75012,41.5,435 F,0,63293,63793,0,0.75 F,0,75012,75199,0.75,0
Sprite,Foreground,CentreLeft,"SB\text\exo2_a6b.png",0,0 S,0,63012,,0.1 C,0,63012,,41,67,28 M,0,63012,75012,43.9,435 F,0,63293,63793,0,0.75 F,0,75012,75199,0.75,0
Sprite,Foreground,CentreLeft,"SB\text\exo2_a6f.png",0,0 S,0,63012,,0.1 C,0,63012,,41,67,28 M,0,63012,75012,48.8,435 F,0,63293,63793,0,0.75 F,0,75012,75199,0.75,0
Sprite,Foreground,CentreLeft,"SB\text\exo2_a2c.png",0,0 S,0,63012,,0.1 C,0,63012,,41,67,28 M,0,63012,75012,54.3,435 F,0,63293,63793,0,0.75 F,0,75012,75199,0.75,0
Sprite,Foreground,CentreLeft,"SB\text\exo2_a79.png",0,0 S,0,63012,,0.1 C,0,63012,,41,67,28 M,0,63012,75012,58.6,435 F,0,63293,63793,0,0.75 F,0,75012,75199,0.75,0
Sprite,Foreground,CentreLeft,"SB\text\exo2_a66.png",0,0 S,0,63012,,0.1 C,0,63012,,41,67,28 M,0,63012,75012,63.7,435 F,0,63293,63793,0,0.75 F,0,75012,75199,0.75,0
Sprite,Foreground,CentreLeft,"SB\text\exo2_a5f.png",0,0 S,0,63012,,0.1 C,0,63012,,41,67,28 M,0,63012,75012,67.3,435 F,0,63293,63793,0,0.75 F,0,75012,75199,0.75,0
Sprite,Foreground,CentreLeft,"SB\text\exo2_a62.png",0,0 S,0,63012,,0.1 C,0,63012,,41,67,28 M,0,63012,75012,71.5,435 F,0,63293,63793,0,0.75 F,0,75012,75199,0.75,0
Sprite,Foreground,CentreLeft,"SB\text\exo2_a6d.png",77,435 S,0,63012,,0.1 C,0,63012,,41,67,28 F,0,63293,63793,0,0.75 F,0,75012,75199,0.75,0
Sprite,Foreground,CentreLeft,"SB\text\exo2_a70.png",0,0 S,0,63012,,0.1 C,0,63012,,41,67,28 M,0,63012,75012,85.4,435 F,0,63293,63793,0,0.75 F,0,75012,75199,0.75,0
Sprite,Foreground,CentreLeft,"SB\text\exo2_a2c.png",91,435 S,0,63012,,0.1 C,0,63012,,41,67,28 F,0,63293,63793,0,0.75 F,0,75012,75199,0.75,0
Sprite,Foreground,CentreLeft,"SB\text\exo2_a43.png",0,0 S,0,63012,,0.1 C,0,63012,,41,67,28 M,0,63012,75012,95.3,435 F,0,63293,63793,0,0.75 F,0,75012,75199,0.75,0
Sprite,Foreground,CentreLeft,"SB\text\exo2_a68.png",0,0 S,0,63012,,0.1 C,0,63012,,41,67,28 M,0,63012,75012,100.8,435 F,0,63293,63793,0,0.75 F,0,75012,75199,0.75,0
Sprite,Foreground,CentreLeft,"SB\text\exo2_a61.png",0,0 S,0,63012,,0.1 C,0,63012,,41,67,28 M,0,63012,75012,106.4,435 F,0,63293,63793,0,0.75 F,0,75012,75199,0.75,0
Sprite,Foreground,CentreLeft,"SB\text\exo2_a6f.png",0,0 S,0,63012,,0.1 C,0,63012,,41,67,28 M,0,63012,75012,111.7,435 F,0,63293,63793,0,0.75 F,0,75012,75199,0.75,0
Sprite,Foreground,CentreLeft,"SB\text\exo2_a73.png",0,0 S,0,63012,,0.1 C,0,63012,,41,67,28 M,0,63012,75012,117.2,435 F,0,63293,63793,0,0.75 F,0,75012,75199,0.75,0
Sprite,Foreground,CentreLeft,"SB\text\exo2_a6c.png",0,0 S,0,63012,,0.1 C,0,63012,,41,67,28 M,0,63012,75012,122.1,435 F,0,63293,63793,0,0.75 F,0,75012,75199,0.75,0
Sprite,Foreground,CentreLeft,"SB\text\exo2_a69.png",125,435 S,0,63012,,0.1 C,0,63012,,41,67,28 F,0,63293,63793,0,0.75 F,0,75012,75199,0.75,0
Sprite,Foreground,CentreLeft,"SB\text\exo2_a74.png",0,0 S,0,63012,,0.1 C,0,63012,,41,67,28 M,0,63012,75012,127.4,435 F,0,63293,63793,0,0.75 F,0,75012,75199,0.75,0
Sprite,Foreground,CentreLeft,"SB\text\exo2_a7a.png",0,0 S,0,63012,,0.1 C,0,63012,,41,67,28 M,0,63012,75012,131.1,435 F,0,63293,63793,0,0.75 F,0,75012,75199,0.75,0
//Storyboard Layer 4 (Overlay)
//Storyboard Sound Samples

[TimingPoints]
1512,375,4,2,2,80,1,0
3012,375,4,2,1,80,1,0
3762,-100,4,2,2,80,0,0
6574,-100,4,2,1,80,0,0
6621,-100,4,2,2,80,0,0
12012,-100,4,2,3,80,0,0
12762,-100,4,2,2,80,0,0
14262,-100,4,2,2,80,0,0
15012,-100,4,2,2,80,0,0
21012,-100,4,2,2,85,0,0
24012,-100,4,2,1,75,0,0
25512,-100,4,2,1,80,0,0
27012,-100,4,2,2,75,0,0
27762,-100,4,2,1,75,0,0
28043,-100,4,2,2,75,0,0
28324,-100,4,2,1,75,0,0
28887,-100,4,2,1,65,0,0
29262,-100,4,2,2,85,0,0
30012,-100,4,2,2,75,0,0
30387,-100,4,2,2,75,0,0
30762,-100,4,2,1,75,0,0
31137,-100,4,2,2,75,0,0
31512,-100,4,2,2,85,0,0
32262,-100,4,2,1,85,0,0
32543,-100,4,2,2,85,0,0
32824,-100,4,2,1,85,0,0
33012,-100,4,2,2,90,0,0
34512,-100,4,2,2,90,0,0
35074,-100,4,2,2,90,0,0
35261,-100,4,2,2,90,0,0
36012,-100,4,2,2,70,0,0
37887,-100,4,2,1,95,0,0
38262,-100,4,2,1,65,0,0
38824,-100,4,2,2,95,0,0
39012,-100,4,2,2,92,0,1
40137,-100,4,2,2,92,0,1
40512,-100,4,2,2,92,0,1
43137,-100,4,2,2,92,0,1
43512,-100,4,2,2,92,0,1
46137,-100,4,2,2,92,0,1
46512,-100,4,2,2,92,0,1
50918,-100,4,2,2,65,0,0
51012,-100,4,2,2,92,0,1
52137,-100,4,2,2,92,0,1
52512,-100,4,2,2,92,0,1
55137,-100,4,2,2,92,0,1
55512,-100,4,2,2,92,0,1
57012,-100,4,2,2,80,0,1
60762,-100,4,2,2,75,0,1
61512,-100,4,2,2,70,0,1
62262,-100,4,2,2,60,0,1
63012,-100,4,2,2,80,0,0
75012,-100,4,2,1,75,0,0
75574,-100,4,2,2,75,0,0
76137,-100,4,2,6,75,0,0
76512,-100,4,2,1,75,0,0
77074,-100,4,2,2,75,0,0
77637,-100,4,2,1,75,0,0
78105,-100,4,2,2,75,0,0
81012,-100,4,2,1,75,0,0
81574,-100,4,2,2,75,0,0
82137,-100,4,2,2,75,0,0
82512,-100,4,2,1,75,0,0
83074,-100,4,2,2,75,0,0
84949,-100,4,2,1,75,0,0
85324,-100,4,2,2,75,0,0
86167,-100,4,2,1,70,0,0
86262,-100,4,2,2,40,0,0
86355,-100,4,2,2,50,0,0
86449,-100,4,2,2,25,0,0
86636,-100,4,2,2,80,0,0
87012,-100,4,2,1,95,0,1
87762,-100,4,2,2,95,0,1
88512,-100,4,2,1,95,0,1
89262,-100,4,2,2,95,0,1
90762,-100,4,2,1,95,0,1
91137,-100,4,2,2,95,0,1
93012,-100,4,2,1,95,0,1
93762,-100,4,2,2,95,0,1
96761,-100,4,2,1,95,0,1
97137,-100,4,2,2,95,0,1
97512,-100,4,2,2,80,0,1
98262,-100,4,2,1,90,0,1
98637,-100,4,2,1,80,0,1
98918,-100,4,2,1,95,0,0
99012,-100,4,2,1,95,0,1
99762,-100,4,2,2,95,0,1
101262,-100,4,2,2,95,0,1
101637,-100,4,2,2,95,0,1
102762,-100,4,2,1,95,0,1
103137,-100,4,2,2,95,0,1
105199,-100,4,2,1,95,0,1
105761,-100,4,2,2,95,0,1
107262,-100,4,2,2,95,0,1
107637,-100,4,2,2,95,0,1
108761,-100,4,2,1,95,0,1
109137,-100,4,2,2,95,0,1
109512,-100,4,2,2,80,0,1
110262,-100,4,2,1,90,0,1
110637,-100,4,2,2,80,0,1
111012,-100,4,2,2,85,0,0
112137,-100,4,2,1,85,0,0
112512,-100,4,2,3,85,0,0
113074,-100,4,2,1,85,0,0
114012,-100,4,2,2,85,0,0
115137,-100,4,2,1,85,0,0
115512,-100,4,2,2,85,0,0
118137,-100,4,2,1,85,0,0
118512,-100,4,2,3,85,0,0
119074,-100,4,2,1,85,0,0
120012,-100,4,2,2,80,0,0
121324,-100,4,2,1,80,0,0
121886,-100,4,2,2,80,0,0
122637,-100,4,2,1,75,0,0
122918,-100,4,2,1,55,0,0

[Colours]
Combo1 : 240,51,153
Combo2 : 104,67,206
Combo3 : 238,170,1
Combo4 : 166,203,2

[HitObjects]
300,112,1512,6,0,B|256:60|256:60|212:112,1,135,0|8,3:1|1:3,2:0:0:0:
117,260,3012,6,0,B|69:328|69:328|169:328,1,180,4|8,3:0|1:3,2:0:0:0:
256,328,4137,1,8,1:2:0:0:
346,328,4512,2,0,B|443:328|443:328|395:260,1,180,8|8,1:3|1:3,2:3:0:0:
342,188,5637,1,8,1:2:0:0:
259,151,6012,6,0,B|208:164|208:164|185:154|185:154|129:169,2,135,8|2|8,1:3|2:0|1:2,2:0:0:0:
319,84,7512,2,0,B|279:3|279:3|189:61,1,180,8|8,1:3|1:3,2:0:0:0:
116,73,8637,1,8,1:2:0:0:
29,95,9012,5,8,1:3:0:0:
3,274,9762,2,0,B|-8:318|-8:318|8:359,1,90,8|8,1:3|1:2,2:0:0:0:
85,312,10512,2,0,B|158:259|158:259|203:343,1,180,8|8,1:3|1:3,2:0:0:0:
284,371,11637,1,8,1:2:0:0:
338,299,12012,5,10,2:0:0:0:
503,229,12762,2,0,P|447:147|415:160,1,90,8|8,1:3|1:2,2:0:0:0:
387,139,13512,2,0,P|449:142|469:33,1,180,8|8,1:3|1:3,2:0:0:0:
397,5,14637,1,8,1:2:0:0:
310,29,15012,6,0,L|238:39,1,45,8|2,1:3|2:3,2:0:0:0:
207,104,15574,2,0,L|153:183,1,90,2|2,2:3|2:3,2:0:0:0:
114,258,16324,1,0,2:0:0:0:
204,266,16699,2,0,L|382:278,1,90,2|2,2:3|2:3,2:0:0:0:
384,278,17449,1,2,2:3:0:0:
354,193,17824,2,0,L|282:39,1,90,0|2,2:0|2:3,2:0:0:0:
266,35,18574,5,2,2:3:0:0:
207,104,18949,2,0,P|180:152|150:184,1,90,2|0,2:3|2:0,2:0:0:0:
114,258,19699,1,2,2:3:0:0:
204,266,20074,2,0,P|261:266|302:274,2,90,2|2|0,2:3|2:3|2:3,2:0:0:0:
197,294,21012,6,0,L|163:390,1,90,8|8,3:0|3:2,2:0:0:0:
84,343,21762,2,0,L|118:247,1,90,8|8,3:0|3:2,2:0:0:0:
55,190,22512,2,0,L|36:86,2,90,8|8|8,3:0|3:2|3:0,2:0:0:0:
143,170,23637,1,8,3:2:0:0:
127,81,24012,5,12,1:3:0:0:
196,23,24387,2,0,P|224:51|232:103,1,90,0|12,1:0|1:3,1:0:0:0:
301,158,25137,2,0,P|273:186|265:238,1,90,0|0,1:0|1:0,1:0:0:0:
339,285,25887,1,0,1:0:0:0:
307,369,26262,1,0,1:0:0:0:
128,356,27012,6,0,P|42:306|61:269,1,90,10|0,2:3|1:2,3:0:0:0:
0,263,27762,2,0,L|24:98,1,135,2|2,3:2|0:2,3:0:0:0:
134,58,28887,1,4,3:0:0:0:
211,11,29262,2,0,P|263:11|291:51,1,90,2|0,1:0|1:0,2:0:0:0:
312,124,30012,6,0,L|292:233,2,90,10|8|2,2:3|3:2|3:2,3:0:0:0:
374,59,31137,1,8,3:0:0:0:
412,141,31512,2,0,L|521:161,1,90,8|8,2:3|3:2,3:0:0:0:
512,248,32262,2,0,P|514:291|482:346,1,90,2|8,2:0|2:0,2:0:0:0:
403,336,33012,5,10,2:3:0:0:
315,356,33387,1,2,3:0:0:0:
227,376,33762,2,0,B|219:352|219:352|243:278,1,90,8|2,2:3|3:0,2:0:0:0:
169,233,34512,2,0,L|117:217,1,45,10|4,3:0|3:0,2:0:0:0:
48,174,35074,2,0,L|64:122,1,45,0|2,1:0|3:0,2:0:0:0:
126,68,35637,1,2,3:0:0:0:
208,104,36012,6,0,B|260:84|252:116|300:108|284:80|340:84,2,135,0|0|8,2:0|2:0|2:0,2:0:0:0:
231,191,37512,2,0,P|242:224|302:240,1,90,2|0,2:3|1:0,2:0:0:0:
380,232,38262,2,0,P|430:183|412:117,1,135,0|0,1:0|2:0,2:0:0:0:
404,100,39012,6,0,P|352:108|304:88,1,90,8|8,1:3|2:1,2:0:0:0:
269,20,39762,1,0,3:0:0:0:
213,91,40137,1,8,2:1:0:0:
165,15,40512,2,0,P|122:3|78:11,1,90,8|8,1:3|2:1,2:0:0:0:
16,77,41262,2,0,P|8:137|60:193,1,135,0|0,3:0|3:0,2:0:0:0:
67,217,42012,6,0,P|119:209|167:229,1,90,8|8,1:3|2:1,2:0:0:0:
202,296,42762,1,0,3:0:0:0:
256,224,43137,1,8,2:1:0:0:
304,300,43512,2,0,P|346:311|390:303,1,90,8|8,1:3|2:1,2:0:0:0:
456,240,44262,2,0,P|468:180|420:121,1,135,0|0,3:0|3:0,2:0:0:0:
396,128,45012,6,0,P|352:117|308:127,1,90,8|8,1:3|2:1,2:0:0:0:
284,212,45762,1,0,3:0:0:0:
196,212,46137,1,8,2:1:0:0:
172,124,46512,2,0,P|181:80|169:37,1,90,8|8,1:3|2:1,2:0:0:0:
80,24,47262,2,0,P|52:84|80:144,1,135,0|0,3:0|3:0,2:0:0:0:
80,172,48012,6,0,P|89:216|77:259,1,90,8|8,1:3|2:1,2:0:0:0:
96,348,48762,1,0,3:0:0:0:
188,348,49137,1,8,2:1:0:0:
212,260,49512,2,0,P|256:249|300:259,1,90,8|8,1:3|2:1,2:0:0:0:
389,260,50262,2,0,P|417:320|387:379,1,135,0|0,3:0|3:0,2:0:0:0:
364,364,51012,6,0,P|315:365|275:381,1,90,8|8,1:3|2:1,2:0:0:0:
188,368,51762,1,0,3:0:0:0:
212,281,52137,1,8,2:1:0:0:
129,247,52512,2,0,L|96:152,1,90,8|8,1:3|2:1,2:0:0:0:
20,120,53262,2,0,P|79:115|114:40,1,135,0|0,3:0|3:0,2:0:0:0:
128,28,54012,6,0,P|176:26|216:10,1,90,8|8,1:3|2:1,2:0:0:0:
304,24,54762,1,0,3:0:0:0:
280,112,55137,1,8,2:1:0:0:
363,147,55512,2,0,L|393:241,1,90,8|8,1:3|2:1,2:0:0:0:
472,272,56262,2,0,P|413:277|378:352,1,135,0|0,3:0|3:0,2:0:0:0:
376,366,57012,6,0,L|476:374,2,90,0|8|0,1:0|2:1|1:0,2:0:0:0:
286,359,58137,1,8,2:1:0:0:
295,269,58512,2,0,L|303:169,2,90,0|8|0,1:0|2:1|1:0,2:0:0:0:
286,359,59637,1,8,2:1:0:0:
196,352,60012,6,0,L|100:344,1,90,8|8,1:3|1:2,0:0:0:0:
36,289,60762,1,8,1:3:0:0:
43,199,61137,1,8,1:2:0:0:
121,154,61512,2,0,L|225:162,1,90,8|8,1:3|1:2,2:0:0:0:
218,70,62262,2,0,L|114:62,1,90,8|8,2:3|3:2,2:0:0:0:
59,5,63012,1,0,2:0:0:0:
336,196,75012,6,0,B|476:196,2,135,2|2|0,2:3|2:0|2:0,2:0:0:0:
304,280,76512,2,0,B|256:328|256:328|208:280,2,135,2|2|2,2:3|2:0|3:2,2:0:0:0:
336,196,78012,6,0,B|256:60|256:60|176:196,1,315,2|2,3:2|2:0,2:0:0:0:
406,363,81012,6,0,L|424:191,1,135,2|2,2:0|2:0,0:0:0:0:
512,130,82137,1,2,2:0:0:0:
474,48,82512,2,0,P|345:52|336:74,1,135,2|2,2:0|2:0,0:0:0:0:
243,112,83637,1,2,2:0:0:0:
200,33,84012,6,2,P|93:32|46:146,1,225,2|0,2:0|2:0,2:0:0:0:
92,202,85324,2,2,P|219:250|240:109,1,315,2|8,2:0|1:0,2:0:0:0:
156,134,87012,6,0,P|146:20|163:10,2,90,4|8|2,1:0|2:0|2:1,2:0:0:0:
243,112,88137,1,8,3:1:0:0:
322,155,88512,2,0,L|424:142,2,90,4|8|0,1:3|2:0|1:2,2:0:0:0:
248,208,89637,1,8,2:1:0:0:
297,284,90012,6,0,P|243:375|235:376,1,90,8|8,3:0|2:1,1:0:0:0:
185,335,90762,2,0,P|102:311|88:314,1,90,4|8,1:0|2:1,1:0:0:0:
72,319,91324,2,0,P|30:305|50:220,1,135,8|8,2:1|2:1,2:0:0:0:
118,189,92262,1,2,2:3:0:0:
74,111,92637,1,8,2:1:0:0:
156,74,93012,6,0,P|174:29|212:-2,2,90,4|8|2,1:0|2:0|2:1,2:0:0:0:
228,128,94137,1,8,3:1:0:0:
196,212,94512,2,0,L|96:240,2,90,8|8|0,1:3|2:0|1:2,2:0:0:0:
285,197,95637,1,8,2:1:0:0:
364,240,96012,6,0,P|374:322|336:340,1,90,8|8,3:0|2:1,2:0:0:0:
312,380,96762,1,4,1:0:0:0:
224,372,97137,1,8,2:1:0:0:
183,293,97512,2,0,L|176:187,1,90,8|8,2:3|2:1,2:0:0:0:
88,184,98262,2,2,P|44:136|63:75,1,135,2|0,2:0|2:0,2:0:0:0:
84,56,99012,6,0,P|43:14|0:8,2,90,4|10|2,1:0|2:0|2:1,2:0:0:0:
152,116,100137,1,8,3:1:0:0:
209,46,100512,2,0,L|366:27,2,90,8|8|0,1:3|2:0|1:0,2:0:0:0:
152,116,101637,1,8,2:1:0:0:
67,146,102012,6,0,P|71:242|80:247,1,90,4|8,1:3|2:1,2:0:0:0:
101,305,102762,2,0,B|140:282|140:282|207:314,1,90,4|10,1:0|2:1,2:0:0:0:
202,319,103324,2,0,L|216:142,1,135,8|8,2:1|2:1,2:0:0:0:
152,116,104262,1,2,2:3:0:0:
217,54,104637,2,0,L|281:64,1,45,8|2,2:1|2:0,2:0:0:0:
348,35,105199,6,0,B|406:1|406:1|448:64,1,135,2|2,3:2|2:1,2:0:0:0:
489,135,106137,1,8,3:1:0:0:
407,171,106512,2,0,B|316:155,2,90,8|8|0,1:3|2:0|1:0,2:0:0:0:
479,225,107637,1,8,1:0:0:0:
503,312,108012,6,0,P|470:368|395:342,1,135,4|8,1:3|2:1,2:0:0:0:
393,334,108762,2,0,P|319:307|294:322,1,90,4|8,1:0|2:1,0:0:0:0:
227,285,109512,2,0,L|215:185,1,90,4|8,2:3|2:1,2:0:0:0:
127,206,110262,2,0,L|139:306,1,90,2|10,2:0|2:1,2:0:0:0:
69,353,111012,6,0,P|4:322|22:249,1,135,10|0,2:3|2:0,2:0:0:0:
126,206,112137,1,10,3:2:0:0:
139,117,112512,2,0,L|-7:127,2,135,10|2|10,2:0|3:2|3:2,2:0:0:0:
224,87,114012,5,8,1:3:0:0:
393,21,114762,2,0,P|444:100|418:122,1,90,8|10,3:0|3:2,2:0:0:0:
433,163,115512,1,10,1:3:0:0:
490,285,116074,2,0,L|314:307,1,135,2|8,2:3|2:1,2:0:0:0:
286,359,117012,6,0,P|218:345|234:256,1,135,10|0,2:3|2:0,2:0:0:0:
238,157,118137,1,10,3:2:0:0:
219,68,118512,2,0,L|68:79,2,135,10|2|10,2:0|3:2|3:2,2:0:0:0:
238,157,120012,6,0,L|87:168,1,135,10|2,2:3|2:3,2:0:0:0:
29,217,120949,1,2,2:3:0:0:
62,301,121324,2,0,P|146:351|172:312,1,135,2|8,1:2|2:0,2:0:0:0:
237,298,122262,2,0,B|298:247|298:247|374:293,1,157.5,10|2,2:3|2:0,2:0:0:0:
