osu file format v14

[General]
AudioFilename: audio.mp3
AudioLeadIn: 0
PreviewTime: 87012
Countdown: 0
SampleSet: Soft
StackLeniency: 0.5
Mode: 0
LetterboxInBreaks: 0
EpilepsyWarning: 1
WidescreenStoryboard: 1

[Editor]
Bookmarks: 14262,15012,24012,27012,33012,36012,39012,45012,48762,51012,57012,60012,63012,75012,87012,93012,99012,105012,111012,114012,117012,120012,123012
DistanceSpacing: 0.2
BeatDivisor: 4
GridSize: 32
TimelineZoom: 2.2

[Metadata]
Title:triangles
TitleUnicode:triangles
Artist:cYsmix
ArtistUnicode:cYsmix
Creator:yf_bmp
Version:Chaoz's Expert
Source:osu!
Tags:electronic instrumental lazer triangles contest featured artist fa TtmnZk Chaoslitz Yugu Yumeno Himiko
BeatmapID:3783209
BeatmapSetID:1841885

[Difficulty]
HPDrainRate:6
CircleSize:4.3
OverallDifficulty:8.5
ApproachRate:9.3
SliderMultiplier:2
SliderTickRate:1

[Events]
//Background and Video events
0,0,"bg.png",0,0
//Break Periods
2,63212,74445
//Storyboard Layer 0 (Background)
//Storyboard Layer 1 (Fail)
//Storyboard Layer 2 (Pass)
//Storyboard Layer 3 (Foreground)
Sprite,Foreground,CentreLeft,"SB\text\exo2_a42.png",-67,415 S,0,63012,,0.1 C,0,63012,,41,67,28 F,0,63293,63793,0,0.75 F,0,75012,75199,0.75,0
Sprite,Foreground,CentreLeft,"SB\text\exo2_a65.png",-61,415 S,0,63012,,0.1 C,0,63012,,41,67,28 F,0,63293,63793,0,0.75 F,0,75012,75199,0.75,0
Sprite,Foreground,CentreLeft,"SB\text\exo2_a61.png",0,0 S,0,63012,,0.1 C,0,63012,,41,67,28 M,0,63012,75012,-55.8,415 F,0,63293,63793,0,0.75 F,0,75012,75199,0.75,0
Sprite,Foreground,CentreLeft,"SB\text\exo2_a74.png",0,0 S,0,63012,,0.1 C,0,63012,,41,67,28 M,0,63012,75012,-50.5,415 F,0,63293,63793,0,0.75 F,0,75012,75199,0.75,0
Sprite,Foreground,CentreLeft,"SB\text\exo2_a6d.png",0,0 S,0,63012,,0.1 C,0,63012,,41,67,28 M,0,63012,75012,-46.8,415 F,0,63293,63793,0,0.75 F,0,75012,75199,0.75,0
Sprite,Foreground,CentreLeft,"SB\text\exo2_a61.png",0,0 S,0,63012,,0.1 C,0,63012,,41,67,28 M,0,63012,75012,-38.4,415 F,0,63293,63793,0,0.75 F,0,75012,75199,0.75,0
Sprite,Foreground,CentreLeft,"SB\text\exo2_a70.png",0,0 S,0,63012,,0.1 C,0,63012,,41,67,28 M,0,63012,75012,-33.1,415 F,0,63293,63793,0,0.75 F,0,75012,75199,0.75,0
Sprite,Foreground,CentreLeft,"SB\text\exo2_a3a.png",0,0 S,0,63012,,0.1 C,0,63012,,41,67,28 M,0,63012,75012,-27.5,415 F,0,63293,63793,0,0.75 F,0,75012,75199,0.75,0
Sprite,Foreground,CentreLeft,"SB\text\exo2_a43.png",0,0 S,0,63012,,0.1 C,0,63012,,41,67,28 M,0,63012,75012,-23.1,415 F,0,63293,63793,0,0.75 F,0,75012,75199,0.75,0
Sprite,Foreground,CentreLeft,"SB\text\exo2_a68.png",0,0 S,0,63012,,0.1 C,0,63012,,41,67,28 M,0,63012,75012,-17.6,415 F,0,63293,63793,0,0.75 F,0,75012,75199,0.75,0
Sprite,Foreground,CentreLeft,"SB\text\exo2_a61.png",0,0 S,0,63012,,0.1 C,0,63012,,41,67,28 M,0,63012,75012,-12,415 F,0,63293,63793,0,0.75 F,0,75012,75199,0.75,0
Sprite,Foreground,CentreLeft,"SB\text\exo2_a6f.png",0,0 S,0,63012,,0.1 C,0,63012,,41,67,28 M,0,63012,75012,-6.7,415 F,0,63293,63793,0,0.75 F,0,75012,75199,0.75,0
Sprite,Foreground,CentreLeft,"SB\text\exo2_a73.png",0,0 S,0,63012,,0.1 C,0,63012,,41,67,28 M,0,63012,75012,-1.2,415 F,0,63293,63793,0,0.75 F,0,75012,75199,0.75,0
Sprite,Foreground,CentreLeft,"SB\text\exo2_a6c.png",0,0 S,0,63012,,0.1 C,0,63012,,41,67,28 M,0,63012,75012,3.7,415 F,0,63293,63793,0,0.75 F,0,75012,75199,0.75,0
Sprite,Foreground,CentreLeft,"SB\text\exo2_a69.png",0,0 S,0,63012,,0.1 C,0,63012,,41,67,28 M,0,63012,75012,6.6,415 F,0,63293,63793,0,0.75 F,0,75012,75199,0.75,0
Sprite,Foreground,CentreLeft,"SB\text\exo2_a74.png",0,0 S,0,63012,,0.1 C,0,63012,,41,67,28 M,0,63012,75012,9,415 F,0,63293,63793,0,0.75 F,0,75012,75199,0.75,0
Sprite,Foreground,CentreLeft,"SB\text\exo2_a7a.png",0,0 S,0,63012,,0.1 C,0,63012,,41,67,28 M,0,63012,75012,12.7,415 F,0,63293,63793,0,0.75 F,0,75012,75199,0.75,0
Sprite,Foreground,CentreLeft,"SB\text\exo2_a48.png",-67,425 S,0,63012,,0.1 C,0,63012,,41,67,28 F,0,63293,63793,0,0.75 F,0,75012,75199,0.75,0
Sprite,Foreground,CentreLeft,"SB\text\exo2_a69.png",0,0 S,0,63012,,0.1 C,0,63012,,41,67,28 M,0,63012,75012,-60.6,425 F,0,63293,63793,0,0.75 F,0,75012,75199,0.75,0
Sprite,Foreground,CentreLeft,"SB\text\exo2_a74.png",0,0 S,0,63012,,0.1 C,0,63012,,41,67,28 M,0,63012,75012,-58.2,425 F,0,63293,63793,0,0.75 F,0,75012,75199,0.75,0
Sprite,Foreground,CentreLeft,"SB\text\exo2_a73.png",0,0 S,0,63012,,0.1 C,0,63012,,41,67,28 M,0,63012,75012,-54.5,425 F,0,63293,63793,0,0.75 F,0,75012,75199,0.75,0
Sprite,Foreground,CentreLeft,"SB\text\exo2_a6f.png",0,0 S,0,63012,,0.1 C,0,63012,,41,67,28 M,0,63012,75012,-49.6,425 F,0,63293,63793,0,0.75 F,0,75012,75199,0.75,0
Sprite,Foreground,CentreLeft,"SB\text\exo2_a75.png",0,0 S,0,63012,,0.1 C,0,63012,,41,67,28 M,0,63012,75012,-44.1,425 F,0,63293,63793,0,0.75 F,0,75012,75199,0.75,0
Sprite,Foreground,CentreLeft,"SB\text\exo2_a6e.png",0,0 S,0,63012,,0.1 C,0,63012,,41,67,28 M,0,63012,75012,-38.6,425 F,0,63293,63793,0,0.75 F,0,75012,75199,0.75,0
Sprite,Foreground,CentreLeft,"SB\text\exo2_a64.png",-33,425 S,0,63012,,0.1 C,0,63012,,41,67,28 F,0,63293,63793,0,0.75 F,0,75012,75199,0.75,0
Sprite,Foreground,CentreLeft,"SB\text\exo2_a73.png",0,0 S,0,63012,,0.1 C,0,63012,,41,67,28 M,0,63012,75012,-27.5,425 F,0,63293,63793,0,0.75 F,0,75012,75199,0.75,0
Sprite,Foreground,CentreLeft,"SB\text\exo2_a3a.png",0,0 S,0,63012,,0.1 C,0,63012,,41,67,28 M,0,63012,75012,-22.6,425 F,0,63293,63793,0,0.75 F,0,75012,75199,0.75,0
Sprite,Foreground,CentreLeft,"SB\text\exo2_a54.png",0,0 S,0,63012,,0.1 C,0,63012,,41,67,28 M,0,63012,75012,-18.2,425 F,0,63293,63793,0,0.75 F,0,75012,75199,0.75,0
Sprite,Foreground,CentreLeft,"SB\text\exo2_a74.png",0,0 S,0,63012,,0.1 C,0,63012,,41,67,28 M,0,63012,75012,-12.6,425 F,0,63293,63793,0,0.75 F,0,75012,75199,0.75,0
Sprite,Foreground,CentreLeft,"SB\text\exo2_a6d.png",0,0 S,0,63012,,0.1 C,0,63012,,41,67,28 M,0,63012,75012,-8.9,425 F,0,63293,63793,0,0.75 F,0,75012,75199,0.75,0
Sprite,Foreground,CentreLeft,"SB\text\exo2_a6e.png",0,0 S,0,63012,,0.1 C,0,63012,,41,67,28 M,0,63012,75012,-0.5,425 F,0,63293,63793,0,0.75 F,0,75012,75199,0.75,0
Sprite,Foreground,CentreLeft,"SB\text\exo2_a5a.png",0,0 S,0,63012,,0.1 C,0,63012,,41,67,28 M,0,63012,75012,5.1,425 F,0,63293,63793,0,0.75 F,0,75012,75199,0.75,0
Sprite,Foreground,CentreLeft,"SB\text\exo2_a6b.png",0,0 S,0,63012,,0.1 C,0,63012,,41,67,28 M,0,63012,75012,10.5,425 F,0,63293,63793,0,0.75 F,0,75012,75199,0.75,0
Sprite,Foreground,CentreLeft,"SB\text\exo2_a53.png",-67,435 S,0,63012,,0.1 C,0,63012,,41,67,28 F,0,63293,63793,0,0.75 F,0,75012,75199,0.75,0
Sprite,Foreground,CentreLeft,"SB\text\exo2_a74.png",0,0 S,0,63012,,0.1 C,0,63012,,41,67,28 M,0,63012,75012,-61.6,435 F,0,63293,63793,0,0.75 F,0,75012,75199,0.75,0
Sprite,Foreground,CentreLeft,"SB\text\exo2_a6f.png",0,0 S,0,63012,,0.1 C,0,63012,,41,67,28 M,0,63012,75012,-57.9,435 F,0,63293,63793,0,0.75 F,0,75012,75199,0.75,0
Sprite,Foreground,CentreLeft,"SB\text\exo2_a72.png",0,0 S,0,63012,,0.1 C,0,63012,,41,67,28 M,0,63012,75012,-52.4,435 F,0,63293,63793,0,0.75 F,0,75012,75199,0.75,0
Sprite,Foreground,CentreLeft,"SB\text\exo2_a79.png",0,0 S,0,63012,,0.1 C,0,63012,,41,67,28 M,0,63012,75012,-48.6,435 F,0,63293,63793,0,0.75 F,0,75012,75199,0.75,0
Sprite,Foreground,CentreLeft,"SB\text\exo2_a62.png",0,0 S,0,63012,,0.1 C,0,63012,,41,67,28 M,0,63012,75012,-43.5,435 F,0,63293,63793,0,0.75 F,0,75012,75199,0.75,0
Sprite,Foreground,CentreLeft,"SB\text\exo2_a6f.png",-38,435 S,0,63012,,0.1 C,0,63012,,41,67,28 F,0,63293,63793,0,0.75 F,0,75012,75199,0.75,0
Sprite,Foreground,CentreLeft,"SB\text\exo2_a61.png",0,0 S,0,63012,,0.1 C,0,63012,,41,67,28 M,0,63012,75012,-32.5,435 F,0,63293,63793,0,0.75 F,0,75012,75199,0.75,0
Sprite,Foreground,CentreLeft,"SB\text\exo2_a72.png",0,0 S,0,63012,,0.1 C,0,63012,,41,67,28 M,0,63012,75012,-27.2,435 F,0,63293,63793,0,0.75 F,0,75012,75199,0.75,0
Sprite,Foreground,CentreLeft,"SB\text\exo2_a64.png",0,0 S,0,63012,,0.1 C,0,63012,,41,67,28 M,0,63012,75012,-23.4,435 F,0,63293,63793,0,0.75 F,0,75012,75199,0.75,0
Sprite,Foreground,CentreLeft,"SB\text\exo2_a3a.png",0,0 S,0,63012,,0.1 C,0,63012,,41,67,28 M,0,63012,75012,-17.9,435 F,0,63293,63793,0,0.75 F,0,75012,75199,0.75,0
Sprite,Foreground,CentreLeft,"SB\text\exo2_a59.png",0,0 S,0,63012,,0.1 C,0,63012,,41,67,28 M,0,63012,75012,-13.5,435 F,0,63293,63793,0,0.75 F,0,75012,75199,0.75,0
Sprite,Foreground,CentreLeft,"SB\text\exo2_a75.png",0,0 S,0,63012,,0.1 C,0,63012,,41,67,28 M,0,63012,75012,-8,435 F,0,63293,63793,0,0.75 F,0,75012,75199,0.75,0
Sprite,Foreground,CentreLeft,"SB\text\exo2_a6d.png",0,0 S,0,63012,,0.1 C,0,63012,,41,67,28 M,0,63012,75012,-2.5,435 F,0,63293,63793,0,0.75 F,0,75012,75199,0.75,0
Sprite,Foreground,CentreLeft,"SB\text\exo2_a65.png",0,0 S,0,63012,,0.1 C,0,63012,,41,67,28 M,0,63012,75012,5.9,435 F,0,63293,63793,0,0.75 F,0,75012,75199,0.75,0
Sprite,Foreground,CentreLeft,"SB\text\exo2_a6e.png",0,0 S,0,63012,,0.1 C,0,63012,,41,67,28 M,0,63012,75012,11.1,435 F,0,63293,63793,0,0.75 F,0,75012,75199,0.75,0
Sprite,Foreground,CentreLeft,"SB\text\exo2_a6f.png",0,0 S,0,63012,,0.1 C,0,63012,,41,67,28 M,0,63012,75012,16.7,435 F,0,63293,63793,0,0.75 F,0,75012,75199,0.75,0
Sprite,Foreground,CentreLeft,"SB\text\exo2_a48.png",0,0 S,0,63012,,0.1 C,0,63012,,41,67,28 M,0,63012,75012,24.3,435 F,0,63293,63793,0,0.75 F,0,75012,75199,0.75,0
Sprite,Foreground,CentreLeft,"SB\text\exo2_a69.png",0,0 S,0,63012,,0.1 C,0,63012,,41,67,28 M,0,63012,75012,30.7,435 F,0,63293,63793,0,0.75 F,0,75012,75199,0.75,0
Sprite,Foreground,CentreLeft,"SB\text\exo2_a6d.png",0,0 S,0,63012,,0.1 C,0,63012,,41,67,28 M,0,63012,75012,33.1,435 F,0,63293,63793,0,0.75 F,0,75012,75199,0.75,0
Sprite,Foreground,CentreLeft,"SB\text\exo2_a69.png",0,0 S,0,63012,,0.1 C,0,63012,,41,67,28 M,0,63012,75012,41.5,435 F,0,63293,63793,0,0.75 F,0,75012,75199,0.75,0
Sprite,Foreground,CentreLeft,"SB\text\exo2_a6b.png",0,0 S,0,63012,,0.1 C,0,63012,,41,67,28 M,0,63012,75012,43.9,435 F,0,63293,63793,0,0.75 F,0,75012,75199,0.75,0
Sprite,Foreground,CentreLeft,"SB\text\exo2_a6f.png",0,0 S,0,63012,,0.1 C,0,63012,,41,67,28 M,0,63012,75012,48.8,435 F,0,63293,63793,0,0.75 F,0,75012,75199,0.75,0
Sprite,Foreground,CentreLeft,"SB\text\exo2_a2c.png",0,0 S,0,63012,,0.1 C,0,63012,,41,67,28 M,0,63012,75012,54.3,435 F,0,63293,63793,0,0.75 F,0,75012,75199,0.75,0
Sprite,Foreground,CentreLeft,"SB\text\exo2_a79.png",0,0 S,0,63012,,0.1 C,0,63012,,41,67,28 M,0,63012,75012,58.6,435 F,0,63293,63793,0,0.75 F,0,75012,75199,0.75,0
Sprite,Foreground,CentreLeft,"SB\text\exo2_a66.png",0,0 S,0,63012,,0.1 C,0,63012,,41,67,28 M,0,63012,75012,63.7,435 F,0,63293,63793,0,0.75 F,0,75012,75199,0.75,0
Sprite,Foreground,CentreLeft,"SB\text\exo2_a5f.png",0,0 S,0,63012,,0.1 C,0,63012,,41,67,28 M,0,63012,75012,67.3,435 F,0,63293,63793,0,0.75 F,0,75012,75199,0.75,0
Sprite,Foreground,CentreLeft,"SB\text\exo2_a62.png",0,0 S,0,63012,,0.1 C,0,63012,,41,67,28 M,0,63012,75012,71.5,435 F,0,63293,63793,0,0.75 F,0,75012,75199,0.75,0
Sprite,Foreground,CentreLeft,"SB\text\exo2_a6d.png",77,435 S,0,63012,,0.1 C,0,63012,,41,67,28 F,0,63293,63793,0,0.75 F,0,75012,75199,0.75,0
Sprite,Foreground,CentreLeft,"SB\text\exo2_a70.png",0,0 S,0,63012,,0.1 C,0,63012,,41,67,28 M,0,63012,75012,85.4,435 F,0,63293,63793,0,0.75 F,0,75012,75199,0.75,0
Sprite,Foreground,CentreLeft,"SB\text\exo2_a2c.png",91,435 S,0,63012,,0.1 C,0,63012,,41,67,28 F,0,63293,63793,0,0.75 F,0,75012,75199,0.75,0
Sprite,Foreground,CentreLeft,"SB\text\exo2_a43.png",0,0 S,0,63012,,0.1 C,0,63012,,41,67,28 M,0,63012,75012,95.3,435 F,0,63293,63793,0,0.75 F,0,75012,75199,0.75,0
Sprite,Foreground,CentreLeft,"SB\text\exo2_a68.png",0,0 S,0,63012,,0.1 C,0,63012,,41,67,28 M,0,63012,75012,100.8,435 F,0,63293,63793,0,0.75 F,0,75012,75199,0.75,0
Sprite,Foreground,CentreLeft,"SB\text\exo2_a61.png",0,0 S,0,63012,,0.1 C,0,63012,,41,67,28 M,0,63012,75012,106.4,435 F,0,63293,63793,0,0.75 F,0,75012,75199,0.75,0
Sprite,Foreground,CentreLeft,"SB\text\exo2_a6f.png",0,0 S,0,63012,,0.1 C,0,63012,,41,67,28 M,0,63012,75012,111.7,435 F,0,63293,63793,0,0.75 F,0,75012,75199,0.75,0
Sprite,Foreground,CentreLeft,"SB\text\exo2_a73.png",0,0 S,0,63012,,0.1 C,0,63012,,41,67,28 M,0,63012,75012,117.2,435 F,0,63293,63793,0,0.75 F,0,75012,75199,0.75,0
Sprite,Foreground,CentreLeft,"SB\text\exo2_a6c.png",0,0 S,0,63012,,0.1 C,0,63012,,41,67,28 M,0,63012,75012,122.1,435 F,0,63293,63793,0,0.75 F,0,75012,75199,0.75,0
Sprite,Foreground,CentreLeft,"SB\text\exo2_a69.png",125,435 S,0,63012,,0.1 C,0,63012,,41,67,28 F,0,63293,63793,0,0.75 F,0,75012,75199,0.75,0
Sprite,Foreground,CentreLeft,"SB\text\exo2_a74.png",0,0 S,0,63012,,0.1 C,0,63012,,41,67,28 M,0,63012,75012,127.4,435 F,0,63293,63793,0,0.75 F,0,75012,75199,0.75,0
Sprite,Foreground,CentreLeft,"SB\text\exo2_a7a.png",0,0 S,0,63012,,0.1 C,0,63012,,41,67,28 M,0,63012,75012,131.1,435 F,0,63293,63793,0,0.75 F,0,75012,75199,0.75,0
//Storyboard Layer 4 (Overlay)
//Storyboard Sound Samples

[TimingPoints]
1512,375,4,2,2,80,1,0
1512,-62.5,4,2,2,80,0,0
1699,-71.4285714285714,4,2,1,80,0,0
1887,-62.5,4,2,2,80,0,0
2074,-58.8235294117647,4,2,2,80,0,0
2637,-66.6666666666667,4,2,2,80,0,0
3012,375,4,2,1,80,1,0
3012,-83.3333333333333,4,2,1,80,0,0
3293,-83.3333333333333,4,2,2,80,0,0
3387,-100,4,2,2,80,0,0
3574,-100,4,2,1,80,0,0
3762,-100,4,2,2,80,0,0
3949,-100,4,2,1,80,0,0
4043,-100,4,2,2,80,0,0
4324,-100,4,2,1,80,0,0
4512,-100,4,2,2,80,0,0
4699,-100,4,2,1,80,0,0
4746,-100,4,2,2,80,0,0
5074,-100,4,2,1,80,0,0
5262,-83.3333333333333,4,2,2,80,0,0
5449,-83.3333333333333,4,2,1,80,0,0
5543,-83.3333333333333,4,2,2,80,0,0
5637,-71.4285714285714,4,2,2,80,0,0
6012,-76.9230769230769,4,2,2,80,0,0
6199,-76.9230769230769,4,2,1,80,0,0
6293,-76.9230769230769,4,2,2,80,0,0
6574,-83.3333333333333,4,2,1,80,0,0
6621,-83.3333333333333,4,2,2,80,0,0
6949,-83.3333333333333,4,2,1,80,0,0
6996,-83.3333333333333,4,2,2,80,0,0
7137,-90.9090909090909,4,2,2,80,0,0
7324,-90.9090909090909,4,2,1,80,0,0
7512,-90.9090909090909,4,2,2,80,0,0
7699,-100,4,2,1,80,0,0
7746,-100,4,2,2,80,0,0
8074,-100,4,2,1,80,0,0
8168,-100,4,2,2,80,0,0
8449,-100,4,2,1,80,0,0
8637,-90.9090909090909,4,2,2,80,0,0
8824,-83.3333333333333,4,2,1,80,0,0
8871,-83.3333333333333,4,2,2,80,0,0
9012,-90.9090909090909,4,2,2,80,0,0
9199,-90.9090909090909,4,2,1,80,0,0
9293,-90.9090909090909,4,2,2,80,0,0
9387,-100,4,2,2,80,0,0
9574,-100,4,2,1,80,0,0
9762,-100,4,2,2,80,0,0
9949,-100,4,2,1,80,0,0
9996,-100,4,2,2,80,0,0
10324,-100,4,2,1,80,0,0
10418,-100,4,2,2,80,0,0
10699,-100,4,2,1,80,0,0
10793,-100,4,2,2,80,0,0
11074,-100,4,2,1,80,0,0
11168,-100,4,2,2,80,0,0
11449,-100,4,2,1,80,0,0
11496,-100,4,2,2,80,0,0
11637,-83.3333333333333,4,2,2,80,0,0
11824,-71.4285714285714,4,2,1,80,0,0
11871,-71.4285714285714,4,2,2,80,0,0
12012,-90.9090909090909,4,2,3,80,0,0
12199,-90.9090909090909,4,2,1,80,0,0
12246,-90.9090909090909,4,2,2,80,0,0
12574,-90.9090909090909,4,2,1,80,0,0
12621,-90.9090909090909,4,2,2,80,0,0
12949,-90.9090909090909,4,2,1,80,0,0
12996,-90.9090909090909,4,2,2,80,0,0
13324,-90.9090909090909,4,2,1,80,0,0
13371,-90.9090909090909,4,2,2,80,0,0
13699,-90.9090909090909,4,2,1,80,0,0
13793,-90.9090909090909,4,2,2,80,0,0
14074,-90.9090909090909,4,2,1,80,0,0
14168,-90.9090909090909,4,2,2,80,0,0
14262,-90.9090909090909,4,2,2,80,0,0
14730,-90.9090909090909,4,2,1,80,0,0
14918,-90.9090909090909,4,2,2,80,0,0
15387,-100,4,2,2,80,0,0
21012,-90.9090909090909,4,2,2,85,0,0
24012,-71.4285714285714,4,2,1,75,0,0
25512,-83.3333333333333,4,2,1,80,0,0
26637,-125,4,2,2,60,0,0
27012,-125,4,2,2,75,0,0
27199,-100,4,2,1,75,0,0
27387,-100,4,2,2,75,0,0
27480,-100,4,2,1,75,0,0
28043,-100,4,2,2,75,0,0
28089,-100,4,2,1,75,0,0
28887,-83.3333333333333,4,2,1,65,0,0
29074,-83.3333333333333,4,2,2,65,0,0
29262,-66.6666666666667,4,2,2,85,0,0
30012,-66.6666666666667,4,2,2,75,0,0
30199,-90.9090909090909,4,2,1,75,0,0
30387,-90.9090909090909,4,2,2,75,0,0
30480,-90.9090909090909,4,2,1,75,0,0
31043,-90.9090909090909,4,2,2,75,0,0
31230,-90.9090909090909,4,2,1,75,0,0
31512,-90.9090909090909,4,2,2,85,0,0
31699,-83.3333333333333,4,2,1,85,0,0
31887,-83.3333333333333,4,2,2,85,0,0
31980,-83.3333333333333,4,2,1,85,0,0
32543,-83.3333333333333,4,2,2,85,0,0
32730,-83.3333333333333,4,2,1,85,0,0
33012,-83.3333333333333,4,2,2,90,0,0
33199,-100,4,2,2,90,0,0
34512,-71.4285714285714,4,2,2,90,0,0
34699,-62.5,4,2,2,90,0,0
35262,-66.6666666666667,4,2,2,90,0,0
36012,-66.6666666666667,4,2,2,70,0,0
37137,-100,4,2,2,70,0,0
37512,-133.333333333333,4,2,2,70,0,0
37887,-66.6666666666667,4,2,1,95,0,0
38074,-100,4,2,1,95,0,0
38262,-100,4,2,1,65,0,0
38355,-100,4,2,1,75,0,0
38449,-100,4,2,1,85,0,0
38637,-83.3333333333333,4,2,2,95,0,0
38824,-100,4,2,2,95,0,0
39012,-83.3333333333333,4,2,2,92,0,1
40512,-133.333333333333,4,2,2,92,0,1
40699,-66.6666666666667,4,2,2,92,0,1
40980,-55.5555555555556,4,2,2,92,0,1
41262,-58.8235294117647,4,2,2,92,0,1
41543,-71.4285714285714,4,2,2,92,0,1
42012,-76.9230769230769,4,2,2,92,0,1
43512,-133.333333333333,4,2,2,92,0,1
43699,-71.4285714285714,4,2,2,92,0,1
44262,-66.6666666666667,4,2,2,92,0,1
44543,-71.4285714285714,4,2,2,92,0,1
45012,-83.3333333333333,4,2,2,92,0,1
46512,-133.333333333333,4,2,2,92,0,1
46699,-66.6666666666667,4,2,2,92,0,1
47074,-76.9230769230769,4,2,2,92,0,1
48012,-166.666666666667,4,2,2,92,0,1
48199,-83.3333333333333,4,2,2,92,0,1
49512,-200,4,2,2,92,0,1
49699,-90.9090909090909,4,2,2,92,0,1
50918,-90.9090909090909,4,2,2,92,0,0
51012,-83.3333333333333,4,2,2,92,0,1
52512,-133.333333333333,4,2,2,92,0,1
52699,-66.6666666666667,4,2,2,92,0,1
52980,-55.5555555555556,4,2,2,92,0,1
53262,-58.8235294117647,4,2,2,92,0,1
53543,-71.4285714285714,4,2,2,92,0,1
54012,-76.9230769230769,4,2,2,92,0,1
55512,-133.333333333333,4,2,2,92,0,1
55699,-71.4285714285714,4,2,2,92,0,1
56262,-66.6666666666667,4,2,2,92,0,1
56543,-71.4285714285714,4,2,2,92,0,1
57012,-133.333333333333,4,2,2,80,0,1
57199,-83.3333333333333,4,2,2,80,0,1
57762,-133.333333333333,4,2,2,80,0,1
57949,-83.3333333333333,4,2,2,80,0,1
58324,-66.6666666666667,4,2,1,80,0,1
58512,-133.333333333333,4,2,2,80,0,1
58699,-83.3333333333333,4,2,2,80,0,1
59262,-133.333333333333,4,2,2,80,0,1
59449,-83.3333333333333,4,2,2,80,0,1
59824,-66.6666666666667,4,2,1,80,0,1
60012,-66.6666666666667,4,2,2,80,0,1
60199,-100,4,2,2,80,0,1
60762,-100,4,2,2,75,0,1
60949,-111.111111111111,4,2,2,75,0,1
61512,-111.111111111111,4,2,2,70,0,1
61699,-142.857142857143,4,2,2,70,0,1
62262,-142.857142857143,4,2,2,60,0,1
62449,-200,4,2,2,60,0,1
63012,-200,4,2,2,80,0,0
75012,-100,4,2,1,75,0,0
75574,-100,4,2,2,75,0,0
76512,-100,4,2,1,75,0,0
77074,-100,4,2,2,75,0,0
77262,-100,4,2,1,75,0,0
77355,-100,4,2,2,75,0,0
77637,-100,4,2,1,75,0,0
77730,-100,4,2,2,75,0,0
78012,-100,4,2,1,75,0,0
78105,-100,4,2,2,75,0,0
78574,-100,4,2,1,75,0,0
78667,-100,4,2,2,75,0,0
79137,-100,4,2,1,75,0,0
79230,-100,4,2,2,75,0,0
80636,-100,4,2,1,75,0,0
81574,-100,4,2,2,75,0,0
82512,-100,4,2,1,75,0,0
83074,-100,4,2,2,75,0,0
83636,-100,4,2,1,75,0,0
84012,-100,4,2,2,75,0,0
86167,-100,4,2,1,70,0,0
86262,-100,4,2,2,40,0,0
86355,-100,4,2,2,50,0,0
86449,-100,4,2,2,25,0,0
86637,-62.5,4,2,2,80,0,0
87012,-83.3333333333333,4,2,1,95,0,1
87762,-66.6666666666667,4,2,2,95,0,1
88230,-58.8235294117647,4,2,2,95,0,1
88324,-58.8235294117647,4,2,1,95,0,1
88512,-83.3333333333333,4,2,1,95,0,1
89262,-76.9230769230769,4,2,2,95,0,1
89637,-62.5,4,2,2,95,0,1
90199,-83.3333333333333,4,2,2,95,0,1
90574,-66.6666666666667,4,2,2,95,0,1
90762,-76.9230769230769,4,2,1,95,0,1
91137,-83.3333333333333,4,2,2,95,0,1
92074,-90.9090909090909,4,2,2,95,0,1
93012,-83.3333333333333,4,2,1,95,0,1
93762,-66.6666666666667,4,2,2,95,0,1
94230,-58.8235294117647,4,2,2,95,0,1
94512,-83.3333333333333,4,2,2,95,0,1
95262,-76.9230769230769,4,2,2,95,0,1
95637,-62.5,4,2,2,95,0,1
96012,-83.3333333333333,4,2,2,95,0,1
96574,-76.9230769230769,4,2,2,95,0,1
96762,-76.9230769230769,4,2,1,95,0,1
97137,-83.3333333333333,4,2,2,95,0,1
97324,-133.333333333333,4,2,2,95,0,1
97512,-133.333333333333,4,2,2,80,0,1
98262,-133.333333333333,4,2,1,90,0,1
98637,-133.333333333333,4,2,2,80,0,1
98730,-133.333333333333,4,2,1,80,0,1
98918,-133.333333333333,4,2,1,80,0,0
99012,-76.9230769230769,4,2,1,95,0,1
99762,-62.5,4,2,2,95,0,1
100230,-55.5555555555556,4,2,2,95,0,1
100512,-133.333333333333,4,2,2,95,0,1
100699,-76.9230769230769,4,2,2,95,0,1
101262,-71.4285714285714,4,2,2,95,0,1
101637,-58.8235294117647,4,2,2,95,0,1
102199,-76.9230769230769,4,2,2,95,0,1
102574,-62.5,4,2,2,95,0,1
102762,-66.6666666666667,4,2,1,95,0,1
103137,-76.9230769230769,4,2,2,95,0,1
104074,-71.4285714285714,4,2,2,95,0,1
104824,-500,4,2,2,95,0,1
105199,-71.4285714285714,4,2,1,95,0,1
105762,-58.8235294117647,4,2,2,95,0,1
106230,-55.5555555555556,4,2,2,95,0,1
106512,-142.857142857143,4,2,2,95,0,1
106699,-71.4285714285714,4,2,2,95,0,1
107074,-62.5,4,2,2,95,0,1
107637,-55.5555555555556,4,2,2,95,0,1
108012,-43.4782608695652,4,2,2,95,0,1
108387,-100,4,2,2,95,0,1
108574,-66.6666666666667,4,2,2,95,0,1
108762,-55.5555555555556,4,2,1,95,0,1
109137,-71.4285714285714,4,2,2,95,0,1
109324,-66.6666666666667,4,2,2,95,0,1
109512,-133.333333333333,4,2,2,80,0,1
110262,-133.333333333333,4,2,1,90,0,1
110637,-133.333333333333,4,2,2,80,0,1
110730,-133.333333333333,4,2,1,80,0,1
111012,-83.3333333333333,4,2,2,85,0,0
111574,-90.9090909090909,4,2,2,85,0,0
112137,-90.9090909090909,4,2,1,85,0,0
112512,-90.9090909090909,4,2,3,85,0,0
112605,-90.9090909090909,4,2,2,85,0,0
112793,-90.9090909090909,4,2,1,85,0,0
112886,-90.9090909090909,4,2,2,85,0,0
113074,-90.9090909090909,4,2,1,85,0,0
113167,-90.9090909090909,4,2,2,85,0,0
113637,-90.9090909090909,4,2,1,85,0,0
114012,-90.9090909090909,4,2,2,85,0,0
115137,-90.9090909090909,4,2,1,85,0,0
115512,-90.9090909090909,4,2,2,85,0,0
117012,-83.3333333333333,4,2,2,85,0,0
117574,-90.9090909090909,4,2,2,85,0,0
118137,-90.9090909090909,4,2,1,85,0,0
118512,-90.9090909090909,4,2,3,85,0,0
118605,-90.9090909090909,4,2,2,85,0,0
118793,-90.9090909090909,4,2,1,85,0,0
118886,-90.9090909090909,4,2,2,85,0,0
119074,-90.9090909090909,4,2,1,85,0,0
119167,-90.9090909090909,4,2,2,85,0,0
119637,-90.9090909090909,4,2,1,85,0,0
120012,-100,4,2,2,80,0,0
120949,-100,4,2,1,80,0,0
121512,-133.333333333333,4,2,2,80,0,0
122355,-133.333333333333,4,2,1,80,0,0
122637,-133.333333333333,4,2,1,75,0,0
122824,-133.333333333333,4,2,1,55,0,0
123011,-133.333333333333,4,2,1,5,0,0

[Colours]
Combo1 : 240,51,153
Combo2 : 104,67,206
Combo3 : 238,170,1
Combo4 : 166,203,2

[HitObjects]
0,334,1512,6,0,P|51:262|23:248,1,80,0|0,3:1|2:0,2:0:0:0:
117,69,1699,2,0,B|147:62|147:62|127:78|127:78|74:29,1,70,0|0,1:0|2:0,2:0:0:0:
202,320,1887,2,0,P|144:258|166:243,1,80,0|0,3:0|2:0,2:0:0:0:
66,131,2074,6,2,B|-17:218|-17:218|-11:227|-11:227|201:212|201:212|90:115,1,425,8|0,1:3|2:0,2:0:0:0:
62,302,2637,2,0,L|207:292,1,75,2|0,2:0|2:0,2:0:0:0:
105,378,2824,1,8,3:0:0:0:
255,41,3012,6,0,B|268:8|268:8|244:-8|244:-8|259:95,1,120,4|2,3:0|2:0,2:0:0:0:
191,97,3293,1,0,2:0:0:0:
195,103,3387,2,2,P|259:181|237:190,1,100,8|2,1:2|2:0,2:0:0:0:
311,274,3762,6,0,L|472:268,1,100,8|2,1:3|2:0,2:0:0:0:
422,194,4043,1,0,2:0:0:0:
415,190,4137,2,2,L|254:196,1,100,8|2,1:2|2:0,2:0:0:0:
256,333,4512,5,8,1:3:0:0:
263,340,4605,1,0,2:0:0:0:
270,347,4699,2,0,B|253:361|253:361|262:286,1,50,2|0,2:0|2:0,2:0:0:0:
411,270,4887,2,2,L|250:276,1,100,8|2,1:2|2:0,2:0:0:0:
55,155,5262,6,0,B|13:161|13:161|29:122|29:122|87:194,1,120,8|2,1:3|2:0,2:0:0:0:
178,300,5543,1,0,2:0:0:0:
181,304,5637,2,2,B|155:364|155:364|148:365|148:365|110:314|110:314|113:308|113:308|177:299|177:299|217:347,1,210,8|0,1:2|2:0,2:0:0:0:
70,234,6012,6,0,L|254:209,1,130,8|2,1:3|2:0,2:0:0:0:
311,274,6293,1,0,2:0:0:0:
320,282,6387,2,2,L|214:268,1,65,8|0,1:2|2:0,2:0:0:0:
131,130,6574,6,0,B|59:253,1,120,2|8,2:0|1:3,2:0:0:0:
39,308,6855,1,0,2:0:0:0:
44,315,6949,2,0,L|150:301,1,60,2|0,2:0|2:0,2:0:0:0:
199,217,7137,6,2,L|88:75,1,110,8|2,2:0|2:0,2:0:0:0:
263,40,7512,5,8,1:3:0:0:
266,46,7605,1,0,2:0:0:0:
269,52,7699,2,0,L|266:150,1,50,2|0,2:0|2:0,2:0:0:0:
107,54,7887,2,2,P|204:34|176:-7,1,100,8|2,2:0|2:0,2:0:0:0:
347,24,8168,1,0,2:0:0:0:
350,30,8262,2,0,L|345:225,1,100,8|2,1:3|2:0,2:0:0:0:
349,377,8637,6,2,L|407:290,1,55,8|0,1:2|2:0,2:0:0:0:
472,192,8824,6,0,L|356:204,1,60,2|0,2:0|2:0,2:0:0:0:
242,215,9012,6,0,L|351:389,1,110,8|2,1:3|2:0,2:0:0:0:
328,207,9293,1,0,2:0:0:0:
332,212,9387,2,2,L|381:290,1,50,8|0,1:2|2:0,2:0:0:0:
436,275,9574,1,2,2:0:0:0:
201,365,9762,5,8,1:3:0:0:
205,372,9855,1,0,2:0:0:0:
209,379,9949,2,0,P|209:320|191:318,1,50,2|0,2:0|2:0,2:0:0:0:
76,210,10137,2,2,B|51:253|51:253|97:344,1,100,8|2,1:2|2:0,2:0:0:0:
152,293,10418,1,0,2:0:0:0:
154,300,10512,6,0,B|179:257|179:257|130:159,1,100,8|2,1:3|2:0,2:0:0:0:
46,115,10793,1,0,2:0:0:0:
44,107,10887,2,2,P|97:183|78:190,1,100,8|2,1:2|2:0,2:0:0:0:
23,197,11168,1,0,2:0:0:0:
26,205,11262,2,0,L|123:215,3,50,8|0|2|0,1:3|2:0|2:0|2:0,2:0:0:0:
148,33,11637,6,2,L|264:45,1,60,8|0,1:2|2:0,2:0:0:0:
356,54,11824,6,2,L|218:40,1,70,2|0,2:0|2:0,2:0:0:0:
235,201,12012,6,0,L|300:122,3,55,10|0|2|0,2:0|2:0|2:0|2:0,2:0:0:0:
173,82,12387,2,0,L|131:0,3,55,8|0|2|0,1:2|2:0|2:0|2:0,2:0:0:0:
227,185,12762,5,8,1:3:0:0:
231,193,12855,1,0,2:0:0:0:
235,201,12949,2,0,L|193:119,1,55,2|0,2:0|2:0,2:0:0:0:
333,82,13137,1,8,1:2:0:0:
327,89,13230,1,0,2:0:0:0:
321,96,13324,2,0,L|386:17,1,55,2|0,2:0|2:0,2:0:0:0:
489,118,13512,5,8,1:3:0:0:
484,108,13605,1,0,2:0:0:0:
479,98,13699,1,2,2:0:0:0:
475,88,13793,1,0,2:0:0:0:
459,51,13887,5,8,1:2:0:0:
428,89,13980,1,0,2:0:0:0:
396,128,14074,1,2,2:0:0:0:
364,167,14168,1,0,2:0:0:0:
367,173,14262,6,0,L|475:184,1,55,8|0,1:3|2:0,2:0:0:0:
404,366,14449,5,8,1:3:0:0:
380,314,14543,2,0,L|336:217,1,55,8|8,3:0|2:0,2:0:0:0:
498,261,14730,1,4,3:0:0:0:
465,308,14824,1,0,1:0:0:0:
441,256,14918,1,8,3:0:0:0:
468,275,15012,5,8,1:3:0:0:
160,245,15199,5,2,2:3:0:0:
168,244,15293,1,0,2:0:0:0:
176,243,15387,2,0,L|166:340,1,50,8|0,1:2|2:0,2:0:0:0:
212,362,15574,1,2,2:3:0:0:
61,258,15762,2,0,L|224:237,1,100,8|2,1:3|2:3,2:0:0:0:
132,363,16043,1,0,2:0:0:0:
128,370,16137,2,0,L|78:287,1,50,8|0,1:2|2:0,2:0:0:0:
22,328,16324,1,0,2:0:0:0:
256,192,16512,5,8,1:3:0:0:
65,100,16699,5,2,2:3:0:0:
67,108,16793,1,0,2:0:0:0:
69,116,16887,2,0,L|167:108,1,50,8|0,1:2|2:0,2:0:0:0:
190,148,17074,1,2,2:3:0:0:
75,0,17262,2,0,L|55:193,1,100,8|2,1:3|2:3,2:0:0:0:
186,68,17543,1,0,2:0:0:0:
190,62,17637,2,0,L|112:20,1,50,8|0,1:2|2:0,2:0:0:0:
75,0,17824,1,0,2:0:0:0:
256,192,18012,5,8,1:3:0:0:
370,41,18199,5,2,2:3:0:0:
372,48,18293,1,0,2:0:0:0:
374,55,18387,2,0,L|393:150,1,50,8|0,1:2|2:0,2:0:0:0:
309,133,18574,1,2,2:3:0:0:
476,143,18762,2,0,L|347:88,1,100,8|2,1:3|2:3,2:0:0:0:
447,17,19043,1,0,2:0:0:0:
451,23,19137,2,0,L|505:95,1,50,8|0,1:2|2:0,2:0:0:0:
476,143,19324,1,0,2:0:0:0:
256,192,19512,5,8,1:3:0:0:
418,324,19699,5,2,2:3:0:0:
424,319,19793,1,0,2:0:0:0:
430,314,19887,2,0,L|352:258,1,50,8|0,1:2|2:0,2:0:0:0:
456,235,20074,1,2,2:3:0:0:
338,383,20262,2,0,L|449:300,1,100,8|2,1:3|2:3,2:0:0:0:
314,256,20543,1,0,2:0:0:0:
306,257,20637,2,0,L|325:340,1,50,8|0,1:2|2:0,2:0:0:0:
390,285,20824,1,0,2:3:0:0:
297,52,21012,6,0,B|266:4|266:4|244:8|244:8|166:119,1,165,8|0,3:0|2:0,2:0:0:0:
215,332,21387,6,0,B|246:380|246:380|268:376|268:376|346:265,1,165,8|0,3:2|2:0,2:0:0:0:
195,78,21762,38,0,B|147:145|147:145|211:227,1,110,8|0,3:0|2:0,2:0:0:0:
322,299,22043,5,0,2:0:0:0:
317,306,22137,2,0,B|365:239|365:239|301:157,1,110,8|0,3:2|2:0,2:0:0:0:
297,52,22512,38,0,B|344:124|344:124|335:137|335:137|221:156,1,165,8|0,3:0|2:0,2:0:0:0:
215,332,22887,6,0,B|168:260|168:260|177:247|177:247|291:228,1,165,8|0,3:2|2:0,2:0:0:0:
164,167,23262,38,0,L|372:130,1,110,8|0,3:0|2:0,2:0:0:0:
338,219,23543,5,0,2:0:0:0:
348,217,23637,2,0,L|140:254,1,110,8|0,3:2|2:0,2:0:0:0:
52,64,24012,38,0,L|-26:179,1,70,12|0,1:3|1:0,1:0:0:0:
33,369,24199,5,0,1:0:0:0:
41,372,24293,1,0,1:0:0:0:
49,369,24387,2,0,L|127:254,1,70,0|0,1:0|1:0,1:0:0:0:
21,136,24574,38,0,L|151:145,1,70,0|0,3:0|3:0,1:0:0:0:
33,369,24762,6,0,L|-19:264,1,70,12|0,1:3|1:0,1:0:0:0:
52,64,24949,37,0,1:0:0:0:
60,61,25043,1,0,1:0:0:0:
68,64,25137,2,0,L|120:169,1,70,0|0,1:0|1:0,1:0:0:0:
10,292,25324,6,0,L|140:301,1,70,0|0,3:0|1:0,1:0:0:0:
227,103,25512,6,0,L|179:211,1,60,0|0,1:0|2:0,1:0:0:0:
209,353,25699,2,0,L|178:243,1,60,8|0,1:3|2:0,1:0:0:0:
244,114,25887,2,0,L|163:200,1,60,0|0,1:0|2:0,1:0:0:0:
228,344,26074,2,0,L|162:253,1,60,8|0,1:2|2:0,1:0:0:0:
19,214,26262,2,0,L|136:222,1,60,0|0,1:0|2:0,1:0:0:0:
158,223,26449,1,4,1:3:0:0:
276,22,26637,6,0,L|282:60,6,20,0|0|0|0|0|0|0,2:0|2:0|2:0|2:0|2:0|2:0|2:0,2:0:0:0:
382,0,27012,5,10,2:3:0:0:
314,164,27199,2,0,L|410:151,1,50,2|0,3:2|3:0,3:0:0:0:
485,140,27387,1,0,1:2:0:0:
493,139,27480,2,0,L|392:7,1,100,2|0,3:2|3:0,3:0:0:0:
314,164,27762,2,0,L|381:5,1,100,2|0,3:2|3:0,3:0:0:0:
493,139,28043,2,0,L|397:152,1,50,0|0,1:2|3:0,3:0:0:0:
390,305,28230,1,0,3:0:0:0:
395,311,28324,2,0,L|491:298,1,50,2|0,3:2|3:0,3:0:0:0:
440,226,28512,2,0,L|396:232,4,25,0|0|0|0|0,3:0|3:0|3:0|3:0|3:0,3:0:0:0:
194,385,28887,6,0,B|189:376|189:376|194:367|194:367|190:359|190:359|195:351|195:351|191:343|191:343|196:334|196:334|192:326|192:326|197:318|197:318|193:310|193:310|198:301|198:301|194:290|194:290|209:230,1,120,4|0,3:0|3:0,2:0:0:0:
45,232,29168,1,0,3:0:0:0:
121,255,29262,6,0,B|92:236|92:236|54:270|54:270|170:257,1,150,2|0,1:0|2:0,2:0:0:0:
236,202,29543,1,2,2:1:0:0:
240,193,29637,2,0,B|207:175|207:175|125:249,1,75,0|0,1:0|2:0,2:0:0:0:
55,350,29824,2,0,B|88:368|88:368|136:325,1,75,2|0,1:0|2:0,2:0:0:0:
111,158,30012,5,10,2:3:0:0:
248,19,30199,2,0,L|140:12,1,55,2|0,3:2|3:0,3:0:0:0:
0,8,30387,1,8,3:2:0:0:
4,1,30480,2,0,L|162:13,1,110,2|0,3:2|3:0,3:0:0:0:
111,158,30762,2,0,L|27:17,1,110,2|0,3:2|3:0,3:0:0:0:
248,19,31043,2,0,L|172:96,1,55,8|8,2:0|3:0,3:0:0:0:
111,158,31230,1,2,3:2:0:0:
115,154,31324,2,0,L|191:77,1,55,6|0,3:0|3:0,3:0:0:0:
317,168,31512,5,8,2:3:0:0:
249,335,31699,2,0,B|252:365|252:365|318:311,1,60,2|0,2:0|2:0,2:0:0:0:
242,140,31887,1,8,3:2:0:0:
230,136,31980,2,0,L|248:325,1,120,2|0,2:0|3:0,2:0:0:0:
430,209,32262,2,0,L|215:131,1,120,2|0,2:0|3:0,2:0:0:0:
275,346,32543,2,0,L|349:280,1,60,8|8,2:0|3:0,2:0:0:0:
430,209,32730,1,2,3:2:0:0:
425,213,32824,2,0,L|351:279,1,60,6|0,3:0|2:0,2:0:0:0:
176,302,33012,5,10,2:3:0:0:
81,219,33199,2,0,L|174:211,1,50,0|0,3:0|2:0,2:0:0:0:
134,370,33387,1,2,3:0:0:0:
126,373,33480,2,0,L|14:240,1,100,0|0,3:0|3:0,2:0:0:0:
211,208,33762,2,0,L|163:338,1,100,2|0,3:0|2:0,2:0:0:0:
31,223,34043,2,0,L|129:215,1,50,0|2,3:0|2:3,2:0:0:0:
171,296,34230,1,0,3:0:0:0:
176,302,34324,2,0,L|274:294,1,50,0|0,3:0|2:0,2:0:0:0:
165,142,34512,6,0,B|173:125|173:125|159:111|159:111|168:157,1,70,10|0,3:0|2:0,2:0:0:0:
266,367,34699,2,0,B|298:364|298:364|305:321|305:321|302:324|302:324|307:325|307:325|305:321|305:321|311:283|311:283|419:273,1,160,4|2,3:0|3:0,2:0:0:0:
481,365,34980,1,0,1:0:0:0:
432,357,35074,1,0,1:0:0:0:
383,349,35168,1,0,1:0:0:0:
418,312,35262,6,0,B|445:286|445:286|477:350,1,75,2|0,3:0|2:0,2:0:0:0:
237,190,35449,1,0,1:0:0:0:
242,198,35543,1,0,1:0:0:0:
247,206,35637,2,0,L|391:196,1,75,2|0,3:0|2:0,2:0:0:0:
367,51,35824,2,0,L|223:61,1,75,0|0,3:0|2:0,2:0:0:0:
444,13,36012,5,0,2:0:0:0:
459,11,36105,1,0,2:0:0:0:
471,19,36199,1,0,2:0:0:0:
502,147,36387,1,8,2:0:0:0:
359,130,36574,1,0,2:0:0:0:
440,94,36762,5,0,2:0:0:0:
434,102,36855,1,0,2:0:0:0:
430,93,36949,1,0,2:0:0:0:
289,40,37137,2,0,B|357:27|357:27|314:65|314:65|282:51,1,150,8|0,2:0|2:0,2:0:0:0:
182,69,37512,6,0,P|234:65|236:60,1,37.5000000000001,2|0,2:3|2:0,2:0:0:0:
219,0,37699,1,8,2:3:0:0:
19,266,37887,6,0,L|99:248,1,75,0|0,1:0|2:0,2:0:0:0:
171,153,38074,6,0,L|146:233,1,50,0|0,1:0|2:0,2:0:0:0:
70,50,38262,1,0,1:0:0:0:
18,63,38355,1,0,1:0:0:0:
2,115,38449,1,0,1:0:0:0:
39,154,38543,1,0,1:0:0:0:
91,141,38637,6,0,L|81:174,2,30,0|0|0,1:0|1:0|1:0,1:0:0:0:
166,280,38824,2,2,L|221:340,1,50,0|0,2:0|2:0,2:0:0:0:
386,370,39012,6,0,B|362:352|362:352|295:384,1,60,8|0,1:3|2:0,2:0:0:0:
256,214,39199,2,0,B|231:231|231:231|317:221,1,60,0|0,3:0|2:0,2:0:0:0:
471,324,39387,1,8,2:1:0:0:
475,240,39480,2,0,L|380:272,1,60,0|0,3:0|2:0,2:0:0:0:
284,304,39668,5,0,2:0:0:0:
335,365,39762,2,0,L|342:163,1,120,0|0,3:0|1:0,2:0:0:0:
475,240,40043,2,0,L|380:272,1,60,0|8,3:0|2:1,2:0:0:0:
331,151,40230,1,0,1:0:0:0:
335,162,40324,2,0,L|430:194,1,60,0|0,3:0|2:0,2:0:0:0:
471,324,40512,6,0,L|401:347,1,37.5000000000001,8|0,1:3|2:0,2:0:0:0:
166,255,40699,6,2,B|159:238|159:238|243:201|243:201|221:326,1,150,0|8,3:2|2:1,2:0:0:0:
128,165,40980,6,2,B|118:142|118:142|125:135|125:135|258:112|258:112|242:202,1,180,0|0,3:0|2:3,2:0:0:0:
221,320,41262,6,0,B|212:365|212:365|164:253,1,85,0|0,3:0|2:0,2:0:0:0:
40,156,41449,5,0,1:0:0:0:
10,234,41543,2,0,L|139:225,1,70,0|8,3:0|2:1,2:0:0:0:
75,72,41730,1,0,1:0:0:0:
70,78,41824,2,0,L|-59:87,1,70,0|0,3:0|2:0,2:0:0:0:
23,313,42012,6,0,B|50:330|50:330|108:283,1,65,8|0,1:3|2:0,2:0:0:0:
131,160,42199,2,0,B|138:145|138:145|123:135|123:135|133:191,1,65,0|0,3:0|2:0,2:0:0:0:
283,371,42387,1,8,2:1:0:0:
221,320,42480,2,0,L|102:365,1,65,0|0,3:0|2:0,2:0:0:0:
243,156,42668,5,0,2:0:0:0:
191,217,42762,2,0,L|148:393,1,130,0|0,3:0|1:0,2:0:0:0:
296,291,43043,2,0,L|248:187,1,65,0|8,3:0|2:1,2:0:0:0:
378,174,43230,1,0,1:0:0:0:
385,164,43324,2,0,L|258:181,1,65,0|0,3:0|2:0,2:0:0:0:
320,379,43512,6,0,L|255:364,1,37.5000000000001,8|0,1:3|2:0,2:0:0:0:
116,243,43699,6,0,B|89:266|89:266|178:241,1,70,0|0,3:0|2:0,2:0:0:0:
219,32,43887,1,8,2:1:0:0:
142,64,43980,2,0,L|229:145,1,70,0|0,3:0|2:0,2:0:0:0:
2,121,44168,5,0,2:0:0:0:
66,40,44262,2,0,B|58:46|58:46|46:176|46:176|79:213,1,150,0|0,3:0|1:0,2:0:0:0:
0,328,44543,2,0,B|15:338|15:338|32:319|32:319|-35:337,1,70,0|8,3:0|2:1,2:0:0:0:
130,162,44730,1,0,1:0:0:0:
120,165,44824,2,0,L|-14:200,1,70,0|0,3:0|2:0,2:0:0:0:
107,348,45012,6,0,B|130:367|130:367|204:325,1,60,8|0,1:3|2:0,2:0:0:0:
284,185,45199,2,0,L|169:215,1,60,0|0,3:0|2:0,2:0:0:0:
234,373,45387,1,8,2:1:0:0:
291,315,45480,2,0,L|406:345,1,60,0|0,3:0|2:0,2:0:0:0:
156,239,45668,5,0,2:0:0:0:
226,200,45762,2,0,B|198:208|198:208|193:219|193:219|229:353,1,120,0|0,3:0|1:0,2:0:0:0:
316,260,46043,2,0,L|270:363,1,60,0|8,3:0|2:1,2:0:0:0:
291,183,46230,1,0,1:0:0:0:
284,185,46324,2,0,L|169:215,1,60,0|0,3:0|2:0,2:0:0:0:
284,66,46512,6,0,L|302:135,1,37.5000000000001,8|0,1:3|2:0,2:0:0:0:
413,268,46699,6,2,B|428:288|428:288|461:293|461:293|470:291|470:291|467:298|467:298|461:293|461:293|470:291|470:291|498:272|498:272|513:154,1,150,0|8,3:0|2:1,2:0:0:0:
371,123,46980,1,0,3:0:0:0:
376,134,47074,2,0,L|366:253,1,65,0|0,2:0|2:0,2:0:0:0:
488,24,47262,6,2,B|476:16|476:16|301:57,1,130,0|0,3:0|1:3,2:0:0:0:
371,199,47543,2,0,L|433:106,1,65,0|8,3:0|2:1,2:0:0:0:
479,17,47730,1,0,1:0:0:0:
488,24,47824,2,0,L|426:117,1,65,0|0,3:0|2:0,2:0:0:0:
512,167,48012,6,0,L|466:136,1,29.9999999999999,8|0,1:3|2:0,2:0:0:0:
360,39,48199,6,0,B|340:24|340:24|311:54|311:54|453:22,1,120,0|8,3:0|2:1,2:0:0:0:
265,119,48480,2,0,B|256:112|256:112|241:128|241:128|313:111,1,60,0|0,3:0|2:0,2:0:0:0:
185,186,48668,5,0,2:0:0:0:
201,221,48762,2,0,B|221:236|221:236|250:206|250:206|108:238,1,120,0|0,3:0|1:0,2:0:0:0:
311,266,49043,2,0,B|320:273|320:273|335:257|335:257|263:274,1,60,0|8,3:0|2:1,2:0:0:0:
236,322,49230,1,0,1:0:0:0:
245,313,49324,1,0,3:0:0:0:
13,237,49512,6,0,L|3:191,1,25,8|0,1:3|2:0,2:0:0:0:
45,348,49699,6,0,B|14:373|14:373|71:263,1,110,0|8,3:0|2:1,2:0:0:0:
126,322,49980,2,0,B|150:337|150:337|78:326,1,55,0|0,3:0|2:0,2:0:0:0:
103,220,50168,5,0,2:0:0:0:
105,211,50262,2,0,B|81:178|81:178|108:299,1,110,0|0,3:0|1:0,2:0:0:0:
124,333,50543,2,0,B|150:337|150:337|92:301,1,55,0|8,3:0|2:1,2:0:0:0:
43,305,50730,1,0,1:0:0:0:
47,310,50824,1,0,3:0:0:0:
2,98,51012,6,0,B|31:104|31:104|13:112|13:112|-31:60,1,60,8|0,1:3|2:0,2:0:0:0:
164,198,51199,2,0,L|59:221,1,60,0|0,3:0|2:0,2:0:0:0:
61,29,51387,1,8,2:1:0:0:
144,15,51480,2,0,L|121:131,1,60,0|0,3:0|2:0,2:0:0:0:
284,103,51668,5,0,2:0:0:0:
213,65,51762,2,0,L|287:273,1,120,0|0,3:0|1:0,2:0:0:0:
132,74,52043,2,0,L|109:190,1,60,0|8,3:0|2:1,2:0:0:0:
175,195,52230,1,0,1:0:0:0:
164,198,52324,2,0,L|59:221,1,60,0|0,3:0|2:0,2:0:0:0:
321,111,52512,6,0,L|253:96,1,37.5000000000001,8|0,1:3|2:0,2:0:0:0:
451,267,52699,6,2,B|426:305|426:305|398:259|398:259|417:247|417:247|542:319,1,150,0|8,3:0|2:1,2:0:0:0:
349,328,52980,6,2,B|378:375|378:375|306:318|306:318|402:254,1,180,0|0,3:0|2:3,2:0:0:0:
481,193,53262,6,0,B|517:167|517:167|459:257,1,85,0|0,3:0|2:0,2:0:0:0:
394,71,53449,5,0,1:0:0:0:
321,111,53543,2,0,L|312:-18,1,70,0|8,3:0|2:1,2:0:0:0:
464,24,53730,1,0,1:0:0:0:
467,31,53824,2,0,L|476:160,1,70,0|0,3:0|2:0,2:0:0:0:
285,198,54012,6,0,B|319:191|319:191|280:221,1,65,8|0,1:3|2:0,2:0:0:0:
507,338,54199,2,0,B|522:327|522:327|514:307|514:307|498:376,1,65,0|0,3:0|2:0,2:0:0:0:
391,152,54387,1,8,2:1:0:0:
388,233,54480,2,0,L|483:283,1,65,0|0,3:0|2:0,2:0:0:0:
305,372,54668,5,0,2:0:0:0:
340,299,54762,2,0,B|343:341|343:341|350:347|350:347|544:335,1,130,0|0,3:0|1:0,2:0:0:0:
498,179,55043,2,0,B|465:185|465:185|480:193|480:193|539:145,1,65,0|8,3:0|2:1,2:0:0:0:
435,342,55230,1,0,1:0:0:0:
442,342,55324,2,0,L|568:333,1,65,0|0,3:0|2:0,2:0:0:0:
319,191,55512,6,0,L|294:258,1,37.5000000000001,8|0,1:3|2:0,2:0:0:0:
160,371,55699,6,0,B|194:377|194:377|179:362|179:362|135:382,1,70,0|0,3:0|2:0,2:0:0:0:
214,116,55887,1,8,2:1:0:0:
176,191,55980,2,0,B|90:84,1,70,0|0,3:0|2:0,2:0:0:0:
27,260,56168,5,0,2:0:0:0:
126,301,56262,2,0,B|77:310|77:310|70:302|70:302|115:152,1,150,0|0,3:0|1:0,2:0:0:0:
226,254,56543,2,0,B|244:278|244:278|152:295,1,70,0|8,3:0|2:1,2:0:0:0:
1,337,56730,1,0,1:0:0:0:
5,349,56824,2,0,B|34:370|34:370|120:314,1,70,0|0,3:0|2:0,2:0:0:0:
132,137,57012,6,0,L|85:79,1,37.5000000000001,0|0,1:0|2:0,2:0:0:0:
14,156,57199,2,2,L|234:120,1,120,0|8,2:0|2:1,2:0:0:0:
57,44,57480,2,2,L|-22:250,1,120,0|0,2:0|2:0,2:0:0:0:
183,70,57762,6,0,L|230:128,1,37.5000000000001,0|0,1:0|2:0,2:0:0:0:
302,51,57949,2,2,L|80:86,1,120,0|8,2:0|2:1,2:0:0:0:
265,173,58230,1,0,2:0:0:0:
268,165,58324,2,2,B|278:158|278:158|280:133|280:133|265:153|265:153|280:210,1,75,2|2,2:3|2:3,2:0:0:0:
341,361,58512,6,0,B|333:366|333:366|277:346,1,37.5000000000001,0|0,1:0|2:0,2:0:0:0:
315,248,58699,2,2,B|324:252|324:252|347:400,1,120,0|8,2:0|2:1,2:0:0:0:
230,327,58980,2,2,B|229:318|229:318|360:211,1,120,0|0,2:0|2:0,2:0:0:0:
366,99,59262,6,0,B|374:95|374:95|433:114,1,37.5000000000001,0|0,1:0|2:0,2:0:0:0:
391,212,59449,2,2,B|382:208|382:208|358:45,1,120,0|8,2:0|2:1,2:0:0:0:
489,134,59730,1,0,2:0:0:0:
483,139,59824,2,2,L|438:176,2,37.5,2|0|2,2:3|2:3|2:3,2:0:0:0:
495,231,60012,5,8,1:3:0:0:
337,328,60199,2,2,L|344:411,1,50,0|0,2:0|2:0,2:0:0:0:
323,168,60387,1,8,1:2:0:0:
378,343,60574,2,2,L|312:406,1,50,0|0,2:0|2:0,2:0:0:0:
495,231,60762,5,8,1:3:0:0:
333,283,60949,2,2,L|341:370,1,45.0000000000001,0|0,2:0|2:0,2:0:0:0:
323,168,61137,1,8,1:2:0:0:
411,312,61324,2,2,L|356:365,1,45.0000000000001,0|0,2:0|2:0,2:0:0:0:
495,231,61512,5,8,1:3:0:0:
330,248,61699,2,2,L|336:313,1,35,0|0,2:0|2:0,2:0:0:0:
323,168,61887,1,8,1:2:0:0:
436,287,62074,2,2,L|388:335,1,35,0|0,2:0|2:0,2:0:0:0:
495,231,62262,5,8,2:3:0:0:
397,195,62449,2,2,L|439:211,1,25,0|0,2:0|2:0,2:0:0:0:
403,100,62637,2,2,L|366:131,1,25,8|0,3:2|2:0,2:0:0:0:
481,152,62824,2,2,L|473:104,1,25,0|0,3:2|2:0,3:0:0:0:
463,48,63012,5,0,2:0:0:0:
269,59,75012,6,0,L|171:72,1,50,2|0,2:3|2:1,2:0:0:0:
231,11,75199,2,0,L|197:100,1,50,2|0,2:1|2:1,2:0:0:0:
176,11,75387,2,0,L|234:83,1,50,2|0,2:3|2:1,2:0:0:0:
171,146,75574,6,2,B|175:133|175:133|87:24|87:24|75:26|75:26|24:157|24:157|33:168|33:168|208:141,1,450,2|0,2:0|2:0,2:0:0:0:
138,230,76512,6,0,L|46:244,1,50,2|0,2:3|2:0,2:0:0:0:
144,238,76699,2,0,L|110:327,1,50,2|0,2:1|2:0,2:0:0:0:
150,246,76887,2,0,L|208:318,1,50,2|0,2:3|2:0,2:0:0:0:
84,347,77074,6,0,P|144:330|143:323,1,50,2|0,2:0|2:0,2:0:0:0:
296,256,77262,6,0,B|264:261|264:261|254:347|254:347|176:360,1,150,2|0,3:2|2:0,2:0:0:0:
378,351,77637,2,0,B|341:322|341:322|335:324|335:324|330:371|330:371|336:375|336:375|386:347,1,150,2|0,3:2|2:0,2:0:0:0:
454,195,78012,6,0,B|444:190|444:190|310:304,2,100,2|0|0,3:2|2:0|2:0,2:0:0:0:
478,362,78574,2,0,L|502:212,2,100,2|0|0,3:2|2:0|2:0,2:0:0:0:
376,248,79137,2,0,L|434:293,1,50,2|0,3:2|2:0,2:0:0:0:
378,44,79324,6,2,B|357:61|357:61|372:149|372:149|313:199|313:199|305:194|305:194|272:-1|272:-1|279:-6|279:-6|465:61|465:61|466:69|466:69|364:155,1,700,2|2,2:0|2:0,2:0:0:0:
352,270,80824,1,2,2:0:0:0:
174,174,81012,6,0,L|268:197,1,50,2|0,2:3|2:0,2:0:0:0:
161,248,81199,2,0,L|134:157,1,50,2|0,2:1|2:0,2:0:0:0:
232,222,81387,2,0,L|167:290,1,50,2|0,2:3|2:0,2:0:0:0:
217,355,81574,6,2,B|307:260|307:260|310:239|310:239|346:364|346:364|365:378|365:378|238:347|238:347|181:371,1,450,2|0,2:0|2:0,2:0:0:0:
137,351,82512,6,0,L|45:385,1,50,2|0,2:3|2:0,2:0:0:0:
83,362,82699,2,0,L|99:266,1,50,2|0,2:1|2:0,2:0:0:0:
100,309,82887,2,0,L|176:372,1,50,2|0,2:3|2:0,2:0:0:0:
73,234,83074,6,2,B|87:147|87:147|76:137|76:137|-5:168|-5:168|-8:182|-8:182|60:238|60:238|112:220,1,300,2|2,2:0|2:0,2:0:0:0:
191,117,83824,5,2,2:0:0:0:
273,170,84012,6,2,P|164:211|276:165,1,600,2|0,2:0|2:0,2:0:0:0:
377,363,85324,6,2,B|334:277|334:277|276:336|276:336|276:148|276:148|418:277|418:277|295:277,1,600,2|0,2:1|2:0,2:0:0:0:
179,122,86637,6,0,P|205:116|180:124,1,80,8|0,1:0|2:0,2:0:0:0:
118,372,86824,2,0,P|159:306|131:301,1,80,8|0,2:1|2:0,2:0:0:0:
101,115,87012,6,0,L|73:224,1,60,4|0,1:0|2:0,2:0:0:0:
58,309,87199,2,0,L|166:278,1,60,2|0,2:1|2:0,2:0:0:0:
248,248,87387,2,0,L|164:165,1,60,8|0,2:0|2:0,2:0:0:0:
86,173,87574,6,0,L|166:251,1,60,2|0,2:0|2:0,2:0:0:0:
256,352,87762,6,0,B|349:325|349:325|308:305|308:305|325:364|325:364|349:325,1,225,2|0,2:1|2:0,2:0:0:0:
489,173,88137,5,8,3:1:0:0:
498,250,88230,2,0,B|477:258|477:258|435:226,1,42.5,0|0,3:0|2:0,2:0:0:0:
512,325,88324,2,0,B|392:310,1,85,8|0,3:0|2:0,2:0:0:0:
397,75,88512,6,0,B|408:74|408:74|466:145,1,60,4|0,1:3|2:0,2:0:0:0:
307,141,88699,2,0,B|301:132|301:132|337:34,1,60,2|0,2:1|2:0,2:0:0:0:
410,186,88887,2,0,B|405:196|405:196|299:213,1,60,8|0,2:0|2:0,2:0:0:0:
318,86,89074,6,0,B|324:95|324:95|288:194,1,60,2|0,2:0|2:0,2:0:0:0:
186,248,89262,6,0,B|179:238|179:238|182:231|182:231|273:214|273:214|278:220|278:220|233:341,1,195,0|0,1:2|2:0,2:0:0:0:
129,356,89637,6,0,B|149:363|149:363|182:304|182:304|388:262,1,160,8|0,2:1|2:0,2:0:0:0:
307,141,90012,5,8,3:0:0:0:
31,213,90199,2,0,L|23:326,1,60,8|0,2:1|2:0,2:0:0:0:
107,278,90387,2,0,L|115:165,1,60,8|0,2:1|2:0,2:0:0:0:
5,51,90574,6,2,B|29:60|29:60|9:75|9:75|-6:-18,1,75,0|0,2:3|2:3,2:0:0:0:
219,122,90762,6,0,B|213:116|213:116|176:121|176:121|163:168|163:168|168:174|168:174|155:219|155:219|119:224|119:224|64:179,1,195,4|0,1:0|2:3,1:0:0:0:
81,122,91137,2,0,B|99:106|99:106|77:186,1,60,8|0,2:1|2:0,2:0:0:0:
102,25,91324,2,0,P|150:80|138:92,1,60,8|0,2:1|2:0,2:0:0:0:
244,198,91512,5,8,2:3:0:0:
379,120,91699,1,2,2:0:0:0:
498,219,91887,1,8,2:1:0:0:
298,136,92074,6,0,L|353:230,1,55,2|0,2:3|2:0,2:0:0:0:
457,148,92262,2,0,L|388:231,1,55,2|0,2:3|2:0,2:0:0:0:
384,65,92449,2,0,L|375:172,1,55,2|0,2:3|2:0,2:0:0:0:
345,263,92637,6,0,B|369:250|369:250|430:300,1,55,8|0,2:1|2:0,2:0:0:0:
360,342,92824,1,2,2:0:0:0:
153,165,93012,6,0,L|109:274,1,60,4|0,1:0|2:0,2:0:0:0:
284,316,93199,2,0,L|211:223,1,60,2|0,2:1|2:0,2:0:0:0:
86,352,93387,2,0,L|200:336,1,60,8|0,2:0|2:0,2:0:0:0:
131,221,93574,6,0,L|204:314,1,60,2|0,2:0|2:0,2:0:0:0:
326,183,93762,6,0,B|233:156|233:156|274:136|274:136|257:195|257:195|233:156,1,225,2|0,2:1|2:0,2:0:0:0:
55,55,94137,5,8,3:1:0:0:
131,35,94230,2,0,B|115:51|115:51|169:75,1,42.5,0|0,3:0|2:0,2:0:0:0:
202,1,94324,2,0,B|206:4|206:4|214:77|214:77|202:88,1,85,8|0,3:0|2:0,2:0:0:0:
16,155,94512,6,0,B|25:160|25:160|60:261,1,60,8|0,1:3|2:0,2:0:0:0:
156,141,94699,2,0,B|147:147|147:147|41:126,1,60,2|0,2:1|2:0,2:0:0:0:
99,269,94887,2,0,B|99:258|99:258|170:177,1,60,8|0,2:0|2:0,2:0:0:0:
99,137,95074,6,0,B|109:131|109:131|210:152,1,60,2|0,2:0|2:0,2:0:0:0:
251,287,95262,6,2,B|240:278|240:278|181:285|181:285|175:292|175:292|196:371|196:371|204:375|204:375|262:319,1,195,0|0,1:2|2:0,2:0:0:0:
282,196,95637,6,0,B|246:171|246:171|209:205|209:205|349:188,1,160,8|0,2:1|2:0,2:0:0:0:
467,369,96012,6,0,B|434:365|434:365|427:318|427:318|424:326|424:326|429:332|429:332|422:282|422:282|334:272,1,180,8|0,3:0|2:0,2:0:0:0:
298,352,96387,2,0,B|324:366|324:366|370:326,1,60,8|0,2:1|2:0,2:0:0:0:
503,270,96574,6,2,B|513:280|513:280|503:298|503:298|491:214,1,65,8|0,2:1|2:3,2:0:0:0:
416,49,96762,2,0,B|420:61|420:61|370:131|370:131|374:143|374:143|483:155,1,195,4|0,1:0|2:3,1:0:0:0:
390,278,97137,2,0,L|343:171,1,60,8|0,2:1|2:0,2:0:0:0:
457,152,97324,6,0,L|413:211,1,37.5000000000001,8|0,2:1|2:0,2:0:0:0:
251,244,97512,6,0,L|323:252,1,37.5000000000001,8|0,2:3|2:0,2:0:0:0:
213,161,97699,2,0,L|171:220,1,37.5000000000001,2|0,2:3|2:0,2:0:0:0:
304,170,97887,2,0,L|274:104,1,37.5000000000001,8|0,2:1|2:0,2:0:0:0:
254,251,98074,2,0,L|326:259,1,37.5000000000001,2|0,2:3|2:0,2:0:0:0:
145,34,98262,5,2,2:0:0:0:
77,14,98355,1,2,2:0:0:0:
26,47,98449,1,2,2:0:0:0:
13,101,98543,1,2,2:0:0:0:
39,144,98637,5,10,2:1:0:0:
63,153,98730,1,2,2:0:0:0:
82,142,98824,1,2,2:0:0:0:
86,129,98918,1,2,2:0:0:0:
82,125,99012,6,0,L|93:251,1,65,4|0,1:0|2:0,2:0:0:0:
2,383,99199,2,0,L|106:310,1,65,2|0,2:1|2:0,2:0:0:0:
266,323,99387,2,0,L|151:269,1,65,10|0,2:0|2:0,2:0:0:0:
91,273,99574,6,0,B|99:277|99:277|185:216,1,65,2|0,2:0|2:0,2:0:0:0:
209,81,99762,6,0,B|219:97|219:97|306:123|306:123|265:143|265:143|282:84|282:84|306:123,1,240,2|0,2:1|2:0,2:0:0:0:
512,234,100137,5,8,3:1:0:0:
436,247,100230,2,0,B|431:243|431:243|434:211|434:211|466:188,1,45,0|0,3:0|2:0,2:0:0:0:
360,261,100324,2,0,B|355:257|355:257|362:181|362:181|415:136,1,89.9999999999999,8|0,3:0|2:0,2:0:0:0:
169,169,100512,6,0,P|206:214|205:219,1,37.5000000000001,8|0,1:3|2:0,2:0:0:0:
142,381,100699,6,0,L|67:285,1,65,2|0,2:1|2:0,2:0:0:0:
223,264,100887,2,0,L|180:371,1,65,8|0,2:0|2:0,2:0:0:0:
145,244,101074,2,0,L|37:259,1,65,2|0,2:0|2:0,2:0:0:0:
0,69,101262,6,0,B|48:62|48:62|55:69|55:69|42:168|42:168|49:175|49:175|133:164,1,210,0|0,1:2|2:0,2:0:0:0:
214,17,101637,6,0,B|218:6|218:6|214:-1|214:-1|120:14|120:14|117:22|117:22|134:50|134:50|120:129,1,170,8|0,2:1|2:0,2:0:0:0:
23,308,102012,5,4,1:3:0:0:
180,160,102199,2,0,B|163:135|163:135|177:208,1,65,8|0,2:1|2:0,2:0:0:0:
125,354,102387,2,0,B|152:371|152:371|207:322,1,65,8|0,2:1|2:0,2:0:0:0:
266,106,102574,6,2,B|234:100|234:100|248:120|248:120|303:79,1,80,0|0,2:3|2:3,2:0:0:0:
252,372,102762,6,0,B|257:368|257:368|242:232,1,75,4|0,1:0|2:0,1:0:0:0:
115,227,102949,2,0,B|117:234|117:234|232:282,1,75,2|0,2:0|2:3,2:0:0:0:
301,181,103137,2,0,L|203:256,1,65,10|0,2:1|2:0,2:0:0:0:
331,328,103324,6,0,L|318:213,1,65,8|0,2:1|2:0,2:0:0:0:
433,106,103512,2,0,B|441:92|441:92|364:112|364:112|359:121|359:121|385:182|385:182|374:223,1,195,8|0,2:3|2:0,2:0:0:0:
459,225,103887,2,0,B|472:222|472:222|461:200|461:200|443:261,1,65,8|0,2:1|2:0,2:0:0:0:
399,24,104074,6,0,B|379:15|379:15|366:32|366:32|436:15,1,70,2|0,2:3|2:0,2:0:0:0:
189,82,104262,2,0,B|175:102|175:102|181:111|181:111|283:99|283:99|288:90|288:90|240:10,1,210,2|0,2:3|2:0,2:0:0:0:
203,187,104637,2,0,L|317:173,1,70,8|0,2:1|2:0,2:0:0:0:
52,101,104824,6,0,L|38:96,1,10,2|0,2:0|2:0,2:0:0:0:
202,267,105012,5,2,1:0:0:0:
150,247,105105,1,2,2:1:0:0:
131,300,105199,6,0,L|150:410,1,70,2|0,2:2|2:0,2:0:0:0:
345,148,105387,2,0,L|436:73,1,70,10|0,2:1|2:0,2:0:0:0:
106,38,105574,2,0,L|-8:-4,1,70,2|0,2:0|2:0,2:0:0:0:
220,355,105762,6,0,B|226:358|226:358|291:338|291:338|271:305|271:305|335:324|335:324|295:377|295:377|295:290,1,255,2|0,2:1|2:0,2:0:0:0:
472,142,106137,5,8,3:1:0:0:
476,218,106230,2,0,P|432:198|443:173,1,45,0|0,3:0|2:0,2:0:0:0:
480,295,106324,2,0,B|478:287|478:287|406:272|406:272|350:331,1,89.9999999999999,8|0,3:0|2:0,2:0:0:0:
256,174,106512,6,0,L|256:211,1,35,8|0,1:3|2:0,2:0:0:0:
137,268,106699,6,0,B|141:275|141:275|266:258,1,70,2|0,2:1|2:0,2:0:0:0:
242,43,106887,2,0,B|234:43|234:43|201:167,1,70,8|0,2:0|2:0,2:0:0:0:
400,278,107074,6,0,L|263:215,1,80,2|0,2:0|2:0,2:0:0:0:
140,87,107262,6,2,B|82:29|82:29|162:7|162:7|125:142,1,240,0|0,1:2|2:0,2:0:0:0:
256,209,107637,6,0,B|318:143|318:143|315:136|315:136|237:117|237:117|231:122|231:122|275:276,1,270,8|0,1:0|2:0,2:0:0:0:
94,375,108012,6,0,B|85:377|85:377|7:301|7:301|9:292|9:292|114:263|114:263|120:269|120:269|85:411,1,345,4|0,1:3|2:0,2:0:0:0:
162,164,108387,6,0,L|188:256,1,50,8|0,2:1|2:0,2:0:0:0:
328,245,108574,6,2,L|250:350,1,75,8|0,2:1|2:3,2:0:0:0:
37,179,108762,2,0,B|62:165|62:165|23:127|23:127|0:218|0:218|112:187,1,270,4|0,1:0|2:3,1:0:0:0:
301,168,109137,6,0,B|298:162|298:162|172:125,1,70,8|0,2:1|2:0,2:0:0:0:
217,361,109324,6,0,L|182:233,1,75,8|0,2:1|2:0,2:0:0:0:
204,20,109512,6,0,L|274:38,1,37.5000000000001,8|0,2:3|2:0,2:0:0:0:
328,54,109699,2,0,L|277:105,1,37.5000000000001,2|0,2:3|2:0,2:0:0:0:
237,144,109887,2,0,L|218:74,1,37.5000000000001,8|0,2:1|2:0,2:0:0:0:
202,13,110074,2,0,L|272:31,1,37.5000000000001,2|0,2:3|2:0,2:0:0:0:
512,132,110262,5,2,2:0:0:0:
445,104,110355,1,2,2:0:0:0:
392,132,110449,1,2,2:0:0:0:
372,183,110543,1,2,2:0:0:0:
388,231,110637,5,10,2:1:0:0:
377,254,110730,1,2,2:0:0:0:
357,261,110824,1,2,2:0:0:0:
344,256,110918,1,2,2:0:0:0:
342,252,111012,6,0,B|327:439,1,120,10|0,2:3|2:0,2:0:0:0:
451,181,111387,1,8,2:1:0:0:
257,339,111574,2,0,B|219:299|219:299|346:206,1,110,0|8,2:0|2:3,2:0:0:0:
157,126,111949,2,0,L|169:234,1,55,0|0,2:3|2:3,2:0:0:0:
62,357,112137,6,0,B|86:371|86:371|144:316,1,55,10|0,3:2|2:0,2:0:0:0:
285,180,112324,2,0,B|261:166|261:166|204:221,1,55,2|0,3:2|2:0,2:0:0:0:
77,280,112512,6,0,L|243:353,1,110,10|0,2:0|2:0,2:0:0:0:
90,203,112793,2,0,L|-56:310,1,110,2|0,2:0|2:0,3:0:0:0:
169,235,113074,2,0,L|157:127,1,55,2|0,3:2|2:3,2:0:0:0:
170,32,113262,6,0,B|164:28|164:28|131:33|131:33|116:116|116:116|81:121|81:121|53:101,1,165,8|0,1:3|2:0,2:0:0:0:
198,107,113637,2,0,B|227:100|227:100|181:130,1,55,10|0,3:2|2:0,2:0:0:0:
48,43,113824,2,0,B|19:50|19:50|65:20,1,55,2|0,3:2|2:0,2:0:0:0:
77,118,114012,5,8,1:3:0:0:
250,23,114199,2,0,P|253:22|264:79,1,55,2|0,2:3|2:0,2:0:0:0:
329,204,114387,2,0,L|478:218,1,110,8|0,2:1|2:3,2:0:0:0:
371,43,114762,6,0,B|376:59|376:59|334:123|334:123|336:127|336:127|456:138,1,165,8|0,3:0|2:0,2:0:0:0:
468,63,115137,2,0,B|450:44|450:44|463:95,1,55,10|0,3:2|2:0,2:0:0:0:
329,204,115324,2,0,L|222:194,1,55,2|0,3:2|2:3,2:0:0:0:
356,375,115512,6,0,L|392:205,2,110,10|0|8,1:3|2:3|2:1,2:0:0:0:
438,214,116074,2,0,L|506:273,1,55,2|0,2:3|2:0,2:0:0:0:
455,326,116262,2,0,L|327:389,1,110,8|0,1:3|2:0,2:0:0:0:
207,242,116637,2,0,B|195:341,1,55,8|0,2:1|2:0,2:0:0:0:
281,278,116824,1,0,3:0:0:0:
6,245,117012,6,0,L|164:264,1,120,10|0,2:3|2:0,2:0:0:0:
84,97,117387,1,8,2:1:0:0:
18,324,117574,2,0,B|50:369|50:369|150:281,1,110,0|8,2:0|2:3,2:0:0:0:
39,162,117949,5,0,2:3:0:0:
43,167,118043,1,0,2:3:0:0:
47,172,118137,2,0,L|140:183,1,55,10|0,3:2|2:0,2:0:0:0:
121,22,118324,2,0,L|28:11,1,55,2|0,3:2|2:0,2:0:0:0:
182,188,118512,6,0,L|275:199,1,55,10|0,2:0|2:0,2:0:0:0:
300,32,118699,1,0,2:0:0:0:
293,20,118793,2,0,B|286:22|286:22|257:114|257:114|203:128,1,110,2|0,2:0|2:0,3:0:0:0:
334,218,119074,2,0,L|291:117,1,55,2|0,3:2|2:3,2:0:0:0:
481,106,119262,6,0,B|486:88|486:88|409:100|409:100|392:152|392:152|421:213,1,165,8|0,1:3|2:0,2:0:0:0:
403,257,119637,2,0,B|433:253|433:253|382:233,1,55,10|0,3:2|2:0,2:0:0:0:
242,345,119824,2,0,B|262:364|262:364|330:324,1,55,2|0,3:2|2:0,2:0:0:0:
334,218,120012,6,0,P|314:305|353:288,1,100,10|0,2:3|2:0,2:0:0:0:
165,367,120387,1,8,2:1:0:0:
175,189,120574,2,0,L|190:337,1,100,2|8,2:3|2:3,2:0:0:0:
62,175,120949,6,0,B|0:223|0:223|1:233|1:233|100:263,1,150,2|0,3:2|2:0,2:0:0:0:
185,288,121324,2,0,L|97:261,1,50,2|0,1:2|2:0,2:0:0:0:
156,104,121512,6,2,L|102:145,1,37.5000000000001,8|0,1:3|2:0,2:0:0:0:
240,131,121699,2,2,L|231:59,1,37.5000000000001,0|0,2:3|2:3,2:0:0:0:
175,189,121887,2,2,L|242:217,1,37.5000000000001,8|0,2:0|2:0,2:0:0:0:
150,101,122074,6,2,L|96:142,1,37.5000000000001,0|0,1:0|2:0,2:0:0:0:
302,47,122262,1,10,2:3:0:0:
370,26,122355,1,2,2:0:0:0:
423,56,122449,1,2,2:0:0:0:
442,109,122543,1,2,2:0:0:0:
427,157,122637,5,10,2:0:0:0:
405,172,122730,1,2,2:0:0:0:
387,169,122824,1,2,2:0:0:0:
378,162,122918,2,0,P|380:112|392:108,1,37.5000000000001,2|0,2:0|2:0,2:0:0:0:
