osu file format v14

[General]
AudioFilename: audio.mp3
AudioLeadIn: 0
PreviewTime: 15
Countdown: 0
SampleSet: Soft
StackLeniency: 0.4
Mode: 0
LetterboxInBreaks: 0
WidescreenStoryboard: 1

[Editor]
Bookmarks: 57023,63036,75036
DistanceSpacing: 1
BeatDivisor: 4
GridSize: 16
TimelineZoom: 2.1

[Metadata]
Title:triangles
TitleUnicode:triangles
Artist:cYsmix
ArtistUnicode:cYsmix
Creator:ohm002
Version:Lime's Normal
Source:osu!
Tags:lazer laser electronic english instrumental ppy dean herbert peppy osu video game theme remix circles! limetwist ducky ducky-
BeatmapID:3361076
BeatmapSetID:1646678

[Difficulty]
HPDrainRate:4
CircleSize:3
OverallDifficulty:4
ApproachRate:5
SliderMultiplier:1.2
SliderTickRate:1

[Events]
//Background and Video events
0,0,"TY PORING FOR THE BG .jpg",0,0
//Break Periods
2,63223,73823
//Storyboard Layer 0 (Background)
//Storyboard Layer 1 (Fail)
//Storyboard Layer 2 (Pass)
//Storyboard Layer 3 (Foreground)
//Storyboard Layer 4 (Overlay)
//Storyboard Sound Samples

[TimingPoints]
23,375,4,2,1,82,1,0
3023,375,4,2,1,62,1,0
3023,-100,4,2,1,62,0,0
28898,-100,4,2,1,52,0,0
39023,-100,4,2,1,72,0,0
63023,-100,4,2,1,52,0,0
86648,-100,4,2,1,72,0,0
87023,-95.2380952380952,4,2,1,82,0,1
98273,-95.2380952380952,4,2,1,82,0,0
99023,-95.2380952380952,4,2,1,82,0,1
110273,-100,4,2,1,82,0,0
111023,-100,4,2,1,72,0,0
120023,-100,4,2,1,62,0,0

[Colours]
Combo1 : 254,46,213
Combo2 : 149,218,255
Combo3 : 254,165,248
Combo4 : 106,125,255

[HitObjects]
1,303,1523,6,0,B|60:308,1,60,12|0,1:2|1:2,0:0:0:0:
117,284,1898,1,12,1:2:0:0:
117,284,2085,2,0,B|214:274|214:274|253:293|253:293|350:284,1,240,4|0,1:1|1:2,0:0:0:0:
408,259,3023,6,0,B|419:139,1,120,6|8,1:2|0:2,0:0:0:0:
321,70,3773,2,0,B|309:189,1,120,0|8,1:0|1:2,0:0:0:0:
198,238,4523,2,0,B|210:119,1,120,0|8,1:2|0:2,0:0:0:0:
109,48,5273,1,2,1:2:0:0:
98,168,5648,1,10,1:2:0:0:
87,288,6023,6,0,B|143:296|143:296|203:277,1,120,2|8,1:2|0:2,0:0:0:0:
237,228,6585,2,0,B|293:219|293:219|353:238,1,120,2|0,0:0|0:0,0:0:0:0:
387,288,7148,1,10,1:2:0:0:
484,218,7523,2,0,B|496:99,1,120,0|8,1:2|0:2,0:0:0:0:
421,4,8273,1,0,1:2:0:0:
377,115,8648,2,0,B|383:174,1,60,10|2,1:2|0:2,0:0:0:0:
358,229,9023,6,0,B|346:348,1,120,2|8,1:2|0:2,0:0:0:0:
229,378,9773,2,0,B|241:259,1,120,0|8,1:2|1:2,0:0:0:0:
132,204,10523,2,0,B|120:323,1,120,0|8,1:2|0:2,0:0:0:0:
2,352,11273,1,0,1:2:0:0:
20,233,11648,2,0,B|14:173,1,60,10|2,1:2|0:2,0:0:0:0:
56,130,12023,6,0,B|68:11,1,120,2|8,1:2|0:2,0:0:0:0:
177,65,12773,2,0,B|165:184,1,120,0|8,1:2|1:2,0:0:0:0:
282,154,13523,2,0,B|294:35,1,120,0|8,1:2|0:2,0:0:0:0:
402,88,14273,1,0,1:2:0:0:
402,88,14460,2,0,L|469:78,2,60,8|8|8,0:0|1:2|0:0,0:0:0:0:
375,141,15023,6,0,B|387:260,1,120,4|8,1:2|0:2,0:0:0:0:
336,369,15773,2,0,B|308:373|308:373|278:364,1,60,0|2,1:2|0:0,0:0:0:0:
224,335,16148,1,8,1:2:0:0:
238,215,16523,6,0,B|250:96,1,120,0|8,1:2|0:2,0:0:0:0:
171,4,17273,2,0,B|143:0|143:0|113:9,1,60,0|2,1:2|0:0,0:0:0:0:
59,38,17648,1,8,1:2:0:0:
73,158,18023,6,0,B|85:277,1,120,0|8,1:2|0:2,0:0:0:0:
157,372,18773,2,0,B|185:376|185:376|215:367,1,60,0|2,1:2|0:0,0:0:0:0:
269,338,19148,1,8,1:2:0:0:
314,226,19523,6,0,B|370:218|370:218|430:236,1,120,0|8,1:2|0:2,0:0:0:0:
497,335,20273,2,0,B|437:341,1,60,0|2,1:2|0:0,0:0:0:0:
377,347,20648,1,8,1:2:0:0:
262,311,21023,6,0,B|143:299,1,120,8|8,1:2|0:2,0:0:0:0:
97,187,21773,2,0,B|216:199,1,120,8|8,1:2|1:2,0:0:0:0:
331,235,22523,2,0,B|450:247,1,120,8|8,1:2|0:2,0:0:0:0:
496,359,23273,2,0,B|377:347,1,120,8|8,1:2|1:2,0:0:0:0:
262,311,24023,6,0,B|143:299,1,120,4|0,1:2|3:0,0:0:0:0:
87,298,24585,1,0,3:0:0:0:
87,298,24773,1,4,1:2:0:0:
26,194,25148,6,0,B|42:171|42:171|70:156,1,60,0|0,3:0|3:0,0:0:0:0:
109,110,25523,2,0,B|137:106|137:106|167:115,1,60,4|0,1:2|3:0,0:0:0:0:
227,109,25898,2,0,B|249:125|249:125|264:153,1,60,4|0,1:2|3:0,0:0:0:0:
311,191,26273,1,4,1:2:0:0:
489,30,27023,5,4,1:2:0:0:
489,30,27210,2,0,B|491:83|452:120|449:104|413:132|409:187,2,180,2|2|2,0:1|1:1|0:1,0:0:0:0:
196,95,29273,6,0,B|154:100|154:100|109:87,2,90,4|0|4,1:2|1:0|1:2,0:0:0:0:
295,27,30210,2,0,P|386:47|412:122,2,180,2|2|2,0:1|1:1|0:1,0:0:0:0:
196,95,31710,2,0,P|218:173|240:278,2,180,2|2|2,0:1|1:1|0:1,0:0:0:0:
98,25,33210,6,0,P|76:103|54:208,1,180,2|2,0:1|1:1,0:0:0:0:
75,318,34148,1,8,0:2:0:0:
175,251,34523,2,0,P|232:237|287:259,1,120,4|8,1:2|0:2,0:0:0:0:
349,361,35273,1,2,1:1:0:0:
468,359,35648,1,8,0:2:0:0:
407,257,36023,6,0,P|425:168|449:82,2,180,6|2|14,1:2|0:2|1:2,0:0:0:0:
191,362,37898,2,0,B|162:365|162:365|131:356,1,60,12|0,0:0|0:0,0:0:0:0:
100,305,38273,1,4,1:2:0:0:
192,228,38648,2,0,B|221:219|221:219|250:222,1,60,12|0,0:0|0:0,0:0:0:0:
308,252,39023,5,4,1:2:0:0:
308,252,39210,2,0,B|297:341,1,90,2|2,0:1|0:1,0:0:0:0:
386,349,39773,2,0,B|396:259,1,90,2|2,1:1|0:1,0:0:0:0:
359,179,40335,1,2,0:1:0:0:
359,179,40523,5,4,1:2:0:0:
359,179,40710,2,0,B|314:165|314:165|271:170,1,90,2|2,0:1|0:1,0:0:0:0:
215,241,41273,2,0,B|172:245|172:245|127:232,1,90,2|2,1:1|0:1,0:0:0:0:
71,161,41835,1,2,0:1:0:0:
71,161,42023,5,4,1:2:0:0:
71,161,42210,2,0,B|60:71,1,90,2|2,0:1|0:1,0:0:0:0:
131,16,42773,2,0,B|220:5,1,90,2|2,1:1|0:1,0:0:0:0:
283,84,43335,1,2,0:1:0:0:
283,84,43523,5,4,1:2:0:0:
283,84,43710,2,0,B|293:173,1,90,2|2,0:1|0:1,0:0:0:0:
220,226,44273,2,0,B|209:321,1,90,2|2,1:1|0:1,0:0:0:0:
295,368,44835,1,2,0:1:0:0:
295,368,45023,5,4,1:2:0:0:
295,368,45210,2,0,B|338:373|338:373|383:359,1,90,2|2,0:1|0:1,0:0:0:0:
435,285,45773,2,0,B|445:195,1,90,2|2,1:1|0:1,0:0:0:0:
393,122,46335,1,2,0:1:0:0:
393,122,46523,5,4,1:2:0:0:
393,122,46710,2,0,B|350:117|350:117|305:131,1,90,2|2,0:1|0:1,0:0:0:0:
249,201,47273,2,0,B|206:206|206:206|161:192,1,90,2|2,1:1|0:1,0:0:0:0:
87,141,47835,1,2,0:1:0:0:
87,141,48023,5,4,1:2:0:0:
87,141,48210,2,0,B|77:51,1,90,2|2,0:1|0:1,0:0:0:0:
157,10,48773,2,0,B|247:0,1,90,2|2,1:1|0:1,0:0:0:0:
316,73,49335,1,2,0:1:0:0:
316,73,49523,5,4,1:2:0:0:
316,73,49710,2,0,B|411:84,1,90,2|2,0:1|0:1,0:0:0:0:
453,159,50273,2,0,B|442:254,1,90,2|2,1:1|0:1,0:0:0:0:
398,329,50835,1,2,0:1:0:0:
398,329,51023,5,4,1:2:0:0:
398,329,51210,2,0,B|355:334|355:334|310:320,1,90,2|2,0:1|0:1,0:0:0:0:
248,254,51773,2,0,B|237:164,1,90,2|2,1:1|0:1,0:0:0:0:
196,84,52335,1,2,0:1:0:0:
196,84,52523,5,4,1:2:0:0:
196,84,52710,2,0,B|106:94,1,90,2|2,0:1|0:1,0:0:0:0:
26,136,53273,2,0,B|36:225,1,90,2|2,1:1|0:1,0:0:0:0:
85,314,53835,1,2,0:1:0:0:
85,314,54023,5,4,1:2:0:0:
85,314,54210,2,0,B|174:303,1,90,2|2,0:1|0:1,0:0:0:0:
253,346,54773,2,0,B|342:357,1,90,2|2,1:1|0:1,0:0:0:0:
421,313,55335,1,2,0:1:0:0:
421,313,55523,5,4,1:2:0:0:
421,313,55710,2,0,B|435:268|435:268|430:225,1,90,2|2,0:1|0:1,0:0:0:0:
453,138,56273,2,0,B|421:103|421:103|381:86,1,90,2|2,1:1|0:1,0:0:0:0:
317,23,56835,1,2,0:1:0:0:
317,23,57023,6,0,B|258:29,1,60,4|2,1:2|0:1,0:0:0:0:
197,35,57398,1,10,1:2:0:0:
159,148,57773,6,0,B|218:142,1,60,4|2,1:2|0:1,0:0:0:0:
279,136,58148,1,10,1:2:0:0:
337,240,58523,6,0,B|277:245,1,60,4|2,1:2|0:1,0:0:0:0:
216,251,58898,1,10,1:2:0:0:
179,365,59273,6,0,B|238:359,1,60,4|2,1:2|0:1,0:0:0:0:
296,344,59648,2,0,B|355:338,1,60,10|0,1:2|0:0,0:0:0:0:
386,286,60023,6,0,B|373:166,1,120,4|4,1:2|1:2,0:0:0:0:
269,122,60773,2,0,B|282:241,1,120,4|4,1:2|1:2,0:0:0:0:
189,316,61523,1,4,1:2:0:0:
177,196,61898,2,0,B|165:76,2,120,4|4|4,1:2|1:2|1:2,0:0:0:0:
79,267,63023,1,6,0:2:0:0:
9,100,75023,6,0,P|42:183|70:269,1,180,6|2,0:2|0:0,0:0:0:0:
346,151,76523,2,0,P|302:76|221:89,1,180,6|2,0:2|0:0,0:0:0:0:
232,148,77273,2,0,P|209:203|189:260,1,120,6|6,0:2|0:2,0:0:0:0:
70,269,78023,6,0,P|41:183|8:99,2,180,6|6|6,0:2|0:2|0:2,0:0:0:0:
96,322,79335,1,6,0:2:0:0:
469,128,80648,2,0,P|478:99|487:71,1,60,6|6,0:2|0:2,0:0:0:0:
450,21,81023,6,0,B|398:9|353:49|378:54|336:92|293:93,1,180,6|6,0:2|0:0,0:0:0:0:
26,226,82523,2,0,P|111:254|195:287,1,180,6|6,0:2|0:2,0:0:0:0:
350,195,83648,2,0,P|349:162|340:136,1,60,6|6,0:2|0:2,0:0:0:0:
306,87,84023,6,0,B|172:95|132:231|200:223|158:357|24:369,1,420,6|6,0:2|0:2,0:0:0:0:
411,169,86648,2,0,B|418:110,1,60,12|12,1:2|1:2,0:0:0:0:
404,47,87023,6,0,B|345:22|345:22|284:35,1,125.999996154785,4|8,1:1|1:2,0:0:0:0:
226,61,87585,1,6,0:2:0:0:
226,61,87773,1,0,1:2:0:0:
240,186,88148,2,0,B|247:248,1,62.9999980773926,8|2,1:2|3:2,0:0:0:0:
233,310,88523,2,0,B|174:334|174:334|113:321,1,125.999996154785,4|8,1:1|1:2,0:0:0:0:
55,296,89085,1,6,0:2:0:0:
55,296,89273,2,0,B|40:170,1,125.999996154785,0|12,1:2|1:2,0:0:0:0:
62,46,90023,5,4,1:1:0:0:
62,46,90210,2,0,B|92:39|92:39|122:51,1,62.9999980773926,2|8,0:1|1:2,0:0:0:0:
158,102,90585,1,2,0:1:0:0:
158,102,90773,2,0,B|219:115|219:115|278:91,1,125.999996154785,6|14,1:2|0:2,0:0:0:0:
314,40,91335,1,6,0:2:0:0:
314,40,91523,1,4,1:2:0:0:
406,133,91898,2,0,B|398:195,1,62.9999980773926,8|6,1:2|0:0,0:0:0:0:
390,257,92273,1,0,1:2:0:0:
375,382,92648,1,8,1:2:0:0:
274,306,93023,6,0,B|213:293|213:293|154:317,1,125.999996154785,4|8,1:2|1:2,0:0:0:0:
100,350,93585,1,2,0:1:0:0:
100,350,93773,1,0,1:2:0:0:
29,245,94148,2,0,B|21:183,1,62.9999980773926,8|2,1:2|3:2,0:0:0:0:
54,129,94523,2,0,B|115:116|115:116|174:140,1,125.999996154785,4|8,1:1|1:2,0:0:0:0:
207,192,95085,1,2,0:1:0:0:
207,192,95273,2,0,B|268:205|268:205|327:181,1,125.999996154785,0|12,1:2|1:2,0:0:0:0:
447,143,96023,6,0,B|431:267,1,125.999996154785,4|8,1:1|1:2,0:0:0:0:
421,329,96585,1,2,0:1:0:0:
421,329,96773,2,0,B|297:313,1,125.999996154785,6|14,1:2|0:2,0:0:0:0:
233,305,97335,1,6,1:2:0:0:
233,305,97523,1,0,1:0:0:0:
108,288,97898,1,8,0:0:0:0:
357,4,99023,6,0,B|373:127,1,125.999996154785,6|8,1:2|1:2,0:0:0:0:
381,190,99585,1,2,0:1:0:0:
381,190,99773,1,0,1:2:0:0:
258,161,100148,2,0,B|228:154|228:154|198:166,1,62.9999980773926,8|2,1:2|3:2,0:0:0:0:
153,211,100523,1,4,1:1:0:0:
153,211,100710,2,0,B|123:218|123:218|93:206,1,62.9999980773926,2|8,0:1|1:2,0:0:0:0:
48,160,101085,2,0,B|32:283,1,125.999996154785,2|2,0:1|0:2,0:0:0:0:
22,346,101648,1,12,1:2:0:0:
146,362,102023,5,4,1:1:0:0:
146,362,102210,2,0,B|207:370,1,62.9999980773926,2|8,0:1|1:2,0:0:0:0:
262,336,102585,1,2,0:1:0:0:
262,336,102773,2,0,B|386:319,1,125.999996154785,6|14,1:2|0:2,0:0:0:0:
440,353,103335,1,6,0:2:0:0:
440,353,103523,1,4,1:2:0:0:
498,241,103898,2,0,B|506:179,1,62.9999980773926,8|6,1:2|0:0,0:0:0:0:
460,135,104273,2,0,B|443:10,1,125.999996154785,0|8,1:2|1:2,0:0:0:0:
269,83,105210,5,2,0:1:0:0:
269,83,105397,2,0,B|239:90|239:90|209:78,1,62.9999980773926,12|2,1:2|0:1,0:0:0:0:
154,44,105773,1,0,1:2:0:0:
63,131,106148,2,0,B|71:192,1,62.9999980773926,8|2,1:2|3:2,0:0:0:0:
39,247,106523,1,4,1:1:0:0:
39,247,106710,2,0,B|31:308,1,62.9999980773926,2|8,0:1|1:2,0:0:0:0:
64,362,107085,1,2,0:1:0:0:
64,362,107273,1,0,1:2:0:0:
188,345,107648,1,12,1:2:0:0:
312,328,108023,6,0,B|436:311,1,125.999996154785,4|8,1:1|1:2,0:0:0:0:
483,268,108585,1,2,0:1:0:0:
483,268,108773,2,0,B|466:143,1,125.999996154785,6|14,1:2|0:2,0:0:0:0:
423,97,109335,1,6,0:2:0:0:
423,97,109523,1,4,1:2:0:0:
298,113,109898,1,0,1:0:0:0:
12,332,111023,6,0,B|130:347,1,120,6|8,1:2|1:2,0:0:0:0:
248,362,111773,1,0,1:2:0:0:
232,243,112148,2,0,B|224:183,1,60,10|2,1:2|0:0,0:0:0:0:
251,130,112523,2,0,B|293:113|293:113|335:122,2,90,2|2|2,1:2|0:0|0:0,0:0:0:0:
191,133,113273,1,0,1:2:0:0:
122,231,113648,2,0,B|129:290,1,60,10|2,1:2|0:0,0:0:0:0:
156,344,114023,6,0,B|213:356|213:356|269:333,1,120,2|8,1:2|1:2,0:0:0:0:
381,287,114773,1,0,1:2:0:0:
286,214,115148,2,0,B|293:154,1,60,10|2,1:2|0:0,0:0:0:0:
278,96,115523,2,0,B|159:80,1,120,2|8,1:2|1:2,0:0:0:0:
40,64,116273,1,0,1:2:0:0:
24,182,116648,1,8,1:2:0:0:
142,197,117023,6,0,B|260:212,1,120,2|8,1:2|1:2,0:0:0:0:
378,227,117773,1,0,1:2:0:0:
306,321,118148,2,0,B|246:313,1,60,10|2,1:2|0:0,0:0:0:0:
187,299,118523,2,0,B|97:310,2,90,2|2|2,1:2|0:0|0:0,0:0:0:0:
229,255,119273,1,0,1:2:0:0:
213,136,119648,2,0,B|205:76,1,60,10|2,1:2|0:2,0:0:0:0:
164,30,120023,6,0,P|111:5|53:13,2,120,2|0|0,1:2|1:2|1:2,0:0:0:0:
224,17,120960,2,0,B|342:1,1,120,2|2,0:0|0:0,0:0:0:0:
398,25,121523,1,2,1:2:0:0:
382,143,121898,1,2,1:2:0:0:
366,261,122273,1,2,1:2:0:0:
