osu file format v14

[General]
AudioFilename: audio.mp3
AudioLeadIn: 0
PreviewTime: 15
Countdown: 0
SampleSet: Soft
StackLeniency: 0.7
Mode: 0
LetterboxInBreaks: 0
WidescreenStoryboard: 1

[Editor]
DistanceSpacing: 0.5
BeatDivisor: 4
GridSize: 32
TimelineZoom: 2.1

[Metadata]
Title:triangles
TitleUnicode:triangles
Artist:cYsmix
ArtistUnicode:cYsmix
Creator:ohm002
Version:Insane
Source:osu!
Tags:lazer laser electronic english instrumental ppy dean herbert peppy osu video game theme remix circles! limetwist ducky ducky-
BeatmapID:3361075
BeatmapSetID:1646678

[Difficulty]
HPDrainRate:6
CircleSize:4.2
OverallDifficulty:7
ApproachRate:9
SliderMultiplier:1.4
SliderTickRate:1

[Events]
//Background and Video events
0,0,"TY PORING FOR THE BG .jpg",0,0
//Break Periods
//Storyboard Layer 0 (Background)
//Storyboard Layer 1 (Fail)
//Storyboard Layer 2 (Pass)
//Storyboard Layer 3 (Foreground)
//Storyboard Layer 4 (Overlay)
//Storyboard Sound Samples

[TimingPoints]
23,375,4,2,1,82,1,0
1523,-50,4,2,1,82,0,0
1663,-50,4,2,1,5,0,0
1710,-50,4,2,1,82,0,0
1851,-50,4,2,1,5,0,0
1898,-50,4,2,1,82,0,0
2038,-50,4,2,1,5,0,0
2085,-100,4,2,1,82,0,0
3023,375,4,2,1,62,1,0
3023,-100,4,2,1,62,0,0
15023,-66.6666666666667,4,2,1,62,0,0
27210,-76.9230769230769,4,2,1,62,0,0
28898,-66.6666666666667,4,2,1,52,0,0
29273,-62.5,4,2,1,52,0,0
30210,-76.9230769230769,4,2,1,52,0,0
31710,-71.4285714285714,4,2,1,52,0,0
37148,-83.3333333333333,4,2,1,52,0,0
39023,-66.6666666666667,4,2,1,72,0,0
63023,-133.333333333333,4,2,1,52,0,0
86648,-50,4,2,1,72,0,0
87023,-55.5555555555556,4,2,1,82,0,1
97523,-55.5555555555556,4,2,1,82,0,1
98273,-55.5555555555556,4,2,1,82,0,0
99023,-55.5555555555556,4,2,1,82,0,1
104976,-55.5555555555556,4,2,1,82,0,1
105023,-55.5555555555556,4,2,1,82,0,1
105069,-55.5555555555556,4,2,1,82,0,1
105116,-55.5555555555556,4,2,1,82,0,1
105163,-55.5555555555556,4,2,1,82,0,1
105210,-55.5555555555556,4,2,1,82,0,1
109523,-100,4,2,1,82,0,1
111023,-100,4,2,1,72,0,0
111585,-100,4,2,1,62,0,0
112148,-100,4,2,1,72,0,0
112710,-100,4,2,1,62,0,0
112804,-100,4,2,1,72,0,0
112991,-100,4,2,1,62,0,0
113085,-100,4,2,1,72,0,0
113460,-100,4,2,1,62,0,0
113648,-100,4,2,1,72,0,0
114210,-100,4,2,1,62,0,0
114397,-100,4,2,1,72,0,0
116460,-100,4,2,1,62,0,0
116648,-100,4,2,1,72,0,0
116741,-100,4,2,1,62,0,0
117023,-100,4,2,1,72,0,0
117585,-100,4,2,1,62,0,0
118148,-100,4,2,1,72,0,0
118710,-100,4,2,1,62,0,0
118804,-100,4,2,1,72,0,0
118991,-100,4,2,1,62,0,0
119085,-100,4,2,1,72,0,0
119460,-100,4,2,1,62,0,0
119648,-100,4,2,1,72,0,0
120023,-100,4,2,1,62,0,0

[Colours]
Combo1 : 254,46,213
Combo2 : 149,218,255
Combo3 : 254,165,248
Combo4 : 106,125,255

[HitObjects]
76,29,1523,6,0,B|36:65|36:65|54:112,1,105,12|0,1:2|0:0,0:0:0:0:
54,112,1710,2,0,L|166:93,1,105,0|0,1:2|0:0,0:0:0:0:
157,94,1898,2,0,B|197:130|197:130|178:177,1,105,12|0,1:2|0:0,0:0:0:0:
111,220,2085,6,0,B|-4:188|-4:188|68:337,1,280,4|0,1:1|1:2,0:0:0:0:
111,220,3023,6,0,L|214:200,1,105,6|0,1:2|0:0,0:0:0:0:
214,200,3398,2,0,P|206:234|209:268,1,70,8|0,0:2|0:0,0:0:0:0:
392,317,3772,6,0,L|288:297,1,105,0|0,1:0|0:0,0:0:0:0:
288,297,4147,2,0,P|296:330|292:365,1,70,8|0,1:2|0:0,0:0:0:0:
295,216,4523,2,0,L|278:77,1,140,0|8,1:2|0:2,0:0:0:0:
299,0,5085,5,0,0:0:0:0:
299,0,5179,1,0,0:0:0:0:
299,0,5273,2,0,P|330:14|365:18,1,70,2|0,1:2|0:0,0:0:0:0:
427,92,5647,2,0,P|392:96|360:110,1,70,10|0,1:2|0:0,0:0:0:0:
282,92,6023,6,0,B|216:85|213:145|153:136,1,140,2|8,1:2|0:2,0:0:0:0:
105,77,6585,2,0,L|127:215,1,140,2|0,0:0|0:0,0:0:0:0:
74,292,7148,5,10,1:2:0:0:
74,292,7335,2,0,P|141:305|185:358,1,140
249,295,7898,2,0,L|318:286,1,70,8|0,0:2|0:0,0:0:0:0:
412,314,8273,2,0,P|399:281|402:246,1,70,0|0,1:2|0:0,0:0:0:0:
427,165,8648,2,0,L|357:173,1,70,10|2,1:2|0:2,0:0:0:0:
276,209,9023,6,0,L|288:69,1,140,2|8,1:2|0:2,0:0:0:0:
236,11,9585,1,0,0:0:0:0:
236,11,9679,1,0,0:0:0:0:
236,10,9773,2,0,P|203:22|168:23,1,70,0|0,1:2|0:0,0:0:0:0:
78,0,10148,2,0,P|89:32|90:67,1,70,8|0,1:2|0:0,0:0:0:0:
164,105,10523,2,0,L|151:244,1,140,0|8,1:2|0:2,0:0:0:0:
201,323,11085,1,0,0:0:0:0:
201,323,11179,1,0,0:0:0:0:
201,323,11273,2,0,P|166:324|133:335,1,70,0|0,1:2|0:0,0:0:0:0:
73,151,11648,5,10,1:2:0:0:
233,241,11835,1,2,0:2:0:0:
151,244,12023,2,0,L|163:104,1,140,2|8,1:2|0:2,0:0:0:0:
240,166,12585,1,0,0:0:0:0:
240,166,12679,1,0,0:0:0:0:
239,165,12773,2,0,L|275:157,3,35,0|0|0|0,1:2|0:0|0:0|0:0,0:0:0:0:
344,118,13147,2,0,L|352:154,3,35,8|0|0|0,1:2|0:0|0:0|0:0,0:0:0:0:
383,228,13523,2,0,L|347:236,3,35,0|0|0|0,1:2|0:0|0:0|0:0,0:0:0:0:
273,239,13898,2,0,L|280:273,3,35,8|0|0|0,0:2|0:0|0:0|0:0,0:0:0:0:
420,328,14273,5,0,1:2:0:0:
420,328,14460,5,8,0:0:0:0:
386,321,14553,1,8,0:0:0:0:
352,314,14648,2,0,L|318:308,1,35,8|8,1:2|0:2,0:0:0:0:
273,239,14835,5,8,0:0:0:0:
238,246,14929,1,8,0:0:0:0:
204,253,15023,2,0,L|128:265,1,52.5000020027161,4|0,1:2|0:0,0:0:0:0:
86,217,15210,5,2,0:0:0:0:
86,217,15304,1,0,0:0:0:0:
86,217,15398,1,8,0:2:0:0:
184,148,15585,6,0,L|171:72,1,52.5000020027161,2|0,0:0|0:0,0:0:0:0:
216,35,15772,1,0,1:2:0:0:
184,148,15960,6,0,L|259:135,1,52.5000020027161,2|0,0:0|0:0,0:0:0:0:
297,180,16147,1,8,1:2:0:0:
184,148,16335,6,0,L|196:223,1,52.5000020027161,2|0,0:0|0:0,0:0:0:0:
160,312,16523,2,0,L|151:260,1,52.5000020027161,0|0,1:2|0:0,0:0:0:0:
86,217,16710,5,2,0:0:0:0:
86,217,16804,1,0,0:0:0:0:
86,217,16898,1,8,0:2:0:0:
160,312,17085,6,0,L|211:303,1,52.5000020027161,2|0,0:0|0:0,0:0:0:0:
255,238,17272,1,0,1:2:0:0:
160,312,17460,6,0,L|108:320,1,52.5000020027161,2|0,0:0|0:0,0:0:0:0:
51,377,17647,1,8,1:2:0:0:
255,238,17835,6,0,L|246:186,1,52.5000020027161,2|0,0:0|0:0,0:0:0:0:
311,106,18023,2,0,L|319:157,1,52.5000020027161,0|0,1:2|0:0,0:0:0:0:
380,239,18210,5,2,0:0:0:0:
380,239,18304,1,0,0:0:0:0:
380,239,18398,1,8,0:2:0:0:
486,174,18585,6,0,L|434:182,1,52.5000020027161,2|0,0:0|0:0,0:0:0:0:
380,239,18773,1,0,1:2:0:0:
445,345,18960,6,0,L|436:293,1,52.5000020027161,2|0,0:0|0:0,0:0:0:0:
380,239,19148,1,8,1:2:0:0:
274,304,19335,6,0,L|325:295,1,52.5000020027161,2|0,0:0|0:0,0:0:0:0:
486,174,19523,2,0,L|434:182,1,52.5000020027161,0|0,1:2|0:0,0:0:0:0:
388,115,19710,5,2,0:0:0:0:
388,115,19804,1,0,0:0:0:0:
388,115,19898,1,8,0:2:0:0:
333,346,20085,6,0,L|325:295,1,52.5000020027161,2|0,0:0|0:0,0:0:0:0:
380,239,20273,1,0,1:2:0:0:
205,255,20460,6,0,L|214:204,1,52.5000020027161,2|0,0:0|0:0,0:0:0:0:
160,148,20648,1,8,1:2:0:0:
308,145,20836,6,0,L|299:93,1,52.5000020027161,2|0,0:0|0:0,0:0:0:0:
371,41,21023,2,0,L|388:144,1,105.000004005432,8|2,1:2|0:0,0:0:0:0:
439,204,21304,1,0,0:0:0:0:
439,204,21398,2,0,P|428:233|430:256,1,52.5000020027161,8|0,0:2|0:0,0:0:0:0:
473,334,21585,6,0,L|421:343,1,52.5000020027161
360,294,21773,1,8,1:2:0:0:
244,373,21960,6,0,L|235:321,1,52.5000020027161
284,260,22148,1,8,1:2:0:0:
200,145,22336,6,0,L|252:136,1,52.5000020027161
318,184,22523,2,0,L|335:80,1,105.000004005432,8|0,1:2|0:0,0:0:0:0:
297,11,22804,1,0,0:0:0:0:
297,11,22898,2,0,P|271:19|245:19,1,52.5000020027161,8|0,0:2|0:0,0:0:0:0:
188,75,23085,6,0,L|197:127,1,52.5000020027161
148,187,23273,1,8,1:2:0:0:
318,184,23460,6,0,L|309:236,1,52.5000020027161
358,296,23648,1,8,1:2:0:0:
179,271,23835,6,0,L|188:323,1,52.5000020027161
139,383,24023,2,0,L|20:358,1,105.000004005432,4|0,1:2|3:0,0:0:0:0:
104,295,24304,1,0,3:0:0:0:
104,295,24398,2,0,L|95:243,1,52.5000020027161,0|0,3:0|3:0,0:0:0:0:
57,174,24585,2,0,L|109:165,1,52.5000020027161,0|0,3:0|3:0,0:0:0:0:
187,242,24773,6,0,L|306:217,1,105.000004005432,4|0,1:2|3:0,0:0:0:0:
222,154,25054,1,0,3:0:0:0:
222,154,25148,2,0,L|231:102,1,52.5000020027161,0|0,3:0|3:0,0:0:0:0:
269,33,25335,2,0,L|217:24,1,52.5000020027161,0|0,3:0|3:0,0:0:0:0:
158,82,25523,5,4,1:2:0:0:
158,82,25710,1,0,3:0:0:0:
315,168,25898,5,4,1:2:0:0:
315,168,26085,1,0,3:0:0:0:
115,273,26273,5,4,1:2:0:0:
115,273,26460,1,0,3:0:0:0:
375,358,26648,6,0,P|384:348|389:336,6,26.2500010013581,0|0|0|0|0|0|0,3:0|3:0|3:0|3:0|3:0|3:0|3:0,0:0:0:0:
356,269,27023,5,4,1:2:0:0:
356,268,27210,6,0,P|316:289|271:286,1,90.9999958343508,2|8,0:1|0:2,0:0:0:0:
214,337,27491,2,0,P|217:292|196:252,1,90.9999958343508,2|0,0:1|0:0,0:0:0:0:
145,194,27773,2,0,P|189:197|229:176,1,90.9999958343508,2|0,1:1|0:0,0:0:0:0:
305,203,28054,2,0,P|284:163|287:118,1,90.9999958343508,2|0,0:1|0:0,0:0:0:0:
251,51,28335,1,2,0:1:0:0:
366,159,28523,6,0,B|466:192|466:192|446:117,1,181.999991668702,0|12,0:0|0:2,0:0:0:0:
446,117,29179,5,0,0:0:0:0:
446,117,29273,2,0,L|467:7,1,112,4|4,1:2|1:2,0:0:0:0:
366,159,29554,2,0,L|387:268,1,112,0|0,1:0|0:0,0:0:0:0:
452,312,29835,2,0,P|437:335|430:362,1,56,4|0,1:2|0:0,0:0:0:0:
356,339,30023,2,0,P|332:324|305:317,1,56,4|0,1:2|0:0,0:0:0:0:
239,346,30210,6,0,L|149:363,1,90.9999958343508,2|8,0:1|0:2,0:0:0:0:
181,274,30492,2,0,P|185:229|167:188,1,90.9999958343508,2|0,0:1|0:0,0:0:0:0:
262,227,30773,2,0,L|351:209,1,90.9999958343508,2|0,1:1|0:0,0:0:0:0:
320,298,31055,2,0,P|315:342|333:383,1,90.9999958343508,2|0,0:1|0:0,0:0:0:0:
239,346,31335,2,0,L|149:363,1,90.9999958343508,2|4,0:1|1:2,0:0:0:0:
149,363,31710,6,0,L|162:266,1,97.9999970092774,2|8,0:1|0:2,0:0:0:0:
275,129,31991,2,0,L|261:226,1,97.9999970092774,2|0,0:1|0:0,0:0:0:0:
162,266,32273,2,0,L|64:279,1,97.9999970092774,2|0,1:1|0:0,0:0:0:0:
261,226,32554,2,0,L|358:239,1,97.9999970092774,2|0,0:1|0:0,0:0:0:0:
191,149,32835,2,0,L|177:51,1,97.9999970092774,2|4,0:1|1:2,0:0:0:0:
177,50,33210,6,0,P|224:60|260:92,1,97.9999970092774,2|8,0:1|0:2,0:0:0:0:
332,70,33491,2,0,P|347:115|337:163,1,97.9999970092774,2|0,0:1|0:0,0:0:0:0:
390,223,33773,2,0,P|358:259|312:274,1,97.9999970092774,2|0,1:1|0:0,0:0:0:0:
296,347,34054,2,0,P|248:337|212:305,1,97.9999970092774,2|0,0:1|0:0,0:0:0:0:
138,313,34335,2,0,P|122:267|132:219,1,97.9999970092774,2|4,0:1|1:2,0:0:0:0:
132,219,34710,6,0,L|35:236,1,97.9999970092774,2|8,0:1|0:2,0:0:0:0:
26,163,34991,2,0,L|122:146,1,97.9999970092774,2|0,0:1|0:0,0:0:0:0:
203,168,35273,2,0,L|299:184,1,97.9999970092774,2|0,1:1|0:0,0:0:0:0:
309,111,35554,2,0,L|212:94,1,97.9999970092774,2|0,0:1|0:0,0:0:0:0:
158,44,35835,2,0,P|140:26|118:17,1,48.9999985046387,2|0,0:1|0:0,0:0:0:0:
55,71,36023,5,6,1:2:0:0:
55,71,36210,1,2,0:2:0:0:
55,71,36398,1,2,1:2:0:0:
159,135,36585,5,2,0:2:0:0:
159,135,36772,1,2,1:2:0:0:
159,135,36960,1,2,0:2:0:0:
91,247,37148,6,0,B|78:308|78:308|33:329|33:329|23:384,1,167.999994873047,14|0,1:2|1:0,0:0:0:0:
145,359,37710,1,0,1:0:0:0:
198,295,37898,6,0,L|336:316,1,125.999996154785,12|0,0:0|0:0,0:0:0:0:
322,313,38273,2,0,P|362:305|400:321,1,83.9999974365235,4|0,1:2|0:0,0:0:0:0:
470,277,38554,1,0,0:0:0:0:
470,277,38648,6,0,L|475:256,2,20.9999993591309,12|0|0,0:0|0:0|0:0,0:0:0:0:
423,199,38835,6,0,L|418:178,2,20.9999993591309
483,134,39023,5,4,1:2:0:0:
482,134,39210,6,0,P|471:83|430:52,1,105.000004005432,2|10,0:1|1:2,0:0:0:0:
369,100,39491,1,2,0:1:0:0:
369,100,39585,2,0,L|317:108,1,52.5000020027161,0|2,0:0|0:0,0:0:0:0:
365,181,39773,6,0,L|348:284,1,105.000004005432,2|2,1:1|0:0,0:0:0:0:
280,237,40054,2,0,L|228:245,1,52.5000020027161,2|8,0:1|1:2,0:0:0:0:
156,280,40241,1,2,0:0:0:0:
156,280,40335,2,0,L|147:228,1,52.5000020027161,2|0,0:1|0:0,0:0:0:0:
205,175,40523,5,4,1:2:0:0:
205,175,40710,6,0,P|235:133|231:81,1,105.000004005432,2|10,0:1|1:2,0:0:0:0:
157,69,40991,2,0,P|135:22|89:0,1,105.000004005432,2|2,0:1|0:0,0:0:0:0:
0,161,41273,6,0,P|21:114|67:91,1,105.000004005432,2|2,1:1|0:0,0:0:0:0:
111,151,41554,2,0,P|162:145|204:174,1,105.000004005432,2|2,0:1|0:0,0:0:0:0:
175,243,41834,2,0,P|205:284|201:336,1,105.000004005432,2|4,0:1|1:2,0:0:0:0:
201,336,42210,6,0,L|282:320,1,52.5000020027161,2|0,0:1|0:0,0:0:0:0:
334,374,42398,1,10,1:2:0:0:
334,374,42491,2,0,P|333:322|362:279,1,105.000004005432,2|2,0:1|0:0,0:0:0:0:
402,210,42773,6,0,L|321:193,1,52.5000020027161,2|0,1:1|0:0,0:0:0:0:
269,247,42961,1,2,0:0:0:0:
269,247,43054,2,0,P|269:195|240:152,1,105.000004005432,2|2,0:1|0:0,0:0:0:0:
194,84,43335,2,0,L|245:73,1,52.5000020027161,2|0,0:1|0:0,0:0:0:0:
322,117,43523,5,4,1:2:0:0:
322,117,43710,6,0,L|424:137,1,105.000004005432,2|10,0:1|1:2,0:0:0:0:
240,152,43991,2,0,L|137:131,1,105.000004005432,2|2,0:1|0:0,0:0:0:0:
316,198,44273,2,0,L|418:218,1,105.000004005432,2|2,1:1|0:0,0:0:0:0:
234,233,44554,2,0,L|131:212,1,105.000004005432,2|2,0:1|0:0,0:0:0:0:
307,285,44835,2,0,L|409:305,1,105.000004005432,2|4,0:1|1:2,0:0:0:0:
425,298,45210,6,0,P|450:343|492:373,1,105.000004005432,2|10,0:1|1:2,0:0:0:0:
405,211,45491,2,0,P|450:185|480:143,1,105.000004005432,2|2,0:1|0:0,0:0:0:0:
318,230,45773,2,0,P|292:184|250:154,1,105.000004005432,2|2,1:1|0:0,0:0:0:0:
338,317,46054,2,0,P|292:342|262:384,1,105.000004005432,2|2,0:1|0:0,0:0:0:0:
425,298,46336,2,0,P|450:343|492:373,1,105.000004005432,2|4,0:1|1:2,0:0:0:0:
492,373,46710,6,0,L|439:385,1,52.5000020027161,2|0,0:1|0:0,0:0:0:0:
338,317,46898,1,10,1:2:0:0:
338,317,46991,2,0,L|230:293,1,105.000004005432,2|2,0:1|0:0,0:0:0:0:
425,298,47273,2,0,L|413:246,1,52.5000020027161,2|0,1:1|0:0,0:0:0:0:
429,165,47460,1,2,0:0:0:0:
429,165,47554,2,0,L|326:187,1,105.000004005432,2|2,0:1|0:0,0:0:0:0:
254,170,47835,2,0,L|243:222,1,52.5000020027161,2|0,0:1|0:0,0:0:0:0:
307,117,48023,5,4,1:2:0:0:
307,117,48210,6,0,P|349:87|370:40,1,105.000004005432,2|10,0:1|1:2,0:0:0:0:
230,94,48491,2,0,P|226:42|195:0,1,105.000004005432,2|2,0:1|0:0,0:0:0:0:
171,152,48773,2,0,P|124:129|72:135,1,105.000004005432,2|2,1:1|0:0,0:0:0:0:
189,230,49054,2,0,P|146:259|125:306,1,105.000004005432,2|2,0:1|0:0,0:0:0:0:
268,262,49335,2,0,P|271:313|302:355,1,105.000004005432,2|4,0:1|1:2,0:0:0:0:
301,354,49710,6,0,L|198:335,1,105.000004005432,2|10,0:1|1:2,0:0:0:0:
125,304,49991,2,0,L|105:200,1,105.000004005432,2|2,0:1|0:0,0:0:0:0:
169,152,50273,2,0,L|272:132,1,105.000004005432,2|2,1:1|0:0,0:0:0:0:
345,103,50554,2,0,L|364:0,1,105.000004005432,2|2,0:1|0:0,0:0:0:0:
272,132,50835,2,0,L|291:235,1,105.000004005432,2|4,0:1|1:2,0:0:0:0:
291,235,51210,6,0,P|340:252|373:292,1,105.000004005432,2|10,0:1|1:2,0:0:0:0:
446,283,51491,2,0,P|455:334|437:382,1,105.000004005432,2|2,0:1|0:0,0:0:0:0:
291,235,51773,2,0,P|274:186|234:152,1,105.000004005432,2|2,1:1|0:0,0:0:0:0:
244,80,52054,2,0,P|193:70|145:88,1,105.000004005432,2|2,0:1|0:0,0:0:0:0:
85,35,52335,2,0,P|50:74|42:124,1,105.000004005432,2|4,0:1|1:2,0:0:0:0:
42,125,52710,6,0,P|76:164|84:214,1,105.000004005432,2|10,0:1|1:2,0:0:0:0:
73,295,52991,2,0,P|112:260|162:252,1,105.000004005432,2|2,0:1|0:0,0:0:0:0:
240,279,53273,2,0,P|205:239|197:189,1,105.000004005432,2|2,1:1|0:0,0:0:0:0:
209,109,53554,2,0,P|169:143|119:151,1,105.000004005432,2|2,0:1|0:0,0:0:0:0:
42,125,53835,2,0,P|76:164|84:214,1,105.000004005432,2|4,0:1|1:2,0:0:0:0:
84,215,54210,6,0,L|196:236,1,105.000004005432,2|10,0:1|1:2,0:0:0:0:
250,304,54491,2,0,L|146:323,1,105.000004005432,2|2,0:1|0:0,0:0:0:0:
324,272,54773,2,0,L|344:376,1,105.000004005432,2|2,1:1|0:0,0:0:0:0:
262,223,55054,2,0,L|281:119,1,105.000004005432,2|2,0:1|0:0,0:0:0:0:
172,41,55335,2,0,L|191:144,1,105.000004005432,2|4,0:1|1:2,0:0:0:0:
191,144,55710,6,0,P|144:165|118:210,1,105.000004005432,2|10,0:1|1:2,0:0:0:0:
60,260,55991,1,2,0:1:0:0:
60,260,56085,2,0,P|70:283|91:299,1,52.5000020027161,0|2,0:0|0:0,0:0:0:0:
216,360,56273,6,0,P|220:308|194:263,1,105.000004005432,2|2,1:1|0:0,0:0:0:0:
191,144,56554,2,0,P|144:165|118:210,1,105.000004005432,2|2,0:1|0:0,0:0:0:0:
60,260,56835,2,0,P|70:283|91:299,1,52.5000020027161,2|0,0:1|0:0,0:0:0:0:
171,345,57023,5,4,1:2:0:0:
286,218,57211,1,2,0:1:0:0:
358,384,57398,1,10,1:2:0:0:
357,384,57491,2,0,P|305:387|263:357,1,105.000004005432,2|2,0:1|0:0,0:0:0:0:
185,327,57773,5,4,1:2:0:0:
300,200,57961,1,2,0:1:0:0:
374,367,58148,1,10,1:2:0:0:
374,367,58241,1,2,0:1:0:0:
374,367,58335,1,0,0:0:0:0:
202,311,58523,5,4,1:2:0:0:
317,184,58711,1,2,0:1:0:0:
389,350,58898,1,10,1:2:0:0:
388,350,58991,2,0,P|336:353|294:323,1,105.000004005432,2|2,0:1|0:0,0:0:0:0:
219,289,59273,5,4,1:2:0:0:
129,140,59461,1,2,0:1:0:0:
17,272,59648,2,0,P|12:285|12:300,6,26.2500010013581,10|0|2|0|0|0|2,1:2|0:0|0:1|0:0|0:0|0:0|0:0,0:0:0:0:
13,195,60023,5,4,1:2:0:0:
147,304,60210,1,2,0:1:0:0:
58,75,60398,5,4,1:2:0:0:
113,220,60585,1,2,0:1:0:0:
168,0,60773,5,4,1:2:0:0:
145,137,60960,1,2,0:1:0:0:
284,8,61148,5,4,1:2:0:0:
213,93,61335,1,2,0:1:0:0:
387,79,61523,5,4,1:2:0:0:
293,114,61710,1,2,0:1:0:0:
447,175,61898,5,4,1:2:0:0:
357,159,62085,1,2,0:1:0:0:
447,292,62273,5,4,1:2:0:0:
384,239,62460,1,2,0:1:0:0:
394,384,62648,5,4,1:2:0:0:
344,324,62835,1,2,0:1:0:0:
250,360,63023,38,0,L|276:188|411:297|333:327,1,420.000016021729,6|0,0:2|0:0,0:0:0:0:
339,318,65273,6,0,P|294:293|242:294,1,105.000004005432,6|6,0:2|0:2,0:0:0:0:
459,158,66023,6,0,L|474:1,2,157.500006008148,6|6|6,0:2|0:2|0:2,0:0:0:0:
316,100,68648,6,0,P|292:111|267:116,1,52.5000020027161,6|2,0:2|0:2,0:0:0:0:
193,150,69023,6,0,B|279:95|361:189|334:219|314:253|397:331|475:287,1,367.500014019013,6|0,0:2|0:0,0:0:0:0:
498,207,70523,5,0,0:0:0:0:
498,207,71648,6,0,P|482:186|457:174,1,52.5000020027161,6|2,0:2|0:2,0:0:0:0:
475,287,72023,6,0,B|397:331|314:253|334:219|361:189|279:95|193:150,1,367.500014019013,6|0,0:2|0:0,0:0:0:0:
149,262,73523,6,0,P|327:219|510:202,1,367.500014019013,6|0,0:2|0:0,0:0:0:0:
510,202,75023,6,0,P|494:251|449:275,1,105.000004005432,6|0,0:2|0:0,0:0:0:0:
408,343,75585,2,0,P|338:309|316:236,1,157.500006008148,2|0,0:0|0:0,0:0:0:0:
245,208,76335,1,0,0:0:0:0:
245,208,76523,2,0,P|254:183|275:169,1,52.5000020027161,6|0,0:2|0:0,0:0:0:0:
304,98,76898,1,0,0:0:0:0:
304,98,77085,1,2,0:0:0:0:
225,112,77273,6,0,P|199:115|176:104,1,52.5000020027161,6|0,0:2|0:0,0:0:0:0:
153,184,77648,2,0,P|169:204|170:230,1,52.5000020027161,6|0,0:2|0:0,0:0:0:0:
236,265,78023,6,0,L|224:369,1,105.000004005432,6|0,0:2|0:0,0:0:0:0:
301,384,78585,2,0,L|312:279,1,105.000004005432,6|0,0:2|0:0,0:0:0:0:
378,229,79148,5,6,0:2:0:0:
497,110,79335,2,0,B|419:65|336:143|356:177|382:208|301:301|214:247,1,367.500014019013,6|6,0:2|0:2,0:0:0:0:
181,177,80835,1,6,0:2:0:0:
214,247,81023,2,0,B|301:301|382:208|356:177|336:143|419:65|497:110,1,367.500014019013,6|0,0:2|0:0,0:0:0:0:
427,206,82523,6,0,P|377:189|325:180,1,105.000004005432,6|0,0:2|0:0,0:0:0:0:
182,131,83085,2,0,P|233:121|283:105,1,105.000004005432,6|0,0:2|0:0,0:0:0:0:
332,272,83648,1,6,0:2:0:0:
332,272,83835,1,6,0:2:0:0:
214,247,84023,6,0,B|301:301|382:208|356:177|336:143|419:65|497:110,1,367.500014019013,6|6,0:2|0:2,0:0:0:0:
30,284,86460,6,0,L|33:309,1,26.2500010013581,4|0,1:2|0:0,0:0:0:0:
85,378,86648,6,0,P|108:352|118:319,1,70,12|0,1:2|0:0,0:0:0:0:
191,294,86835,6,0,P|180:260|157:235,1,70,12|0,1:2|0:0,0:0:0:0:
79,200,87023,5,4,1:1:0:0:
151,65,87210,2,0,L|141:2,1,62.9999980773926,2|0,0:1|0:0,0:0:0:0:
213,115,87398,1,8,1:2:0:0:
84,184,87585,6,0,P|144:203|186:256,1,125.999996154785,6|0,0:2|1:2,0:0:0:0:
262,381,87960,1,2,3:2:0:0:
262,381,88054,1,2,3:2:0:0:
262,381,88148,2,0,P|266:350|281:322,1,62.9999980773926,8|0,1:2|0:0,0:0:0:0:
266,247,88335,1,2,3:2:0:0:
406,294,88523,5,4,1:1:0:0:
341,166,88709,2,0,P|345:196|360:224,1,62.9999980773926,2|0,0:1|0:0,0:0:0:0:
406,294,88897,5,8,1:2:0:0:
496,125,89085,2,0,L|508:0,1,125.999996154785,6|0,0:2|1:2,0:0:0:0:
478,208,89460,5,2,0:2:0:0:
478,208,89554,1,0,0:0:0:0:
478,208,89648,2,0,L|490:333,1,125.999996154785,12|2,1:2|0:2,0:0:0:0:
418,379,90023,5,4,1:1:0:0:
304,294,90210,2,0,P|334:300|360:317,1,62.9999980773926,2|0,0:1|0:0,0:0:0:0:
418,379,90398,5,8,1:2:0:0:
501,194,90585,2,0,P|494:224|477:250,1,62.9999980773926,2|0,0:1|0:0,0:0:0:0:
418,379,90773,6,0,L|397:191,1,188.999994232178,6|0,1:2|0:0,0:0:0:0:
448,130,91148,2,0,P|446:98|436:68,1,62.9999980773926,14|0,0:2|0:0,0:0:0:0:
313,182,91335,2,0,P|314:213|324:243,1,62.9999980773926,6|0,0:2|0:0,0:0:0:0:
365,108,91523,6,0,L|240:91,1,125.999996154785,4|0,1:2|0:0,0:0:0:0:
155,31,91804,1,0,0:0:0:0:
155,31,91898,2,0,L|163:93,1,62.9999980773926,8|0,1:2|0:0,0:0:0:0:
320,188,92085,6,0,L|195:171,1,125.999996154785,6|0,0:0|1:2,0:0:0:0:
111,163,92366,1,0,0:0:0:0:
111,163,92460,2,0,L|119:225,1,62.9999980773926
59,328,92648,2,0,L|183:311,1,125.999996154785,8|0,1:2|0:0,0:0:0:0:
183,311,93023,6,0,P|248:372|331:338,1,188.999994232178,4|0,1:2|0:0,0:0:0:0:
295,266,93398,1,8,1:2:0:0:
457,188,93585,2,0,P|439:213|433:244,1,62.9999980773926,2|0,0:1|0:0,0:0:0:0:
368,152,93773,2,0,L|349:27,1,125.999996154785,0|2,1:2|3:2,0:0:0:0:
349,27,94148,6,0,P|366:53|393:68,1,62.9999980773926,8|0,1:2|0:0,0:0:0:0:
468,75,94335,1,2,3:2:0:0:
270,4,94523,6,0,P|232:53|234:115,1,125.999996154785,4|2,1:1|0:1,0:0:0:0:
304,153,94804,1,0,0:0:0:0:
304,153,94898,2,0,P|324:181|326:209,1,62.9999980773926,8|0,1:2|0:0,0:0:0:0:
259,264,95085,2,0,P|244:295|220:311,1,62.9999980773926,2|0,0:1|0:0,0:0:0:0:
149,264,95273,1,0,1:2:0:0:
259,264,95460,6,0,P|290:278|306:302,1,62.9999980773926,2|0,0:2|0:0,0:0:0:0:
326,208,95648,2,0,L|302:17,1,188.999994232178,12|0,1:2|0:0,0:0:0:0:
302,20,96023,6,0,P|352:55|413:49,1,125.999996154785,4|2,1:1|0:1,0:0:0:0:
414,49,96397,6,0,L|421:111,1,62.9999980773926,8|0,1:2|0:0,0:0:0:0:
510,162,96585,2,0,P|459:197|398:191,1,125.999996154785,2|6,0:1|1:2,0:0:0:0:
398,190,96959,6,0,L|390:252,1,62.9999980773926,2|0,0:2|0:0,0:0:0:0:
441,313,97148,1,14,0:2:0:0:
315,198,97335,6,0,L|307:260,1,62.9999980773926,6|0,1:2|0:0,0:0:0:0:
373,362,97523,2,0,P|433:348|487:377,1,125.999996154785,0|0,1:0|0:0,0:0:0:0:
307,260,97898,2,0,P|252:288|192:275,1,125.999996154785,8|0,0:0|0:0,0:0:0:0:
364,201,98273,6,0,P|363:169|379:142,3,62.9999980773926,2|2|2|2,0:0|0:0|0:0|0:0,0:0:0:0:
439,196,98647,6,0,P|465:180|497:180,3,62.9999980773926,2|2|2|2,0:0|0:0|0:0|0:0,0:0:0:0:
481,262,99023,5,6,1:2:0:0:
463,42,99210,2,0,L|452:104,1,62.9999980773926,2|0,0:1|0:0,0:0:0:0:
481,262,99398,1,8,1:2:0:0:
303,125,99585,6,0,P|363:141|404:187,1,125.999996154785,2|0,0:1|1:2,0:0:0:0:
366,0,99960,5,2,3:2:0:0:
366,0,100054,1,2,3:2:0:0:
366,0,100148,2,0,L|376:62,1,62.9999980773926,8|0,1:2|0:0,0:0:0:0:
404,187,100335,1,2,3:2:0:0:
259,0,100523,5,4,1:1:0:0:
215,176,100710,2,0,P|212:144|224:115,1,62.9999980773926,2|0,0:1|0:0,0:0:0:0:
171,59,100898,1,8,1:2:0:0:
297,159,101085,6,0,P|322:141|353:136,1,62.9999980773926,2|0,0:1|0:0,0:0:0:0:
376,62,101273,1,0,1:2:0:0:
354,221,101460,6,0,P|382:234|401:259,1,62.9999980773926,2|0,0:2|0:0,0:0:0:0:
258,378,101648,2,0,L|272:252,1,125.999996154785,12|2,1:2|0:2,0:0:0:0:
203,166,102023,5,4,1:1:0:0:
136,224,102210,2,0,P|164:240|183:264,1,62.9999980773926,2|0,0:1|0:0,0:0:0:0:
272,252,102398,2,0,L|286:126,1,125.999996154785,8|2,1:2|0:1,0:0:0:0:
424,104,102773,6,0,P|395:120|376:144,1,62.9999980773926,6|0,1:2|0:0,0:0:0:0:
287,127,102961,2,0,L|272:1,1,125.999996154785,2|14,0:2|0:2,0:0:0:0:
203,166,103335,5,6,0:2:0:0:
203,166,103429,1,0,0:0:0:0:
203,166,103523,1,4,1:2:0:0:
294,64,103710,6,0,L|286:126,1,62.9999980773926
203,166,103898,1,8,1:2:0:0:
197,14,104085,6,0,L|204:76,1,62.9999980773926,6|0,0:0|0:0,0:0:0:0:
115,178,104273,2,0,P|173:198|205:251,1,125.999996154785,0|0,1:2|0:0,0:0:0:0:
205,251,104648,6,0,L|267:240,1,62.9999980773926,8|0,1:2|0:0,0:0:0:0:
344,183,104836,2,0,P|342:214|353:243,1,62.9999980773926
309,311,105023,5,2,0:2:0:0:
309,311,105116,1,2,0:2:0:0:
309,311,105210,2,0,P|367:331|399:384,1,125.999996154785,2|12,0:1|1:2,0:0:0:0:
434,109,105585,2,0,P|402:162|344:183,1,125.999996154785,2|0,0:1|1:2,0:0:0:0:
344,183,105960,6,0,P|342:214|353:243,1,62.9999980773926,2|2,3:2|3:2,0:0:0:0:
453,383,106148,2,0,P|464:353|462:322,1,62.9999980773926,8|0,1:2|0:0,0:0:0:0:
443,247,106335,1,2,3:2:0:0:
267,240,106523,5,4,1:1:0:0:
410,269,106710,2,0,L|348:255,1,62.9999980773926,2|0,0:1|0:0,0:0:0:0:
267,240,106898,5,8,1:2:0:0:
235,98,107085,2,0,L|248:159,1,62.9999980773926,2|0,0:1|0:0,0:0:0:0:
267,240,107273,6,0,L|143:213,1,125.999996154785,0|2,1:2|0:2,0:0:0:0:
419,58,107648,6,0,L|235:98,1,188.999994232178,12|0,1:2|0:0,0:0:0:0:
115,131,108023,6,0,B|183:151|241:89|178:49|212:-16|289:0,1,251.999992309571,4|8,1:1|1:2,0:0:0:0:
358,136,108585,6,0,L|348:198,1,62.9999980773926,2|0,0:1|0:0,0:0:0:0:
260,222,108773,2,0,L|278:97,1,125.999996154785,6|2,1:2|0:2,0:0:0:0:
127,322,109148,6,0,L|136:384,1,62.9999980773926,14|0,0:2|0:0,0:0:0:0:
209,369,109335,2,0,L|199:306,1,62.9999980773926,6|0,0:2|0:0,0:0:0:0:
179,234,109523,6,0,P|144:228|111:209,1,70,4|0,1:2|0:0,0:0:0:0:
18,189,109898,2,0,P|34:219|40:253,1,70,0|0,1:0|0:0,0:0:0:0:
106,368,110273,6,0,L|113:333,3,35,2|2|2|2,0:2|0:2|0:2|0:2,0:0:0:0:
34,334,110648,6,0,L|0:326,3,35,2|2|2|2,0:2|0:2|0:2|0:2,0:0:0:0:
75,263,111023,6,0,L|58:123,1,140,6|8,1:2|1:2,0:0:0:0:
0,27,111585,2,0,B|41:42|41:42|132:12,1,140
177,82,112148,1,10,1:2:0:0:
241,28,112335,1,2,0:0:0:0:
283,95,112523,6,0,L|293:164,1,70,2|0,1:2|0:0,0:0:0:0:
241,242,112804,2,0,P|275:241|308:252,1,70,2|0,0:0|0:0,0:0:0:0:
363,200,113085,1,2,0:0:0:0:
207,170,113273,2,0,L|137:159,1,70,0|0,1:2|0:0,0:0:0:0:
213,384,113648,5,10,1:2:0:0:
241,242,113835,1,2,0:0:0:0:
213,384,114023,1,2,1:2:0:0:
287,344,114210,2,0,L|357:333,1,70,0|8,0:2|1:2,0:0:0:0:
241,242,114773,2,0,L|101:220,1,140,0|10,1:2|1:2,0:0:0:0:
299,185,115335,1,2,0:0:0:0:
358,248,115523,6,0,B|342:287|342:287|368:381,1,140,2|8,1:2|1:2,0:0:0:0:
274,365,116085,2,0,P|216:326|148:332,1,140,2|0,0:0|0:0,0:0:0:0:
75,377,116648,5,8,1:2:0:0:
75,377,116741,1,0,0:0:0:0:
75,377,116835,1,0,0:0:0:0:
148,332,117023,6,0,L|168:193,1,140,2|8,1:2|1:2,0:0:0:0:
129,125,117585,2,0,P|179:80|246:90,1,140
282,162,118148,1,10,1:2:0:0:
350,120,118335,1,2,0:0:0:0:
398,177,118523,6,0,P|410:210|414:245,1,70,2|0,1:2|0:0,0:0:0:0:
469,311,118804,2,0,P|434:315|401:326,1,70,2|0,0:0|0:0,0:0:0:0:
345,271,119085,1,2,0:0:0:0:
263,384,119273,6,0,L|277:299,1,70,0|0,1:2|0:0,0:0:0:0:
224,85,119648,5,10,1:2:0:0:
325,164,119835,1,2,0:2:0:0:
210,218,120023,1,2,1:2:0:0:
210,218,120116,1,0,0:0:0:0:
210,217,120210,2,0,P|193:248|191:283,1,70,0|0,0:0|1:2,0:0:0:0:
390,106,120585,2,0,P|406:136|408:171,1,70,0|0,0:0|1:2,0:0:0:0:
158,27,120960,2,0,P|141:57|139:92,1,70,2|0,0:0|1:2,0:0:0:0:
256,0,121335,5,2,0:0:0:0:
256,0,121429,1,0,0:0:0:0:
256,0,121523,1,2,1:2:0:0:
256,96,121710,5,2,0:0:0:0:
256,192,121898,5,2,1:2:0:0:
256,288,122085,5,2,0:0:0:0:
256,384,122273,6,0,L|320:384,7,35,2|2|2|2|2|2|2|2,1:2|0:0|0:0|0:0|0:0|0:0|0:0|0:0,0:0:0:0:
