osu file format v14

[General]
AudioFilename: audio.mp3
AudioLeadIn: 0
PreviewTime: 15
Countdown: 0
SampleSet: Soft
StackLeniency: 0.7
Mode: 0
LetterboxInBreaks: 0
WidescreenStoryboard: 0

[Editor]
DistanceSpacing: 1.2
BeatDivisor: 4
GridSize: 16
TimelineZoom: 1.9

[Metadata]
Title:triangles
TitleUnicode:triangles
Artist:cYsmix
ArtistUnicode:cYsmix
Creator:ohm002
Version:Expert
Source:osu!
Tags:lazer laser electronic english instrumental ppy dean herbert peppy osu video game theme remix circles! limetwist ducky ducky-
BeatmapID:3361072
BeatmapSetID:1646678

[Difficulty]
HPDrainRate:6
CircleSize:4.2
OverallDifficulty:8
ApproachRate:9.3
SliderMultiplier:1.7
SliderTickRate:1

[Events]
//Background and Video events
0,0,"TY PORING FOR THE BG .jpg",0,0
//Break Periods
//Storyboard Layer 0 (Background)
//Storyboard Layer 1 (Fail)
//Storyboard Layer 2 (Pass)
//Storyboard Layer 3 (Foreground)
//Storyboard Layer 4 (Overlay)
//Storyboard Sound Samples

[TimingPoints]
23,375,4,2,1,82,1,0
912,-100,4,2,0,5,0,0
960,-100,4,2,0,82,0,0
1523,-33.3333333333333,4,2,1,82,0,0
1663,-33.3333333333333,4,2,1,5,0,0
1710,-33.3333333333333,4,2,1,82,0,0
1850,-33.3333333333333,4,2,1,5,0,0
1898,-33.3333333333333,4,2,1,82,0,0
2038,-33.3333333333333,4,2,1,5,0,0
2085,-50,4,2,1,82,0,0
3023,375,4,2,1,62,1,0
3023,-111.111111111111,4,2,1,62,0,0
28898,-66.6666666666667,4,2,1,52,0,0
29273,-62.5,4,2,1,52,0,0
30210,-100,4,2,1,52,0,0
39023,-100,4,2,1,72,0,0
39210,-66.6666666666667,4,2,1,72,0,0
52710,-55.5555555555556,4,2,1,72,0,0
54210,-66.6666666666667,4,2,1,72,0,0
59694,-66.6666666666667,4,2,1,72,0,0
59741,-66.6666666666667,4,2,1,72,0,0
59787,-66.6666666666667,4,2,1,72,0,0
59835,-66.6666666666667,4,2,1,72,0,0
59881,-66.6666666666667,4,2,1,72,0,0
59928,-66.6666666666667,4,2,1,72,0,0
59974,-66.6666666666667,4,2,0,5,0,0
60023,-66.6666666666667,4,2,1,72,0,0
63023,-133.333333333333,4,2,1,52,0,0
85335,-66.6666666666667,4,2,1,52,0,0
86460,-133.333333333333,4,2,1,52,0,0
86648,-50,4,2,1,72,0,0
87023,-50,4,2,1,82,0,1
97523,-100,4,2,1,82,0,1
98273,-100,4,2,1,82,0,0
99023,-50,4,2,1,82,0,1
104975,-50,4,2,0,5,0,1
105023,-50,4,2,1,82,0,1
105069,-50,4,2,0,5,0,1
105116,-50,4,2,1,82,0,1
105162,-50,4,2,0,5,0,1
105210,-50,4,2,1,82,0,1
109523,-100,4,2,1,82,0,1
111023,-66.6666666666667,4,2,1,72,0,0
111585,-66.6666666666667,4,2,1,62,0,0
112148,-66.6666666666667,4,2,1,72,0,0
112241,-66.6666666666667,4,2,1,62,0,0
112335,-66.6666666666667,4,2,1,72,0,0
112428,-66.6666666666667,4,2,1,62,0,0
112523,-66.6666666666667,4,2,1,72,0,0
113741,-66.6666666666667,4,2,1,62,0,0
113835,-66.6666666666667,4,2,1,72,0,0
113928,-66.6666666666667,4,2,1,62,0,0
114023,-66.6666666666667,4,2,1,72,0,0
114210,-66.6666666666667,4,2,1,62,0,0
114398,-66.6666666666667,4,2,1,72,0,0
115054,-66.6666666666667,4,2,1,62,0,0
115148,-66.6666666666667,4,2,1,72,0,0
115241,-66.6666666666667,4,2,1,62,0,0
115335,-66.6666666666667,4,2,1,72,0,0
115428,-66.6666666666667,4,2,1,62,0,0
115523,-66.6666666666667,4,2,1,72,0,0
116460,-66.6666666666667,4,2,1,62,0,0
116648,-66.6666666666667,4,2,1,72,0,0
116741,-66.6666666666667,4,2,1,62,0,0
117023,-66.6666666666667,4,2,1,72,0,0
117585,-66.6666666666667,4,2,1,62,0,0
118148,-66.6666666666667,4,2,1,72,0,0
118241,-66.6666666666667,4,2,1,62,0,0
118335,-66.6666666666667,4,2,1,72,0,0
118428,-66.6666666666667,4,2,1,62,0,0
118523,-66.6666666666667,4,2,1,72,0,0
118710,-66.6666666666667,4,2,1,62,0,0
118804,-66.6666666666667,4,2,1,72,0,0
118991,-66.6666666666667,4,2,1,62,0,0
119085,-66.6666666666667,4,2,1,72,0,0
119178,-66.6666666666667,4,2,1,62,0,0
119273,-66.6666666666667,4,2,1,72,0,0
119741,-66.6666666666667,4,2,1,62,0,0
119835,-66.6666666666667,4,2,1,72,0,0
119928,-66.6666666666667,4,2,1,62,0,0

[Colours]
Combo1 : 254,46,213
Combo2 : 149,218,255
Combo3 : 254,165,248
Combo4 : 106,125,255

[HitObjects]
274,120,210,53,2,2:0:0:0:
219,0,398,5,2,2:1:0:0:
114,189,679,5,2,2:0:0:0:
44,144,866,6,0,L|51:124,1,21.25,2|0,3:0|2:0,2:0:0:0:
26,168,960,6,0,L|3:172,11,21.25,0|0|0|0|0|0|0|0|0|0|0|0,3:0|3:0|3:0|3:0|3:0|3:0|3:0|3:0|3:0|3:0|3:0|3:0,3:0:0:0:
0,195,1523,6,0,B|12:265|12:265|60:289|60:289|73:354,1,191.250007295609,12|0,1:2|0:0,0:0:0:0:
73,353,1710,6,0,B|112:299|112:299|166:297|166:297|206:238,1,191.250007295609,0|0,1:2|0:0,0:0:0:0:
205,238,1898,6,0,B|191:172|191:172|142:148|142:148|130:78,1,191.250007295609,12|0,1:2|0:0,0:0:0:0:
102,60,2085,6,0,B|249:17|249:17|297:139|297:139|280:156|280:156|325:257|325:257|494:210,1,595,4|0,1:1|2:0,0:0:0:0:
512,137,2835,1,0,1:2:0:0:
480,239,3023,6,0,L|460:351,1,114.749996498108,6|0,1:2|0:0,0:0:0:0:
460,351,3398,2,0,P|422:358|394:383,1,76.4999976654053,8|0,0:2|0:0,0:0:0:0:
319,283,3773,6,0,L|299:170,1,114.749996498108,0|0,1:0|0:0,0:0:0:0:
299,171,4148,2,0,P|261:163|233:138,1,76.4999976654053,8|0,1:2|0:0,0:0:0:0:
223,335,4523,6,0,L|72:361,1,152.999995330811,0|8,1:2|0:2,0:0:0:0:
14,291,5085,5,0,0:0:0:0:
14,291,5179,1,0,0:0:0:0:
14,291,5273,2,0,P|29:256|28:218,1,76.4999976654053,2|0,1:2|0:0,0:0:0:0:
184,108,5648,2,0,P|182:145|198:180,1,76.4999976654053,10|0,1:2|0:0,0:0:0:0:
116,247,6023,6,0,P|187:269|222:334,1,152.999995330811,2|8,1:2|0:2,0:0:0:0:
325,109,6585,2,0,P|341:181|301:244,1,152.999995330811,2|0,0:0|0:0,0:0:0:0:
421,347,7148,2,0,P|383:343|349:324,1,76.4999976654053,10|0,1:2|0:0,2:0:0:0:
231,208,7523,6,0,L|210:56,1,152.999995330811,0|8,1:2|0:2,2:0:0:0:
276,4,8085,1,0,0:0:0:0:
276,4,8179,1,0,2:0:0:0:
276,4,8273,2,0,P|295:38|293:75,1,76.4999976654053,0|0,1:2|0:0,0:0:0:0:
133,195,8648,5,10,1:2:0:0:
289,261,8835,1,2,0:2:0:0:
141,366,9023,2,0,B|84:352|84:352|51:377|51:377|0:365,1,152.999995330811,2|8,1:2|0:2,0:0:0:0:
167,262,9585,1,0,0:0:0:0:
133,195,9773,2,0,L|122:119,1,76.4999976654053,0|0,1:2|0:0,0:0:0:0:
240,309,10148,2,0,L|229:384,1,76.4999976654053,8|0,1:2|0:0,0:0:0:0:
225,202,10523,6,0,L|203:50,1,152.999995330811,0|8,1:2|0:2,0:0:0:0:
271,0,11085,1,0,0:0:0:0:
271,0,11179,1,0,0:0:0:0:
271,0,11273,2,0,P|291:32|296:69,1,76.4999976654053,0|0,1:2|0:0,0:0:0:0:
455,212,11648,5,10,1:2:0:0:
397,69,11835,1,2,0:2:0:0:
302,176,12023,2,0,L|280:327,1,152.999995330811,2|8,1:2|0:2,0:0:0:0:
356,384,12585,1,0,0:0:0:0:
356,384,12679,1,0,0:0:0:0:
356,384,12773,2,0,P|390:367|428:364,1,76.4999976654053,0|0,1:2|0:0,0:0:0:0:
223,176,13148,2,0,P|185:173|150:156,1,76.4999976654053,8|0,1:2|0:0,0:0:0:0:
80,227,13523,6,0,L|42:234,3,38.2499988327027,0|0|0|0,1:2|0:0|0:0|0:0,0:0:0:0:
67,151,13898,2,0,L|59:113,3,38.2499988327027,8|0|0|0,0:2|0:0|0:0|0:0,0:0:0:0:
150,140,14273,1,0,1:2:0:0:
150,140,14460,5,8,0:0:0:0:
187,138,14554,1,8,0:0:0:0:
218,160,14648,1,8,1:2:0:0:
236,193,14741,1,8,0:2:0:0:
256,226,14835,1,8,0:0:0:0:
289,243,14929,1,8,0:0:0:0:
327,239,15023,6,0,L|338:203,1,38.2499988327027,4|0,1:2|0:0,0:0:0:0:
316,131,15210,1,2,0:0:0:0:
316,131,15304,1,0,0:0:0:0:
316,131,15398,1,8,0:2:0:0:
403,275,15585,6,0,L|413:238,1,38.2499988327027,2|0,0:0|0:0,0:0:0:0:
359,60,15773,1,0,1:2:0:0:
196,165,15960,6,0,L|232:175,1,38.2499988327027,2|0,0:0|0:0,0:0:0:0:
411,121,16148,1,8,1:2:0:0:
283,24,16335,6,0,L|272:60,1,38.2499988327027,2|0,0:0|0:0,0:0:0:0:
327,238,16523,2,0,L|337:201,1,38.2499988327027,0|0,1:2|0:0,0:0:0:0:
273,159,16710,1,2,0:0:0:0:
273,159,16804,1,0,0:0:0:0:
273,159,16898,1,8,0:2:0:0:
215,264,17085,6,0,L|179:275,1,38.2499988327027,2|0,0:0|0:0,0:0:0:0:
112,210,17273,1,0,1:2:0:0:
277,330,17460,6,0,L|313:341,1,38.2499988327027,2|0,0:0|0:0,0:0:0:0:
380,276,17648,1,8,1:2:0:0:
225,64,17835,6,0,L|214:100,1,38.2499988327027,2|0,0:0|0:0,0:0:0:0:
283,195,18023,2,0,L|272:158,1,38.2499988327027,0|0,1:2|0:0,0:0:0:0:
305,83,18210,1,2,0:0:0:0:
305,83,18304,1,0,0:0:0:0:
305,83,18398,1,8,0:2:0:0:
265,229,18585,6,0,L|254:265,1,38.2499988327027,2|0,0:0|0:0,0:0:0:0:
179,96,18773,1,0,1:2:0:0:
38,265,18960,6,0,L|2:254,1,38.2499988327027,2|0,0:0|0:0,0:0:0:0:
171,179,19148,1,8,1:2:0:0:
268,355,19335,6,0,L|304:344,1,38.2499988327027,2|0,0:0|0:0,0:0:0:0:
135,269,19523,1,0,1:2:0:0:
276,102,19710,5,2,0:0:0:0:
276,102,19804,1,0,0:0:0:0:
276,102,19898,2,0,L|287:138,1,38.2499988327027,8|0,0:2|2:0,2:0:0:0:
292,222,20085,6,0,L|328:211,1,38.2499988327027,2|0,0:0|0:0,0:0:0:0:
367,138,20273,1,0,1:2:0:0:
135,269,20460,6,0,L|99:258,1,38.2499988327027,2|0,0:0|0:0,0:0:0:0:
60,185,20648,1,8,1:2:0:0:
402,326,20835,6,0,L|438:315,1,38.2499988327027,2|0,0:0|0:0,0:0:0:0:
477,242,21023,6,0,L|492:167,1,76.4999976654053,8|2,1:2|0:0,0:0:0:0:
265,103,21398,2,0,L|280:177,1,76.4999976654053,8|0,0:2|0:0,0:0:0:0:
166,330,21773,5,8,1:2:0:0:
399,239,21960,2,0,L|363:250,1,38.2499988327027
289,384,22148,5,8,1:2:0:0:
56,293,22335,2,0,L|92:304,1,38.2499988327027
178,336,22523,6,0,L|163:262,1,76.4999976654053,8|0,1:2|0:0,0:0:0:0:
309,98,22898,2,0,L|294:173,1,76.4999976654053,8|0,0:2|0:0,0:0:0:0:
173,120,23273,5,8,1:2:0:0:
314,262,23460,2,0,L|351:268,1,38.2499988327027
87,250,23648,5,8,1:2:0:0:
227,180,23835,2,0,L|264:173,1,38.2499988327027
117,368,24023,6,0,L|125:331,1,38.2499988327027,4|0,1:2|3:0,0:0:0:0:
157,257,24210,1,0,3:0:0:0:
157,257,24304,1,0,3:0:0:0:
157,257,24398,2,0,L|119:249,1,38.2499988327027,0|0,3:0|3:0,0:0:0:0:
47,215,24585,2,0,L|39:252,1,38.2499988327027,0|0,3:0|3:0,0:0:0:0:
252,277,24773,6,0,L|244:239,1,38.2499988327027,4|0,1:2|3:0,0:0:0:0:
212,165,24960,1,0,3:0:0:0:
212,165,25054,1,0,3:0:0:0:
212,165,25148,2,0,L|249:157,1,38.2499988327027,0|0,3:0|3:0,0:0:0:0:
322,123,25335,2,0,L|329:160,1,38.2499988327027,0|0,3:0|3:0,0:0:0:0:
205,353,25523,5,4,1:2:0:0:
372,249,25710,2,0,L|334:241,1,38.2499988327027,0|0,3:0|3:0,2:0:0:0:
136,306,25898,5,4,1:2:0:0:
426,317,26085,2,0,L|388:324,1,38.2499988327027,0|0,3:0|3:0,2:0:0:0:
212,165,26273,5,4,1:2:0:0:
285,382,26460,1,0,3:0:0:0:
434,210,26648,6,0,P|439:201|439:191,1,19.1249994163513,0|0,3:0|3:0,0:0:0:0:
425,174,26741,2,0,P|419:165|411:160,1,19.1249994163513,0|0,3:0|3:0,2:0:0:0:
397,153,26835,2,0,P|386:153|377:158,1,19.1249994163513,0|0,3:0|3:0,2:0:0:0:
362,165,26929,2,0,P|353:170|348:178,1,19.1249994163513,0|0,3:0|3:0,2:0:0:0:
341,196,27023,5,4,1:2:0:0:
229,72,27210,1,2,0:1:0:0:
80,224,27398,5,8,0:2:0:0:
80,224,27491,2,0,P|117:230|147:253,1,76.4999976654053,2|0,0:1|0:0,0:0:0:0:
181,324,27773,2,0,P|218:317|248:294,1,76.4999976654053,2|0,1:1|0:0,0:0:0:0:
289,226,28054,2,0,P|326:232|356:255,1,76.4999976654053,2|0,0:1|0:0,0:0:0:0:
391,326,28335,2,0,P|428:319|458:296,1,76.4999976654053,2|0,0:1|0:0,2:0:0:0:
458,296,28898,6,0,L|475:169,1,127.500004863739,12|0,0:2|2:0,2:0:0:0:
397,28,29179,1,0,0:0:0:0:
331,80,29273,6,0,P|276:127|212:111,1,136,4|4,1:2|1:2,0:0:0:0:
53,93,29554,2,0,P|100:48|165:57,1,136,0|0,1:0|0:0,0:0:0:0:
218,115,29835,2,0,L|195:253,1,136,4|4,1:2|1:2,0:0:0:0:
195,249,30210,6,0,P|232:229|275:230,1,85,2|8,0:1|0:2,0:0:0:0:
340,180,30491,2,0,P|375:202|396:239,1,85,2|0,0:1|0:0,0:0:0:0:
476,275,30773,2,0,P|474:317|452:353,1,85,2|0,1:1|0:0,0:0:0:0:
396,239,31054,2,0,P|375:202|340:180,1,85,2|0,0:1|0:0,0:0:0:0:
275,230,31335,2,0,P|232:229|195:249,1,85,2|4,0:1|1:2,0:0:0:0:
195,249,31710,6,0,L|206:164,1,85,2|8,0:1|0:2,0:0:0:0:
143,29,31991,2,0,P|128:69|135:111,1,85,2|0,0:1|0:0,0:0:0:0:
227,52,32273,2,0,L|312:41,1,85,2|0,1:1|0:0,0:0:0:0:
389,156,32554,2,0,L|304:145,1,85,2|0,0:1|0:0,0:0:0:0:
195,249,32835,2,0,L|280:238,1,85,2|4,0:1|1:2,0:0:0:0:
279,238,33210,6,0,L|268:298,1,42.5,2|0,0:1|2:0,0:0:0:0:
302,354,33398,1,8,0:2:0:0:
302,354,33491,2,0,P|339:334|381:331,1,85,2|0,0:1|0:0,0:0:0:0:
479,331,33773,6,0,L|490:271,1,42.5,2|0,1:1|2:0,0:0:0:0:
456,216,33960,1,0,0:0:0:0:
456,216,34054,2,0,P|419:236|377:239,1,85,2|0,0:1|0:0,0:0:0:0:
333,176,34335,2,0,L|322:116,1,42.5,2|0,0:1|2:0,0:0:0:0:
363,73,34523,1,4,1:2:0:0:
242,220,34710,6,0,L|253:160,1,42.5,2|0,0:1|2:0,0:0:0:0:
222,19,34898,1,8,0:2:0:0:
222,19,34991,2,0,P|248:52|253:94,1,85,2|0,0:1|0:0,0:0:0:0:
146,210,35273,2,0,P|152:168|178:136,1,85,2|0,1:1|0:0,0:0:0:0:
253,93,35554,2,0,P|279:126|284:168,1,85,2|0,0:1|0:0,0:0:0:0:
332,236,35835,2,0,P|324:255|307:268,1,42.5,2|0,0:1|0:0,0:0:0:0:
232,363,36023,5,6,1:2:0:0:
152,372,36210,1,2,0:2:0:0:
72,381,36398,1,2,1:2:0:0:
324,275,36585,5,2,0:2:0:0:
374,280,36773,1,2,1:2:0:0:
424,285,36960,1,2,0:2:0:0:
256,192,37148,6,0,B|245:136|245:136|200:114|200:114|187:52,1,170,14|0,1:2|1:0,0:0:0:0:
262,16,37710,6,0,P|279:28|292:45,1,42.5,0|0,1:0|2:0,2:0:0:0:
171,198,37898,6,0,L|45:220,1,127.5,12|0,0:0|0:0,0:0:0:0:
94,292,38273,2,0,L|157:281,1,42.5,4|0,1:2|2:0,0:0:0:0:
171,198,38460,2,0,L|234:209,1,42.5,0|0,0:0|0:0,2:0:0:0:
253,279,38648,6,0,L|258:300,2,21.25,12|0|0,0:0|0:0|0:0,0:0:0:0:
206,123,38835,6,0,L|211:102,2,21.25
308,206,39023,5,4,1:2:0:0:
308,206,39210,6,0,L|383:194,1,63.7500024318696,2|0,0:1|2:0,0:0:0:0:
331,122,39398,1,10,1:2:0:0:
323,117,39491,2,0,P|316:86|299:59,1,63.7500024318696,2|0,0:1|0:0,2:0:0:0:
188,116,39679,1,2,0:0:0:0:
181,125,39773,2,0,P|150:132|123:149,1,63.7500024318696,2|0,1:1|2:0,0:0:0:0:
180,260,39960,1,2,0:0:0:0:
189,267,40054,2,0,P|196:298|213:325,1,63.7500024318696,2|8,0:1|1:2,0:0:0:0:
321,266,40241,1,2,0:0:0:0:
331,259,40335,2,0,P|362:252|389:235,1,63.7500024318696,2|0,0:1|0:0,0:0:0:0:
256,192,40523,5,4,1:2:0:0:
309,351,40710,6,0,P|340:355|368:370,1,63.7500024318696,2|0,0:1|2:0,0:0:0:0:
450,329,40898,1,10,1:2:0:0:
474,312,40991,2,0,P|478:281|493:253,1,63.7500024318696,2|0,0:1|2:0,0:0:0:0:
446,176,41179,1,2,0:0:0:0:
434,159,41273,2,0,P|403:155|375:140,1,63.7500024318696,2|0,1:1|2:0,0:0:0:0:
297,174,41460,1,2,0:0:0:0:
280,189,41554,2,0,P|276:220|261:248,1,63.7500024318696,2|8,0:1|1:2,0:0:0:0:
289,330,41741,1,2,0:0:0:0:
308,351,41835,2,0,P|339:355|367:370,1,63.7500024318696,2|0,0:1|2:0,0:0:0:0:
412,266,42023,5,4,1:2:0:0:
412,266,42210,6,0,L|404:203,1,63.7500024318696,2|0,0:1|0:0,0:0:0:0:
430,125,42398,1,10,1:2:0:0:
423,118,42491,2,0,L|360:126,1,63.7500024318696,2|0,0:1|2:0,0:0:0:0:
286,96,42679,1,2,0:0:0:0:
278,103,42773,2,0,L|286:166,1,63.7500024318696,2|0,1:1|0:0,0:0:0:0:
250,242,42960,1,2,0:0:0:0:
260,248,43054,2,0,L|323:240,1,63.7500024318696,2|8,0:1|1:2,0:0:0:0:
403,270,43241,1,2,0:0:0:0:
412,266,43335,2,0,L|404:203,1,63.7500024318696,2|0,0:1|0:0,0:0:0:0:
423,118,43523,5,4,1:2:0:0:
423,118,43710,6,0,P|448:98|483:86,1,63.7500024318696,2|0,0:1|2:0,0:0:0:0:
412,266,43898,1,10,1:2:0:0:
436,285,43991,2,0,P|456:310|468:345,1,63.7500024318696,2|0,0:1|2:0,0:0:0:0:
260,248,44179,1,2,0:0:0:0:
241,275,44273,2,0,P|216:295|181:307,1,63.7500024318696,2|0,1:1|2:0,0:0:0:0:
278,103,44460,1,2,0:0:0:0:
246,79,44554,2,0,P|226:54|214:19,1,63.7500024318696,2|8,0:1|1:2,0:0:0:0:
423,118,44741,1,2,0:0:0:0:
456,92,44835,2,0,P|481:72|516:60,1,63.7500024318696,2|0,0:1|2:0,0:0:0:0:
347,181,45023,5,4,1:2:0:0:
243,203,45210,6,0,P|261:229|268:260,1,63.7500024318696,2|0,0:1|2:0,0:0:0:0:
197,283,45398,1,10,1:2:0:0:
192,290,45491,2,0,P|178:319|155:340,1,63.7500024318696,2|0,0:1|2:0,0:0:0:0:
101,286,45679,1,2,0:0:0:0:
91,289,45773,2,0,P|59:292|29:282,1,63.7500024318696,2|0,1:1|2:0,0:0:0:0:
51,209,45960,1,2,0:0:0:0:
41,201,46054,2,0,P|23:175|16:144,1,63.7500024318696,2|8,0:1|1:2,0:0:0:0:
87,121,46241,1,2,0:0:0:0:
92,113,46335,2,0,P|106:84|129:63,1,63.7500024318696,2|0,0:1|2:0,0:0:0:0:
211,56,46523,5,4,1:2:0:0:
129,63,46710,6,0,P|106:84|92:113,1,63.7500024318696,2|0,0:1|0:0,0:0:0:0:
23,109,46898,1,10,1:2:0:0:
16,144,46991,2,0,P|23:175|41:201,1,63.7500024318696,2|0,0:1|2:0,0:0:0:0:
0,260,47179,1,2,0:0:0:0:
29,282,47273,2,0,P|59:292|91:289,1,63.7500024318696,2|0,1:1|0:0,0:0:0:0:
132,354,47460,1,2,0:0:0:0:
155,340,47554,2,0,P|178:319|192:290,1,63.7500024318696,2|8,0:1|1:2,0:0:0:0:
267,292,47741,1,2,0:0:0:0:
268,259,47835,2,0,P|261:228|243:202,1,63.7500024318696,2|0,0:1|0:0,0:0:0:0:
175,91,48023,5,4,1:2:0:0:
175,91,48210,6,0,L|162:29,1,63.7500024318696,2|0,0:1|2:0,0:0:0:0:
327,96,48398,1,10,1:2:0:0:
337,91,48491,2,0,L|350:29,1,63.7500024318696,2|0,0:1|2:0,0:0:0:0:
163,170,48679,1,2,0:0:0:0:
151,178,48773,2,0,L|75:160,1,63.7500024318696,2|0,1:1|2:0,0:0:0:0:
351,174,48960,1,2,0:0:0:0:
361,178,49054,2,0,L|437:160,1,63.7500024318696,2|8,0:1|1:2,0:0:0:0:
185,251,49241,1,2,0:0:0:0:
177,257,49335,2,0,L|101:275,1,63.7500024318696,2|0,0:1|2:0,0:0:0:0:
335,257,49523,6,0,L|411:275,1,63.7500024318696,4|0,1:2|2:0,2:0:0:0:
256,80,49710,6,0,L|256:208,1,127.500004863739,2|10,0:1|1:2,0:0:0:0:
256,288,49991,2,0,L|256:352,1,63.7500024318696,2|0,0:1|2:0,0:0:0:0:
339,269,50179,1,2,0:0:0:0:
339,269,50273,2,0,P|399:253|433:201,1,127.500004863739,2|2,1:1|0:0,0:0:0:0:
179,269,50554,2,0,P|118:252|84:200,1,127.500004863739,2|2,0:1|0:0,0:0:0:0:
256,160,50835,6,0,L|256:288,1,127.500004863739,2|4,0:1|1:2,0:0:0:0:
256,288,51210,6,0,P|281:268|312:259,1,63.7500024318696,2|0,0:1|2:0,0:0:0:0:
351,201,51398,1,10,1:2:0:0:
357,195,51491,2,0,P|382:214|413:223,1,63.7500024318696,2|0,0:1|2:0,0:0:0:0:
420,141,51679,1,2,0:0:0:0:
418,135,51773,2,0,P|399:110|390:79,1,63.7500024318696,2|0,1:1|2:0,0:0:0:0:
323,103,51960,1,2,0:0:0:0:
318,112,52054,2,0,P|293:131|262:140,1,63.7500024318696,2|8,0:1|1:2,0:0:0:0:
206,189,52241,1,2,0:0:0:0:
201,194,52335,2,0,P|176:175|145:166,1,63.7500024318696,2|0,0:1|2:0,0:0:0:0:
53,75,52523,5,4,1:2:0:0:
53,75,52710,6,0,B|67:127|67:127|58:152|58:152|75:223,1,152.999995330811,2|10,0:1|1:2,0:0:0:0:
33,295,52991,2,0,B|17:344|17:344|114:314,1,152.999995330811,2|2,0:1|0:0,0:0:0:0:
190,384,53273,6,0,B|207:313|207:313|198:288|198:288|212:236,1,152.999995330811,2|2,1:1|0:0,0:0:0:0:
262,177,53554,2,0,B|278:128|278:128|181:158,1,152.999995330811,2|2,0:1|0:0,0:0:0:0:
123,220,53835,2,0,P|103:188|71:166,1,76.4999976654053,2|0,0:1|2:0,0:0:0:0:
132,36,54023,5,4,1:2:0:0:
132,36,54210,6,0,L|195:25,1,63.7500024318696,2|0,0:1|2:0,0:0:0:0:
249,85,54398,1,10,1:2:0:0:
241,95,54491,2,0,L|252:158,1,63.7500024318696,2|0,0:1|2:0,0:0:0:0:
246,230,54679,1,2,0:0:0:0:
241,241,54773,2,0,L|304:230,1,63.7500024318696,2|0,1:1|2:0,0:0:0:0:
370,190,54960,1,2,0:0:0:0:
379,186,55054,2,0,L|390:249,1,63.7500024318696,2|8,0:1|1:2,0:0:0:0:
377,322,55241,1,2,0:0:0:0:
375,335,55335,2,0,L|438:324,1,63.7500024318696,2|0,0:1|2:0,0:0:0:0:
482,256,55523,5,4,1:2:0:0:
482,256,55710,6,0,P|488:225|500:195,1,63.7500024318696,2|0,0:1|2:0,0:0:0:0:
416,165,55898,1,10,1:2:0:0:
403,188,55991,2,0,L|249:211,1,127.500004863739,2|2,0:1|0:0,2:0:0:0:
211,145,56273,2,0,P|218:114|219:82,1,63.7500024318696,2|0,1:1|2:0,0:0:0:0:
297,79,56460,1,2,0:0:0:0:
316,99,56554,2,0,P|347:106|379:107,1,63.7500024318696,2|8,0:1|1:2,0:0:0:0:
403,188,56741,1,2,0:0:0:0:
360,211,56835,2,0,P|353:242|352:274,1,63.7500024318696,2|0,0:1|0:0,0:0:0:0:
182,292,57023,5,4,1:2:0:0:
451,251,57210,1,2,0:1:0:0:
210,97,57398,1,10,1:2:0:0:
210,97,57491,1,2,0:1:0:0:
332,375,57679,5,2,0:0:0:0:
332,375,57773,1,4,1:2:0:0:
301,92,57960,1,2,0:1:0:0:
119,303,58148,1,10,1:2:0:0:
119,303,58241,1,2,0:1:0:0:
119,303,58335,2,0,L|193:290,1,63.7500024318696,0|2,0:0|0:0,2:0:0:0:
254,235,58523,5,4,1:2:0:0:
421,371,58710,1,2,0:1:0:0:
452,163,58898,1,10,1:2:0:0:
452,163,58991,1,2,0:1:0:0:
285,350,59179,1,2,0:0:0:0:
285,350,59273,1,4,1:2:0:0:
499,270,59460,1,2,0:1:0:0:
304,109,59648,6,0,P|291:100|275:97,1,31.8750012159348,10|0,1:2|0:0,0:0:0:0:
266,81,59741,2,0,P|250:80|235:85,1,31.8750012159348,2|0,0:1|0:0,2:0:0:0:
217,77,59835,2,0,P|203:84|192:96,1,31.8750012159348,0|0,0:0|0:0,2:0:0:0:
173,95,59928,2,0,P|164:108|161:124,1,31.8750012159348,2|0,0:0|2:0,2:0:0:0:
155,142,60023,5,4,1:2:0:0:
71,335,60210,2,0,L|134:326,1,63.7500024318696,2|0,0:1|2:0,2:0:0:0:
293,384,60398,5,4,1:2:0:0:
86,184,60585,2,0,L|95:247,1,63.7500024318696,2|0,0:1|2:0,2:0:0:0:
0,384,60773,5,4,1:2:0:0:
238,202,60960,2,0,L|175:211,1,63.7500024318696,2|0,0:1|2:0,2:0:0:0:
86,184,61148,5,4,1:2:0:0:
223,352,61335,2,0,L|214:289,1,63.7500024318696,2|0,0:1|2:0,2:0:0:0:
77,302,61523,5,4,1:2:0:0:
298,384,61710,1,2,0:1:0:0:
362,236,61898,5,4,1:2:0:0:
214,288,62085,1,2,0:1:0:0:
172,195,62273,5,4,1:2:0:0:
282,234,62460,1,2,0:1:0:0:
310,106,62648,5,4,1:2:0:0:
239,152,62835,1,2,0:1:0:0:
34,368,63023,6,0,L|66:165|226:294|133:330,1,510.000019454957,6|0,0:2|0:0,0:0:0:0:
505,204,65273,6,0,P|474:200|446:215,1,63.7500024318696,6|0,0:2|2:0,0:0:0:0:
370,208,65648,2,0,P|366:239|381:267,1,63.7500024318696,6|0,0:2|2:0,2:0:0:0:
284,298,66023,6,0,P|376:305|436:378,2,191.250007295609,6|6|6,0:2|0:2|0:2,0:0:0:0:
75,18,68648,6,0,L|86:101,1,63.7500024318696,6|2,0:2|0:2,0:0:0:0:
257,86,69023,6,0,L|257:285|83:185|179:130,1,510.000019454957,6|0,0:2|0:0,0:0:0:0:
178,288,71648,5,6,0:2:0:0:
306,197,71835,1,2,0:2:0:0:
287,363,72023,6,0,B|228:348|178:386|178:386|241:196|241:196|372:341,1,510.000019454957,6|6,0:2|0:2,0:0:0:0:
347,89,74648,5,0,2:0:0:0:
356,52,74741,1,0,2:0:0:0:
366,15,74835,2,0,L|369:-1,2,15.9375006079674,0|0|0,0:0|2:0|2:0,2:0:0:0:
265,128,75023,6,0,P|204:143|167:193,1,127.500004863739,6|0,0:2|0:0,0:0:0:0:
89,179,75585,2,0,P|72:239|97:296,1,127.500004863739,2|0,0:0|2:0,0:0:0:0:
176,314,76148,1,0,0:0:0:0:
176,314,76335,1,0,0:0:0:0:
229,380,76523,6,0,P|289:364|326:314,1,127.500004863739,6|0,0:2|0:0,0:0:0:0:
409,335,77085,1,2,0:0:0:0:
409,335,77273,2,0,P|412:303|401:273,1,63.7500024318696,6|0,0:2|0:0,0:0:0:0:
258,157,77648,2,0,P|254:188|265:218,1,63.7500024318696,6|0,0:2|0:0,0:0:0:0:
346,146,78023,6,0,L|472:163,1,127.500004863739,6|0,0:2|0:0,0:0:0:0:
489,79,78585,2,0,L|362:61,1,127.500004863739,6|0,0:2|0:0,0:0:0:0:
296,1,79148,1,6,0:2:0:0:
165,63,79335,6,0,B|193:166|193:166|300:185|300:185|328:284,1,318.750012159348,6|0,0:2|2:0,0:0:0:0:
329,285,80648,1,6,0:2:0:0:
265,350,80835,1,6,0:2:0:0:
329,285,81023,6,0,L|453:314,1,127.500004863739,6|0,0:2|2:0,0:0:0:0:
272,219,81585,2,0,B|188:234|188:234|162:318|162:318|81:331,1,255.000009727478,6|0,2:0|0:0,2:0:0:0:
290,136,82523,6,0,L|308:9,1,127.500004863739,6|0,0:2|0:0,0:0:0:0:
272,219,83085,2,0,P|293:242|303:272,1,63.7500024318696,6|0,0:2|2:0,0:0:0:0:
363,357,83460,1,0,0:0:0:0:
195,240,83648,1,6,0:2:0:0:
372,132,83835,1,6,0:2:0:0:
181,318,84023,6,0,L|326:268|209:166|189:269,1,382.500014591218,6|0,0:2|2:0,0:0:0:0:
512,223,85335,6,0,L|275:181|431:-6|484:138,1,637.500024318696,6|0,0:2|2:0,2:0:0:0:
229,366,86460,6,0,L|259:375,1,31.8750012159348,4|0,1:2|0:0,0:0:0:0:
362,384,86648,6,0,P|349:343|319:313,1,85,12|0,1:2|0:0,0:0:0:0:
358,237,86835,6,0,P|316:227|276:238,1,85,12|0,1:2|0:0,0:0:0:0:
69,47,87023,6,0,P|44:80|48:122,1,85,4|0,1:1|2:0,2:0:0:0:
166,171,87210,2,0,B|188:74|188:74|125:107,1,170,2|8,0:1|1:2,0:0:0:0:
39,200,87491,1,0,2:0:0:0:
39,200,87585,2,0,P|110:243|125:329,1,170,6|0,0:2|1:2,0:0:0:0:
274,49,87960,5,2,3:2:0:0:
274,49,88054,1,2,3:2:0:0:
274,49,88148,2,0,P|308:25|350:22,1,85,8|0,1:2|0:0,0:0:0:0:
508,117,88335,2,0,P|466:114|431:90,1,85,2|0,3:2|2:0,2:0:0:0:
309,265,88523,6,0,P|350:267|385:291,1,85,4|0,1:1|2:0,2:0:0:0:
452,383,88710,2,0,L|423:215,1,170,2|8,0:1|1:2,0:0:0:0:
512,75,89085,5,6,0:2:0:0:
512,75,89179,1,0,3:2:0:0:
512,75,89273,2,0,P|473:93|431:91,1,85,0|0,1:2|2:0,2:0:0:0:
282,162,89460,2,0,P|320:143|362:145,1,85,2|0,0:2|0:0,2:0:0:0:
512,74,89648,2,0,L|344:45,1,170,12|2,1:2|0:2,0:0:0:0:
231,365,90023,5,4,1:1:0:0:
161,120,90210,6,0,P|180:157|175:199,1,85,2|0,0:1|0:0,0:0:0:0:
220,382,90398,2,0,L|206:298,1,85,8|0,1:2|2:0,2:0:0:0:
34,263,90585,2,0,L|118:274,1,85,2|0,0:1|0:0,0:0:0:0:
394,384,90773,6,0,P|326:283|206:299,1,255,6|0,1:2|0:0,0:0:0:0:
126,370,91148,2,0,P|114:330|125:289,1,85,14|0,0:2|0:0,0:0:0:0:
269,159,91335,2,0,P|281:199|269:239,1,85,6|0,0:2|0:0,0:0:0:0:
349,384,91523,6,0,L|399:133,1,255,4|0,1:2|0:0,0:0:0:0:
362,66,91898,1,8,1:2:0:0:
206,243,92085,2,0,P|240:219|282:218,1,85,6|0,0:0|2:0,0:0:0:0:
362,66,92273,2,0,L|195:32,1,170,0|0,1:2|0:0,2:0:0:0:
11,327,92648,6,0,P|109:356|70:261,1,255,8|0,1:2|2:0,0:0:0:0:
104,97,93023,6,0,L|123:179,1,85,4|0,1:2|2:0,0:0:0:0:
206,243,93210,2,0,L|235:69,1,170,2|8,0:1|1:2,2:0:0:0:
22,74,93491,1,0,2:0:0:0:
22,74,93585,2,0,B|0:131|0:131|103:97,1,170,2|0,0:1|1:2,0:0:0:0:
380,50,93960,6,0,P|347:25|305:27,1,85,2|2,3:2|3:2,2:0:0:0:
248,184,94148,1,8,1:2:0:0:
248,184,94241,1,0,0:0:0:0:
248,184,94335,2,0,P|289:185|323:161,1,85,2|0,3:2|2:0,2:0:0:0:
353,300,94523,6,0,L|338:383,1,85,4|0,1:1|2:0,0:0:0:0:
248,184,94710,2,0,B|206:96|206:96|278:102,1,170,2|8,0:1|1:2,2:0:0:0:
480,77,94991,1,0,0:0:0:0:
480,77,95085,2,0,P|402:78|397:2,1,170,2|0,0:1|1:2,0:0:0:0:
397,1,95460,6,0,P|360:21|318:26,1,85,2|0,0:2|0:0,0:0:0:0:
248,184,95648,2,0,L|224:352,1,170,12|2,1:2|0:2,0:0:0:0:
224,352,96023,6,0,P|331:370|311:263,1,255,4|0,1:1|2:0,0:0:0:0:
248,184,96398,2,0,L|164:197,1,85,8|0,1:2|0:0,0:0:0:0:
89,138,96585,6,0,P|69:30|176:48,1,255,2|0,0:1|2:0,0:0:0:0:
249,29,96960,1,2,0:2:0:0:
338,161,97148,2,0,P|334:202|349:242,1,85,14|0,0:2|2:0,2:0:0:0:
195,366,97335,2,0,P|198:324|183:284,1,85,6|0,1:2|0:0,0:0:0:0:
282,314,97523,6,0,L|406:331,1,85,0|0,1:0|0:0,0:0:0:0:
433,254,97898,2,0,L|297:234,1,85,8|0,0:0|0:0,0:0:0:0:
257,99,98273,5,2,0:0:0:0:
239,54,98367,1,2,0:0:0:0:
210,25,98460,1,2,0:0:0:0:
179,9,98554,1,2,0:0:0:0:
150,4,98648,1,2,0:0:0:0:
125,6,98742,1,2,0:0:0:0:
105,12,98836,1,2,0:0:0:0:
89,20,98929,1,2,0:0:0:0:
80,32,99023,6,0,P|75:76|98:113,1,85,6|0,1:2|2:0,2:0:0:0:
200,152,99210,2,0,P|123:183|95:261,1,170,2|8,0:1|1:2,0:0:0:0:
153,337,99491,1,0,2:0:0:0:
153,337,99585,2,0,B|246:367|246:367|229:296,1,170,2|0,0:1|1:2,0:0:0:0:
229,296,99960,5,2,3:2:0:0:
229,296,100054,1,2,3:2:0:0:
229,296,100148,2,0,P|264:272|305:264,1,85,8|0,1:2|0:0,0:0:0:0:
375,133,100335,2,0,P|333:124|298:100,1,85,2|0,3:2|2:0,2:0:0:0:
253,29,100523,6,0,B|208:42|208:42|181:90|181:90|114:103,1,170,4|2,1:1|0:1,2:0:0:0:
63,44,100804,1,0,0:0:0:0:
63,44,100898,2,0,P|37:76|37:118,1,85,8|0,1:2|2:0,2:0:0:0:
111,192,101085,2,0,L|133:360,1,170,2|0,0:1|1:2,0:0:0:0:
133,360,101460,5,2,0:2:0:0:
133,360,101554,1,0,0:0:0:0:
133,360,101648,2,0,P|175:352|215:365,1,85,12|0,1:2|2:0,0:0:0:0:
342,251,101835,2,0,P|300:258|260:245,1,85,2|0,0:2|2:0,2:0:0:0:
197,173,102023,5,4,1:1:0:0:
263,7,102210,2,0,L|280:91,1,85,2|0,0:1|0:0,0:0:0:0:
191,185,102398,5,8,1:2:0:0:
75,60,102585,2,0,L|158:77,1,85,2|0,0:1|2:0,2:0:0:0:
433,144,102773,6,0,P|351:147|306:215,1,170,6|2,1:2|0:2,0:0:0:0:
250,301,103054,1,0,2:0:0:0:
250,301,103148,2,0,P|208:306|171:286,1,85,14|0,0:2|2:0,2:0:0:0:
1,208,103335,2,0,P|42:203|79:223,1,85,6|0,0:2|0:0,2:0:0:0:
165,278,103523,6,0,L|149:108,1,170,4|0,1:2|0:0,2:0:0:0:
204,48,103804,1,0,0:0:0:0:
204,48,103898,2,0,P|239:72|281:79,1,85,8|0,1:2|2:0,2:0:0:0:
353,0,104085,6,0,L|368:169,1,170,6|0,0:0|1:2,0:0:0:0:
300,200,104366,1,0,2:0:0:0:
300,200,104460,2,0,P|265:176|223:169,1,85,0|0,0:0|2:0,2:0:0:0:
55,44,104648,2,0,P|96:37|131:13,1,85,8|0,1:2|0:0,0:0:0:0:
140,109,104835,6,0,L|158:235,1,127.5,0|0,0:0|2:0,0:0:0:0:
246,266,105023,6,0,P|267:268|286:276,1,42.5,2|0,0:2|2:0,2:0:0:0:
323,267,105116,6,0,P|331:286|333:307,1,42.5,2|0,0:2|2:0,2:0:0:0:
321,321,105210,6,0,P|416:361|392:260,1,255,6|0,1:1|2:0,0:0:0:0:
335,188,105585,2,0,P|311:87|406:127,1,255,6|0,1:1|2:0,0:0:0:0:
335,188,105960,2,0,P|292:191|254:210,1,85,2|2,3:2|3:2,0:0:0:0:
180,179,106148,5,8,1:2:0:0:
180,179,106241,1,0,0:0:0:0:
180,179,106335,2,0,P|137:175|99:156,1,85,2|0,3:2|2:0,2:0:0:0:
190,376,106523,2,0,P|228:357|270:353,1,85,4|0,1:1|2:0,2:0:0:0:
99,156,106710,2,0,L|122:324,1,170,2|8,0:1|1:2,0:0:0:0:
177,138,107085,6,0,B|188:98|144:57|77:45|101:101|31:86|-1:42|6:-2,1,255,2|0,0:1|2:0,0:0:0:0:
243,66,107460,2,0,P|275:40|317:44,1,85,2|0,0:2|2:0,2:0:0:0:
380,100,107648,2,0,B|360:138|376:175|376:175|293:134,1,170,12|2,1:2|0:2,0:0:0:0:
83,233,108023,6,0,P|102:343|206:303,1,255,4|0,1:1|2:0,0:0:0:0:
206,303,108398,1,8,1:2:0:0:
429,151,108585,6,0,P|409:40|305:80,1,255,2|0,0:1|2:0,0:0:0:0:
305,80,108960,1,2,0:2:0:0:
429,151,109148,6,0,P|431:193|452:229,1,85,14|0,0:2|0:0,0:0:0:0:
230,382,109335,2,0,P|227:339|206:303,1,85,6|0,0:2|0:0,0:0:0:0:
305,316,109523,6,0,L|388:333,1,85,4|0,1:2|0:0,0:0:0:0:
460,262,109898,2,0,L|376:244,1,85,0|0,1:0|0:0,0:0:0:0:
278,199,110273,5,2,0:2:0:0:
283,156,110367,1,2,0:2:0:0:
270,121,110460,1,2,0:2:0:0:
249,97,110554,1,2,0:2:0:0:
225,84,110648,1,2,0:2:0:0:
203,80,110742,1,2,0:2:0:0:
184,79,110836,1,2,0:2:0:0:
167,83,110929,1,2,0:2:0:0:
158,91,111023,6,0,P|71:37|84:138,1,255.000009727478,6|8,1:2|1:2,0:0:0:0:
0,263,111585,2,0,P|86:316|73:215,1,255.000009727478
229,134,112148,6,0,P|257:119|288:119,1,63.7500024318696,10|0,1:2|2:0,2:0:0:0:
331,186,112335,2,0,P|359:200|390:200,1,63.7500024318696,2|0,0:0|2:0,2:0:0:0:
441,128,112523,6,0,L|408:316,2,191.250007295609,2|2|2,1:2|0:0|0:0,0:0:0:0:
396,64,113273,5,0,1:2:0:0:
396,64,113648,6,0,P|369:45|338:39,1,63.7500024318696,10|0,1:2|2:0,2:0:0:0:
279,89,113835,2,0,P|252:107|221:113,1,63.7500024318696,2|0,0:0|2:0,2:0:0:0:
158,69,114023,1,2,1:2:0:0:
25,210,114210,6,0,P|51:228|82:234,1,63.7500024318696,0|0,0:2|2:0,0:0:0:0:
139,178,114398,1,8,1:2:0:0:
139,178,114773,6,0,L|159:380,1,191.250007295609,0|0,1:2|2:0,0:0:0:0:
157,368,115148,6,0,P|175:342|204:328,1,63.7500024318696,10|0,1:2|2:0,2:0:0:0:
235,258,115335,2,0,P|266:261|292:279,1,63.7500024318696,2|0,0:0|2:0,2:0:0:0:
374,309,115523,6,0,P|470:348|450:246,1,255.000009727478,2|8,1:2|1:2,0:0:0:0:
501,95,116085,2,0,P|404:55|424:157,1,255.000009727478,2|0,0:0|0:0,0:0:0:0:
450,246,116648,6,0,L|387:234,1,63.7500024318696,8|0,1:2|0:0,2:0:0:0:
372,232,116835,2,0,L|309:220,1,63.7500024318696,0|0,0:0|2:0,2:0:0:0:
251,291,117023,6,0,B|185:313|123:256|179:219|135:160|51:183,1,255.000009727478,2|8,1:2|1:2,0:0:0:0:
32,274,117585,2,0,P|153:234|279:217,1,255.000009727478
485,96,118148,6,0,P|482:64|467:36,1,63.7500024318696,10|0,1:2|2:0,2:0:0:0:
457,23,118335,2,0,P|428:9|396:8,1,63.7500024318696,2|0,0:0|2:0,2:0:0:0:
398,94,118523,6,0,P|417:155|417:218,1,127.500004863739,2|0,1:2|0:0,0:0:0:0:
334,232,118804,2,0,P|315:171|315:108,1,127.500004863739,2|0,0:0|0:0,0:0:0:0:
244,66,119085,2,0,P|232:95|233:127,1,63.7500024318696,2|0,0:0|2:0,2:0:0:0:
341,236,119273,5,0,1:2:0:0:
341,236,119648,6,0,P|363:257|375:287,1,63.7500024318696,10|0,1:2|2:0,2:0:0:0:
455,302,119835,2,0,P|447:332|427:357,1,63.7500024318696,2|0,0:2|2:0,2:0:0:0:
264,272,120023,6,0,L|11:308,1,255.000009727478,2|0,1:2|1:2,2:0:0:0:
213,204,120585,6,0,B|230:137|230:137|275:113|275:113|295:45,1,191.250007295609,0|0,0:0|2:0,0:0:0:0:
295,45,120960,2,0,P|317:103|373:129,1,127.500004863739,2|0,0:0|1:2,0:0:0:0:
85,232,121335,6,0,P|74:261|71:293,1,63.7500024318696,2|0,0:0|0:0,2:0:0:0:
133,340,121523,5,2,1:2:0:0:
133,340,121710,1,2,0:0:0:0:
309,226,121898,5,2,1:2:0:0:
309,226,122085,1,2,0:0:0:0:
139,103,122273,5,2,1:2:0:0:
119,51,122367,1,2,0:0:0:0:
148,10,122460,1,2,0:0:0:0:
197,1,122554,1,2,0:0:0:0:
240,32,122648,1,2,0:0:0:0:
251,81,122742,1,2,0:0:0:0:
237,115,122836,1,2,0:0:0:0:
227,128,122929,5,2,0:0:0:0:
