osu file format v14

[General]
AudioFilename: audio.mp3
AudioLeadIn: 0
PreviewTime: 63012
Countdown: 0
SampleSet: Soft
StackLeniency: 0.7
Mode: 2
LetterboxInBreaks: 0
WidescreenStoryboard: 1

[Editor]
Bookmarks: 6012,9012,12012,15012,30012,33012,36012,39012,42012,45012,48012,51012,54012,57012,75012
DistanceSpacing: 1.8
BeatDivisor: 4
GridSize: 4
TimelineZoom: 2.1

[Metadata]
Title:triangles
TitleUnicode:triangles
Artist:cYsmix
ArtistUnicode:cYsmix
Creator:Kukkai
Version:Rain
Source:osu!
Tags:Jemzuu AJamez pippi mappers' guild mg mpg osu!lazer menu theme remix electronic instrumental fa featured artist circles
BeatmapID:4463289
BeatmapSetID:1619938

[Difficulty]
HPDrainRate:6
CircleSize:4
OverallDifficulty:9
ApproachRate:9
SliderMultiplier:1.8
SliderTickRate:1

[Events]
//Background and Video events
0,0,"57614873_p0.jpg",0,0
//Break Periods
//Storyboard Layer 0 (Background)
//Storyboard Layer 1 (Fail)
//Storyboard Layer 2 (Pass)
//Storyboard Layer 3 (Foreground)
//Storyboard Layer 4 (Overlay)
//Storyboard Sound Samples

[TimingPoints]
3012,375,4,2,1,60,1,0
3012,-90.9090909090909,4,2,1,60,0,0
21012,-90.9090909090909,4,2,1,65,0,0
27012,-100,4,2,1,65,0,0
36012,-100,4,2,1,60,0,0
38262,-90.9090909090909,4,2,1,60,0,0
38637,-90.9090909090909,4,2,1,60,0,0
38684,-90.9090909090909,4,2,1,60,0,0
38825,-90.9090909090909,4,2,1,60,0,0
38872,-90.9090909090909,4,2,1,60,0,0
39012,-90.9090909090909,4,2,1,70,0,0
57012,-100,4,2,1,70,0,0
57200,-100,4,2,1,70,0,0
57387,-100,4,2,1,70,0,0
57481,-100,4,2,1,70,0,0
57762,-100,4,2,1,70,0,0
57950,-100,4,2,1,70,0,0
58137,-100,4,2,1,70,0,0
58231,-100,4,2,1,70,0,0
58512,-100,4,2,1,70,0,0
58700,-100,4,2,1,70,0,0
58887,-100,4,2,1,70,0,0
58981,-100,4,2,1,70,0,0
59262,-100,4,2,1,70,0,0
59450,-100,4,2,1,70,0,0
59637,-100,4,2,1,70,0,0
59731,-100,4,2,1,70,0,0
60012,-100,4,2,1,70,0,0
60200,-100,4,2,1,70,0,0
60387,-100,4,2,1,65,0,0
60575,-100,4,2,1,65,0,0
60762,-100,4,2,1,60,0,0
60950,-100,4,2,1,60,0,0
61137,-100,4,2,1,55,0,0
61325,-100,4,2,1,55,0,0
61512,-100,4,2,1,54,0,0
61700,-100,4,2,1,54,0,0
61887,-100,4,2,1,53,0,0
62075,-100,4,2,1,53,0,0
62262,-100,4,2,1,52,0,0
62450,-100,4,2,1,52,0,0
62637,-100,4,2,1,51,0,0
62825,-100,4,2,1,51,0,0
63012,-100,4,2,1,40,0,0
75012,-90.9090909090909,4,2,1,60,0,0
87012,-90.9090909090909,4,2,1,70,0,1
97887,-90.9090909090909,4,2,1,60,0,1
98262,-90.9090909090909,4,2,1,60,0,1
99012,-90.9090909090909,4,2,1,60,0,1
104825,-90.9090909090909,4,2,1,60,0,1
105106,-90.9090909090909,4,2,1,60,0,1
109512,-90.9090909090909,4,2,1,70,0,0
110262,-90.9090909090909,4,2,1,60,0,0
111012,-90.9090909090909,4,2,1,60,0,0
122262,-90.9090909090909,4,2,1,60,0,0

[Colours]
Combo1 : 205,44,129
Combo2 : 165,203,150
Combo3 : 232,211,98
Combo4 : 231,102,253

[HitObjects]
332,336,1512,6,0,L|224:336,1,90,8|8,0:1|0:1,0:0:0:0:
404,284,1887,1,8,0:1:0:0:
132,292,2074,2,0,P|56:268|152:80,1,360,0|0,0:0|0:0,0:0:0:0:
408,352,3012,6,0,L|408:240,1,99.0000030212403,2|0,1:2|0:0,0:0:0:0:
228,252,3387,2,0,L|228:128,1,99.0000030212403,8|0,0:2|0:0,0:0:0:0:
328,136,3762,2,0,L|440:136,1,99.0000030212403,0|0,1:2|0:0,0:0:0:0:
248,132,4137,2,0,L|128:132,1,99.0000030212403,8|0,0:2|0:0,0:0:0:0:
248,132,4512,6,0,L|248:16,1,99.0000030212403,0|0,1:2|0:0,0:0:0:0:
68,40,4887,2,0,L|68:160,1,99.0000030212403,8|0,0:2|0:0,0:0:0:0:
248,140,5262,2,0,L|352:140,1,99.0000030212403,2|0,1:2|0:0,0:0:0:0:
168,140,5637,2,0,L|40:140,1,99.0000030212403,10|0,0:2|0:0,0:0:0:0:
344,252,6012,6,0,L|460:252,2,99.0000030212403,2|0|8,1:2|0:0|0:2,0:0:0:0:
164,244,6574,2,0,L|32:244,2,99.0000030212403,2|0|0,0:2|1:2|0:0,0:0:0:0:
344,240,7137,2,0,L|344:116,1,99.0000030212403,10|0,0:2|0:0,0:0:0:0:
244,136,7512,6,0,L|136:136,1,99.0000030212403,0|0,1:2|0:0,0:0:0:0:
324,132,7887,2,0,L|444:132,1,99.0000030212403,8|0,0:2|0:0,0:0:0:0:
324,132,8262,2,0,L|216:132,1,99.0000030212403,0|0,1:2|0:0,0:0:0:0:
404,136,8637,1,10,0:2:0:0:
228,136,8824,1,2,0:2:0:0:
480,272,9012,6,0,L|480:168,1,99.0000030212403,2|0,1:2|0:0,0:0:0:0:
300,176,9387,2,0,L|424:176,1,99.0000030212403,8|0,0:2|0:0,0:0:0:0:
300,176,9762,2,0,L|196:176,1,99.0000030212403,0|0,1:2|0:0,0:0:0:0:
380,176,10137,2,0,L|380:56,1,99.0000030212403,8|0,0:2|0:0,0:0:0:0:
280,72,10512,6,0,L|388:72,1,99.0000030212403,0|0,1:2|0:0,0:0:0:0:
200,72,10887,2,0,L|96:72,1,99.0000030212403,8|0,0:2|0:0,0:0:0:0:
200,72,11262,2,0,L|304:72,1,99.0000030212403,0|0,1:2|0:0,0:0:0:0:
120,76,11637,1,10,0:2:0:0:
296,76,11824,1,2,0:2:0:0:
28,328,12012,6,0,L|28:224,1,99.0000030212403,2|0,1:2|0:0,0:0:0:0:
208,224,12387,2,0,L|320:224,1,99.0000030212403,8|0,0:2|0:0,0:0:0:0:
208,224,12762,2,0,L|100:224,1,99.0000030212403,0|0,1:2|0:0,0:0:0:0:
288,224,13137,2,0,L|288:108,1,99.0000030212403,8|0,0:2|0:0,0:0:0:0:
184,124,13512,6,0,L|184:16,1,99.0000030212403,0|0,1:2|0:0,0:0:0:0:
364,24,13887,2,0,L|240:24,1,99.0000030212403,8|0,0:2|0:0,0:0:0:0:
364,24,14262,2,0,L|472:24,1,99.0000030212403,0|8,1:2|0:3,0:0:0:0:
416,24,14543,1,8,0:3:0:0:
216,344,14637,2,0,L|216:280,1,49.5000015106202,8|8,0:2|0:3,0:0:0:0:
268,292,14824,2,0,L|332:292,1,49.5000015106202,8|8,0:3|0:3,0:0:0:0:
160,248,15012,5,0,1:2:0:0:
49,248,15199,2,0,L|49:128,1,99.0000030212403,0|8,3:0|0:2,0:0:0:0:
228,144,15574,2,0,L|124:144,1,99.0000030212403,0|0,3:0|1:2,0:0:0:0:
308,144,15949,2,0,L|308:36,1,99.0000030212403,0|8,3:0|0:2,0:0:0:0:
128,52,16324,2,0,L|128:180,1,99.0000030212403,0|0,3:0|1:2,0:0:0:0:
416,336,16699,6,0,L|296:336,1,99.0000030212403,0|8,3:0|0:2,0:0:0:0:
140,340,17074,2,0,L|140:224,1,99.0000030212403,0|0,3:0|1:2,0:0:0:0:
320,248,17449,2,0,L|184:248,1,99.0000030212403,0|8,3:0|0:2,0:0:0:0:
400,248,17824,2,0,L|504:248,1,99.0000030212403,0|0,3:0|1:2,0:0:0:0:
216,184,18199,6,0,L|108:184,1,99.0000030212403,0|8,3:0|0:2,0:0:0:0:
296,184,18574,2,0,L|296:64,1,99.0000030212403,0|0,3:0|1:2,0:0:0:0:
116,92,18949,2,0,L|236:92,1,99.0000030212403,0|8,3:0|0:2,0:0:0:0:
392,88,19324,2,0,L|288:88,1,99.0000030212403,0|0,3:0|1:2,0:0:0:0:
24,272,19699,6,0,L|24:152,1,99.0000030212403,0|8,3:0|0:2,0:0:0:0:
204,172,20074,2,0,L|328:172,1,99.0000030212403,0|0,3:0|1:2,0:0:0:0:
124,172,20449,2,0,L|124:52,1,99.0000030212403,0|8,3:0|0:2,0:0:0:0:
304,80,20824,1,0,3:0:0:0:
28,308,21012,6,0,L|28:200,1,99.0000030212403,8|0,1:1|3:0,0:0:0:0:
304,200,21387,2,0,L|192:200,1,99.0000030212403,8|0,1:1|3:0,0:0:0:0:
384,196,21762,2,0,L|500:196,1,99.0000030212403,8|0,1:1|3:0,0:0:0:0:
212,360,22137,2,0,L|212:244,1,99.0000030212403,8|0,1:1|3:0,0:0:0:0:
392,268,22512,6,0,L|392:132,1,99.0000030212403,8|0,1:1|3:0,0:0:0:0:
120,172,22887,2,0,L|244:172,1,99.0000030212403,8|0,1:1|3:0,0:0:0:0:
40,172,23262,2,0,L|40:44,1,99.0000030212403,8|0,1:1|3:0,0:0:0:0:
320,72,23637,2,0,L|436:72,1,99.0000030212403,8|0,1:1|3:0,0:0:0:0:
148,232,24012,6,0,L|40:232,1,99.0000030212403,2|8,1:1|0:3,0:0:0:0:
100,232,24293,1,8,0:3:0:0:
256,232,24387,2,0,L|256:168,1,49.5000015106202,0|8,0:1|0:3,0:0:0:0:
192,184,24574,2,0,L|192:116,1,49.5000015106202,0|8,0:1|0:3,0:0:0:0:
368,136,24762,6,0,L|480:136,1,99.0000030212403,0|8,1:1|0:3,0:0:0:0:
416,136,25043,1,8,0:3:0:0:
264,344,25137,2,0,L|264:276,1,49.5000015106202,2|8,0:1|0:3,0:0:0:0:
328,296,25324,2,0,L|328:236,1,49.5000015106202,2|8,0:1|0:3,0:0:0:0:
168,192,25512,6,0,L|104:192,1,49.5000015106202,2|8,0:1|0:3,0:0:0:0:
292,128,25699,2,0,L|348:128,1,49.5000015106202,2|8,0:1|0:3,0:0:0:0:
168,112,25887,2,0,L|168:56,1,49.5000015106202,2|8,0:1|0:3,0:0:0:0:
224,64,26074,2,0,L|288:64,1,49.5000015106202,2|8,0:1|0:3,0:0:0:0:
96,332,26262,2,0,L|96:264,1,49.5000015106202,2|8,0:1|0:3,0:0:0:0:
280,276,26449,5,8,1:3:0:0:
304,273,26495,1,8,0:3:0:0:
326,263,26542,1,8,0:3:0:0:
344,246,26589,1,8,0:3:0:0:
354,223,26636,1,8,0:3:0:0:
357,199,26683,1,8,0:3:0:0:
351,175,26730,1,8,0:3:0:0:
337,155,26777,1,8,0:3:0:0:
317,140,26824,1,8,0:3:0:0:
293,134,26870,1,0,0:0:0:0:
268,135,26917,1,8,0:3:0:0:
112,344,27012,5,0,1:3:0:0:
204,344,27199,2,0,L|204:236,1,90,2|0,0:1|0:0,0:0:0:0:
156,252,27480,2,0,L|56:252,1,90,2|0,0:1|0:0,0:0:0:0:
112,252,27762,2,0,L|224:252,1,90,2|0,0:1|0:0,0:0:0:0:
156,252,28043,2,0,L|48:256,1,90,2|0,0:1|0:0,0:0:0:0:
112,256,28324,1,2,0:1:0:0:
296,256,28512,6,0,L|420:256,1,90
204,184,28887,2,0,L|204:80,1,90
388,56,29262,2,0,L|216:56,2,135,2|2|2,0:1|0:1|0:1,0:0:0:0:
116,356,30012,5,0,1:2:0:0:
276,360,30199,2,0,L|276:260,1,90,2|0,0:1|0:1,0:0:0:0:
232,272,30480,2,0,L|124:272,1,90,2|0,0:1|0:0,0:0:0:0:
32,272,30762,2,0,L|140:272,1,90,2|0,0:1|0:0,0:0:0:0:
168,268,31043,2,0,L|64:268,1,90,2|0,0:1|0:0,0:0:0:0:
32,268,31324,1,2,0:1:0:0:
308,188,31512,5,0,1:1:0:0:
148,188,31699,2,0,L|148:96,1,90,2|0,0:1|0:1,0:0:0:0:
192,96,31980,2,0,L|296:96,1,90,2|0,0:1|0:0,0:0:0:0:
392,96,32262,2,0,L|284:96,1,90,2|0,0:1|0:0,0:0:0:0:
348,96,32543,2,0,L|452:96,1,90,2|0,0:1|0:0,0:0:0:0:
484,96,32824,1,2,0:1:0:0:
208,344,33012,5,0,1:1:0:0:
368,344,33199,2,0,L|244:344,1,90,2|0,0:1|0:1,0:0:0:0:
232,344,33480,2,0,L|336:344,1,90,2|0,0:1|0:0,0:0:0:0:
212,344,33762,2,0,L|212:236,1,90,2|0,0:1|0:0,0:0:0:0:
260,256,34043,2,0,L|384:256,1,90,2|0,0:1|0:0,0:0:0:0:
396,256,34324,1,2,0:1:0:0:
132,112,34512,5,0,1:1:0:0:
296,352,34699,2,0,L|296:240,1,90,2|0,0:1|0:1,0:0:0:0:
252,260,34980,2,0,L|152:260,1,90,2|0,0:1|0:0,0:0:0:0:
272,260,35262,2,0,L|376:260,1,90,2|0,0:1|0:0,0:0:0:0:
408,260,35543,2,0,P|416:212|392:136,1,90,2|0,0:1|0:0,0:0:0:0:
364,168,35824,1,2,0:1:0:0:
96,360,36012,6,0,L|96:244,1,90,8|0,0:2|0:0,0:0:0:0:
276,268,36387,1,8,0:2:0:0:
96,264,36574,2,0,L|200:264,1,90,0|8,0:0|0:2,0:0:0:0:
368,264,36949,1,0,0:0:0:0:
188,260,37137,2,0,L|188:144,1,90,8|0,0:2|0:0,0:0:0:0:
448,128,37512,6,0,L|340:128,1,90,0|0,0:0|1:0,0:0:0:0:
104,360,37887,2,0,L|104:260,1,90,10|0,1:1|0:0,0:0:0:0:
392,264,38262,2,0,L|464:264,1,49.5000015106202,10|8,0:1|0:3,0:0:0:0:
392,264,38449,2,0,L|312:264,1,49.5000015106202,8|8,0:3|0:3,0:0:0:0:
160,268,38637,2,0,L|100:268,1,49.5000015106202,10|8,0:1|0:3,0:0:0:0:
292,200,38824,2,0,L|352:200,1,49.5000015106202,8|8,0:1|0:3,0:0:0:0:
140,140,39012,5,0,1:1:0:0:
41,140,39199,2,0,L|40:268,1,99.0000030212403,2|8,0:1|1:1,0:0:0:0:
88,232,39480,2,0,L|196:232,1,99.0000030212403,2|0,0:1|0:0,0:0:0:0:
340,236,39762,2,0,L|476:236,1,99.0000030212403,2|0,1:1|0:0,0:0:0:0:
488,236,40043,2,0,L|360:236,1,99.0000030212403,2|0,0:1|0:0,0:0:0:0:
340,236,40324,1,2,0:1:0:0:
76,336,40512,5,0,1:1:0:0:
252,336,40699,2,0,L|252:224,1,99.0000030212403,2|8,0:1|1:1,0:0:0:0:
202,237,40980,2,0,L|314:237,1,99.0000030212403,2|0,0:1|3:1,0:0:0:0:
132,184,41262,2,0,P|116:136|160:92,1,99.0000030212403,2|0,1:1|0:0,0:0:0:0:
192,96,41543,2,0,L|80:96,1,99.0000030212403,2|0,0:1|0:0,0:0:0:0:
44,96,41824,1,2,0:1:0:0:
312,340,42012,5,0,1:1:0:0:
136,340,42199,2,0,L|252:340,1,99.0000030212403,2|8,0:1|1:1,0:0:0:0:
235,340,42480,2,0,L|128:340,1,99.0000030212403,2|0,0:1|0:0,0:0:0:0:
312,280,42762,2,0,P|320:220|280:168,1,99.0000030212403,2|0,1:1|0:0,0:0:0:0:
252,184,43043,2,0,L|136:184,1,99.0000030212403,2|0,0:1|0:0,0:0:0:0:
104,184,43324,1,2,0:1:0:0:
368,336,43512,5,0,1:1:0:0:
192,348,43699,2,0,L|192:224,1,99.0000030212403,2|8,0:1|1:1,0:0:0:0:
244,212,43980,2,0,L|120:212,1,99.0000030212403,2|0,0:1|0:0,0:0:0:0:
316,156,44262,6,0,L|420:156,1,99.0000030212403,2|0,1:1|0:0,0:0:0:0:
364,156,44543,2,0,L|240:156,1,99.0000030212403,2|0,0:1|0:0,0:0:0:0:
216,156,44824,1,2,0:1:0:0:
480,104,45012,5,0,1:1:0:0:
296,264,45199,2,0,L|184:264,1,99.0000030212403,2|8,0:1|1:1,0:0:0:0:
248,264,45480,2,0,L|360:264,1,99.0000030212403,2|0,0:1|0:0,0:0:0:0:
176,200,45762,6,0,L|64:200,1,99.0000030212403,2|0,1:1|0:0,0:0:0:0:
28,200,46043,2,0,L|132:200,1,99.0000030212403,2|0,0:1|0:0,0:0:0:0:
176,200,46324,1,2,0:1:0:0:
436,208,46512,5,0,1:1:0:0:
256,212,46699,2,0,P|232:156|268:120,1,99.0000030212403,2|8,0:1|1:1,0:0:0:0:
296,124,46980,2,0,L|168:124,1,99.0000030212403,2|0,0:1|0:0,0:0:0:0:
356,60,47262,6,0,L|476:60,1,99.0000030212403,2|0,1:1|0:0,0:0:0:0:
504,60,47543,2,0,L|392:60,1,99.0000030212403,2|0,0:1|0:0,0:0:0:0:
356,52,47824,1,2,0:1:0:0:
72,296,48012,5,0,1:1:0:0:
252,292,48199,2,0,L|148:292,1,99.0000030212403,2|8,0:1|1:1,0:0:0:0:
204,292,48480,2,0,L|340:292,1,99.0000030212403,2|0,0:1|0:0,0:0:0:0:
132,248,48762,6,0,P|116:180|160:152,1,99.0000030212403,2|0,1:1|0:0,0:0:0:0:
180,160,49043,2,0,L|68:160,1,99.0000030212403,2|0,0:1|0:0,0:0:0:0:
132,160,49324,1,2,0:1:0:0:
408,316,49512,5,0,1:1:0:0:
228,320,49699,2,0,L|228:208,1,99.0000030212403,2|8,0:1|1:1,0:0:0:0:
276,216,49980,2,0,L|376:216,1,99.0000030212403,2|0,0:1|0:0,0:0:0:0:
200,152,50262,6,0,L|88:152,1,99.0000030212403,2|0,1:1|0:0,0:0:0:0:
152,152,50543,2,0,L|280:152,1,99.0000030212403,2|0,0:1|0:0,0:0:0:0:
300,152,50824,1,2,0:1:0:0:
24,316,51012,5,0,1:1:0:0:
204,328,51199,2,0,L|204:188,1,99.0000030212403,2|8,0:1|1:1,0:0:0:0:
156,228,51480,2,0,L|48:228,1,99.0000030212403,2|0,0:1|0:0,0:0:0:0:
228,152,51762,6,0,L|348:152,1,99.0000030212403,2|0,1:1|0:0,0:0:0:0:
327,152,52043,2,0,L|200:152,1,99.0000030212403,2|0,0:1|0:0,0:0:0:0:
180,152,52324,1,2,0:1:0:0:
464,260,52512,5,0,1:1:0:0:
284,260,52699,2,0,L|392:260,1,99.0000030212403,2|8,0:1|1:1,0:0:0:0:
432,260,52980,2,0,L|432:136,1,99.0000030212403,2|0,0:1|3:1,0:0:0:0:
260,156,53262,6,0,L|156:156,1,99.0000030212403,2|0,1:1|0:0,0:0:0:0:
161,156,53543,2,0,L|272:156,1,99.0000030212403,2|0,0:1|0:0,0:0:0:0:
308,156,53824,1,2,0:1:0:0:
24,316,54012,5,0,1:1:0:0:
204,312,54199,2,0,L|204:184,1,99.0000030212403,2|8,0:1|1:1,0:0:0:0:
136,212,54480,2,0,L|136:100,1,99.0000030212403,2|0,0:1|0:0,0:0:0:0:
308,168,54762,6,0,L|412:168,1,99.0000030212403,2|0,1:1|0:0,0:0:0:0:
456,168,55043,2,0,L|324:168,1,99.0000030212403,2|0,0:1|0:0,0:0:0:0:
308,168,55324,1,2,0:1:0:0:
36,315,55512,5,0,1:1:0:0:
212,308,55699,2,0,L|320:308,1,99.0000030212403,2|8,0:1|1:1,0:0:0:0:
264,312,55980,2,0,L|140:312,1,99.0000030212403,2|0,0:1|0:0,0:0:0:0:
340,252,56262,6,0,P|356:196|312:152,1,99.0000030212403,2|0,1:1|0:0,0:0:0:0:
288,164,56543,2,0,L|400:164,1,99.0000030212403,2|0,0:1|0:0,0:0:0:0:
436,164,56824,1,2,0:1:0:0:
180,328,57012,5,0,1:1:0:0:
348,328,57199,2,0,L|348:224,1,90,2|8,0:1|1:1,0:0:0:0:
304,240,57480,2,0,L|408:240,1,90,2|0,0:1|0:0,0:0:0:0:
240,320,57762,5,0,1:1:0:0:
152,320,57949,2,0,L|152:224,1,90,2|8,0:1|1:1,0:0:0:0:
196,236,58230,2,0,L|80:236,1,90,2|0,0:1|0:0,0:0:0:0:
268,176,58512,5,0,1:1:0:0:
376,180,58699,2,0,P|384:128|356:76,1,90,2|8,0:1|1:1,0:0:0:0:
328,92,58980,2,0,L|436:92,1,90,2|0,0:1|0:0,0:0:0:0:
260,360,59262,5,0,1:1:0:0:
168,364,59449,2,0,P|156:312|192:268,1,90,2|8,0:1|1:1,0:0:0:0:
216,284,59730,2,0,L|332:284,1,90,2|0,0:1|0:0,0:0:0:0:
128,248,60012,6,0,L|128:140,1,90,0|2,1:1|0:1,0:0:0:0:
308,152,60387,2,0,L|412:152,1,90,0|2,1:1|0:1,0:0:0:0:
216,152,60762,2,0,L|104:152,1,90,0|2,1:1|0:1,0:0:0:0:
308,164,61137,2,0,L|308:276,1,90,0|2,1:1|0:1,0:0:0:0:
488,244,61512,6,0,L|488:364,1,90,0|2,1:1|0:1,0:0:0:0:
308,336,61887,2,0,L|420:336,1,90,0|2,1:1|0:1,0:0:0:0:
216,340,62262,2,0,L|216:232,1,90,0|2,0:1|0:1,0:0:0:0:
312,236,62637,2,0,L|312:128,1,90,0|2,0:1|0:1,0:0:0:0:
52,360,63012,6,0,P|236:112|408:368,1,720,6|2,0:2|0:2,0:0:0:0:
180,352,65262,6,0,L|400:352,1,180,2|2,0:2|0:0,0:0:0:0:
128,304,66012,6,0,L|116:24,1,270,2|2,0:0|0:0,0:0:0:0:
408,364,67137,6,0,P|232:304|416:116,1,540,2|0,0:0|0:0,0:0:0:0:
220,108,68637,2,0,L|220:212,1,90,2|2,0:0|0:0,0:0:0:0:
476,364,69012,6,0,P|272:120|72:376,1,720,2|2,0:0|0:0,0:0:0:0:
328,360,71637,2,0,L|328:260,1,90,2|2,0:0|0:0,0:0:0:0:
144,276,72012,6,0,P|56:244|168:76,1,360,2|0,0:0|0:0,0:0:0:0:
456,364,73512,6,0,L|456:164,1,180,2|0,0:0|0:0,0:0:0:0:
276,184,74262,2,0,L|492:184,1,180,0|0,0:0|0:0,0:0:0:0:
412,184,74730,1,0,0:0:0:0:
368,184,74824,1,0,0:0:0:0:
112,328,75012,6,0,L|-4:328,2,99.0000030212403,2|0|0,0:1|0:0|0:0,0:0:0:0:
292,324,75574,2,0,P|384:300|280:108,1,396.000012084961,2|0,0:1|0:0,0:0:0:0:
108,104,76512,5,2,0:1:0:0:
207,104,76699,1,0,0:0:0:0:
306,104,76887,1,0,0:0:0:0:
128,100,77074,2,0,P|80:168|292:320,1,396.000012084961,2|0,0:1|0:0,0:0:0:0:
444,332,78012,6,0,P|240:156|24:368,1,594.000018127442,2|2,0:1|0:2,0:0:0:0:
204,340,79324,2,0,P|460:280|184:24,1,792.000024169923,2|2,0:1|0:2,0:0:0:0:
36,20,81012,6,0,L|36:132,1,99.0000030212403,2|0,0:1|0:0,0:0:0:0:
136,124,81387,1,0,0:0:0:0:
312,124,81574,2,0,L|424:124,2,99.0000030212403,2|0|0,0:1|0:0|0:0,0:0:0:0:
212,124,82137,2,0,L|212:228,1,99.0000030212403,0|0,0:0|0:0,0:0:0:0:
392,228,82512,6,0,L|508:228,2,99.0000030212403,2|0|0,0:1|0:0|0:0,0:0:0:0:
212,228,83074,2,0,L|212:112,1,99.0000030212403,2|0,0:1|0:0,0:0:0:0:
312,136,83449,1,0,0:0:0:0:
412,136,83637,2,0,L|412:0,1,99.0000030212403,2|2,0:2|0:2,0:0:0:0:
136,360,84012,6,0,P|256:144|388:356,1,594.000018127442,2|0,0:1|0:0,0:0:0:0:
120,364,85324,6,0,B|120:164|120:164|316:156|316:156|116:156,1,594.000018127442,2|0,0:1|0:0,0:0:0:0:
368,312,86637,2,0,L|476:312,1,99.0000030212403,8|8,0:1|0:1,0:0:0:0:
180,244,87012,6,0,L|56:244,2,99.0000030212403,2|0|8,1:1|0:0|1:1,0:0:0:0:
439,239,87574,1,2,0:1:0:0:
340,240,87761,1,0,1:1:0:0:
241,239,87949,1,0,3:1:0:0:
439,239,88137,2,0,L|439:175,2,49.5000015106202,8|0|0,1:1|3:1|3:1,0:0:0:0:
178,344,88512,5,2,1:1:0:0:
277,344,88699,1,0,0:0:0:0:
376,344,88887,1,8,1:1:0:0:
115,344,89074,2,0,L|7:344,2,99.0000030212403,2|0|0,0:1|1:1|0:0,0:0:0:0:
316,345,89637,2,0,L|316:229,1,99.0000030212403,8|0,1:1|0:0,0:0:0:0:
57,251,90012,5,0,1:1:0:0:
237,251,90199,1,2,0:1:0:0:
57,251,90387,2,0,L|57:135,1,99.0000030212403,8|2,1:1|0:2,0:0:0:0:
329,195,90762,2,0,L|443:195,1,99.0000030212403,2|0,1:1|0:0,0:0:0:0:
248,72,91137,1,8,1:1:0:0:
424,72,91324,1,2,0:1:0:0:
160,320,91512,6,0,L|48:320,2,99.0000030212403,0|0|8,1:1|0:0|1:1,0:0:0:0:
340,320,92074,1,2,0:1:0:0:
80,256,92262,2,0,L|80:128,1,99.0000030212403,2|0,1:1|0:0,0:0:0:0:
260,156,92637,2,0,L|148:156,1,99.0000030212403,8|0,1:1|0:0,0:0:0:0:
424,156,93012,6,0,L|424:48,1,99.0000030212403,2|0,1:1|0:0,0:0:0:0:
324,60,93387,1,8,1:1:0:0:
64,364,93574,1,2,0:1:0:0:
163,364,93761,1,0,1:1:0:0:
262,364,93949,1,0,0:0:0:0:
84,368,94137,2,0,L|84:256,1,99.0000030212403,8|0,1:1|0:0,0:0:0:0:
344,184,94512,5,2,1:1:0:0:
444,184,94699,2,0,L|444:64,1,99.0000030212403,0|8,0:0|1:1,0:0:0:0:
188,88,95074,2,0,L|64:88,2,99.0000030212403,2|0|0,0:1|1:1|0:0,0:0:0:0:
368,88,95637,2,0,L|368:200,1,99.0000030212403,8|0,1:1|0:0,0:0:0:0:
84,248,96012,6,0,L|192:248,1,99.0000030212403,2|0,1:1|0:0,0:0:0:0:
360,244,96387,1,8,1:1:0:0:
184,244,96574,1,2,0:1:0:0:
452,176,96762,2,0,L|452:60,1,99.0000030212403,0|0,1:1|0:0,0:0:0:0:
272,76,97137,1,8,1:1:0:0:
448,76,97324,1,2,0:1:0:0:
188,368,97512,6,0,L|188:244,1,99.0000030212403,2|0,1:1|0:0,0:0:0:0:
368,276,97887,2,0,L|368:152,1,99.0000030212403,8|0,1:1|0:0,0:0:0:0:
188,192,98262,1,2,0:0:0:0:
139,196,98355,1,2,0:0:0:0:
95,174,98449,1,2,0:0:0:0:
69,133,98543,1,2,0:0:0:0:
69,84,98637,1,2,0:0:0:0:
94,42,98730,1,2,0:0:0:0:
138,19,98824,1,2,0:0:0:0:
186,23,98918,1,2,0:0:0:0:
384,28,99012,6,0,L|512:28,2,99.0000030212403,2|0|8,1:1|0:0|1:1,0:0:0:0:
204,28,99574,1,2,0:1:0:0:
464,296,99762,2,0,L|464:188,1,99.0000030212403,0|0,1:1|0:0,0:0:0:0:
284,196,100137,2,0,L|396:196,1,99.0000030212403,8|0,1:1|3:1,0:0:0:0:
124,140,100512,6,0,L|20:140,2,99.0000030212403,2|0|8,1:1|0:0|1:1,0:0:0:0:
304,136,101074,1,2,0:1:0:0:
44,312,101262,2,0,L|144:312,1,99.0000030212403,0|0,1:1|0:0,0:0:0:0:
320,312,101637,2,0,L|320:192,1,99.0000030212403,8|0,1:1|0:0,0:0:0:0:
60,208,102012,5,0,1:1:0:0:
236,208,102199,1,2,0:1:0:0:
56,208,102387,2,0,L|56:96,1,99.0000030212403,8|2,1:1|0:1,0:0:0:0:
316,312,102762,2,0,L|444:312,1,99.0000030212403,2|0,1:1|0:0,0:0:0:0:
236,312,103137,1,8,1:1:0:0:
412,312,103324,1,2,0:1:0:0:
160,216,103512,6,0,L|160:108,1,99.0000030212403,0|0,1:1|0:0,0:0:0:0:
264,112,103887,1,8,1:1:0:0:
88,112,104074,1,2,0:1:0:0:
356,340,104262,2,0,L|356:216,1,99.0000030212403,2|0,1:1|0:0,0:0:0:0:
176,236,104637,1,8,1:1:0:0:
436,200,104824,6,0,L|436:96,1,99.0000030212403,2|2,0:0|0:0,0:0:0:0:
384,96,105105,1,2,0:0:0:0:
212,96,105199,2,0,L|92:96,1,99.0000030212403,2|8,0:1|1:1,0:0:0:0:
376,212,105574,2,0,L|508:212,2,99.0000030212403,2|0|0,0:1|1:1|0:0,0:0:0:0:
196,208,106137,2,0,L|96:208,1,99.0000030212403,8|0,1:1|0:0,0:0:0:0:
356,140,106512,5,0,1:1:0:0:
180,136,106699,2,0,L|180:248,1,99.0000030212403,2|8,0:1|1:1,0:0:0:0:
360,244,107074,1,2,0:1:0:0:
96,348,107262,2,0,L|200:348,1,99.0000030212403,2|0,1:1|0:0,0:0:0:0:
472,256,107637,2,0,L|360:256,1,99.0000030212403,8|0,1:1|0:0,0:0:0:0:
112,260,108012,6,0,L|8:260,2,99.0000030212403,2|0|8,1:1|0:0|1:1,0:0:0:0:
292,260,108574,1,2,0:1:0:0:
32,256,108762,2,0,L|32:124,1,99.0000030212403,0|0,1:1|0:0,0:0:0:0:
212,148,109137,2,0,L|80:148,1,99.0000030212403,8|2,1:1|0:1,0:0:0:0:
372,360,109512,6,0,L|372:240,1,99.0000030212403,0|0,1:1|0:0,0:0:0:0:
192,260,109887,2,0,L|192:152,1,99.0000030212403,0|0,1:1|0:0,0:0:0:0:
372,304,110262,1,2,0:2:0:0:
420,311,110355,1,2,0:2:0:0:
464,290,110449,1,2,0:2:0:0:
489,248,110543,1,2,0:2:0:0:
488,199,110637,1,2,0:2:0:0:
460,160,110730,1,2,0:2:0:0:
414,142,110824,1,2,0:2:0:0:
367,152,110918,1,2,0:2:0:0:
176,240,111012,6,0,L|64:240,2,99.0000030212403,2|0|8,1:2|0:0|1:2,0:0:0:0:
356,240,111574,2,0,L|472:240,2,99.0000030212403,0|0|0,0:0|1:2|0:0,0:0:0:0:
176,240,112137,1,10,1:2:0:0:
352,240,112324,1,2,0:0:0:0:
48,144,112512,6,0,L|152:144,1,99.0000030212403,2|0,1:2|0:0,0:0:0:0:
200,144,112793,2,0,L|96:144,1,99.0000030212403,2|0,0:0|0:0,0:0:0:0:
48,144,113074,2,0,L|48:256,1,99.0000030212403,2|0,0:0|1:2,0:0:0:0:
140,240,113449,1,0,0:0:0:0:
320,240,113637,1,10,1:2:0:0:
144,244,113824,1,2,0:0:0:0:
404,176,114012,6,0,L|284:176,1,99.0000030212403,2|0,1:2|0:0,0:0:0:0:
484,180,114387,2,0,L|484:60,1,99.0000030212403,8|0,1:2|0:0,0:0:0:0:
304,84,114762,2,0,L|176:84,1,99.0000030212403,0|0,1:2|0:0,0:0:0:0:
384,84,115137,1,10,1:2:0:0:
208,84,115324,1,2,0:0:0:0:
472,260,115512,6,0,L|472:152,1,99.0000030212403,2|0,1:2|0:0,0:0:0:0:
364,160,115887,1,8,1:2:0:0:
188,160,116074,2,0,L|52:160,2,99.0000030212403,0|0|0,0:0|1:2|0:0,0:0:0:0:
364,160,116637,2,0,L|496:160,1,99.0000030212403,8|0,1:2|0:0,0:0:0:0:
180,272,117012,5,2,1:2:0:0:
76,272,117199,2,0,L|76:148,1,99.0000030212403,0|8,0:0|1:2,0:0:0:0:
256,172,117574,2,0,L|256:56,1,99.0000030212403,0|0,0:0|1:2,0:0:0:0:
148,76,117949,1,0,0:0:0:0:
324,80,118137,1,10,1:2:0:0:
148,76,118324,1,2,0:0:0:0:
412,312,118512,6,0,P|420:260|396:204,1,99.0000030212403,2|0,1:2|0:0,0:0:0:0:
352,208,118793,2,0,L|464:208,1,99.0000030212403,2|0,0:0|0:0,0:0:0:0:
500,208,119074,2,0,L|500:92,1,99.0000030212403,2|0,0:0|1:2,0:0:0:0:
396,112,119449,1,0,0:0:0:0:
216,112,119637,1,10,1:2:0:0:
396,112,119824,1,2,0:0:0:0:
136,368,120012,6,0,L|136:264,1,99.0000030212403,2|0,1:2|0:0,0:0:0:0:
248,264,120387,2,0,L|248:156,1,99.0000030212403,0|0,1:2|0:0,0:0:0:0:
144,164,120762,1,0,1:2:0:0:
320,160,120949,2,0,L|444:160,1,99.0000030212403,2|0,0:0|1:2,0:0:0:0:
156,316,121324,6,0,L|40:316,1,99.0000030212403,2|0,0:0|1:2,0:0:0:0:
236,320,121699,2,0,L|236:204,1,99.0000030212403,0|0,0:0|1:2,0:0:0:0:
56,224,122074,1,0,0:0:0:0:
236,220,122262,6,0,L|312:220,1,49.5000015106202,2|2,0:2|0:2,0:0:0:0:
236,220,122449,2,0,L|180:220,1,49.5000015106202,2|2,0:2|0:2,0:0:0:0:
137,220,122637,2,0,L|205:220,1,49.5000015106202,2|2,0:2|0:2,0:0:0:0:
236,220,122824,2,0,L|304:220,1,49.5000015106202,2|2,0:2|0:2,0:0:0:0:
