osu file format v14

[General]
AudioFilename: audio.mp3
AudioLeadIn: 0
PreviewTime: 63012
Countdown: 0
SampleSet: Soft
StackLeniency: 0.7
Mode: 2
LetterboxInBreaks: 0
WidescreenStoryboard: 1

[Editor]
Bookmarks: 6012,9012,12012,15012,21012,22512,24012,24762,25512,27012,30012,33012,36012,37887,39012,40324,41824,43324,44824,46324,47824,49324,51012,52324,53824,55324,57012,57949,58699,59449,60012,63012
DistanceSpacing: 1
BeatDivisor: 4
GridSize: 32
TimelineZoom: 2.1

[Metadata]
Title:triangles
TitleUnicode:triangles
Artist:cYsmix
ArtistUnicode:cYsmix
Creator:Kukkai
Version:Jemzuu's Overdose
Source:osu!
Tags:Jemzuu AJamez pippi mappers' guild mg mpg osu!lazer menu theme remix electronic instrumental fa featured artist circles
BeatmapID:3348655
BeatmapSetID:1619938

[Difficulty]
HPDrainRate:6.3
CircleSize:4.3
OverallDifficulty:9.3
ApproachRate:9.3
SliderMultiplier:2.35
SliderTickRate:1

[Events]
//Background and Video events
0,0,"57614873_p0.jpg",0,0
//Break Periods
//Storyboard Layer 0 (Background)
//Storyboard Layer 1 (Fail)
//Storyboard Layer 2 (Pass)
//Storyboard Layer 3 (Foreground)
//Storyboard Layer 4 (Overlay)
//Storyboard Sound Samples

[TimingPoints]
3012,375,4,2,1,60,1,0
21012,-100,4,2,1,65,0,0
27012,-100,4,2,1,65,0,0
36012,-100,4,2,1,60,0,0
38262,-100,4,2,1,60,0,0
38637,-100,4,2,1,60,0,0
38684,-100,4,2,1,60,0,0
38825,-100,4,2,1,60,0,0
38872,-100,4,2,1,60,0,0
39012,-100,4,2,1,70,0,0
57012,-100,4,2,1,70,0,0
57200,-100,4,2,1,70,0,0
57387,-100,4,2,1,70,0,0
57481,-100,4,2,1,70,0,0
57762,-100,4,2,1,70,0,0
57950,-100,4,2,1,70,0,0
58137,-100,4,2,1,70,0,0
58231,-100,4,2,1,70,0,0
58512,-100,4,2,1,70,0,0
58700,-100,4,2,1,70,0,0
58887,-100,4,2,1,70,0,0
58981,-100,4,2,1,70,0,0
59262,-100,4,2,1,70,0,0
59450,-100,4,2,1,70,0,0
59637,-100,4,2,1,70,0,0
59731,-100,4,2,1,70,0,0
60012,-100,4,2,1,70,0,0
60200,-100,4,2,1,70,0,0
60387,-100,4,2,1,65,0,0
60575,-100,4,2,1,65,0,0
60762,-100,4,2,1,60,0,0
60950,-100,4,2,1,60,0,0
61137,-100,4,2,1,55,0,0
61325,-100,4,2,1,55,0,0
61512,-100,4,2,1,54,0,0
61700,-100,4,2,1,54,0,0
61887,-100,4,2,1,53,0,0
62075,-100,4,2,1,53,0,0
62262,-100,4,2,1,52,0,0
62450,-100,4,2,1,52,0,0
62637,-100,4,2,1,51,0,0
62825,-100,4,2,1,51,0,0
63012,-133.333333333333,4,2,1,40,0,0
74262,-100,4,2,1,40,0,0
75012,-100,4,2,1,60,0,0
85324,-81.3008130081301,4,2,1,60,0,0
86449,-100,4,2,1,60,0,0
87012,-94.3396226415094,4,2,1,70,0,1
97887,-94.3396226415094,4,2,1,60,0,1
98262,-94.3396226415094,4,2,1,60,0,1
99012,-94.3396226415094,4,2,1,60,0,1
104825,-94.3396226415094,4,2,1,60,0,1
105106,-94.3396226415094,4,2,1,60,0,1
109512,-100,4,2,1,70,0,0
110262,-100,4,2,1,60,0,0
111012,-100,4,2,1,60,0,0
122262,-100,4,2,1,60,0,0

[Colours]
Combo1 : 231,102,253
Combo2 : 165,203,150
Combo3 : 232,211,98

[HitObjects]
262,246,855,6,0,L|262:136,1,88.125,0|0,0:0|0:0,0:0:0:0:
266,131,1043,2,0,L|259:95,8,29.375,0|0|0|0|0|0|0|0|0,0:0|0:0|0:0|0:0|0:0|0:0|0:0|0:0|0:0,0:0:0:0:
37,82,1512,5,8,0:1:0:0:
179,58,1699,1,0,1:0:0:0:
450,213,1887,1,8,0:1:0:0:
110,347,2074,6,0,P|91:269|253:142,1,293.75,0|0,0:0|0:0,0:0:0:0:
419,107,2637,2,0,L|486:106,1,58.75,0|0,1:0|1:0,0:0:0:0:
246,24,2824,2,0,L|135:33,1,58.75,0|0,1:0|1:0,0:0:0:0:
408,80,3012,6,0,L|418:214,1,117.5,2|0,1:2|0:0,0:0:0:0:
261,278,3387,2,0,L|408:299,1,117.5,8|0,0:2|0:0,0:0:0:0:
216,357,3762,2,0,L|215:202,1,117.5,0|0,1:2|0:0,0:0:0:0:
144,232,4043,1,0,0:0:0:0:
64,229,4137,2,0,L|50:88,1,117.5,8|0,0:2|0:0,0:0:0:0:
209,152,4512,5,0,1:2:0:0:
214,93,4605,1,0,0:0:0:0:
219,34,4699,1,0,0:0:0:0:
378,35,4887,2,0,L|254:55,1,117.5,8|0,0:2|0:0,0:0:0:0:
434,119,5262,2,0,L|448:262,1,117.5,2|0,1:2|0:0,0:0:0:0:
285,286,5637,2,0,L|447:302,1,117.5,10|0,0:2|0:0,0:0:0:0:
119,364,6012,6,0,P|95:293|192:233,1,176.25,2|0,1:2|0:0,0:0:0:0:
232,225,6387,1,8,0:2:0:0:
63,215,6574,2,0,P|52:138|159:91,1,176.25,2|0,0:2|0:0,0:0:0:0:
192,78,6949,1,0,0:0:0:0:
359,24,7137,2,0,L|216:30,1,117.5,10|0,0:2|0:0,0:0:0:0:
403,135,7512,6,0,L|436:76,2,58.75,0|0|0,1:2|0:0|0:0,0:0:0:0:
249,247,7887,1,8,0:2:0:0:
243,188,7980,1,0,0:0:0:0:
237,130,8074,1,0,0:0:0:0:
82,126,8262,6,0,L|137:82,1,58.75,0|0,1:2|0:0,0:0:0:0:
205,77,8449,1,0,0:0:0:0:
379,38,8637,2,0,L|252:23,1,117.5,10|2,0:2|0:2,0:0:0:0:
10,292,9012,6,0,L|225:250,1,176.25,2|0,1:2|0:0,0:0:0:0:
250,253,9387,1,8,0:2:0:0:
106,189,9574,1,0,0:0:0:0:
257,190,9762,5,0,1:2:0:0:
260,131,9855,1,0,0:0:0:0:
264,72,9949,1,0,0:0:0:0:
419,63,10137,2,0,L|336:26,1,58.75,8|0,0:2|0:0,0:0:0:0:
284,30,10324,1,0,0:0:0:0:
122,169,10512,6,0,L|205:206,1,58.75,0|0,1:2|0:0,0:0:0:0:
257,202,10699,1,0,0:0:0:0:
98,307,10887,2,0,L|17:315,2,58.75,8|0|0,0:2|0:0|0:0,0:0:0:0:
254,351,11262,5,0,1:2:0:0:
260,292,11355,1,0,0:0:0:0:
267,234,11449,1,0,0:0:0:0:
423,197,11637,2,0,L|348:160,1,58.75,10|0,0:2|0:0,0:0:0:0:
159,146,11824,1,2,0:2:0:0:
300,124,12012,6,0,L|335:68,2,58.75,2|0|0,1:2|0:0|0:0,0:0:0:0:
137,71,12387,2,0,L|204:47,1,58.75,8|0,0:2|0:0,0:0:0:0:
274,46,12574,1,0,0:0:0:0:
105,162,12762,6,0,L|25:166,2,58.75,0|0|0,1:2|0:0|0:0,0:0:0:0:
268,197,13137,2,0,L|203:230,1,58.75,8|0,0:2|0:0,0:0:0:0:
130,235,13324,1,0,0:0:0:0:
395,291,13512,6,0,L|470:282,2,58.75,0|0|0,1:2|0:0|0:0,0:0:0:0:
239,341,13887,1,8,0:2:0:0:
232,282,13980,1,0,0:0:0:0:
226,224,14074,1,0,0:0:0:0:
57,193,14262,6,0,L|124:157,1,58.75,0|0,1:2|0:0,0:0:0:0:
301,122,14449,2,0,L|397:108,1,58.75,8|8,0:3|0:3,0:0:0:0:
180,83,14637,2,0,L|173:4,1,58.75,8|8,0:2|0:3,0:0:0:0:
372,200,14824,2,0,L|381:120,1,58.75,8|8,0:3|0:3,0:0:0:0:
156,276,15012,5,0,1:2:0:0:
27,216,15199,1,0,3:0:0:0:
55,209,15245,1,0,3:0:0:0:
84,202,15292,1,0,3:0:0:0:
182,188,15387,1,8,0:2:0:0:
323,120,15574,5,0,3:0:0:0:
295,113,15620,1,0,3:0:0:0:
266,106,15667,1,0,3:0:0:0:
167,92,15762,1,0,1:2:0:0:
317,170,15949,5,0,3:0:0:0:
324,198,15995,1,0,3:0:0:0:
331,227,16042,1,0,3:0:0:0:
434,257,16137,1,8,0:2:0:0:
269,274,16324,5,0,3:0:0:0:
262,302,16370,1,0,3:0:0:0:
255,331,16417,1,0,3:0:0:0:
152,361,16512,1,0,1:2:0:0:
412,55,16699,5,0,3:0:0:0:
384,48,16745,1,0,3:0:0:0:
355,41,16792,1,0,3:0:0:0:
262,43,16887,1,8,0:2:0:0:
110,119,17074,5,0,3:0:0:0:
138,126,17120,1,0,3:0:0:0:
167,133,17167,1,0,3:0:0:0:
264,144,17262,1,0,1:2:0:0:
19,302,17449,5,0,3:0:0:0:
26,274,17495,1,0,3:0:0:0:
33,245,17542,1,0,3:0:0:0:
134,222,17637,1,8,0:2:0:0:
299,247,17824,5,0,3:0:0:0:
292,275,17870,1,0,3:0:0:0:
285,304,17917,1,0,3:0:0:0:
184,327,18012,1,0,1:2:0:0:
434,72,18199,5,0,3:0:0:0:
406,79,18245,1,0,3:0:0:0:
377,86,18292,1,0,3:0:0:0:
280,97,18387,1,8,0:2:0:0:
444,189,18574,5,0,3:0:0:0:
437,217,18620,1,0,3:0:0:0:
430,246,18667,1,0,3:0:0:0:
329,269,18762,1,0,1:2:0:0:
90,89,18949,5,0,3:0:0:0:
118,96,18995,1,0,3:0:0:0:
147,103,19042,1,0,3:0:0:0:
244,114,19137,1,8,0:2:0:0:
77,203,19324,5,0,3:0:0:0:
84,231,19370,1,0,3:0:0:0:
91,260,19417,1,0,3:0:0:0:
192,283,19512,1,0,1:2:0:0:
447,68,19699,5,0,3:0:0:0:
419,75,19745,1,0,3:0:0:0:
390,82,19792,1,0,3:0:0:0:
293,93,19887,1,8,0:2:0:0:
133,171,20074,5,0,3:0:0:0:
161,178,20120,1,0,3:0:0:0:
190,185,20167,1,0,3:0:0:0:
287,196,20262,1,0,1:2:0:0:
40,232,20449,5,0,3:0:0:0:
47,260,20495,1,0,3:0:0:0:
54,289,20542,1,0,3:0:0:0:
155,312,20637,1,8,0:2:0:0:
312,281,20824,5,0,3:0:0:0:
319,309,20870,1,0,3:0:0:0:
326,338,20917,1,0,3:0:0:0:
106,142,21012,5,8,1:1:0:0:
241,102,21199,1,0,3:0:0:0:
234,130,21245,1,0,3:0:0:0:
227,159,21292,1,0,3:0:0:0:
28,46,21387,5,8,1:1:0:0:
151,41,21574,1,0,3:0:0:0:
158,69,21620,1,0,3:0:0:0:
165,98,21667,1,0,3:0:0:0:
382,148,21762,5,8,1:1:0:0:
253,258,21949,1,0,3:0:0:0:
225,251,21995,1,0,3:0:0:0:
196,244,22042,1,0,3:0:0:0:
403,282,22137,5,8,1:1:0:0:
268,349,22324,1,0,3:0:0:0:
240,342,22370,1,0,3:0:0:0:
211,335,22417,1,0,3:0:0:0:
421,369,22512,5,8,1:1:0:0:
293,273,22699,1,0,3:0:0:0:
286,245,22745,1,0,3:0:0:0:
279,216,22792,1,0,3:0:0:0:
57,215,22887,5,8,1:1:0:0:
180,119,23074,1,0,3:0:0:0:
187,91,23120,1,0,3:0:0:0:
194,62,23167,1,0,3:0:0:0:
401,33,23262,5,8,1:1:0:0:
275,106,23449,1,0,3:0:0:0:
247,99,23495,1,0,3:0:0:0:
218,92,23542,1,0,3:0:0:0:
416,242,23637,5,8,1:1:0:0:
280,331,23824,1,0,3:0:0:0:
308,324,23870,1,0,3:0:0:0:
337,317,23917,1,0,3:0:0:0:
128,295,24012,5,2,1:1:0:0:
57,278,24105,2,0,L|20:211,2,58.75,8|8|8,0:3|0:3|0:3,0:0:0:0:
262,154,24387,1,0,0:1:0:0:
234,147,24433,1,8,0:3:0:0:
205,140,24480,1,8,0:3:0:0:
19,53,24574,1,0,0:1:0:0:
47,46,24620,1,8,0:3:0:0:
76,39,24667,1,8,0:3:0:0:
295,53,24762,6,0,L|307:126,1,58.75,0|8,1:1|0:3,0:0:0:0:
214,128,24949,2,0,L|202:209,1,58.75,8|8,0:3|0:3,0:0:0:0:
401,252,25137,1,2,0:1:0:0:
429,245,25183,1,8,0:3:0:0:
458,238,25230,1,8,0:3:0:0:
261,351,25324,1,2,0:1:0:0:
233,344,25370,1,8,0:3:0:0:
204,337,25417,1,8,0:3:0:0:
421,332,25512,6,0,L|449:293,2,29.375,2|8|8,0:1|0:3|0:3,0:0:0:0:
214,237,25699,1,2,0:1:0:0:
186,230,25745,1,8,0:3:0:0:
157,223,25792,1,8,0:3:0:0:
374,218,25887,6,0,L|402:179,2,29.375,2|8|8,0:1|0:3|0:3,0:0:0:0:
131,105,26074,1,2,0:1:0:0:
103,98,26120,1,8,0:3:0:0:
74,91,26167,1,8,0:3:0:0:
291,86,26262,6,0,L|319:47,2,29.375,2|8|8,0:1|0:3|0:3,0:0:0:0:
73,10,26449,2,0,L|1:25,1,58.75,8|8,1:3|0:3,0:0:0:0:
214,115,26637,5,8,0:3:0:0:
251,115,26683,1,8,0:3:0:0:
280,133,26730,1,8,0:3:0:0:
292,160,26777,1,8,0:3:0:0:
280,188,26824,1,8,0:3:0:0:
250,205,26871,1,8,0:3:0:0:
213,206,26918,1,8,0:3:0:0:
447,293,27012,5,0,1:3:0:0:
310,329,27199,2,0,L|304:195,1,117.5,2|0,0:1|0:0,0:0:0:0:
207,204,27480,1,2,0:1:0:0:
203,145,27573,1,0,0:0:0:0:
199,86,27667,1,0,0:0:0:0:
99,57,27762,5,2,0:1:0:0:
157,50,27855,1,0,0:0:0:0:
215,44,27949,1,0,0:0:0:0:
316,99,28043,1,2,0:1:0:0:
257,107,28136,1,0,0:0:0:0:
199,115,28230,1,0,0:0:0:0:
113,140,28324,2,0,L|104:212,1,58.75,2|0,0:1|0:0,0:0:0:0:
309,259,28512,6,0,L|319:225,4,29.375,0|0|0|0|0,0:0|0:0|0:0|0:0|0:0,0:0:0:0:
57,315,28887,6,0,L|27:318,4,29.375,0|0|0|0|0,0:0|0:0|3:2|0:0|0:0,0:0:0:0:
137,327,29168,1,0,0:0:0:0:
356,284,29262,6,0,L|214:272,1,117.5,2|0,0:1|0:0,0:0:0:0:
168,258,29543,1,2,0:1:0:0:
381,182,29637,2,0,L|312:178,1,58.75,8|0,1:1|0:0,0:0:0:0:
136,105,29824,2,0,L|44:96,1,58.75,2|0,0:1|0:0,0:0:0:0:
305,42,30012,5,0,1:2:0:0:
166,37,30199,2,0,L|148:186,1,117.5,2|0,0:1|0:1,0:0:0:0:
246,167,30480,1,2,0:1:0:0:
249,225,30573,1,0,0:0:0:0:
252,284,30667,1,0,0:0:0:0:
348,302,30762,5,2,0:1:0:0:
406,306,30855,1,0,0:0:0:0:
465,311,30949,1,0,0:0:0:0:
367,226,31043,1,2,0:1:0:0:
308,221,31136,1,0,0:1:0:0:
249,216,31230,1,0,0:0:0:0:
164,205,31324,2,0,L|154:113,1,58.75,2|0,0:1|0:0,0:0:0:0:
374,115,31512,5,0,1:1:0:0:
236,46,31699,2,0,L|219:189,1,117.5,2|0,0:1|0:1,0:0:0:0:
31,224,31980,2,0,L|97:269,1,58.75,2|0,0:1|0:0,0:0:0:0:
155,270,32168,1,0,0:0:0:0:
350,311,32262,6,0,L|284:356,1,58.75,2|0,0:1|0:0,0:0:0:0:
226,357,32450,1,0,0:0:0:0:
416,243,32543,2,0,L|484:236,2,58.75,2|0|0,0:1|0:1|0:0,0:0:0:0:
240,224,32824,2,0,L|227:129,1,58.75,2|0,0:1|0:0,0:0:0:0:
462,114,33012,5,0,1:1:0:0:
323,161,33199,2,0,L|313:17,1,117.5,2|0,0:1|0:1,0:0:0:0:
217,46,33480,1,2,0:1:0:0:
272,64,33573,1,0,0:0:0:0:
328,82,33667,1,0,0:0:0:0:
428,131,33762,5,2,0:1:0:0:
372,149,33855,1,0,0:0:0:0:
316,167,33949,1,0,0:0:0:0:
217,178,34043,1,2,0:1:0:0:
211,236,34136,1,0,0:1:0:0:
206,295,34230,1,0,0:0:0:0:
303,319,34324,2,0,L|309:257,1,58.75,2|0,0:1|0:0,0:0:0:0:
92,240,34512,6,0,L|57:198,2,29.375,0|0|0,1:1|0:0|0:0,0:0:0:0:
301,186,34699,1,2,0:1:0:0:
333,184,34745,1,0,0:0:0:0:
365,182,34792,1,0,0:0:0:0:
291,135,34887,1,0,0:1:0:0:
93,133,34980,2,0,L|84:3,1,117.5,2|0,0:1|0:0,0:0:0:0:
302,53,35262,5,2,0:1:0:0:
270,51,35308,1,0,0:0:0:0:
238,49,35355,1,0,0:0:0:0:
163,62,35449,1,0,0:0:0:0:
265,126,35543,2,0,L|346:126,2,58.75,2|0|0,0:1|0:1|0:0,0:0:0:0:
157,153,35824,2,0,L|145:233,1,58.75,2|0,0:1|0:0,0:0:0:0:
372,262,36012,6,0,L|510:267,1,117.5,8|0,0:2|0:0,0:0:0:0:
343,359,36387,1,8,0:2:0:0:
186,355,36574,2,0,L|177:207,1,117.5,0|8,0:0|0:2,0:0:0:0:
329,212,36949,1,0,0:0:0:0:
177,203,37137,6,0,L|166:72,1,117.5,8|0,0:2|0:0,0:0:0:0:
15,65,37512,1,0,0:0:0:0:
158,41,37699,1,0,1:0:0:0:
464,149,37887,5,10,1:1:0:0:
309,125,38074,1,0,0:0:0:0:
63,304,38262,2,0,L|137:249,1,58.75,10|8,0:1|0:3,0:0:0:0:
285,261,38449,2,0,L|357:254,1,58.75,8|8,0:3|0:3,0:0:0:0:
132,168,38637,5,10,0:1:0:0:
101,164,38683,1,8,0:3:0:0:
71,161,38730,1,8,0:3:0:0:
272,161,38824,1,8,0:1:0:0:
276,131,38870,1,0,0:0:0:0:
281,102,38917,1,8,0:3:0:0:
486,48,39012,5,0,1:1:0:0:
353,37,39199,2,0,L|338:172,1,117.5,2|8,0:1|1:1,0:0:0:0:
240,189,39480,1,2,0:1:0:0:
296,203,39573,1,0,0:0:0:0:
353,217,39667,1,0,0:0:0:0:
452,267,39762,5,2,1:1:0:0:
395,281,39855,1,0,0:0:0:0:
338,295,39949,1,0,0:0:0:0:
243,309,40043,1,2,0:1:0:0:
241,250,40136,1,8,1:1:0:0:
239,191,40230,1,0,0:0:0:0:
418,154,40324,2,0,L|425:82,1,58.75,2|0,0:1|0:0,0:0:0:0:
202,60,40512,5,0,1:1:0:0:
470,30,40699,1,2,0:1:0:0:
457,56,40745,1,0,3:1:0:0:
435,76,40792,1,0,3:1:0:0:
408,87,40839,1,0,3:1:0:0:
379,88,40886,1,8,1:1:0:0:
164,134,40980,5,2,0:1:0:0:
178,160,41026,1,0,3:1:0:0:
204,180,41073,1,0,3:1:0:0:
239,191,41120,1,0,3:1:0:0:
274,192,41167,1,0,3:1:0:0:
68,273,41262,6,0,L|55:146,1,117.5,2|0,1:1|0:0,0:0:0:0:
92,138,41496,1,0,0:0:0:0:
136,129,41543,1,2,0:1:0:0:
334,31,41637,2,0,L|236:22,1,58.75,8|0,1:1|0:0,0:0:0:0:
93,31,41824,2,0,L|86:98,1,58.75,2|0,0:1|0:0,0:0:0:0:
305,161,42012,5,0,1:1:0:0:
165,197,42199,2,0,L|152:322,1,117.5,2|8,0:1|1:1,0:0:0:0:
247,245,42480,1,2,0:1:0:0:
253,303,42573,1,0,0:0:0:0:
259,361,42667,1,0,0:0:0:0:
362,355,42762,5,2,1:1:0:0:
418,337,42855,1,0,0:0:0:0:
474,320,42949,1,0,0:0:0:0:
374,261,43043,1,2,0:1:0:0:
315,254,43136,1,8,1:1:0:0:
257,248,43230,1,0,0:0:0:0:
443,192,43324,2,0,L|447:113,1,58.75,2|0,0:1|0:0,0:0:0:0:
222,109,43512,5,0,1:1:0:0:
473,149,43699,2,0,L|481:21,1,117.5,2|8,0:1|1:1,0:0:0:0:
290,180,43980,1,2,0:1:0:0:
284,121,44073,1,0,0:0:0:0:
279,62,44167,1,0,0:0:0:0:
83,82,44262,6,0,L|145:42,1,58.75,2|0,1:1|0:0,0:0:0:0:
210,46,44449,1,0,0:0:0:0:
403,234,44543,2,0,L|341:274,1,58.75,2|8,0:1|1:1,0:0:0:0:
276,270,44730,1,0,0:0:0:0:
82,290,44824,2,0,L|78:194,1,58.75,2|0,0:1|0:0,0:0:0:0:
305,166,45012,5,0,1:1:0:0:
166,162,45199,2,0,L|147:35,1,117.5,2|8,0:1|1:1,0:0:0:0:
244,26,45480,1,2,0:1:0:0:
253,83,45573,1,0,0:0:0:0:
263,141,45667,1,0,0:0:0:0:
368,170,45762,5,2,1:1:0:0:
312,190,45855,1,0,0:0:0:0:
257,210,45949,1,0,0:0:0:0:
353,251,46043,1,2,0:1:0:0:
411,258,46136,1,8,1:1:0:0:
469,265,46230,1,0,0:0:0:0:
274,354,46324,2,0,L|264:273,1,58.75,2|0,0:1|0:0,0:0:0:0:
481,275,46512,5,0,1:1:0:0:
217,196,46699,1,2,0:1:0:0:
235,172,46745,1,0,0:0:0:0:
260,154,46792,1,0,0:0:0:0:
290,145,46839,1,0,0:0:0:0:
321,145,46886,1,8,1:1:0:0:
119,83,46980,2,0,L|46:75,2,58.75,2|0|0,0:1|0:0|0:0,0:0:0:0:
323,50,47262,6,0,L|254:16,1,58.75,2|0,1:1|0:0,0:0:0:0:
193,27,47449,1,0,0:0:0:0:
280,99,47543,2,0,L|363:94,2,58.75,2|8|0,0:1|1:1|0:0,0:0:0:0:
69,215,47824,2,0,L|141:224,1,58.75,2|0,0:1|0:0,0:0:0:0:
350,304,48012,5,0,1:1:0:0:
77,355,48199,2,0,L|67:210,1,117.5,2|8,0:1|1:1,0:0:0:0:
168,242,48480,1,2,0:1:0:0:
171,183,48573,1,0,0:0:0:0:
174,124,48667,1,0,0:0:0:0:
273,99,48762,5,2,1:1:0:0:
328,79,48855,1,0,0:0:0:0:
383,60,48949,1,0,0:0:0:0:
285,25,49043,1,2,0:1:0:0:
227,15,49136,1,8,1:1:0:0:
169,5,49230,1,0,0:0:0:0:
357,177,49324,2,0,L|371:261,1,58.75,2|0,0:1|0:0,0:0:0:0:
149,300,49512,5,0,1:1:0:0:
277,337,49699,2,0,L|286:204,1,117.5,2|8,0:1|1:1,0:0:0:0:
371,197,49980,1,2,0:1:0:0:
315,179,50073,1,0,0:0:0:0:
259,161,50167,1,0,0:0:0:0:
166,126,50262,5,2,1:1:0:0:
217,97,50355,1,0,0:0:0:0:
268,68,50449,1,0,0:0:0:0:
364,49,50543,1,2,0:1:0:0:
368,107,50636,1,8,1:1:0:0:
372,166,50730,1,0,0:0:0:0:
265,177,50824,2,0,L|255:255,1,58.75,2|0,0:1|0:0,0:0:0:0:
465,294,51012,5,0,1:1:0:0:
328,324,51199,2,0,L|316:195,1,117.5,2|8,0:1|1:1,0:0:0:0:
119,149,51480,2,0,L|178:106,1,58.75,2|0,0:1|0:0,0:0:0:0:
238,111,51668,1,0,0:0:0:0:
333,137,51762,5,2,1:1:0:0:
337,78,51855,1,0,0:0:0:0:
341,19,51949,1,0,0:0:0:0:
243,200,52043,1,2,0:1:0:0:
239,141,52136,1,8,1:1:0:0:
235,82,52230,1,0,0:0:0:0:
137,49,52324,2,0,L|33:41,1,58.75,2|0,0:1|0:0,0:0:0:0:
290,38,52512,5,0,1:1:0:0:
31,167,52699,1,2,0:1:0:0:
44,193,52745,1,0,3:1:0:0:
66,213,52792,1,0,3:1:0:0:
93,224,52839,1,0,3:1:0:0:
122,225,52886,1,8,1:1:0:0:
337,271,52980,5,2,0:1:0:0:
323,297,53026,1,0,3:1:0:0:
297,317,53073,1,0,3:1:0:0:
262,328,53120,1,0,3:1:0:0:
227,329,53167,1,0,3:1:0:0:
445,362,53262,6,0,L|452:213,1,117.5,2|0,1:1|0:0,0:0:0:0:
417,229,53496,1,0,0:0:0:0:
376,221,53543,1,2,0:1:0:0:
196,188,53637,2,0,L|184:86,1,58.75,8|0,1:1|0:0,0:0:0:0:
379,95,53824,2,0,L|457:90,1,58.75,2|0,0:1|0:0,0:0:0:0:
220,36,54012,5,0,1:1:0:0:
355,82,54199,2,0,L|365:209,1,117.5,2|8,0:1|1:1,0:0:0:0:
267,211,54480,1,2,0:1:0:0:
259,269,54573,1,0,0:0:0:0:
252,327,54667,1,0,0:0:0:0:
151,362,54762,5,2,1:1:0:0:
202,334,54855,1,0,0:0:0:0:
254,306,54949,1,0,0:0:0:0:
348,272,55043,1,2,0:1:0:0:
293,249,55136,1,8,1:1:0:0:
239,227,55230,1,0,0:0:0:0:
46,221,55324,2,0,L|39:115,1,58.75,2|0,0:1|0:0,0:0:0:0:
261,109,55512,5,0,1:1:0:0:
18,33,55699,2,0,L|141:96,1,117.5,2|8,0:1|1:1,0:0:0:0:
329,99,55980,2,0,L|275:139,1,58.75,2|0,0:1|0:0,0:0:0:0:
207,145,56168,1,0,0:0:0:0:
391,196,56262,6,0,L|458:200,2,58.75,2|0|0,1:1|0:0|0:0,0:0:0:0:
213,222,56543,2,0,L|267:262,1,58.75,2|8,0:1|1:1,0:0:0:0:
335,268,56731,1,0,0:0:0:0:
156,331,56824,2,0,L|64:342,1,58.75,2|0,0:1|0:0,0:0:0:0:
330,357,57012,6,0,L|477:342,1,117.5,0|2,1:1|0:1,0:0:0:0:
177,197,57387,2,0,L|281:185,1,58.75,8|2,1:1|0:1,0:0:0:0:
372,179,57668,1,0,0:0:0:0:
166,98,57762,5,0,1:1:0:0:
303,39,57949,2,0,L|171:25,1,117.5,2|8,0:1|1:1,0:0:0:0:
111,30,58230,1,2,0:1:0:0:
297,128,58324,2,0,L|306:212,1,58.75,0|0,0:0|0:0,0:0:0:0:
102,233,58512,5,0,1:1:0:0:
239,298,58699,2,0,L|387:278,1,117.5,2|8,0:1|1:1,0:0:0:0:
159,366,58980,2,0,L|66:366,2,58.75,2|0|0,0:1|0:0|0:0,0:0:0:0:
376,373,59262,5,0,1:1:0:0:
235,190,59449,2,0,L|93:179,1,117.5,2|8,0:1|1:1,0:0:0:0:
349,63,59730,1,2,0:1:0:0:
383,72,59776,1,0,0:0:0:0:
397,98,59823,1,0,0:0:0:0:
383,124,59870,1,0,0:0:0:0:
349,134,59917,1,0,0:0:0:0:
103,74,60012,5,0,1:1:0:0:
243,110,60199,2,0,L|258:243,1,117.5,2|0,0:1|1:1,0:0:0:0:
403,264,60574,2,0,L|286:317,1,117.5,2|0,0:1|1:1,0:0:0:0:
157,313,60949,2,0,L|285:267,1,117.5,2|0,0:1|1:1,0:0:0:0:
131,223,61324,6,0,L|24:150,1,117.5,2|0,0:1|1:1,0:0:0:0:
166,145,61699,2,0,L|165:21,1,117.5,2|0,0:1|1:1,0:0:0:0:
288,111,62074,2,0,L|337:-8,1,117.5,2|0,0:1|0:1,0:0:0:0:
215,200,62449,2,0,L|203:73,1,117.5,2|0,0:1|0:1,0:0:0:0:
319,73,62824,1,2,0:1:0:0:
45,358,63012,6,0,P|25:273|337:46,1,528.750020170213,6|0,0:2|0:0,0:0:0:0:
36,9,64512,2,0,P|119:42|0:220,1,352.500013446808,2|2,0:2|0:2,0:0:0:0:
267,282,65637,1,2,0:0:0:0:
499,153,66012,6,0,L|308:118,1,176.250006723404,2|0,0:0|0:0,0:0:0:0:
188,61,66574,2,0,L|385:38,1,176.250006723404,2|0,0:0|0:0,0:0:0:0:
222,21,67137,6,0,P|141:32|258:307,1,528.750020170213,2|0,0:0|0:0,0:0:0:0:
481,338,68637,2,0,L|352:326,1,88.1250033617021,2|2,0:0|0:0,0:0:0:0:
237,310,69012,6,0,P|294:117|383:316,1,528.750020170213,2|0,0:0|0:0,0:0:0:0:
106,362,70512,5,2,0:0:0:0:
42,228,70699,1,0,0:0:0:0:
106,99,70887,1,0,0:0:0:0:
250,75,71074,1,0,0:0:0:0:
100,24,71262,2,0,L|89:237,1,176.250006723404,0|2,0:0|0:0,0:0:0:0:
217,232,71824,1,2,0:0:0:0:
372,275,72012,6,0,L|21:193,1,352.500013446808,2|0,0:0|0:0,0:0:0:0:
452,37,73512,6,0,L|475:252,1,176.250006723404,2|0,0:0|0:0,0:0:0:0:
373,273,74074,1,0,0:0:0:0:
224,201,74262,2,2,L|387:184,1,117.5
206,129,74637,2,0,L|175:82,2,39.1666666666667,2|0|0,0:0|0:0|0:0,0:0:0:0:
270,127,74824,2,0,L|209:133,1,58.75,2|0,0:0|0:0,0:0:0:0:
35,236,75012,6,0,L|145:167,1,117.5,2|0,0:1|0:0,0:0:0:0:
282,177,75387,1,0,0:0:0:0:
34,344,75574,2,0,P|27:267|247:126,1,352.5,2|0,0:1|0:0,0:0:0:0:
83,89,76324,1,0,0:0:0:0:
328,50,76512,6,0,L|337:192,1,117.5,2|0,0:1|0:0,0:0:0:0:
193,206,76887,1,0,0:0:0:0:
447,302,77074,1,2,0:1:0:0:
313,336,77262,2,0,L|295:91,1,235,2|2,0:2|0:2,0:0:0:0:
29,194,78012,6,0,P|53:130|220:76,1,235,2|0,0:1|0:0,0:0:0:0:
348,105,78574,2,0,P|317:163|158:219,1,235,2|0,0:2|0:0,0:0:0:0:
307,256,79137,1,2,0:2:0:0:
36,335,79324,6,0,P|16:246|310:398,1,822.5,2|2,0:1|0:2,0:0:0:0:
172,368,80824,1,2,0:2:0:0:
452,359,81012,6,0,P|470:288|352:176,1,235,2|0,0:1|0:0,0:0:0:0:
210,250,81574,2,0,P|188:177|305:78,1,235,2|0,0:1|0:0,0:0:0:0:
438,39,82137,2,0,L|299:23,1,117.5,0|0,0:0|0:0,0:0:0:0:
66,259,82512,6,0,P|94:191|252:135,1,235,2|0,0:1|0:0,0:0:0:0:
391,174,83074,2,0,P|340:242|186:274,1,235,2|0,0:1|0:0,0:0:0:0:
50,340,83637,2,0,L|183:317,1,117.5,2|2,0:2|0:2,0:0:0:0:
443,353,84012,6,0,P|415:96|261:361,1,763.75,2|0,0:1|0:0,0:0:0:0:
443,353,85324,6,0,P|490:158|247:384,1,867.150013231659,2|0,0:1|0:0,0:0:0:0:
453,249,86637,1,8,0:1:0:0:
191,194,86824,1,8,0:1:0:0:
468,129,87012,6,0,L|265:84,1,186.825000285072,2|0,1:1|0:0,0:0:0:0:
88,138,87387,1,8,1:1:0:0:
221,206,87574,2,0,L|382:241,1,124.550000190048,2|0,0:1|1:1,0:0:0:0:
84,312,87949,2,0,L|57:269,2,31.1375000475121,0|0|0,3:1|3:1|3:1,0:0:0:0:
279,297,88137,5,8,1:1:0:0:
311,299,88183,1,0,3:1:0:0:
327,325,88230,1,0,3:1:0:0:
313,352,88277,1,0,3:1:0:0:
281,357,88324,1,0,3:1:0:0:
209,355,88418,1,0,3:1:0:0:
442,364,88512,6,0,P|453:288|341:239,1,186.825000285072,2|0,1:1|0:0,0:0:0:0:
159,213,88887,1,8,1:1:0:0:
303,211,89074,2,0,L|312:65,1,124.550000190048,2|0,0:1|1:1,0:0:0:0:
224,87,89355,1,0,3:0:0:0:
193,83,89401,1,0,3:0:0:0:
162,80,89448,1,0,3:0:0:0:
241,40,89543,1,0,3:0:0:0:
433,71,89637,5,8,1:1:0:0:
434,102,89683,1,0,3:0:0:0:
435,133,89730,1,0,3:0:0:0:
436,164,89777,1,0,3:0:0:0:
437,195,89824,1,0,3:0:0:0:
192,265,90012,5,0,1:1:0:0:
445,309,90199,1,2,0:1:0:0:
174,350,90387,1,8,1:1:0:0:
316,338,90574,2,0,L|320:292,1,31.1375000475121,2|0,0:2|0:0,0:0:0:0:
72,217,90762,6,0,L|284:192,1,186.825000285072,2|0,1:1|0:0,0:0:0:0:
39,113,91137,1,8,1:1:0:0:
169,86,91324,1,2,0:1:0:0:
427,133,91512,1,0,1:1:0:0:
305,55,91699,1,0,0:0:0:0:
146,33,91887,1,8,1:1:0:0:
432,182,92074,5,2,0:1:0:0:
286,195,92262,2,0,L|264:353,1,124.550000190048,2|0,1:1|0:0,0:0:0:0:
17,308,92637,1,8,1:1:0:0:
34,282,92683,1,0,3:0:0:0:
59,264,92730,1,0,3:0:0:0:
89,256,92777,1,0,3:0:0:0:
123,255,92824,1,0,3:0:0:0:
186,257,92918,1,0,0:0:0:0:
418,266,93012,6,0,P|381:205|267:184,1,186.825000285072,2|0,1:1|0:0,0:0:0:0:
90,139,93387,1,8,1:1:0:0:
215,101,93574,2,0,L|373:81,1,124.550000190048,2|0,0:1|1:1,0:0:0:0:
184,17,93949,2,0,L|174:91,1,62.2750000950241,0|0,0:0|0:0,0:0:0:0:
376,177,94137,2,0,L|303:204,1,62.2750000950241,8|0,1:1|3:0,0:0:0:0:
227,198,94324,2,0,L|197:153,2,31.1375000475121,0|0|0,3:0|3:0|3:0,0:0:0:0:
446,193,94512,6,0,P|466:261|365:318,1,186.825000285072,2|0,1:1|0:0,0:0:0:0:
167,337,94887,1,8,1:1:0:0:
306,362,95074,2,0,L|316:235,1,124.550000190048,2|0,0:1|1:1,0:0:0:0:
225,231,95355,2,0,L|201:190,2,31.1375000475121
301,237,95543,1,0,0:0:0:0:
495,98,95637,2,0,L|359:75,1,124.550000190048,8|0,1:1|0:0,0:0:0:0:
96,149,96012,5,2,1:1:0:0:
200,84,96199,1,0,0:0:0:0:
358,64,96387,1,8,1:1:0:0:
74,44,96574,1,2,0:1:0:0:
216,95,96762,2,0,L|228:220,1,124.550000190048,0|0,1:1|0:0,0:0:0:0:
486,262,97137,1,8,1:1:0:0:
341,315,97324,1,2,0:1:0:0:
69,338,97512,6,0,L|44:177,1,124.550000190048,2|0,1:1|0:0,0:0:0:0:
197,215,97887,2,0,L|208:55,1,124.550000190048,8|0,1:1|0:0,0:0:0:0:
364,100,98262,6,0,L|404:33,2,62.2750000950241,2|2|2,0:0|0:0|0:0,0:0:0:0:
289,115,98543,1,2,0:0:0:0:
205,158,98637,2,0,L|276:157,1,62.2750000950241,2|2,0:0|0:0,0:0:0:0:
191,185,98824,2,0,L|278:188,1,62.2750000950241,2|2,0:0|0:0,0:0:0:0:
465,304,99012,6,0,P|475:228|374:177,1,186.825000285072,2|0,1:1|0:0,0:0:0:0:
186,305,99387,1,8,1:1:0:0:
311,317,99574,2,0,L|434:280,1,124.550000190048,2|0,0:1|1:1,0:0:0:0:
172,203,99949,1,0,0:0:0:0:
440,177,100137,5,8,1:1:0:0:
422,117,100230,1,0,3:1:0:0:
391,112,100276,1,0,3:1:0:0:
360,108,100323,1,0,3:1:0:0:
329,103,100370,1,0,3:1:0:0:
298,99,100417,1,0,3:1:0:0:
79,94,100512,5,2,1:1:0:0:
211,224,100699,2,0,L|371:174,1,124.550000190048,0|8,0:0|1:1,0:0:0:0:
52,326,101074,1,2,0:1:0:0:
199,347,101262,2,0,L|211:220,1,124.550000190048,0|0,1:1|0:0,0:0:0:0:
461,215,101637,5,8,1:1:0:0:
474,187,101683,1,0,3:0:0:0:
475,156,101730,1,0,3:0:0:0:
464,127,101777,1,0,3:0:0:0:
441,106,101824,1,0,3:0:0:0:
412,96,101871,1,0,3:0:0:0:
379,96,101918,1,0,3:0:0:0:
173,80,102012,5,0,1:1:0:0:
421,281,102199,2,0,L|448:248,2,31.1375000475121,2|0|0,0:1|0:0|0:0,0:0:0:0:
212,345,102387,1,8,1:1:0:0:
346,358,102574,2,0,L|355:306,1,31.1375000475121,2|0,0:1|0:0,0:0:0:0:
134,230,102762,2,0,L|288:219,1,124.550000190048,2|0,1:1|0:0,0:0:0:0:
11,128,103137,1,8,1:1:0:0:
253,103,103324,1,2,0:1:0:0:
498,63,103512,6,0,L|292:33,1,186.825000285072,0|0,1:1|0:0,0:0:0:0:
111,145,103887,1,8,1:1:0:0:
386,238,104074,1,2,0:1:0:0:
230,310,104262,2,0,L|369:333,1,124.550000190048,2|0,1:1|0:0,0:0:0:0:
92,356,104637,1,8,1:1:0:0:
233,352,104824,2,0,L|235:299,1,31.1375000475121,2|0,0:0|0:0,0:0:0:0:
36,256,105012,6,0,L|27:178,1,62.2750000950241,2|2,0:0|0:0,0:0:0:0:
263,145,105199,1,2,0:1:0:0:
17,82,105387,2,0,L|132:16,1,124.550000190048,8|2,1:1|0:1,0:0:0:0:
381,80,105762,6,0,P|333:128|186:166,1,186.825000285072,0|0,1:1|0:0,0:0:0:0:
429,237,106137,2,0,L|498:257,1,62.2750000950241,8|0,1:1|3:0,0:0:0:0:
411,319,106324,1,0,3:0:0:0:
379,321,106370,1,0,3:0:0:0:
348,324,106417,1,0,3:0:0:0:
131,348,106512,5,0,1:1:0:0:
383,371,106699,2,0,L|501:316,1,124.550000190048,2|8,0:1|1:1,0:0:0:0:
221,257,107074,1,2,0:1:0:0:
494,235,107262,5,2,1:1:0:0:
490,204,107308,1,0,3:0:0:0:
486,173,107355,1,0,3:0:0:0:
483,142,107402,1,0,3:0:0:0:
479,111,107449,1,0,3:0:0:0:
210,75,107637,1,8,1:1:0:0:
240,68,107683,1,0,3:0:0:0:
271,62,107730,1,0,3:0:0:0:
301,56,107777,1,0,3:0:0:0:
332,50,107824,1,0,3:0:0:0:
61,34,108012,6,0,P|35:108|148:154,1,186.825000285072,2|0,1:1|0:0,0:0:0:0:
314,211,108387,1,8,1:1:0:0:
169,256,108574,1,2,0:1:0:0:
446,320,108762,2,0,P|468:236|361:189,1,186.825000285072,0|0,1:1|0:0,0:0:0:0:
222,175,109137,2,0,L|214:92,1,62.2750000950241,8|0,1:1|0:0,0:0:0:0:
412,53,109324,2,0,L|333:42,1,62.2750000950241,2|0,0:1|0:0,0:0:0:0:
135,129,109512,6,0,L|255:71,1,117.5,0|0,1:1|0:0,0:0:0:0:
89,207,109887,2,0,L|81:63,1,117.5,0|0,1:1|0:0,0:0:0:0:
248,195,110262,2,0,L|283:134,2,58.75,2|2|2,0:2|0:2|0:2,0:0:0:0:
172,215,110543,1,2,0:2:0:0:
249,220,110637,2,0,L|337:232,1,58.75,2|2,0:2|0:2,0:0:0:0:
232,244,110824,2,0,L|312:257,1,58.75,2|2,0:2|0:2,0:0:0:0:
59,337,111012,6,0,P|43:267|183:190,1,235,2|8,1:2|1:2,0:0:0:0:
308,184,111574,1,0,0:0:0:0:
157,169,111762,2,0,L|146:44,1,117.5,0|0,1:2|0:0,0:0:0:0:
399,43,112137,1,10,1:2:0:0:
458,42,112230,1,0,0:0:0:0:
275,74,112324,2,0,L|242:79,2,29.375,2|0|0,0:0|0:0|0:0,0:0:0:0:
467,158,112512,6,0,L|345:218,1,117.5,2|0,1:2|0:0,0:0:0:0:
268,243,112793,2,0,L|399:282,1,117.5,2|0,0:0|0:0,0:0:0:0:
197,340,113074,2,0,L|65:337,2,117.5,2|0|0,0:0|1:2|0:0,0:0:0:0:
367,249,113637,2,0,L|239:208,1,117.5,10|2,1:2|0:0,0:0:0:0:
9,124,114012,5,2,1:2:0:0:
259,100,114199,1,0,0:0:0:0:
118,151,114387,2,0,L|101:3,1,117.5,8|0,1:2|0:0,0:0:0:0:
358,44,114762,2,0,L|222:63,1,117.5,0|0,1:2|0:0,0:0:0:0:
485,123,115137,1,10,1:2:0:0:
237,189,115324,1,2,0:0:0:0:
488,143,115512,6,0,P|492:221|355:300,1,235,2|8,1:2|1:2,0:0:0:0:
217,320,116074,1,0,0:0:0:0:
374,303,116262,2,0,L|381:166,1,117.5,0|0,1:2|0:0,0:0:0:0:
211,178,116637,2,0,L|265:136,1,58.75,8|0,1:2|0:0,0:0:0:0:
342,126,116824,2,0,L|365:93,2,29.375,0|0|0,0:0|0:0|0:0,0:0:0:0:
138,298,117012,6,0,P|125:223|277:163,1,235,2|8,1:2|1:2,0:0:0:0:
104,136,117574,1,0,0:0:0:0:
250,147,117762,2,0,L|260:9,1,117.5,0|0,1:2|0:0,0:0:0:0:
14,32,118137,2,0,L|78:63,1,58.75,10|0,1:2|0:0,0:0:0:0:
267,176,118324,2,0,L|301:178,2,29.375,2|0|0,0:0|0:0|0:0,0:0:0:0:
61,180,118512,6,0,L|49:308,1,117.5,2|0,1:2|0:0,0:0:0:0:
151,328,118793,2,0,L|18:356,1,117.5,2|0,0:0|0:0,0:0:0:0:
227,352,119074,2,0,L|353:333,1,117.5,2|0,0:0|1:2,0:0:0:0:
345,305,119308,1,0,0:0:0:0:
347,275,119355,1,0,0:0:0:0:
349,246,119402,1,0,0:0:0:0:
352,217,119449,1,0,0:0:0:0:
103,193,119637,5,10,1:2:0:0:
99,163,119683,1,0,0:0:0:0:
95,134,119730,1,0,0:0:0:0:
92,105,119777,1,0,0:0:0:0:
88,76,119824,1,2,0:0:0:0:
347,46,120012,5,2,1:2:0:0:
209,75,120199,2,0,L|189:43,2,29.375,0|0|0,0:0|0:0|0:0,0:0:0:0:
299,107,120387,1,0,1:2:0:0:
142,181,120574,2,0,L|122:149,2,29.375,0|0|0,0:0|0:0|0:0,0:0:0:0:
232,213,120762,1,0,1:2:0:0:
477,290,120949,6,0,L|440:278,1,29.375,2|0,0:0|0:0,0:0:0:0:
416,280,121043,1,0,0:0:0:0:
328,331,121137,1,0,1:2:0:0:
68,342,121324,1,2,0:0:0:0:
205,342,121512,6,0,L|212:208,1,117.5,0|0,1:2|0:0,0:0:0:0:
372,171,121887,2,0,L|219:155,1,117.5,0|0,1:2|0:0,0:0:0:0:
100,100,122262,1,2,0:2:0:0:
173,91,122356,2,0,L|201:39,2,58.75,2|2|2,0:2|0:2|0:2,0:0:0:0:
91,121,122637,6,0,L|176:133,1,58.75,2|2,0:2|0:2,0:0:0:0:
329,326,122824,2,0,L|397:309,1,58.75,2|2,0:2|0:2,0:0:0:0:
