osu file format v14

[General]
AudioFilename: audio.mp3
AudioLeadIn: 0
PreviewTime: 63012
Countdown: 0
SampleSet: Soft
StackLeniency: 0.7
Mode: 2
LetterboxInBreaks: 0
WidescreenStoryboard: 1

[Editor]
DistanceSpacing: 1
BeatDivisor: 4
GridSize: 4
TimelineZoom: 2.1

[Metadata]
Title:triangles
TitleUnicode:triangles
Artist:cYsmix
ArtistUnicode:cYsmix
Creator:Kukkai
Version:Cup
Source:osu!
Tags:Jemzuu AJamez pippi mappers' guild mg mpg osu!lazer menu theme remix electronic instrumental fa featured artist circles
BeatmapID:3307468
BeatmapSetID:1619938

[Difficulty]
HPDrainRate:3
CircleSize:2.5
OverallDifficulty:6
ApproachRate:6
SliderMultiplier:1.3
SliderTickRate:1

[Events]
//Background and Video events
0,0,"57614873_p0.jpg",0,0
//Break Periods
2,63211,72461
//Storyboard Layer 0 (Background)
//Storyboard Layer 1 (Fail)
//Storyboard Layer 2 (Pass)
//Storyboard Layer 3 (Foreground)
//Storyboard Layer 4 (Overlay)
//Storyboard Sound Samples

[TimingPoints]
3012,375,4,2,1,60,1,0
21012,-100,4,2,1,65,0,0
27012,-100,4,2,1,65,0,0
36012,-100,4,2,1,60,0,0
38262,-100,4,2,1,60,0,0
38637,-100,4,2,1,60,0,0
38684,-100,4,2,1,60,0,0
38825,-100,4,2,1,60,0,0
38872,-100,4,2,1,60,0,0
39012,-100,4,2,1,70,0,0
57012,-100,4,2,1,70,0,0
57200,-100,4,2,1,70,0,0
57387,-100,4,2,1,70,0,0
57481,-100,4,2,1,70,0,0
57762,-100,4,2,1,70,0,0
57950,-100,4,2,1,70,0,0
58137,-100,4,2,1,70,0,0
58231,-100,4,2,1,70,0,0
58512,-100,4,2,1,70,0,0
58700,-100,4,2,1,70,0,0
58887,-100,4,2,1,70,0,0
58981,-100,4,2,1,70,0,0
59262,-100,4,2,1,70,0,0
59450,-100,4,2,1,70,0,0
59637,-100,4,2,1,70,0,0
59731,-100,4,2,1,70,0,0
60012,-100,4,2,1,70,0,0
60200,-100,4,2,1,70,0,0
60387,-100,4,2,1,65,0,0
60575,-100,4,2,1,65,0,0
60762,-100,4,2,1,60,0,0
60950,-100,4,2,1,60,0,0
61137,-100,4,2,1,55,0,0
61325,-100,4,2,1,55,0,0
61512,-100,4,2,1,54,0,0
61700,-100,4,2,1,54,0,0
61887,-100,4,2,1,53,0,0
62075,-100,4,2,1,53,0,0
62262,-100,4,2,1,52,0,0
62450,-100,4,2,1,52,0,0
62637,-100,4,2,1,51,0,0
62825,-100,4,2,1,51,0,0
63012,-100,4,2,1,40,0,0
75012,-100,4,2,1,60,0,0
87012,-100,4,2,1,70,0,1
97887,-100,4,2,1,60,0,1
98262,-100,4,2,1,60,0,1
99012,-100,4,2,1,60,0,1
104825,-100,4,2,1,60,0,1
105106,-100,4,2,1,60,0,1
109512,-100,4,2,1,70,0,0
110262,-100,4,2,1,60,0,0
111012,-100,4,2,1,60,0,0
122262,-100,4,2,1,60,0,0

[Colours]
Combo1 : 205,44,129
Combo2 : 165,203,150
Combo3 : 232,211,98
Combo4 : 231,102,253

[HitObjects]
292,352,1511,5,8,0:1:0:0:
356,352,1698,1,0,1:0:0:0:
420,352,1886,1,8,0:1:0:0:
356,352,2073,1,0,0:0:0:0:
152,336,2636,2,0,L|152:248,1,65,0|0,1:0|1:0,0:0:0:0:
220,240,3011,6,0,L|376:240,1,130,2|8,1:2|0:2,0:0:0:0:
220,240,3761,2,0,L|220:92,1,130,0|8,1:2|0:2,0:0:0:0:
348,108,4511,6,0,L|348:264,1,130,0|8,1:2|0:2,0:0:0:0:
220,244,5261,1,2,1:2:0:0:
348,248,5636,1,10,0:2:0:0:
220,244,6011,6,0,L|8:244,2,195,2|2|10,1:2|0:2|0:2,0:0:0:0:
348,244,7511,6,0,P|368:180|324:108,1,130,0|8,1:2|0:2,0:0:0:0:
212,248,8261,2,0,P|192:176|224:104,1,130,0|10,1:2|0:2,0:0:0:0:
272,124,8824,1,2,0:2:0:0:
336,120,9011,6,0,L|496:120,1,130,2|8,1:2|0:2,0:0:0:0:
336,112,9761,2,0,L|336:268,1,130,0|8,1:2|0:2,0:0:0:0:
208,240,10511,6,0,L|208:92,1,130,0|8,1:2|0:2,0:0:0:0:
336,116,11261,2,0,L|180:116,1,130,0|10,1:2|0:2,0:0:0:0:
140,116,11824,1,2,0:2:0:0:
76,116,12011,6,0,L|76:256,1,130,2|8,1:2|0:2,0:0:0:0:
204,244,12761,2,0,L|204:88,1,130,0|8,1:2|0:2,0:0:0:0:
76,104,13511,6,0,L|232:104,1,130,0|8,1:2|0:2,0:0:0:0:
336,104,14261,2,0,L|412:104,2,65,0|8|8,1:2|0:3|0:2,0:0:0:0:
176,352,15011,6,0,L|40:352,2,130,0|8|0,1:2|0:2|1:2,0:0:0:0:
304,356,16136,1,8,0:2:0:0:
136,284,16511,6,0,L|136:124,1,130,0|8,1:2|0:2,0:0:0:0:
264,164,17261,2,0,L|108:164,1,130,0|8,1:2|0:2,0:0:0:0:
288,96,18011,6,0,L|432:96,2,130,0|8|0,1:2|0:2|1:2,0:0:0:0:
160,84,19136,1,8,0:2:0:0:
312,356,19511,6,0,L|312:212,1,130,0|8,1:2|0:2,0:0:0:0:
184,240,20261,2,0,L|184:92,1,130,0|8,1:2|0:2,0:0:0:0:
348,84,21011,5,8,1:1:0:0:
480,192,21386,1,8,1:1:0:0:
480,192,21761,1,8,1:1:0:0:
348,84,22136,1,8,1:1:0:0:
188,320,22511,5,8,1:1:0:0:
192,112,22886,1,8,1:1:0:0:
332,116,23261,1,8,1:1:0:0:
332,248,23636,1,8,1:1:0:0:
168,352,24011,6,0,P|148:284|176:224,1,130,2|0,1:1|0:1,0:0:0:0:
236,232,24574,1,0,0:1:0:0:
300,232,24761,1,0,1:1:0:0:
169,231,25136,6,0,L|84:228,2,65,2|2|2,0:1|0:1|0:1,0:0:0:0:
300,232,25886,2,0,L|392:232,2,65,2|2|2,0:1|0:1|0:1,0:0:0:0:
236,232,26449,1,8,1:3:0:0:
76,220,27011,5,0,1:3:0:0:
140,220,27199,2,0,L|260:220,2,97.5,2|0|2,0:1|0:0|0:1,0:0:0:0:
44,216,28042,2,0,L|44:96,1,97.5,2|2,0:1|0:1,0:0:0:0:
364,152,29261,6,0,L|488:152,2,97.5,2|2|2,0:1|0:1|0:1,0:0:0:0:
248,152,30199,6,0,L|248:264,1,97.5,2|2,0:1|0:1,0:0:0:0:
344,252,30761,2,0,L|464:252,2,97.5,2|2|2,0:1|0:1|0:1,0:0:0:0:
212,252,31699,6,0,L|212:148,1,97.5,2|2,0:1|0:1,0:0:0:0:
308,156,32261,1,2,0:1:0:0:
404,156,32542,2,0,L|404:48,1,97.5,2|2,0:1|0:1,0:0:0:0:
248,56,33199,6,0,L|132:56,2,97.5,2|2|2,0:1|0:1|0:1,0:0:0:0:
344,56,34042,2,0,L|344:164,1,97.5,2|2,0:1|0:1,0:0:0:0:
216,352,34699,6,0,L|216:228,1,97.5,2|2,0:1|0:1,0:0:0:0:
312,248,35261,2,0,L|312:124,1,97.5,2|2,0:1|0:1,0:0:0:0:
216,148,35824,1,2,0:1:0:0:
152,144,36011,6,0,L|372:144,2,195,8|0|8,0:2|0:0|0:2,0:0:0:0:
24,148,37511,1,0,0:0:0:0:
184,360,37886,6,0,L|184:212,1,130,10|10,1:1|0:1,0:0:0:0:
56,212,38636,2,0,L|144:212,1,65,10|8,0:1|0:1,0:0:0:0:
188,212,39011,5,0,1:1:0:0:
252,212,39199,2,0,L|252:96,1,97.5,2|2,0:1|0:1,0:0:0:0:
156,120,39761,2,0,L|40:120,2,97.5,2|2|2,1:1|0:1|0:1,0:0:0:0:
312,328,40699,6,0,L|184:328,1,97.5,2|2,0:1|0:1,0:0:0:0:
116,328,41261,2,0,L|116:208,1,97.5,2|2,1:1|0:1,0:0:0:0:
212,232,41824,1,2,0:1:0:0:
368,228,42199,6,0,L|484:228,2,97.5,2|2|2,0:1|0:1|1:1,0:0:0:0:
272,232,43042,2,0,L|272:120,1,97.5,2|2,0:1|0:1,0:0:0:0:
116,168,43699,6,0,L|232:168,1,97.5,2|2,0:1|0:1,0:0:0:0:
312,164,44261,2,0,L|424:164,2,97.5,2|2|2,1:1|0:1|0:1,0:0:0:0:
156,344,45199,6,0,L|32:344,1,97.5,2|2,0:1|0:1,0:0:0:0:
156,344,45761,2,0,L|264:344,2,97.5,2|2|2,1:1|0:1|0:1,0:0:0:0:
296,272,46699,6,0,L|296:160,1,97.5,2|2,0:1|0:1,0:0:0:0:
200,180,47261,1,2,1:1:0:0:
104,176,47542,2,0,L|104:64,1,97.5,2|2,0:1|0:1,0:0:0:0:
256,112,48199,6,0,L|368:112,2,97.5,2|2|2,0:1|0:1|1:1,0:0:0:0:
160,112,49042,2,0,L|272:112,1,97.5,2|2,0:1|0:1,0:0:0:0:
412,192,49699,6,0,L|412:304,1,97.5,2|2,0:1|0:1,0:0:0:0:
316,296,50261,2,0,L|316:168,1,97.5,2|2,1:1|0:1,0:0:0:0:
412,200,50824,1,2,0:1:0:0:
256,68,51199,5,2,0:1:0:0:
160,68,51480,2,0,L|160:192,1,97.5,2|2,0:1|1:1,0:0:0:0:
256,160,52042,2,0,L|380:160,1,97.5,2|2,0:1|0:1,0:0:0:0:
196,248,52699,6,0,L|84:248,2,97.5,2|2|2,0:1|0:1|1:1,0:0:0:0:
292,248,53542,2,0,L|180:248,1,97.5,2|2,0:1|0:1,0:0:0:0:
352,244,54199,6,0,L|352:120,1,97.5,2|2,0:1|0:1,0:0:0:0:
256,140,54761,1,2,1:1:0:0:
352,140,55042,2,0,L|476:140,1,97.5,2|2,0:1|0:1,0:0:0:0:
292,364,55699,6,0,L|292:248,1,97.5,2|2,0:1|0:1,0:0:0:0:
388,268,56261,2,0,L|508:268,2,97.5,2|2|2,1:1|0:1|0:1,0:0:0:0:
228,276,57199,6,0,L|124:276,1,97.5,2|2,0:1|0:1,0:0:0:0:
292,272,57949,2,0,L|292:152,1,97.5,2|2,0:1|0:1,0:0:0:0:
128,180,58699,6,0,L|128:64,1,97.5,2|2,0:1|0:1,0:0:0:0:
292,84,59449,2,0,L|396:84,1,97.5,2|2,0:1|0:1,0:0:0:0:
272,344,60011,5,0,1:1:0:0:
208,340,60199,2,0,L|208:188,1,130,2|2,0:1|0:1,0:0:0:0:
336,212,60949,2,0,L|336:60,1,130,2|2,0:1|0:1,0:0:0:0:
464,88,61699,6,0,L|464:228,1,130,2|2,0:1|0:1,0:0:0:0:
336,216,62449,2,0,L|264:216,2,65,2|0|2,0:1|0:1|0:1,0:0:0:0:
400,216,63011,5,6,0:2:0:0:
256,192,73511,12,0,74636,0:0:0:0:
176,352,75011,5,2,0:1:0:0:
372,352,75574,2,0,P|420:296|348:200,1,195,2|0,0:1|0:0,0:0:0:0:
236,204,76511,5,2,0:1:0:0:
40,204,77074,2,0,L|256:204,1,195,2|2,0:1|0:2,0:0:0:0:
368,368,78011,6,0,P|440:332|340:152,1,325,2|0,0:1|0:0,0:0:0:0:
236,364,79324,2,0,P|124:288|268:60,1,455,2|2,0:1|0:2,0:0:0:0:
384,60,81011,5,2,0:1:0:0:
188,72,81574,2,0,P|148:128|196:252,1,195,2|0,0:1|0:0,0:0:0:0:
312,248,82511,5,2,0:1:0:0:
508,248,83074,2,0,L|308:248,1,195,2|2,0:1|0:2,0:0:0:0:
180,352,84011,6,0,P|112:324|192:148,1,325,2|0,0:1|0:0,0:0:0:0:
320,360,85324,2,0,B|368:292|368:292|368:176|368:176|96:180,1,455,2|8,0:1|0:1,0:0:0:0:
268,320,87011,6,0,L|424:320,1,130,2|8,1:1|1:1,0:0:0:0:
464,320,87574,2,0,B|464:96,1,195,2|8,0:1|1:1,0:0:0:0:
304,288,88511,6,0,L|160:288,1,130,2|8,1:1|1:1,0:0:0:0:
108,288,89074,2,0,L|328:288,1,195,2|8,0:1|1:1,0:0:0:0:
144,232,90011,6,0,L|144:160,1,65,0|2,1:1|0:1,0:0:0:0:
208,168,90386,1,8,1:1:0:0:
336,168,90761,2,0,L|336:32,1,130,2|8,1:1|1:1,0:0:0:0:
272,44,91324,6,0,B|56:44,1,195,2|8,0:1|1:1,0:0:0:0:
208,44,92261,2,0,L|356:44,1,130,2|8,1:1|1:1,0:0:0:0:
184,368,93011,6,0,L|184:228,1,130,2|8,1:1|1:1,0:0:0:0:
248,232,93574,2,0,B|378:232|378:232|380:148,1,195,2|8,0:1|1:1,0:0:0:0:
224,168,94511,6,0,L|80:168,1,130,2|8,1:1|1:1,0:0:0:0:
160,168,95074,2,0,L|368:168,1,195,2|8,0:1|1:1,0:0:0:0:
196,356,96011,6,0,L|196:216,1,130,2|8,1:1|1:1,0:0:0:0:
260,224,96574,2,0,L|48:224,1,195,2|8,0:1|1:1,0:0:0:0:
224,224,97511,6,0,L|225:79,1,130,2|8,1:1|1:1,0:0:0:0:
96,96,98261,2,0,L|12:96,2,65,2|2|2,0:0|0:0|0:0,0:0:0:0:
256,368,99011,6,0,P|280:296|240:240,1,130,2|8,1:1|1:1,0:0:0:0:
192,248,99574,2,0,L|412:248,1,195,2|8,0:1|1:1,0:0:0:0:
224,252,100511,6,0,P|200:176|236:136,1,130,2|8,1:1|1:1,0:0:0:0:
292,140,101074,2,0,L|80:140,1,195,2|8,0:1|1:1,0:0:0:0:
252,320,102011,6,0,L|328:320,2,65,0|2|8,1:1|0:1|1:1,0:0:0:0:
124,320,102761,2,0,L|124:176,1,130,2|8,1:1|1:1,0:0:0:0:
252,184,103511,6,0,L|392:184,1,130,0|8,1:1|1:1,0:0:0:0:
316,184,104074,1,2,0:1:0:0:
252,184,104261,2,0,L|252:332,1,130,2|8,1:1|1:1,0:0:0:0:
408,244,105011,6,0,L|328:244,1,65,2|2,0:0|0:1,0:0:0:0:
276,244,105386,1,8,1:1:0:0:
212,244,105574,2,0,P|156:180|228:112,1,195,2|8,0:1|1:1,0:0:0:0:
380,288,106511,5,0,1:1:0:0:
380,288,106699,2,0,L|232:288,1,130,2|2,0:1|0:1,0:0:0:0:
184,220,107261,2,0,L|184:380,1,130,2|8,1:1|1:1,0:0:0:0:
340,156,108011,6,0,L|188:156,1,130,2|8,1:1|1:1,0:0:0:0:
144,156,108574,1,2,0:1:0:0:
80,204,108761,2,0,L|80:56,1,130,0|8,1:1|1:1,0:0:0:0:
244,288,109511,6,0,L|388:288,1,130,0|0,1:1|1:1,0:0:0:0:
244,288,110261,2,0,L|168:288,2,65,2|2|2,0:2|0:2|0:2,0:0:0:0:
404,280,111011,6,0,L|404:124,1,130,2|8,1:2|1:2,0:0:0:0:
276,152,111761,1,0,1:2:0:0:
148,152,112136,6,0,L|64:152,2,65,10|2|2,1:2|0:0|1:2,0:0:0:0:
244,152,112792,1,2,0:0:0:0:
340,152,113074,1,2,0:0:0:0:
144,152,113636,2,0,L|144:80,1,65,10|2,1:2|0:0,0:0:0:0:
208,84,114011,6,0,L|348:84,2,130,2|8|0,1:2|1:2|1:2,0:0:0:0:
76,336,115136,2,0,L|76:252,1,65,10|2,1:2|0:0,0:0:0:0:
140,272,115511,5,2,1:2:0:0:
268,272,115886,2,0,L|408:272,2,130,8|0|8,1:2|1:2|1:2,0:0:0:0:
112,280,117011,6,0,L|112:128,1,130,2|8,1:2|1:2,0:0:0:0:
240,152,117761,1,0,1:2:0:0:
368,160,118136,2,0,L|368:68,1,65,10|2,1:2|0:0,0:0:0:0:
304,92,118511,5,2,1:2:0:0:
208,92,118792,1,2,0:0:0:0:
112,92,119074,1,2,0:0:0:0:
304,264,119636,2,0,L|388:264,2,65,10|2|2,1:2|0:0|1:2,0:0:0:0:
174,266,120386,6,0,L|176:128,1,130,0|0,1:2|1:2,0:0:0:0:
240,140,120948,2,0,L|380:140,1,130,2|2,0:0|0:0,0:0:0:0:
305,136,121511,2,0,L|156:136,1,130,0|0,1:2|1:2,0:0:0:0:
332,100,122261,6,0,P|388:168|320:288,1,227.5,2|2,0:2|0:2,0:0:0:0:
