osu file format v14

[General]
AudioFilename: audio.mp3
AudioLeadIn: 0
PreviewTime: 35992
Countdown: 0
SampleSet: Normal
StackLeniency: 0.7
Mode: 1
LetterboxInBreaks: 0
WidescreenStoryboard: 0

[Editor]
DistanceSpacing: 1
BeatDivisor: 4
GridSize: 32
TimelineZoom: 2.1

[Metadata]
Title:pumpkins!
TitleUnicode:pumpkins!
Artist:cYsmix
ArtistUnicode:cYsmix
Creator:Nwolf
Version:muzukashii!
Source:osu!
Tags:featured halloween spooky creepy spook ghosts ghost pumpkin taikonator3000 taikonator
BeatmapID:1166336
BeatmapSetID:550544

[Difficulty]
HPDrainRate:7
CircleSize:4
OverallDifficulty:4.5
ApproachRate:9
SliderMultiplier:1.4
SliderTickRate:1

[Events]
//Background and Video events
0,0,"menu-background-halloween-4@2x.jpg",0,0
//Break Periods
//Storyboard Layer 0 (Background)
//Storyboard Layer 1 (Fail)
//Storyboard Layer 2 (Pass)
//Storyboard Layer 3 (Foreground)
//Storyboard Sound Samples

[TimingPoints]
117,500,4,1,0,5,1,0
367,-100,4,1,0,7,0,0
617,-100,4,1,0,9,0,0
867,-100,4,1,0,11,0,0
1117,-100,4,1,0,13,0,0
1367,-100,4,1,0,15,0,0
1617,-100,4,1,0,17,0,0
1867,-100,4,1,0,19,0,0
2117,-100,4,1,0,21,0,0
2367,-100,4,1,0,23,0,0
2617,-100,4,1,0,25,0,0
2867,-100,4,1,0,27,0,0
3117,-100,4,1,0,29,0,0
3367,-100,4,1,0,31,0,0
3617,-100,4,1,0,33,0,0
3867,-100,4,1,0,35,0,0
4117,-100,4,1,0,40,0,0
32117,-100,4,1,0,42,0,0
33492,-100,4,1,0,48,0,0
33742,-100,4,1,0,49,0,0
33992,-100,4,1,0,50,0,0
36117,-100,4,1,0,65,0,1
36867,-100,4,1,0,35,0,1
36992,-100,4,1,0,55,0,1
37117,-100,4,1,0,75,0,1
37242,-100,4,1,0,65,0,1
40867,-100,4,1,0,35,0,1
41117,-100,4,1,0,65,0,1
42617,-100,4,1,0,35,0,1
42742,-100,4,1,0,45,0,1
42867,-100,4,1,0,55,0,1
43117,-100,4,1,0,75,0,1
43242,-100,4,1,0,65,0,1
44867,-100,4,1,0,35,0,1
45117,-100,4,1,0,75,0,1
45242,-100,4,1,0,65,0,1
48867,-100,4,1,0,35,0,1
49117,-100,4,1,0,75,0,1
49242,-100,4,1,0,65,0,1
50617,-100,4,1,0,35,0,1
50867,-100,4,1,0,55,0,1
51117,-100,4,1,0,75,0,1
51242,-100,4,1,0,65,0,1
51617,-100,4,1,0,35,0,1
51742,-100,4,1,0,45,0,1
51867,-100,4,1,0,55,0,1
52117,-100,4,1,0,75,0,1
52242,-100,4,1,0,65,0,1
52867,-100,4,1,0,35,0,1
53117,-100,4,1,0,75,0,1
53242,-100,4,1,0,65,0,1
56867,-100,4,1,0,35,0,1
57117,-100,4,1,0,75,0,1
57242,-100,4,1,0,65,0,1
58617,-100,4,1,0,35,0,1
58742,-100,4,1,0,45,0,1
58867,-100,4,1,0,55,0,1
59117,-100,4,1,0,75,0,1
59242,-100,4,1,0,65,0,1
60867,-100,4,1,0,35,0,1
61117,-100,4,1,0,75,0,1
61242,-100,4,1,0,65,0,1
64867,-100,4,1,0,35,0,1
65117,-100,4,1,0,75,0,1
65242,-100,4,1,0,65,0,1
66617,-100,4,1,0,35,0,1
66742,-100,4,1,0,45,0,1
66867,-100,4,1,0,55,0,1
67117,-100,4,1,0,75,0,1
67242,-100,4,1,0,65,0,1
67617,-100,4,1,0,35,0,1
67867,-100,4,1,0,55,0,1
67992,-100,4,1,0,65,0,1
68117,-100,4,1,0,75,0,0
68242,-100,4,1,0,5,0,0
70100,508.474576271186,4,1,0,50,1,0
101879,-100,4,1,0,25,0,0

[HitObjects]
256,192,117,12,0,3867,0:0:0:0:
288,224,4117,5,12,0:0:0:0:
224,160,5617,1,0,0:0:0:0:
288,160,5867,1,8,0:0:0:0:
224,160,6117,1,0,0:0:0:0:
288,160,7117,1,8,0:0:0:0:
224,160,8117,1,0,0:0:0:0:
288,224,8617,1,12,0:0:0:0:
288,224,9117,1,12,0:0:0:0:
224,224,9617,1,4,0:0:0:0:
288,224,10117,1,12,0:0:0:0:
224,160,10867,1,0,0:0:0:0:
224,160,11117,1,0,0:0:0:0:
288,160,11617,1,8,0:0:0:0:
288,160,11867,1,8,0:0:0:0:
224,160,12117,1,0,0:0:0:0:
288,160,12867,1,8,0:0:0:0:
288,160,13117,1,8,0:0:0:0:
224,160,14117,1,0,0:0:0:0:
288,160,15117,1,8,0:0:0:0:
224,160,16117,1,0,0:0:0:0:
288,224,17617,1,12,0:0:0:0:
224,224,18117,1,4,0:0:0:0:
288,224,18617,1,12,0:0:0:0:
288,224,19117,1,12,0:0:0:0:
224,160,20117,1,0,0:0:0:0:
224,160,21617,1,0,0:0:0:0:
288,160,21867,1,8,0:0:0:0:
288,160,22117,1,8,0:0:0:0:
288,160,23117,1,8,0:0:0:0:
224,160,24117,1,0,0:0:0:0:
288,160,24867,1,8,0:0:0:0:
288,160,25117,1,8,0:0:0:0:
224,160,25617,1,0,0:0:0:0:
224,160,26117,1,0,0:0:0:0:
288,160,26867,1,8,0:0:0:0:
288,160,27117,1,8,0:0:0:0:
224,160,27617,1,0,0:0:0:0:
288,160,28117,1,8,0:0:0:0:
224,160,29117,1,0,0:0:0:0:
224,160,30117,1,0,0:0:0:0:
224,160,31117,1,0,0:0:0:0:
224,160,31367,1,0,0:0:0:0:
288,160,31617,1,8,0:0:0:0:
224,160,31867,1,0,0:0:0:0:
288,224,32117,1,12,0:0:0:0:
224,160,33617,1,0,0:0:0:0:
288,160,33867,1,8,0:0:0:0:
224,160,34117,1,0,0:0:0:0:
288,160,34867,1,8,0:0:0:0:
224,160,35117,1,0,0:0:0:0:
224,160,35367,1,0,0:0:0:0:
288,160,35617,1,8,0:0:0:0:
288,224,36117,5,12,0:0:0:0:
288,160,36867,1,8,0:0:0:0:
288,160,37117,1,8,0:0:0:0:
224,160,37367,1,0,0:0:0:0:
224,160,37867,1,0,0:0:0:0:
288,160,38117,1,8,0:0:0:0:
224,160,38367,1,0,0:0:0:0:
224,160,38867,1,0,0:0:0:0:
288,160,39117,1,8,0:0:0:0:
224,160,39617,1,0,0:0:0:0:
224,224,40117,1,4,0:0:0:0:
224,160,40367,1,0,0:0:0:0:
288,224,40617,1,12,0:0:0:0:
224,160,40867,1,0,0:0:0:0:
288,224,41117,1,12,0:0:0:0:
288,224,41617,1,12,0:0:0:0:
224,160,41867,1,0,0:0:0:0:
288,224,42117,1,12,0:0:0:0:
288,160,42617,1,8,0:0:0:0:
288,160,42742,1,8,0:0:0:0:
288,160,42867,1,8,0:0:0:0:
288,160,43117,1,8,0:0:0:0:
224,160,43367,1,0,0:0:0:0:
224,160,43867,1,0,0:0:0:0:
288,160,44117,1,8,0:0:0:0:
224,160,44367,1,0,0:0:0:0:
288,160,44867,1,8,0:0:0:0:
288,160,45117,1,8,0:0:0:0:
224,160,45367,1,0,0:0:0:0:
288,160,45617,1,8,0:0:0:0:
224,224,46117,1,4,0:0:0:0:
224,160,46367,1,0,0:0:0:0:
224,160,46867,1,0,0:0:0:0:
288,160,47117,1,8,0:0:0:0:
224,160,47617,1,0,0:0:0:0:
288,224,48117,1,12,0:0:0:0:
224,160,48367,1,0,0:0:0:0:
288,160,48867,1,8,0:0:0:0:
288,160,49117,1,8,0:0:0:0:
224,160,49367,1,0,0:0:0:0:
288,224,49617,1,12,0:0:0:0:
224,160,49867,1,0,0:0:0:0:
288,224,50117,1,12,0:0:0:0:
288,224,50617,1,12,0:0:0:0:
224,160,50867,1,0,0:0:0:0:
288,224,51117,1,12,0:0:0:0:
224,160,51617,1,0,0:0:0:0:
224,160,51742,1,0,0:0:0:0:
224,160,51867,1,0,0:0:0:0:
288,160,52117,1,8,0:0:0:0:
224,160,52367,1,0,0:0:0:0:
288,160,52867,1,8,0:0:0:0:
288,160,53117,1,8,0:0:0:0:
224,160,53367,1,0,0:0:0:0:
288,160,53867,1,8,0:0:0:0:
224,160,54117,1,0,0:0:0:0:
288,160,54367,1,8,0:0:0:0:
288,160,54867,1,8,0:0:0:0:
288,160,55117,1,8,0:0:0:0:
224,160,55617,1,0,0:0:0:0:
224,224,56117,1,4,0:0:0:0:
224,160,56367,1,0,0:0:0:0:
288,160,56867,1,8,0:0:0:0:
288,160,57117,1,8,0:0:0:0:
224,160,57367,1,0,0:0:0:0:
224,160,57867,1,0,0:0:0:0:
288,160,58117,1,8,0:0:0:0:
224,160,58367,1,0,0:0:0:0:
288,160,58617,1,8,0:0:0:0:
288,160,58742,1,8,0:0:0:0:
288,160,58867,1,8,0:0:0:0:
288,160,59117,1,8,0:0:0:0:
224,160,59367,1,0,0:0:0:0:
288,160,59867,1,8,0:0:0:0:
224,224,60117,1,4,0:0:0:0:
224,160,60367,1,0,0:0:0:0:
288,160,60867,1,8,0:0:0:0:
288,160,61117,1,8,0:0:0:0:
224,160,61367,1,0,0:0:0:0:
288,160,61617,1,8,0:0:0:0:
288,160,62117,1,8,0:0:0:0:
224,160,62367,1,0,0:0:0:0:
224,160,62867,1,0,0:0:0:0:
288,160,63117,1,8,0:0:0:0:
224,160,63367,1,0,0:0:0:0:
224,160,63867,1,0,0:0:0:0:
288,224,64117,1,12,0:0:0:0:
224,160,64367,1,0,0:0:0:0:
288,160,64867,1,8,0:0:0:0:
288,160,65117,1,8,0:0:0:0:
224,160,65367,1,0,0:0:0:0:
288,160,65867,1,8,0:0:0:0:
224,160,66117,1,0,0:0:0:0:
288,160,66367,1,8,0:0:0:0:
288,160,66617,1,8,0:0:0:0:
288,160,66742,1,8,0:0:0:0:
288,160,66867,1,8,0:0:0:0:
288,160,67117,1,8,0:0:0:0:
224,160,67367,1,0,0:0:0:0:
224,160,67617,1,0,0:0:0:0:
224,160,67867,1,0,0:0:0:0:
224,160,67992,1,0,0:0:0:0:
224,160,68117,1,0,0:0:0:0:
288,224,70100,5,12,0:0:0:0:
224,160,71625,1,0,0:0:0:0:
288,160,71879,1,8,0:0:0:0:
288,160,72133,1,8,0:0:0:0:
224,160,72515,1,0,0:0:0:0:
224,160,72896,1,0,0:0:0:0:
224,160,73913,1,0,0:0:0:0:
224,160,74040,1,0,0:0:0:0:
224,160,74167,1,0,0:0:0:0:
288,160,74930,1,8,0:0:0:0:
288,160,75057,1,8,0:0:0:0:
288,160,75184,1,8,0:0:0:0:
224,160,75947,1,0,0:0:0:0:
224,160,76074,1,0,0:0:0:0:
224,160,76201,1,0,0:0:0:0:
288,160,76710,1,8,0:0:0:0:
224,160,76964,1,0,0:0:0:0:
288,160,77218,1,8,0:0:0:0:
288,224,78235,1,12,0:0:0:0:
224,160,79506,1,0,0:0:0:0:
288,160,79761,1,8,0:0:0:0:
288,160,80015,1,8,0:0:0:0:
288,160,80269,1,8,0:0:0:0:
288,160,80650,1,8,0:0:0:0:
224,160,81032,1,0,0:0:0:0:
288,160,82049,1,8,0:0:0:0:
288,160,82176,1,8,0:0:0:0:
288,160,82303,1,8,0:0:0:0:
224,160,83066,1,0,0:0:0:0:
224,160,83320,1,0,0:0:0:0:
224,160,84083,1,0,0:0:0:0:
224,160,84210,1,0,0:0:0:0:
224,160,84337,1,0,0:0:0:0:
224,160,84718,1,0,0:0:0:0:
224,160,85099,1,0,0:0:0:0:
288,160,85354,1,8,0:0:0:0:
288,224,86371,5,12,0:0:0:0:
224,160,87896,1,0,0:0:0:0:
288,160,88150,1,8,0:0:0:0:
288,160,88405,1,8,0:0:0:0:
224,160,88786,1,0,0:0:0:0:
224,160,88913,1,0,0:0:0:0:
224,160,89040,1,0,0:0:0:0:
224,160,89167,1,0,0:0:0:0:
288,160,89422,1,8,0:0:0:0:
224,160,90184,1,0,0:0:0:0:
224,160,90311,1,0,0:0:0:0:
224,160,90438,1,0,0:0:0:0:
288,160,91201,1,8,0:0:0:0:
288,160,91328,1,8,0:0:0:0:
288,160,91455,1,8,0:0:0:0:
224,160,92218,1,0,0:0:0:0:
224,160,92345,1,0,0:0:0:0:
224,160,92472,1,0,0:0:0:0:
288,160,92981,1,8,0:0:0:0:
224,160,93235,1,0,0:0:0:0:
288,160,93489,1,8,0:0:0:0:
288,224,94506,1,12,0:0:0:0:
224,160,95777,1,0,0:0:0:0:
288,160,96032,1,8,0:0:0:0:
288,160,96286,1,8,0:0:0:0:
288,160,96540,1,8,0:0:0:0:
288,160,96922,1,8,0:0:0:0:
288,160,97049,1,8,0:0:0:0:
288,160,97176,1,8,0:0:0:0:
288,160,97303,1,8,0:0:0:0:
224,160,97557,1,0,0:0:0:0:
288,160,98320,1,8,0:0:0:0:
288,160,98447,1,8,0:0:0:0:
288,160,98574,1,8,0:0:0:0:
224,160,99337,1,0,0:0:0:0:
224,160,99591,1,0,0:0:0:0:
224,160,100354,1,0,0:0:0:0:
224,160,100481,1,0,0:0:0:0:
224,160,100608,1,0,0:0:0:0:
224,160,100989,1,0,0:0:0:0:
224,160,101371,1,0,0:0:0:0:
288,160,101625,1,8,0:0:0:0:
256,192,101879,12,0,102642,0:0:0:0:
