osu file format v14

[General]
AudioFilename: audio.mp3
AudioLeadIn: 0
PreviewTime: 16663
Countdown: 0
SampleSet: Normal
StackLeniency: 0.7
Mode: 1
LetterboxInBreaks: 0
WidescreenStoryboard: 0

[Editor]
DistanceSpacing: 1.5
BeatDivisor: 4
GridSize: 32
TimelineZoom: 1.4

[Metadata]
Title:bells!
TitleUnicode:bells!
Artist:cYsmix
ArtistUnicode:cYsmix
Creator:davidminh0111
Version:Oni
Source:osu!
Tags:merry xmas x-mas white snow winter orchestra menu theme remix click the circles! nekodex
BeatmapID:1459881
BeatmapSetID:689687

[Difficulty]
HPDrainRate:5.5
CircleSize:2
OverallDifficulty:5
ApproachRate:6
SliderMultiplier:1.4
SliderTickRate:1

[Events]
//Background and Video events
0,0,"BG.jpg",0,0
//Break Periods
//Storyboard Layer 0 (Background)
//Storyboard Layer 1 (Fail)
//Storyboard Layer 2 (Pass)
//Storyboard Layer 3 (Foreground)
//Storyboard Sound Samples

[TimingPoints]
1894,461.538461538462,4,1,0,30,1,0
16663,-90.9090909090909,4,1,0,40,0,0
60970,-100,4,1,0,30,0,0
75740,-100,4,1,0,20,0,0

[HitObjects]
256,192,1894,5,8,0:0:0:0:
256,192,2355,1,0,0:0:0:0:
256,192,2817,1,8,0:0:0:0:
256,192,3278,1,0,0:0:0:0:
256,192,3509,1,8,0:0:0:0:
256,192,3970,1,8,0:0:0:0:
256,192,4201,1,0,0:0:0:0:
256,192,4432,1,8,0:0:0:0:
256,192,4663,1,8,0:0:0:0:
256,192,4894,1,0,0:0:0:0:
256,192,5124,1,0,0:0:0:0:
256,192,5586,1,8,0:0:0:0:
256,192,6047,1,0,0:0:0:0:
256,192,6509,1,8,0:0:0:0:
256,192,6970,1,0,0:0:0:0:
256,192,7201,1,8,0:0:0:0:
256,192,7663,1,8,0:0:0:0:
256,192,7894,1,0,0:0:0:0:
256,192,8124,1,8,0:0:0:0:
256,192,8355,1,8,0:0:0:0:
256,192,8586,1,0,0:0:0:0:
256,192,8817,1,0,0:0:0:0:
256,192,9278,1,8,0:0:0:0:
256,192,9740,1,0,0:0:0:0:
256,192,10201,1,8,0:0:0:0:
256,192,10663,1,0,0:0:0:0:
256,192,10894,1,8,0:0:0:0:
256,192,11355,1,8,0:0:0:0:
256,192,11586,1,0,0:0:0:0:
256,192,11817,1,8,0:0:0:0:
256,192,12047,1,12,0:0:0:0:
256,192,12509,1,0,0:0:0:0:
256,192,12970,1,12,0:0:0:0:
256,192,15047,1,0,0:0:0:0:
256,192,15278,1,8,0:0:0:0:
256,192,15509,1,8,0:0:0:0:
256,192,15740,1,0,0:0:0:0:
256,192,15970,1,8,0:0:0:0:
256,192,16201,1,0,0:0:0:0:
256,192,16663,1,4,0:0:0:0:
256,192,17124,1,0,0:0:0:0:
256,192,17355,1,0,0:0:0:0:
256,192,17470,1,0,0:0:0:0:
256,192,17586,1,8,0:0:0:0:
256,192,18047,1,0,0:0:0:0:
256,192,18278,1,0,0:0:0:0:
256,192,18509,1,8,0:0:0:0:
256,192,18970,1,0,0:0:0:0:
256,192,19201,1,0,0:0:0:0:
256,192,19432,1,8,0:0:0:0:
256,192,19894,1,8,0:0:0:0:
256,192,20355,1,8,0:0:0:0:
256,192,20701,1,8,0:0:0:0:
256,192,21047,1,0,0:0:0:0:
256,192,21278,1,8,0:0:0:0:
256,192,21740,1,0,0:0:0:0:
256,192,21970,1,0,0:0:0:0:
256,192,22201,1,8,0:0:0:0:
256,192,22894,1,0,0:0:0:0:
256,192,23124,1,8,0:0:0:0:
256,192,23586,1,0,0:0:0:0:
256,192,23817,1,8,0:0:0:0:
256,192,24047,1,4,0:0:0:0:
256,192,24509,1,0,0:0:0:0:
256,192,24740,1,0,0:0:0:0:
256,192,24855,1,0,0:0:0:0:
256,192,24970,1,8,0:0:0:0:
256,192,25432,1,8,0:0:0:0:
256,192,25663,1,0,0:0:0:0:
256,192,25894,1,8,0:0:0:0:
256,192,26355,1,8,0:0:0:0:
256,192,26586,1,8,0:0:0:0:
256,192,26817,1,0,0:0:0:0:
256,192,27509,1,8,0:0:0:0:
256,192,27740,1,0,0:0:0:0:
256,192,28201,1,0,0:0:0:0:
256,192,28432,1,0,0:0:0:0:
256,192,28663,1,8,0:0:0:0:
256,192,29124,1,0,0:0:0:0:
256,192,29355,1,8,0:0:0:0:
256,192,29586,1,0,0:0:0:0:
256,192,30047,1,0,0:0:0:0:
256,192,30278,1,0,0:0:0:0:
256,192,30394,1,0,0:0:0:0:
256,192,30509,1,8,0:0:0:0:
256,192,30970,1,0,0:0:0:0:
256,192,31201,1,8,0:0:0:0:
256,192,31432,1,4,0:0:0:0:
256,192,31894,1,0,0:0:0:0:
256,192,32124,1,0,0:0:0:0:
256,192,32240,1,0,0:0:0:0:
256,192,32355,1,8,0:0:0:0:
256,192,32817,1,0,0:0:0:0:
256,192,33047,1,0,0:0:0:0:
256,192,33278,1,8,0:0:0:0:
256,192,33740,1,8,0:0:0:0:
256,192,33970,1,0,0:0:0:0:
256,192,34201,1,8,0:0:0:0:
256,192,34663,1,0,0:0:0:0:
256,192,35124,1,8,0:0:0:0:
256,192,35470,1,8,0:0:0:0:
256,192,35817,1,0,0:0:0:0:
256,192,36047,1,8,0:0:0:0:
256,192,36509,1,0,0:0:0:0:
256,192,36740,1,0,0:0:0:0:
256,192,36970,1,8,0:0:0:0:
256,192,37663,1,0,0:0:0:0:
256,192,37894,1,8,0:0:0:0:
256,192,38355,1,8,0:0:0:0:
256,192,38586,1,8,0:0:0:0:
256,192,38817,1,4,0:0:0:0:
256,192,39278,1,0,0:0:0:0:
256,192,39509,1,0,0:0:0:0:
256,192,39624,1,0,0:0:0:0:
256,192,39740,1,8,0:0:0:0:
256,192,40201,1,8,0:0:0:0:
256,192,40432,1,0,0:0:0:0:
256,192,40663,1,8,0:0:0:0:
256,192,41124,1,0,0:0:0:0:
256,192,41355,1,0,0:0:0:0:
256,192,41586,1,8,0:0:0:0:
256,192,42278,1,8,0:0:0:0:
256,192,42509,1,0,0:0:0:0:
256,192,42970,1,0,0:0:0:0:
256,192,43201,1,0,0:0:0:0:
256,192,43432,1,8,0:0:0:0:
256,192,43894,1,0,0:0:0:0:
256,192,44124,1,8,0:0:0:0:
256,192,44355,1,0,0:0:0:0:
256,192,44817,1,8,0:0:0:0:
256,192,45047,1,0,0:0:0:0:
256,192,45163,1,0,0:0:0:0:
256,192,45278,1,8,0:0:0:0:
256,192,45740,1,0,0:0:0:0:
256,192,46201,1,12,0:0:0:0:
256,192,46663,1,0,0:0:0:0:
256,192,46894,1,0,0:0:0:0:
256,192,47009,1,0,0:0:0:0:
256,192,47124,1,8,0:0:0:0:
256,192,47586,1,8,0:0:0:0:
256,192,47817,1,0,0:0:0:0:
256,192,48047,1,8,0:0:0:0:
256,192,48509,1,0,0:0:0:0:
256,192,48740,1,0,0:0:0:0:
256,192,48970,1,8,0:0:0:0:
256,192,49432,1,8,0:0:0:0:
256,192,49663,1,0,0:0:0:0:
256,192,49894,1,8,0:0:0:0:
256,192,50009,1,8,0:0:0:0:
256,192,50355,1,0,0:0:0:0:
256,192,50586,1,0,0:0:0:0:
256,192,50817,1,8,0:0:0:0:
256,192,51278,1,8,0:0:0:0:
256,192,51509,1,0,0:0:0:0:
256,192,51624,1,0,0:0:0:0:
256,192,51740,1,8,0:0:0:0:
256,192,52201,1,8,0:0:0:0:
256,192,52432,1,0,0:0:0:0:
256,192,52663,1,8,0:0:0:0:
256,192,53124,1,0,0:0:0:0:
256,192,53355,1,0,0:0:0:0:
256,192,53586,1,8,0:0:0:0:
256,192,53701,1,0,0:0:0:0:
256,192,54047,1,0,0:0:0:0:
256,192,54278,1,0,0:0:0:0:
256,192,54509,1,8,0:0:0:0:
256,192,54970,1,8,0:0:0:0:
256,192,55201,1,0,0:0:0:0:
256,192,55317,1,0,0:0:0:0:
256,192,55432,1,8,0:0:0:0:
256,192,55894,1,0,0:0:0:0:
256,192,56124,1,8,0:0:0:0:
256,192,56355,1,8,0:0:0:0:
256,192,56817,1,0,0:0:0:0:
256,192,57047,1,0,0:0:0:0:
256,192,57278,1,8,0:0:0:0:
256,192,57394,1,0,0:0:0:0:
256,192,57740,1,8,0:0:0:0:
256,192,57970,1,0,0:0:0:0:
256,192,58201,1,8,0:0:0:0:
256,192,58663,1,0,0:0:0:0:
256,192,58894,1,0,0:0:0:0:
256,192,59009,1,0,0:0:0:0:
256,192,59124,1,8,0:0:0:0:
256,192,59586,1,8,0:0:0:0:
256,192,59817,1,8,0:0:0:0:
256,192,60047,1,8,0:0:0:0:
256,192,60509,1,0,0:0:0:0:
256,192,60970,1,4,0:0:0:0:
256,192,61894,1,8,0:0:0:0:
256,192,62817,1,0,0:0:0:0:
256,192,63740,1,8,0:0:0:0:
256,192,64663,1,8,0:0:0:0:
256,192,65355,1,0,0:0:0:0:
256,192,66047,1,8,0:0:0:0:
256,192,66740,1,0,0:0:0:0:
256,192,66970,1,8,0:0:0:0:
256,192,67432,1,0,0:0:0:0:
256,192,67894,1,8,0:0:0:0:
256,192,68355,1,4,0:0:0:0:
256,192,68817,1,0,0:0:0:0:
256,192,69278,1,8,0:0:0:0:
256,192,69740,1,8,0:0:0:0:
256,192,69970,1,0,0:0:0:0:
256,192,70201,1,8,0:0:0:0:
256,192,70663,1,0,0:0:0:0:
256,192,71124,1,0,0:0:0:0:
256,192,71586,1,8,0:0:0:0:
256,192,72047,1,0,0:0:0:0:
256,192,72970,12,0,75740,0:0:0:0:
