osu file format v14

[General]
AudioFilename: audio.mp3
AudioLeadIn: 0
PreviewTime: 16663
Countdown: 0
SampleSet: Normal
StackLeniency: 0.7
Mode: 1
LetterboxInBreaks: 0
WidescreenStoryboard: 0

[Editor]
DistanceSpacing: 1.3
BeatDivisor: 4
GridSize: 32
TimelineZoom: 1.4

[Metadata]
Title:bells!
TitleUnicode:bells!
Artist:cYsmix
ArtistUnicode:cYsmix
Creator:davidminh0111
Version:Kantan
Source:osu!
Tags:merry xmas x-mas white snow winter orchestra menu theme remix click the circles! nekodex
BeatmapID:1459879
BeatmapSetID:689687

[Difficulty]
HPDrainRate:8
CircleSize:2
OverallDifficulty:2
ApproachRate:6
SliderMultiplier:1.4
SliderTickRate:1

[Events]
//Background and Video events
0,0,"BG.jpg",0,0
//Break Periods
//Storyboard Layer 0 (Background)
//Storyboard Layer 1 (Fail)
//Storyboard Layer 2 (Pass)
//Storyboard Layer 3 (Foreground)
//Storyboard Sound Samples

[TimingPoints]
1894,461.538461538462,4,1,0,30,1,0
16663,-100,4,1,0,40,0,0
60970,-100,4,1,0,30,0,0
75740,-100,4,1,0,20,0,0

[HitObjects]
256,192,1894,5,0,0:0:0:0:
256,192,2817,1,8,0:0:0:0:
256,192,4201,1,8,0:0:0:0:
256,192,4663,1,8,0:0:0:0:
256,192,5586,1,8,0:0:0:0:
256,192,6509,1,0,0:0:0:0:
256,192,7894,1,0,0:0:0:0:
256,192,8355,1,0,0:0:0:0:
256,192,9278,1,0,0:0:0:0:
256,192,10201,1,8,0:0:0:0:
256,192,11586,1,0,0:0:0:0:
256,192,12047,1,12,0:0:0:0:
256,192,12970,1,12,0:0:0:0:
256,192,16663,1,4,0:0:0:0:
256,192,17586,1,8,0:0:0:0:
256,192,18509,1,0,0:0:0:0:
256,192,19432,1,0,0:0:0:0:
256,192,19894,1,0,0:0:0:0:
256,192,20355,1,8,0:0:0:0:
256,192,21278,1,8,0:0:0:0:
256,192,22201,1,0,0:0:0:0:
256,192,23124,1,8,0:0:0:0:
256,192,23586,1,0,0:0:0:0:
256,192,24047,1,0,0:0:0:0:
256,192,24970,1,8,0:0:0:0:
256,192,25894,1,0,0:0:0:0:
256,192,26817,1,8,0:0:0:0:
256,192,27278,1,0,0:0:0:0:
256,192,27740,1,0,0:0:0:0:
256,192,28663,1,8,0:0:0:0:
256,192,29586,1,0,0:0:0:0:
256,192,31432,1,0,0:0:0:0:
256,192,32355,1,8,0:0:0:0:
256,192,33278,1,0,0:0:0:0:
256,192,34201,1,8,0:0:0:0:
256,192,34663,1,0,0:0:0:0:
256,192,35124,1,8,0:0:0:0:
256,192,36047,1,0,0:0:0:0:
256,192,36970,1,8,0:0:0:0:
256,192,37894,1,0,0:0:0:0:
256,192,38355,1,8,0:0:0:0:
256,192,38817,1,0,0:0:0:0:
256,192,39740,1,8,0:0:0:0:
256,192,40663,1,0,0:0:0:0:
256,192,41586,1,0,0:0:0:0:
256,192,42047,1,0,0:0:0:0:
256,192,42509,1,8,0:0:0:0:
256,192,44355,1,0,0:0:0:0:
256,192,45278,1,8,0:0:0:0:
256,192,45740,1,0,0:0:0:0:
256,192,46201,1,8,0:0:0:0:
256,192,47124,1,0,0:0:0:0:
256,192,48047,1,0,0:0:0:0:
256,192,48970,1,8,0:0:0:0:
256,192,49432,1,0,0:0:0:0:
256,192,49894,1,8,0:0:0:0:
256,192,50817,1,8,0:0:0:0:
256,192,51740,1,0,0:0:0:0:
256,192,52663,1,8,0:0:0:0:
256,192,53124,1,8,0:0:0:0:
256,192,53586,1,0,0:0:0:0:
256,192,54509,1,0,0:0:0:0:
256,192,55432,1,8,0:0:0:0:
256,192,56355,1,8,0:0:0:0:
256,192,56817,1,8,0:0:0:0:
256,192,57278,1,0,0:0:0:0:
256,192,58201,1,8,0:0:0:0:
256,192,59124,12,0,60509,0:0:0:0:
256,192,60970,5,0,0:0:0:0:
256,192,63740,1,8,0:0:0:0:
256,192,64663,1,8,0:0:0:0:
256,192,65586,1,0,0:0:0:0:
256,192,66509,1,8,0:0:0:0:
256,192,68355,1,4,0:0:0:0:
256,192,71124,1,0,0:0:0:0:
256,192,71586,1,8,0:0:0:0:
256,192,72047,1,0,0:0:0:0:
256,192,72970,12,0,75740,0:0:0:0:
