osu file format v14

[General]
AudioFilename: audio.mp3
AudioLeadIn: 0
PreviewTime: 16663
Countdown: 1
SampleSet: None
StackLeniency: 0.7
Mode: 0
LetterboxInBreaks: 0
WidescreenStoryboard: 0

[Editor]
DistanceSpacing: 1.3
BeatDivisor: 4
GridSize: 4
TimelineZoom: 1

[Metadata]
Title:bells!
TitleUnicode:bells!
Artist:cYsmix
ArtistUnicode:cYsmix
Creator:BoatKrab
Version:easy!
Source:
Tags:
BeatmapID:1165681
BeatmapSetID:550231

[Difficulty]
HPDrainRate:2
CircleSize:3
OverallDifficulty:2
ApproachRate:2
SliderMultiplier:1.4
SliderTickRate:1

[Events]
//Background and Video events
0,0,"15676525_1131336056987638_4736980780201659328_o.jpg",0,0
//Break Periods
//Storyboard Layer 0 (Background)
//Storyboard Layer 1 (Fail)
//Storyboard Layer 2 (Pass)
//Storyboard Layer 3 (Foreground)
//Storyboard Sound Samples

[TimingPoints]
1894,923.076923076923,4,2,1,40,1,0
16663,-100,4,2,1,40,0,1
29586,-100,4,2,1,40,0,0
31432,-100,4,2,1,40,0,1
46201,-100,4,2,1,40,0,0

[HitObjects]
175,232,1894,6,0,P|144:247|123:274,1,70,2|0,0:0|0:0,0:0:0:0:
204,320,2817,2,0,L|343:308,2,140,2|2|2,0:0|0:0|0:0,0:0:0:0:
123,274,5124,1,0,0:0:0:0:
168,196,5586,6,0,L|161:126,1,70,2|0,0:0|0:0,0:0:0:0:
224,60,6509,2,0,P|278:100|346:90,1,140,2|2,0:0|0:0,0:0:0:0:
428,52,7893,2,0,P|407:24|376:7,2,70,0|2|0,0:0|0:0|0:0,0:0:0:0:
420,144,9278,6,0,B|400:212|400:212|416:280,1,140,2|2,0:0|0:0,0:0:0:0:
460,360,10663,1,0,0:0:0:0:
368,360,11124,2,0,L|296:372,2,70,2|0|2,0:0|0:0|0:0,0:0:0:0:
415,279,12509,1,0,0:0:0:0:
344,224,12970,6,0,B|292:232|292:232|260:228|260:228|205:235,1,140,2|2,0:0|0:0,0:0:0:0:
148,304,14355,1,0,0:0:0:0:
67,259,14817,2,0,P|43:196|72:134,1,140,2|2,0:0|0:0,0:0:0:0:
243,67,16663,6,0,P|299:107|365:90,1,140,4|2,0:0|0:0,0:0:0:0:
444,44,18047,1,0,0:0:0:0:
444,136,18509,2,0,L|448:208,1,70,2|0,0:0|0:0,0:0:0:0:
376,260,19432,2,0,L|379:329,1,70,2|0,0:0|0:0,0:0:0:0:
292,352,20355,6,0,B|256:336|256:336|156:351,1,140,6|2,0:0|0:0,0:0:0:0:
84,296,21740,1,0,0:0:0:0:
152,236,22201,2,0,P|159:201|153:167,2,70,2|0|2,0:0|0:0|0:0,0:0:0:0:
68,200,23586,1,0,0:0:0:0:
80,107,24047,6,0,P|139:73|206:87,1,140,6|2,0:0|0:0,0:0:0:0:
268,156,25432,1,0,0:0:0:0:
340,100,25893,2,0,L|336:24,1,70,2|0,0:0|0:0,0:0:0:0:
428,40,26817,2,0,L|431:109,1,70,2|0,0:0|0:0,0:0:0:0:
488,180,27740,6,0,P|466:244|406:276,1,140,4|2,0:0|0:0,0:0:0:0:
340,216,29124,1,0,0:0:0:0:
320,304,29586,2,0,B|232:320|232:320|184:303,1,140,2|0,0:0|0:0,0:0:0:0:
183,303,31432,6,0,P|208:238|180:176,1,140,6|2,0:0|0:0,0:0:0:0:
104,128,32817,1,0,0:0:0:0:
184,84,33278,2,0,L|180:8,2,70,2|0|2,0:0|0:0|0:0,0:0:0:0:
184,176,34663,1,0,0:0:0:0:
263,132,35124,6,0,P|326:104|390:126,1,140,4|2,0:0|0:0,0:0:0:0:
444,200,36509,1,0,0:0:0:0:
380,264,36970,2,0,L|386:333,2,70,2|0|2,0:0|0:0|0:0,0:0:0:0:
328,188,38355,1,2,0:0:0:0:
276,260,38817,6,2,B|232:284|224:308|224:308|204:296|157:310,1,140,6|2,0:0|0:0,0:0:0:0:
76,348,40201,1,0,0:0:0:0:
20,276,40663,2,0,L|23:206,1,70,2|0,0:0|0:0,0:0:0:0:
95,151,41586,2,0,P|128:164|162:157,1,70,2|0,0:0|0:0,0:0:0:0:
216,84,42509,6,0,P|248:144|231:211,1,140,4|2,0:0|0:0,0:0:0:0:
168,276,43894,1,0,0:0:0:0:
236,340,44355,2,0,L|312:340,1,70
379,288,45278,2,0,P|385:253|378:219,1,70,2|0,0:0|0:0,0:0:0:0:
312,159,46201,6,0,P|372:129|437:150,2,140,4|2|2,0:0|0:0|0:0,0:0:0:0:
264,236,48509,1,0,0:0:0:0:
196,175,48970,2,0,P|161:176|127:167,1,70,2|2,0:0|0:0,0:0:0:0:
64,103,49894,6,0,P|34:165|59:228,1,140,2|2,0:0|0:0,0:0:0:0:
132,284,51278,1,0,0:0:0:0:
196,220,51740,2,0,P|230:212|264:211,1,70,2|0,0:0|0:0,0:0:0:0:
332,272,52663,2,0,L|328:341,1,70,2|2,0:0|0:0,0:0:0:0:
416,320,53586,6,0,B|420:224|420:224|440:184,1,140,4|2,0:0|0:0,0:0:0:0:
492,112,54970,1,0,0:0:0:0:
420,55,55432,2,0,P|386:64|352:55,1,70,2|0,0:0|0:0,0:0:0:0:
264,32,56355,2,0,P|230:22|196:31,1,70,2|2,0:0|0:0,0:0:0:0:
128,92,57278,6,0,L|136:236,1,140,4|2,0:0|0:0,0:0:0:0:
216,276,58663,1,0,0:0:0:0:
152,340,59124,2,0,L|80:336,2,70,0|0|2,0:0|0:0|0:0,0:0:0:0:
216,276,60509,1,0,0:0:0:0:
296,316,60970,6,0,P|456:243|319:133,1,420,2|2,0:0|0:0,0:0:0:0:
319,132,64663,6,0,B|268:148|243:198|243:198|219:166|219:166|223:126|223:126|187:102|187:102|135:122|135:122|87:138|49:115|49:115|52:144|34:163|34:163|59:190|55:226,1,490,0|2,0:0|0:0,0:0:0:0:
55,224,68355,6,0,B|75:266|75:266|64:304|71:338|71:338|111:322|151:322|151:322|203:350|255:342|283:318|283:318|231:306|217:277,1,420,4|2,0:0|0:0,0:0:0:0:
292,220,71586,1,2,0:0:0:0:
237,147,72047,2,0,P|303:130|363:164,1,140,0|4,0:0|0:0,0:0:0:0:
256,192,73201,12,2,75740,0:0:0:0:
