osu file format v14

[General]
AudioFilename: audio.mp3
AudioLeadIn: 0
PreviewTime: 16547
Countdown: 0
SampleSet: Soft
StackLeniency: 0.7
Mode: 2
LetterboxInBreaks: 0
WidescreenStoryboard: 1

[Editor]
Bookmarks: 35129
DistanceSpacing: 1.3
BeatDivisor: 16
GridSize: 4
TimelineZoom: 1

[Metadata]
Title:bells!
TitleUnicode:bells!
Artist:cYsmix
ArtistUnicode:cYsmix
Creator:Ascendance
Version:hexbible's cup!
Source:osu!
Tags:merry xmas x-mas white snow winter orchestra menu theme remix click the circles! nekodex -hex- chickenbible mbomb -_magic_bomb_-
BeatmapID:1857440
BeatmapSetID:888644

[Difficulty]
HPDrainRate:3
CircleSize:2.7
OverallDifficulty:5.5
ApproachRate:5.5
SliderMultiplier:2.3
SliderTickRate:0.5

[Events]
//Background and Video events
0,0,"65980708_p0_master1200.jpg",0,0
//Break Periods
//Storyboard Layer 0 (Background)
//Storyboard Layer 1 (Fail)
//Storyboard Layer 2 (Pass)
//Storyboard Layer 3 (Foreground)
//Storyboard Sound Samples

[TimingPoints]
1899,923.076923076923,4,2,1,60,1,0
20591,-100,4,2,1,5,0,0
20706,-100,4,2,1,60,0,0
20937,-100,4,2,1,5,0,0
21052,-100,4,2,1,60,0,0
35360,-100,4,2,1,5,0,0
35475,-100,4,2,1,60,0,0
35706,-100,4,2,1,5,0,0
35822,-100,4,2,1,60,0,0
72975,-100,4,2,1,50,0,0
73091,-100,4,2,1,40,0,0
73899,-100,4,2,1,30,0,0
74822,-100,4,2,1,20,0,0
75860,-100,4,2,1,10,0,0

[Colours]
Combo1 : 255,255,128
Combo2 : 223,191,255
Combo3 : 255,146,94
Combo4 : 145,72,72

[HitObjects]
236,249,1899,6,0,L|101:249,2,115,2|0|2,0:0|0:0|0:0,0:0:0:0:
397,110,3283,2,0,L|396:199,1,57.5,0|2,0:0|0:0,0:0:0:0:
235,49,3975,2,0,P|164:65|239:208,1,287.5,0|0,0:0|0:0,0:0:0:0:
398,138,5591,6,0,L|263:138,2,115,2|0|2,0:0|0:0|0:0,0:0:0:0:
237,64,6975,2,0,L|236:158,1,57.5,0|2,0:0|0:0,0:0:0:0:
398,85,7668,2,0,P|469:101|394:244,1,287.5
247,175,9283,6,0,L|382:175,2,115,2|0|2,0:0|0:0|0:0,0:0:0:0:
86,55,10668,2,0,L|86:134,1,57.5,0|2,0:0|0:0,0:0:0:0:
247,93,11360,6,0,L|329:93,1,57.5,0|2,0:0|0:0,0:0:0:0:
120,55,12052,2,0,L|71:99,2,57.5,2|0|2,0:0|0:0|0:0,0:0:0:0:
293,156,12975,6,0,L|455:156,1,115,2|0,0:0|0:0,0:0:0:0:
260,48,13898,2,0,L|98:48,1,115,2|2,0:0|0:0,0:0:0:0:
191,120,14591,1,0,0:0:0:0:
352,238,15052,6,0,L|451:238,2,57.5,0|2|0,0:0|0:0|0:0,0:0:0:0:
266,231,15745,2,0,L|267:148,1,57.5,2|0,0:0|0:0,0:0:0:0:
359,137,16206,1,2,0:0:0:0:
175,82,16668,5,2,0:0:0:0:
337,68,17129,2,0,B|406:109|406:110|344:71,1,115,0|2,0:0|0:0,0:0:0:0:
170,113,18052,2,0,B|101:154|101:155|163:116,1,115,0|2,0:0|0:0,0:0:0:0:
331,58,18975,5,0,0:0:0:0:
170,113,19437,2,0,L|308:114,1,115,2|2,0:0|0:0,0:0:0:0:
394,196,20360,6,0,L|304:196,2,86.25,2|2|2,0:0|0:0|0:0,0:0:0:0:
301,104,21283,1,2,0:0:0:0:
146,88,21745,6,0,B|77:129|77:130|139:91,1,115,0|2,0:0|0:0,0:0:0:0:
301,104,22668,2,0,B|370:145|370:146|308:107,1,115,0|2,0:0|0:0,0:0:0:0:
146,51,23591,2,0,L|219:52,1,57.5
301,47,24052,5,2,0:0:0:0:
140,159,24514,2,0,P|245:159|265:119,1,115,0|2,0:0|0:0,0:0:0:0:
416,125,25437,2,0,P|311:125|291:85,1,115,0|2,0:0|0:0,0:0:0:0:
139,68,26360,5,0,0:0:0:0:
241,54,26822,2,0,P|296:104|238:166,1,172.5,2|2,0:0|0:0,0:0:0:0:
139,68,27745,5,2,0:0:0:0:
312,167,28206,2,0,P|207:167|187:127,1,115,0|2,0:0|0:0,0:0:0:0:
47,138,29129,1,0,0:0:0:0:
208,54,29591,5,2,0:0:0:0:
334,186,30052,2,0,P|371:149|327:104,1,115
178,160,30975,1,0,0:0:0:0:
332,100,31437,5,2,0:0:0:0:
171,101,31898,2,0,B|102:142|102:143|164:104,1,115,0|2,0:0|0:0,0:0:0:0:
316,95,32822,2,0,B|385:136|385:137|323:98,1,115,0|2,0:0|0:0,0:0:0:0:
185,177,33745,1,0,0:0:0:0:
334,86,34206,5,2,0:0:0:0:
183,88,34668,1,2,0:0:0:0:
344,300,35129,6,0,L|444:301,1,86.25,2|2,0:0|0:0,0:0:0:0:
300,199,35822,2,0,P|266:139|417:42,1,287.5,2|2,0:0|0:0,0:0:0:0:
260,315,37437,1,0,0:0:0:0:
415,183,37898,1,2,0:0:0:0:
248,92,38360,2,0,L|179:80,1,57.5,2|2,0:0|0:0,0:0:0:0:
99,97,38822,6,0,P|69:150|189:229,2,230,2|2|2,0:0|0:0|0:0,0:0:0:0:
376,320,41591,1,2,0:0:0:0:
144,124,42283,1,2,0:0:0:0:
49,61,42514,6,0,P|47:175|148:183,1,230,2|2,0:0|0:0,0:0:0:0:
310,347,43898,2,0,L|325:273,1,57.5,2|2,0:0|0:0,0:0:0:0:
235,187,44360,1,2,0:0:0:0:
488,314,45283,2,0,L|363:300,1,115,2|2,0:0|0:0,0:0:0:0:
155,297,46206,6,0,P|142:224|438:45,1,460,2|2,0:0|0:0,0:0:0:0:
182,321,48975,2,0,L|83:257,1,115,2|2,0:0|0:0,0:0:0:0:
299,335,49898,6,0,P|379:271|202:60,1,460,2|2,0:0|0:0,0:0:0:0:
460,318,52668,2,0,L|325:293,1,115,2|2,0:0|0:0,0:0:0:0:
123,329,53591,6,0,P|103:252|389:74,1,460,2|2,0:0|0:0,0:0:0:0:
132,325,56360,2,0,P|96:276|104:211,1,115,2|2,0:0|0:0,0:0:0:0:
259,318,57283,6,0,P|366:324|362:48,1,460,2|2,0:0|0:0,0:0:0:0:
136,133,60052,1,2,0:0:0:0:
480,334,60975,6,0,P|493:233|299:124,1,345,2|0,0:0|0:0,0:0:0:0:
182,247,62822,1,2,0:0:0:0:
308,336,63283,1,0,0:0:0:0:
452,266,63745,2,0,B|510:263|510:263|443:268|443:268,1,115,2|0,0:0|0:0,0:0:0:0:
252,155,64668,6,0,P|166:143|66:124,1,186.875,2|2,0:0|0:0,0:0:0:0:
252,155,66052,1,0,0:0:0:0:
390,340,66514,2,0,L|399:218,1,115,0|2,0:0|0:0,0:0:0:0:
255,151,67437,2,0,L|139:135,1,115,2|2,0:0|0:0,0:0:0:0:
360,338,68360,6,0,P|468:285|297:91,1,460,2|0,0:0|0:0,0:0:0:0:
194,283,70668,1,2,0:0:0:0:
338,352,71129,2,0,L|359:220,1,115,2|2,0:0|0:0,0:0:0:0:
224,192,72052,5,2,0:0:0:0:
256,192,72975,12,2,75860,0:0:0:0:
