osu file format v14

[General]
AudioFilename: cYsmix.mp3
AudioLeadIn: 0
PreviewTime: 75066
Countdown: 0
SampleSet: Normal
StackLeniency: 0.7
Mode: 1
LetterboxInBreaks: 0
WidescreenStoryboard: 0

[Editor]
DistanceSpacing: 1.2
BeatDivisor: 4
GridSize: 32
TimelineZoom: 1.5

[Metadata]
Title:Uranaishi
TitleUnicode:占い師
Artist:cYsmix
ArtistUnicode:cYsmix
Creator:Dainesl
Version:Taiko Oni (2014)
Source:東方神霊廟 ~ Ten Desires.
Tags:ZUN 上海アリス幻樂団 Team Shanghai Alice 東方Project shinreibyou electronic progressive trance Haunted House Fortune Teller Yuyuko Saigyouji 西行寺幽々子 Touhou 東方プロジェクト
BeatmapID:1184466
BeatmapSetID:560099

[Difficulty]
HPDrainRate:6
CircleSize:5
OverallDifficulty:6
ApproachRate:5
SliderMultiplier:1.8
SliderTickRate:1

[Events]
//Background and Video events
0,0,"BGDOYOURJOB.jpg",0,100
//Break Periods
//Storyboard Layer 0 (Background)
//Storyboard Layer 1 (Fail)
//Storyboard Layer 2 (Pass)
//Storyboard Layer 3 (Foreground)
//Storyboard Sound Samples

[TimingPoints]
66,468.75,4,1,0,70,1,0
30066,-100,4,1,0,80,0,0
75066,-100,4,1,0,100,0,1
105066,-100,4,1,0,80,0,0
127800,-99.009900990099,4,1,0,81,0,0
128269,-98.0392156862745,4,1,0,82,0,0
128737,-97.0873786407767,4,1,0,83,0,0
129206,-96.1538461538461,4,1,0,84,0,0
129675,-95.2380952380952,4,1,0,85,0,0
130144,-94.3396226415094,4,1,0,86,0,0
130612,-93.4579439252336,4,1,0,87,0,0
131081,-92.5925925925926,4,1,0,88,0,0
131550,-91.743119266055,4,1,0,89,0,0
132019,-90.9090909090909,4,1,0,90,0,0
132487,-90.0900900900901,4,1,0,90,0,0
132956,-89.2857142857143,4,1,0,90,0,0
133425,-100,4,1,0,90,0,0
135066,-100,4,1,0,100,0,1
180066,-100,4,1,0,90,0,0
210066,-100,4,1,0,70,0,0

[HitObjects]
256,192,66,5,12,0:0:0:0:
256,192,300,1,0,0:0:0:0:
256,192,534,1,0,0:0:0:0:
256,192,769,1,8,0:0:0:0:
256,192,1003,1,0,0:0:0:0:
256,192,1355,1,8,0:0:0:0:
256,192,1472,1,0,0:0:0:0:
256,192,1706,1,8,0:0:0:0:
256,192,1941,1,0,0:0:0:0:
256,192,2175,1,0,0:0:0:0:
256,192,2409,1,0,0:0:0:0:
256,192,2644,1,8,0:0:0:0:
256,192,2878,1,0,0:0:0:0:
256,192,3230,1,8,0:0:0:0:
256,192,3347,1,0,0:0:0:0:
256,192,3581,1,8,0:0:0:0:
256,192,3816,1,0,0:0:0:0:
256,192,4050,1,0,0:0:0:0:
256,192,4284,1,0,0:0:0:0:
256,192,4519,1,8,0:0:0:0:
256,192,4753,1,0,0:0:0:0:
256,192,5105,1,8,0:0:0:0:
256,192,5222,1,0,0:0:0:0:
256,192,5456,1,8,0:0:0:0:
256,192,5691,1,0,0:0:0:0:
256,192,5925,1,0,0:0:0:0:
256,192,6159,1,8,0:0:0:0:
256,192,6394,1,8,0:0:0:0:
256,192,6628,1,0,0:0:0:0:
256,192,6980,1,8,0:0:0:0:
256,192,7097,1,0,0:0:0:0:
256,192,7331,1,8,0:0:0:0:
256,192,7566,1,0,0:0:0:0:
256,192,7800,1,0,0:0:0:0:
256,192,8034,1,0,0:0:0:0:
256,192,8269,1,8,0:0:0:0:
256,192,8503,1,0,0:0:0:0:
256,192,8855,1,8,0:0:0:0:
256,192,8972,1,0,0:0:0:0:
256,192,9206,1,8,0:0:0:0:
256,192,9441,1,0,0:0:0:0:
256,192,9675,1,0,0:0:0:0:
256,192,9909,1,0,0:0:0:0:
256,192,10144,1,8,0:0:0:0:
256,192,10378,1,0,0:0:0:0:
256,192,10730,1,8,0:0:0:0:
256,192,10847,1,0,0:0:0:0:
256,192,11081,1,8,0:0:0:0:
256,192,11316,1,0,0:0:0:0:
256,192,11550,1,0,0:0:0:0:
256,192,11784,1,0,0:0:0:0:
256,192,12019,1,8,0:0:0:0:
256,192,12253,1,0,0:0:0:0:
256,192,12605,1,8,0:0:0:0:
256,192,12722,1,0,0:0:0:0:
256,192,12956,1,8,0:0:0:0:
256,192,13191,1,0,0:0:0:0:
256,192,13425,1,0,0:0:0:0:
256,192,13659,1,0,0:0:0:0:
256,192,13894,1,8,0:0:0:0:
256,192,14128,1,0,0:0:0:0:
256,192,14480,1,8,0:0:0:0:
256,192,14597,1,0,0:0:0:0:
256,192,14831,1,8,0:0:0:0:
256,192,15066,1,0,0:0:0:0:
256,192,15183,1,8,0:0:0:0:
256,192,15300,1,8,0:0:0:0:
256,192,15417,1,0,0:0:0:0:
256,192,15534,1,8,0:0:0:0:
256,192,15652,1,8,0:0:0:0:
256,192,15769,1,0,0:0:0:0:
256,192,15886,1,8,0:0:0:0:
256,192,16003,1,0,0:0:0:0:
256,192,16120,1,8,0:0:0:0:
256,192,16355,1,0,0:0:0:0:
256,192,16472,1,8,0:0:0:0:
256,192,16941,1,0,0:0:0:0:
256,192,17175,1,8,0:0:0:0:
256,192,17409,1,0,0:0:0:0:
256,192,17644,1,8,0:0:0:0:
256,192,17878,1,0,0:0:0:0:
256,192,17995,1,8,0:0:0:0:
256,192,18230,1,0,0:0:0:0:
256,192,18347,1,8,0:0:0:0:
256,192,18464,1,8,0:0:0:0:
256,192,18581,1,0,0:0:0:0:
256,192,18698,1,0,0:0:0:0:
256,192,18816,1,0,0:0:0:0:
256,192,18933,1,8,0:0:0:0:
256,192,19050,1,8,0:0:0:0:
256,192,19167,1,0,0:0:0:0:
256,192,19284,1,8,0:0:0:0:
256,192,19402,1,8,0:0:0:0:
256,192,19519,1,0,0:0:0:0:
256,192,19636,1,8,0:0:0:0:
256,192,19753,1,0,0:0:0:0:
256,192,19870,1,8,0:0:0:0:
256,192,20105,1,0,0:0:0:0:
256,192,20222,1,8,0:0:0:0:
256,192,20691,1,0,0:0:0:0:
256,192,20925,1,8,0:0:0:0:
256,192,21159,1,0,0:0:0:0:
256,192,21394,1,8,0:0:0:0:
256,192,21628,1,0,0:0:0:0:
256,192,21745,1,8,0:0:0:0:
256,192,21980,1,8,0:0:0:0:
256,192,22097,1,0,0:0:0:0:
256,192,22566,1,0,0:0:0:0:
256,192,22683,1,8,0:0:0:0:
256,192,22800,1,8,0:0:0:0:
256,192,22917,1,0,0:0:0:0:
256,192,23034,1,8,0:0:0:0:
256,192,23152,1,8,0:0:0:0:
256,192,23269,1,0,0:0:0:0:
256,192,23386,1,8,0:0:0:0:
256,192,23503,1,0,0:0:0:0:
256,192,23620,1,8,0:0:0:0:
256,192,23855,1,0,0:0:0:0:
256,192,23972,1,8,0:0:0:0:
256,192,24441,1,0,0:0:0:0:
256,192,24675,1,8,0:0:0:0:
256,192,24909,1,0,0:0:0:0:
256,192,25144,1,8,0:0:0:0:
256,192,25378,1,0,0:0:0:0:
256,192,25495,1,8,0:0:0:0:
256,192,25730,1,0,0:0:0:0:
256,192,25847,1,8,0:0:0:0:
256,192,25964,1,8,0:0:0:0:
256,192,26081,1,0,0:0:0:0:
256,192,26316,1,0,0:0:0:0:
256,192,26433,1,8,0:0:0:0:
256,192,26550,1,8,0:0:0:0:
256,192,26667,1,0,0:0:0:0:
256,192,26784,1,8,0:0:0:0:
256,192,26902,1,8,0:0:0:0:
256,192,27019,1,8,0:0:0:0:
256,192,27136,1,8,0:0:0:0:
256,192,27253,1,0,0:0:0:0:
256,192,27370,1,8,0:0:0:0:
256,192,27487,1,8,0:0:0:0:
256,192,27605,1,0,0:0:0:0:
256,192,27722,1,8,0:0:0:0:
256,192,27839,1,8,0:0:0:0:
256,192,27956,1,8,0:0:0:0:
256,192,28073,1,8,0:0:0:0:
256,192,28191,1,0,0:0:0:0:
256,192,28425,1,0,0:0:0:0:
256,192,28659,1,8,0:0:0:0:
256,192,28894,1,8,0:0:0:0:
256,192,28972,1,8,0:0:0:0:
256,192,29050,1,8,0:0:0:0:
256,192,29128,1,0,0:0:0:0:
256,192,29245,1,8,0:0:0:0:
256,192,29362,1,0,0:0:0:0:
256,192,29480,1,0,0:0:0:0:
256,192,29597,1,8,0:0:0:0:
256,192,29714,1,8,0:0:0:0:
256,192,29831,1,8,0:0:0:0:
256,192,30066,1,0,0:0:0:0:
256,192,30300,1,8,0:0:0:0:
256,192,30417,1,8,0:0:0:0:
256,192,30534,1,0,0:0:0:0:
256,192,30652,1,0,0:0:0:0:
256,192,30769,1,0,0:0:0:0:
256,192,30886,1,8,0:0:0:0:
256,192,31120,1,0,0:0:0:0:
256,192,31237,1,8,0:0:0:0:
256,192,31355,1,0,0:0:0:0:
256,192,31472,1,0,0:0:0:0:
256,192,31706,1,0,0:0:0:0:
256,192,31941,1,0,0:0:0:0:
256,192,32058,1,0,0:0:0:0:
256,192,32175,1,0,0:0:0:0:
256,192,32292,1,0,0:0:0:0:
256,192,32409,1,8,0:0:0:0:
256,192,32644,1,0,0:0:0:0:
256,192,32761,1,8,0:0:0:0:
256,192,32995,1,0,0:0:0:0:
256,192,33112,1,8,0:0:0:0:
256,192,33230,1,8,0:0:0:0:
256,192,33347,1,8,0:0:0:0:
256,192,33816,1,0,0:0:0:0:
256,192,34050,1,8,0:0:0:0:
256,192,34167,1,8,0:0:0:0:
256,192,34284,1,0,0:0:0:0:
256,192,34402,1,0,0:0:0:0:
256,192,34519,1,0,0:0:0:0:
256,192,34636,1,8,0:0:0:0:
256,192,34870,1,0,0:0:0:0:
256,192,34987,1,8,0:0:0:0:
256,192,35105,1,0,0:0:0:0:
256,192,35222,1,0,0:0:0:0:
256,192,35691,1,0,0:0:0:0:
256,192,35925,1,8,0:0:0:0:
256,192,36042,1,8,0:0:0:0:
256,192,36159,1,0,0:0:0:0:
256,192,36394,1,8,0:0:0:0:
256,192,36472,1,8,0:0:0:0:
256,192,36550,1,8,0:0:0:0:
256,192,36628,1,0,0:0:0:0:
256,192,36745,1,8,0:0:0:0:
256,192,36862,1,8,0:0:0:0:
256,192,36980,1,0,0:0:0:0:
256,192,37097,1,0,0:0:0:0:
256,192,37331,1,12,0:0:0:0:
256,192,37566,1,0,0:0:0:0:
256,192,37800,1,8,0:0:0:0:
256,192,37917,1,8,0:0:0:0:
256,192,38034,1,0,0:0:0:0:
256,192,38152,1,0,0:0:0:0:
256,192,38269,1,0,0:0:0:0:
256,192,38386,1,8,0:0:0:0:
256,192,38620,1,0,0:0:0:0:
256,192,38737,1,8,0:0:0:0:
256,192,38855,1,0,0:0:0:0:
256,192,38972,1,0,0:0:0:0:
256,192,39206,1,0,0:0:0:0:
256,192,39441,1,0,0:0:0:0:
256,192,39558,1,0,0:0:0:0:
256,192,39675,1,0,0:0:0:0:
256,192,39792,1,0,0:0:0:0:
256,192,39909,1,8,0:0:0:0:
256,192,40144,1,0,0:0:0:0:
256,192,40261,1,8,0:0:0:0:
256,192,40495,1,0,0:0:0:0:
256,192,40612,1,8,0:0:0:0:
256,192,40730,1,8,0:0:0:0:
256,192,40847,1,8,0:0:0:0:
256,192,41316,1,0,0:0:0:0:
256,192,41550,1,8,0:0:0:0:
256,192,41667,1,8,0:0:0:0:
256,192,41784,1,0,0:0:0:0:
256,192,41902,1,0,0:0:0:0:
256,192,42019,1,0,0:0:0:0:
256,192,42136,1,8,0:0:0:0:
256,192,42370,1,0,0:0:0:0:
256,192,42487,1,8,0:0:0:0:
256,192,42605,1,0,0:0:0:0:
256,192,42722,1,0,0:0:0:0:
256,192,43191,1,0,0:0:0:0:
256,192,43425,1,8,0:0:0:0:
256,192,43542,1,8,0:0:0:0:
256,192,43659,1,0,0:0:0:0:
256,192,43894,1,8,0:0:0:0:
256,192,43972,1,8,0:0:0:0:
256,192,44050,1,8,0:0:0:0:
256,192,44128,1,0,0:0:0:0:
256,192,44245,1,8,0:0:0:0:
256,192,44362,1,8,0:0:0:0:
256,192,44480,1,0,0:0:0:0:
256,192,44597,1,0,0:0:0:0:
256,192,44831,1,12,0:0:0:0:
256,192,45066,1,0,0:0:0:0:
256,192,45300,1,8,0:0:0:0:
256,192,45417,1,8,0:0:0:0:
256,192,45534,1,0,0:0:0:0:
256,192,45652,1,0,0:0:0:0:
256,192,45769,1,0,0:0:0:0:
256,192,45886,1,8,0:0:0:0:
256,192,46120,1,0,0:0:0:0:
256,192,46237,1,8,0:0:0:0:
256,192,46355,1,0,0:0:0:0:
256,192,46472,1,0,0:0:0:0:
256,192,46706,1,0,0:0:0:0:
256,192,46941,1,0,0:0:0:0:
256,192,47058,1,8,0:0:0:0:
256,192,47175,1,0,0:0:0:0:
256,192,47292,1,0,0:0:0:0:
256,192,47409,1,8,0:0:0:0:
256,192,47644,1,0,0:0:0:0:
256,192,47761,1,8,0:0:0:0:
256,192,47995,1,0,0:0:0:0:
256,192,48112,1,8,0:0:0:0:
256,192,48230,1,8,0:0:0:0:
256,192,48347,1,8,0:0:0:0:
256,192,48581,1,8,0:0:0:0:
256,192,48698,1,8,0:0:0:0:
256,192,48816,1,0,0:0:0:0:
256,192,49050,1,8,0:0:0:0:
256,192,49167,1,8,0:0:0:0:
256,192,49284,1,0,0:0:0:0:
256,192,49402,1,0,0:0:0:0:
256,192,49519,1,0,0:0:0:0:
256,192,49636,1,8,0:0:0:0:
256,192,49870,1,0,0:0:0:0:
256,192,49987,1,8,0:0:0:0:
256,192,50105,1,0,0:0:0:0:
256,192,50222,1,0,0:0:0:0:
256,192,50691,1,0,0:0:0:0:
256,192,50808,1,8,0:0:0:0:
256,192,50925,1,0,0:0:0:0:
256,192,51042,1,0,0:0:0:0:
256,192,51159,1,8,0:0:0:0:
256,192,51394,1,0,0:0:0:0:
256,192,51511,1,8,0:0:0:0:
256,192,51745,1,0,0:0:0:0:
256,192,51862,1,8,0:0:0:0:
256,192,51980,1,8,0:0:0:0:
256,192,52097,1,8,0:0:0:0:
256,192,52331,1,8,0:0:0:0:
256,192,52448,1,8,0:0:0:0:
256,192,52566,1,0,0:0:0:0:
256,192,52800,1,0,0:0:0:0:
256,192,52917,1,0,0:0:0:0:
256,192,53034,1,8,0:0:0:0:
256,192,53152,1,8,0:0:0:0:
256,192,53269,1,8,0:0:0:0:
256,192,53386,1,0,0:0:0:0:
256,192,53620,1,0,0:0:0:0:
256,192,53737,1,8,0:0:0:0:
256,192,53855,1,0,0:0:0:0:
256,192,53972,1,0,0:0:0:0:
256,192,54206,1,0,0:0:0:0:
256,192,54441,1,0,0:0:0:0:
256,192,54558,1,8,0:0:0:0:
256,192,54675,1,0,0:0:0:0:
256,192,54792,1,0,0:0:0:0:
256,192,54909,1,8,0:0:0:0:
256,192,55144,1,0,0:0:0:0:
256,192,55261,1,8,0:0:0:0:
256,192,55495,1,0,0:0:0:0:
256,192,55612,1,8,0:0:0:0:
256,192,55730,1,8,0:0:0:0:
256,192,55847,1,8,0:0:0:0:
256,192,56081,1,8,0:0:0:0:
256,192,56198,1,8,0:0:0:0:
256,192,56316,1,0,0:0:0:0:
256,192,56433,1,8,0:0:0:0:
256,192,56550,1,8,0:0:0:0:
256,192,56667,1,0,0:0:0:0:
256,192,56784,1,8,0:0:0:0:
256,192,56902,1,8,0:0:0:0:
256,192,57019,1,8,0:0:0:0:
256,192,57136,1,8,0:0:0:0:
256,192,57253,1,0,0:0:0:0:
256,192,57370,1,8,0:0:0:0:
256,192,57487,1,8,0:0:0:0:
256,192,57605,1,0,0:0:0:0:
256,192,57722,1,8,0:0:0:0:
256,192,57839,1,8,0:0:0:0:
256,192,57956,1,8,0:0:0:0:
256,192,58073,1,8,0:0:0:0:
256,192,58191,1,0,0:0:0:0:
256,192,58659,1,12,0:0:0:0:
256,192,59128,1,0,0:0:0:0:
256,192,59245,1,0,0:0:0:0:
256,192,59362,1,0,0:0:0:0:
256,192,59480,1,8,0:0:0:0:
256,192,59597,1,8,0:0:0:0:
256,192,59714,1,8,0:0:0:0:
256,192,59831,1,0,0:0:0:0:
256,192,59948,1,0,0:0:0:0:
256,192,60066,1,0,0:0:0:0:
256,192,60534,1,12,0:0:0:0:
256,192,60886,1,8,0:0:0:0:
256,192,61003,1,0,0:0:0:0:
256,192,61237,1,0,0:0:0:0:
256,192,61355,1,8,0:0:0:0:
256,192,61472,1,8,0:0:0:0:
256,192,61706,1,8,0:0:0:0:
256,192,61941,1,0,0:0:0:0:
256,192,62058,1,0,0:0:0:0:
256,192,62175,1,0,0:0:0:0:
256,192,62292,1,8,0:0:0:0:
256,192,62409,1,0,0:0:0:0:
256,192,62644,1,8,0:0:0:0:
256,192,62761,1,0,0:0:0:0:
256,192,62878,1,0,0:0:0:0:
256,192,63230,1,8,0:0:0:0:
256,192,63347,1,0,0:0:0:0:
256,192,63581,1,8,0:0:0:0:
256,192,63816,1,0,0:0:0:0:
256,192,64167,1,8,0:0:0:0:
256,192,64284,1,0,0:0:0:0:
256,192,64519,1,0,0:0:0:0:
256,192,64636,1,8,0:0:0:0:
256,192,64753,1,0,0:0:0:0:
256,192,65105,1,0,0:0:0:0:
256,192,65222,1,8,0:0:0:0:
256,192,65456,1,8,0:0:0:0:
256,192,65691,1,0,0:0:0:0:
256,192,65925,1,0,0:0:0:0:
256,192,66042,1,0,0:0:0:0:
256,192,66159,1,8,0:0:0:0:
256,192,66511,1,8,0:0:0:0:
256,192,66628,1,0,0:0:0:0:
256,192,66862,1,0,0:0:0:0:
256,192,67097,1,8,0:0:0:0:
256,192,67331,1,0,0:0:0:0:
256,192,67566,1,8,0:0:0:0:
256,192,67917,1,8,0:0:0:0:
256,192,68034,1,0,0:0:0:0:
256,192,68269,1,0,0:0:0:0:
256,192,68386,1,8,0:0:0:0:
256,192,68503,1,8,0:0:0:0:
256,192,68737,1,0,0:0:0:0:
256,192,68972,1,8,0:0:0:0:
256,192,69323,1,8,0:0:0:0:
256,192,69441,1,0,0:0:0:0:
256,192,69558,1,0,0:0:0:0:
256,192,69675,1,0,0:0:0:0:
256,192,69792,1,8,0:0:0:0:
256,192,69909,1,8,0:0:0:0:
256,192,70027,1,8,0:0:0:0:
256,192,70261,1,8,0:0:0:0:
256,192,70378,1,0,0:0:0:0:
256,192,70730,1,0,0:0:0:0:
256,192,70847,1,8,0:0:0:0:
256,192,71081,1,8,0:0:0:0:
256,192,71316,1,0,0:0:0:0:
256,192,71667,1,8,0:0:0:0:
256,192,71784,1,0,0:0:0:0:
256,192,72019,1,0,0:0:0:0:
256,192,72136,1,8,0:0:0:0:
256,192,72253,1,8,0:0:0:0:
256,192,72487,1,0,0:0:0:0:
256,192,72605,1,8,0:0:0:0:
256,192,72722,1,0,0:0:0:0:
256,192,72956,1,8,0:0:0:0:
256,192,73191,1,0,0:0:0:0:
256,192,73308,1,0,0:0:0:0:
256,192,73425,1,0,0:0:0:0:
256,192,73542,1,8,0:0:0:0:
256,192,73659,1,8,0:0:0:0:
256,192,73777,1,8,0:0:0:0:
256,192,73894,1,8,0:0:0:0:
256,192,74011,1,8,0:0:0:0:
256,192,74128,1,0,0:0:0:0:
256,192,74245,1,0,0:0:0:0:
256,192,74362,1,0,0:0:0:0:
256,192,74480,1,8,0:0:0:0:
256,192,74597,1,8,0:0:0:0:
256,192,74714,1,8,0:0:0:0:
256,192,74831,1,8,0:0:0:0:
256,192,74948,1,8,0:0:0:0:
256,192,75066,1,0,0:0:0:0:
256,192,75300,1,0,0:0:0:0:
256,192,75417,1,8,0:0:0:0:
256,192,75534,1,8,0:0:0:0:
256,192,75769,1,0,0:0:0:0:
256,192,75886,1,8,0:0:0:0:
256,192,76003,1,0,0:0:0:0:
256,192,76120,1,8,0:0:0:0:
256,192,76237,1,8,0:0:0:0:
256,192,76355,1,8,0:0:0:0:
256,192,76472,1,0,0:0:0:0:
256,192,76706,1,0,0:0:0:0:
256,192,76823,1,0,0:0:0:0:
256,192,76941,1,8,0:0:0:0:
256,192,77175,1,0,0:0:0:0:
256,192,77409,1,0,0:0:0:0:
256,192,77527,1,8,0:0:0:0:
256,192,77644,1,8,0:0:0:0:
256,192,77761,1,0,0:0:0:0:
256,192,77995,1,0,0:0:0:0:
256,192,78112,1,0,0:0:0:0:
256,192,78230,1,0,0:0:0:0:
256,192,78347,1,8,0:0:0:0:
256,192,78581,1,0,0:0:0:0:
256,192,78698,1,0,0:0:0:0:
256,192,78816,1,8,0:0:0:0:
256,192,79050,1,0,0:0:0:0:
256,192,79167,1,8,0:0:0:0:
256,192,79284,1,8,0:0:0:0:
256,192,79519,1,0,0:0:0:0:
256,192,79636,1,0,0:0:0:0:
256,192,79753,1,8,0:0:0:0:
256,192,79870,1,8,0:0:0:0:
256,192,79987,1,8,0:0:0:0:
256,192,80105,1,0,0:0:0:0:
256,192,80222,1,0,0:0:0:0:
256,192,80456,1,8,0:0:0:0:
256,192,80534,1,8,0:0:0:0:
256,192,80612,1,8,0:0:0:0:
256,192,80691,1,0,0:0:0:0:
256,192,80925,1,8,0:0:0:0:
256,192,81042,1,8,0:0:0:0:
256,192,81159,1,0,0:0:0:0:
256,192,81277,1,0,0:0:0:0:
256,192,81394,1,8,0:0:0:0:
256,192,81511,1,0,0:0:0:0:
256,192,81628,1,0,0:0:0:0:
256,192,81862,1,8,0:0:0:0:
256,192,81980,1,0,0:0:0:0:
256,192,82097,1,0,0:0:0:0:
256,192,82331,1,8,0:0:0:0:
256,192,82566,1,0,0:0:0:0:
256,192,82800,1,0,0:0:0:0:
256,192,82917,1,8,0:0:0:0:
256,192,83034,1,8,0:0:0:0:
256,192,83269,1,0,0:0:0:0:
256,192,83386,1,8,0:0:0:0:
256,192,83503,1,0,0:0:0:0:
256,192,83620,1,8,0:0:0:0:
256,192,83737,1,8,0:0:0:0:
256,192,83855,1,8,0:0:0:0:
256,192,83972,1,0,0:0:0:0:
256,192,84206,1,0,0:0:0:0:
256,192,84323,1,0,0:0:0:0:
256,192,84441,1,8,0:0:0:0:
256,192,84675,1,0,0:0:0:0:
256,192,84909,1,0,0:0:0:0:
256,192,85027,1,8,0:0:0:0:
256,192,85144,1,8,0:0:0:0:
256,192,85261,1,0,0:0:0:0:
256,192,85495,1,0,0:0:0:0:
256,192,85612,1,0,0:0:0:0:
256,192,85730,1,0,0:0:0:0:
256,192,85847,1,8,0:0:0:0:
256,192,86081,1,8,0:0:0:0:
256,192,86198,1,0,0:0:0:0:
256,192,86316,1,0,0:0:0:0:
256,192,86550,1,8,0:0:0:0:
256,192,86667,1,8,0:0:0:0:
256,192,86784,1,0,0:0:0:0:
256,192,87019,1,8,0:0:0:0:
256,192,87136,1,0,0:0:0:0:
256,192,87253,1,8,0:0:0:0:
256,192,87370,1,8,0:0:0:0:
256,192,87487,1,8,0:0:0:0:
256,192,87605,1,0,0:0:0:0:
256,192,87722,1,0,0:0:0:0:
256,192,87956,1,8,0:0:0:0:
256,192,88034,1,8,0:0:0:0:
256,192,88112,1,8,0:0:0:0:
256,192,88191,1,0,0:0:0:0:
256,192,88425,1,8,0:0:0:0:
256,192,88659,1,0,0:0:0:0:
256,192,88777,1,8,0:0:0:0:
256,192,88894,1,8,0:0:0:0:
256,192,89011,1,0,0:0:0:0:
256,192,89245,1,8,0:0:0:0:
256,192,89362,1,0,0:0:0:0:
256,192,89480,1,0,0:0:0:0:
256,192,89597,1,0,0:0:0:0:
256,192,89831,1,8,0:0:0:0:
256,192,89948,1,8,0:0:0:0:
256,192,90066,1,0,0:0:0:0:
256,192,90300,1,0,0:0:0:0:
256,192,90417,1,8,0:0:0:0:
256,192,90534,1,8,0:0:0:0:
256,192,90769,1,0,0:0:0:0:
256,192,90886,1,8,0:0:0:0:
256,192,91003,1,0,0:0:0:0:
256,192,91120,1,8,0:0:0:0:
256,192,91237,1,8,0:0:0:0:
256,192,91355,1,8,0:0:0:0:
256,192,91472,1,0,0:0:0:0:
256,192,91706,1,0,0:0:0:0:
256,192,91823,1,0,0:0:0:0:
256,192,91941,1,8,0:0:0:0:
256,192,92175,1,0,0:0:0:0:
256,192,92409,1,0,0:0:0:0:
256,192,92527,1,8,0:0:0:0:
256,192,92644,1,8,0:0:0:0:
256,192,92761,1,0,0:0:0:0:
256,192,92995,1,0,0:0:0:0:
256,192,93112,1,0,0:0:0:0:
256,192,93230,1,0,0:0:0:0:
256,192,93347,1,8,0:0:0:0:
256,192,93581,1,0,0:0:0:0:
256,192,93698,1,0,0:0:0:0:
256,192,93816,1,8,0:0:0:0:
256,192,94050,1,0,0:0:0:0:
256,192,94167,1,8,0:0:0:0:
256,192,94284,1,8,0:0:0:0:
256,192,94519,1,0,0:0:0:0:
256,192,94636,1,0,0:0:0:0:
256,192,94753,1,8,0:0:0:0:
256,192,94870,1,8,0:0:0:0:
256,192,94987,1,8,0:0:0:0:
256,192,95105,1,0,0:0:0:0:
256,192,95222,1,0,0:0:0:0:
256,192,95456,1,8,0:0:0:0:
256,192,95534,1,8,0:0:0:0:
256,192,95612,1,8,0:0:0:0:
256,192,95691,1,0,0:0:0:0:
256,192,95925,1,8,0:0:0:0:
256,192,96042,1,8,0:0:0:0:
256,192,96159,1,0,0:0:0:0:
256,192,96277,1,0,0:0:0:0:
256,192,96394,1,8,0:0:0:0:
256,192,96511,1,0,0:0:0:0:
256,192,96628,1,0,0:0:0:0:
256,192,96862,1,8,0:0:0:0:
256,192,96980,1,0,0:0:0:0:
256,192,97097,1,0,0:0:0:0:
256,192,97331,1,8,0:0:0:0:
256,192,97566,1,0,0:0:0:0:
256,192,97800,1,0,0:0:0:0:
256,192,97917,1,8,0:0:0:0:
256,192,98034,1,8,0:0:0:0:
256,192,98269,1,0,0:0:0:0:
256,192,98386,1,8,0:0:0:0:
256,192,98503,1,0,0:0:0:0:
256,192,98620,1,8,0:0:0:0:
256,192,98737,1,8,0:0:0:0:
256,192,98855,1,8,0:0:0:0:
256,192,98972,1,0,0:0:0:0:
256,192,99206,1,0,0:0:0:0:
256,192,99323,1,0,0:0:0:0:
256,192,99441,1,8,0:0:0:0:
256,192,99675,1,0,0:0:0:0:
256,192,99909,1,0,0:0:0:0:
256,192,100027,1,8,0:0:0:0:
256,192,100144,1,8,0:0:0:0:
256,192,100261,1,0,0:0:0:0:
256,192,100495,1,0,0:0:0:0:
256,192,100612,1,0,0:0:0:0:
256,192,100730,1,0,0:0:0:0:
256,192,100847,1,8,0:0:0:0:
256,192,101081,1,8,0:0:0:0:
256,192,101198,1,0,0:0:0:0:
256,192,101316,1,0,0:0:0:0:
256,192,101550,1,8,0:0:0:0:
256,192,101667,1,8,0:0:0:0:
256,192,101784,1,0,0:0:0:0:
256,192,102019,1,8,0:0:0:0:
256,192,102136,1,0,0:0:0:0:
256,192,102253,1,8,0:0:0:0:
256,192,102370,1,8,0:0:0:0:
256,192,102487,1,8,0:0:0:0:
256,192,102605,1,0,0:0:0:0:
256,192,102722,1,0,0:0:0:0:
256,192,102956,1,8,0:0:0:0:
256,192,103034,1,8,0:0:0:0:
256,192,103112,1,8,0:0:0:0:
256,192,103191,1,0,0:0:0:0:
256,192,103425,1,8,0:0:0:0:
256,192,103659,1,0,0:0:0:0:
256,192,103777,1,8,0:0:0:0:
256,192,103894,1,8,0:0:0:0:
256,192,104011,1,0,0:0:0:0:
256,192,104245,1,8,0:0:0:0:
256,192,104362,1,0,0:0:0:0:
256,192,104480,1,0,0:0:0:0:
256,192,104597,1,0,0:0:0:0:
256,192,104714,1,0,0:0:0:0:
256,192,104831,1,8,0:0:0:0:
256,192,104948,1,8,0:0:0:0:
256,192,105066,1,0,0:0:0:0:
256,192,105300,1,0,0:0:0:0:
256,192,105417,1,8,0:0:0:0:
256,192,105534,1,8,0:0:0:0:
256,192,105652,1,0,0:0:0:0:
256,192,105769,1,0,0:0:0:0:
256,192,105886,1,8,0:0:0:0:
256,192,106120,1,0,0:0:0:0:
256,192,106237,1,8,0:0:0:0:
256,192,106355,1,8,0:0:0:0:
256,192,106472,1,8,0:0:0:0:
256,192,106706,1,0,0:0:0:0:
256,192,106941,1,0,0:0:0:0:
256,192,107175,1,0,0:0:0:0:
256,192,107292,1,8,0:0:0:0:
256,192,107409,1,8,0:0:0:0:
256,192,107527,1,0,0:0:0:0:
256,192,107644,1,0,0:0:0:0:
256,192,107761,1,8,0:0:0:0:
256,192,107995,1,0,0:0:0:0:
256,192,108112,1,8,0:0:0:0:
256,192,108230,1,8,0:0:0:0:
256,192,108347,1,8,0:0:0:0:
256,192,108581,1,8,0:0:0:0:
256,192,108698,1,8,0:0:0:0:
256,192,108816,1,0,0:0:0:0:
256,192,109050,1,0,0:0:0:0:
256,192,109167,1,8,0:0:0:0:
256,192,109284,1,8,0:0:0:0:
256,192,109402,1,0,0:0:0:0:
256,192,109519,1,0,0:0:0:0:
256,192,109636,1,8,0:0:0:0:
256,192,109870,1,0,0:0:0:0:
256,192,109987,1,8,0:0:0:0:
256,192,110105,1,8,0:0:0:0:
256,192,110222,1,8,0:0:0:0:
256,192,110456,1,8,0:0:0:0:
256,192,110573,1,8,0:0:0:0:
256,192,110691,1,0,0:0:0:0:
256,192,110925,1,8,0:0:0:0:
256,192,111159,1,0,0:0:0:0:
256,192,111394,1,8,0:0:0:0:
256,192,111472,1,8,0:0:0:0:
256,192,111550,1,8,0:0:0:0:
256,192,111628,1,0,0:0:0:0:
256,192,111745,1,8,0:0:0:0:
256,192,111862,1,8,0:0:0:0:
256,192,111980,1,0,0:0:0:0:
256,192,112097,1,0,0:0:0:0:
256,192,112331,1,12,0:0:0:0:
256,192,112566,1,0,0:0:0:0:
256,192,112800,1,0,0:0:0:0:
256,192,112917,1,8,0:0:0:0:
256,192,113034,1,8,0:0:0:0:
256,192,113152,1,0,0:0:0:0:
256,192,113269,1,0,0:0:0:0:
256,192,113386,1,8,0:0:0:0:
256,192,113620,1,0,0:0:0:0:
256,192,113737,1,8,0:0:0:0:
256,192,113855,1,8,0:0:0:0:
256,192,113972,1,8,0:0:0:0:
256,192,114206,1,0,0:0:0:0:
256,192,114441,1,0,0:0:0:0:
256,192,114675,1,0,0:0:0:0:
256,192,114792,1,8,0:0:0:0:
256,192,114909,1,8,0:0:0:0:
256,192,115027,1,0,0:0:0:0:
256,192,115144,1,0,0:0:0:0:
256,192,115261,1,8,0:0:0:0:
256,192,115495,1,0,0:0:0:0:
256,192,115612,1,8,0:0:0:0:
256,192,115730,1,8,0:0:0:0:
256,192,115847,1,8,0:0:0:0:
256,192,116081,1,8,0:0:0:0:
256,192,116198,1,8,0:0:0:0:
256,192,116316,1,0,0:0:0:0:
256,192,116550,1,0,0:0:0:0:
256,192,116667,1,8,0:0:0:0:
256,192,116784,1,8,0:0:0:0:
256,192,116902,1,0,0:0:0:0:
256,192,117019,1,0,0:0:0:0:
256,192,117136,1,8,0:0:0:0:
256,192,117370,1,0,0:0:0:0:
256,192,117487,1,8,0:0:0:0:
256,192,117605,1,8,0:0:0:0:
256,192,117722,1,8,0:0:0:0:
256,192,117956,1,8,0:0:0:0:
256,192,118073,1,8,0:0:0:0:
256,192,118191,1,0,0:0:0:0:
256,192,118425,1,8,0:0:0:0:
256,192,118659,1,0,0:0:0:0:
256,192,118894,1,8,0:0:0:0:
256,192,118972,1,8,0:0:0:0:
256,192,119050,1,8,0:0:0:0:
256,192,119128,1,0,0:0:0:0:
256,192,119245,1,8,0:0:0:0:
256,192,119362,1,8,0:0:0:0:
256,192,119480,1,0,0:0:0:0:
256,192,119597,1,0,0:0:0:0:
256,192,119831,1,12,0:0:0:0:
256,192,120066,1,0,0:0:0:0:
256,192,120300,1,0,0:0:0:0:
256,192,120417,1,8,0:0:0:0:
256,192,120534,1,8,0:0:0:0:
256,192,120651,1,0,0:0:0:0:
256,192,120769,1,0,0:0:0:0:
256,192,120886,1,8,0:0:0:0:
256,192,121120,1,0,0:0:0:0:
256,192,121237,1,8,0:0:0:0:
256,192,121355,1,8,0:0:0:0:
256,192,121472,1,8,0:0:0:0:
256,192,121706,1,0,0:0:0:0:
256,192,121941,1,8,0:0:0:0:
256,192,122175,1,0,0:0:0:0:
256,192,122292,1,8,0:0:0:0:
256,192,122409,1,8,0:0:0:0:
256,192,122526,1,0,0:0:0:0:
256,192,122644,1,0,0:0:0:0:
256,192,122761,1,8,0:0:0:0:
256,192,122995,1,0,0:0:0:0:
256,192,123112,1,8,0:0:0:0:
256,192,123230,1,8,0:0:0:0:
256,192,123347,1,8,0:0:0:0:
256,192,123581,1,8,0:0:0:0:
256,192,123698,1,8,0:0:0:0:
256,192,123816,1,0,0:0:0:0:
256,192,124050,1,0,0:0:0:0:
256,192,124167,1,8,0:0:0:0:
256,192,124284,1,8,0:0:0:0:
256,192,124401,1,0,0:0:0:0:
256,192,124519,1,0,0:0:0:0:
256,192,124636,1,8,0:0:0:0:
256,192,124870,1,0,0:0:0:0:
256,192,124987,1,8,0:0:0:0:
256,192,125105,1,8,0:0:0:0:
256,192,125222,1,8,0:0:0:0:
256,192,125456,1,0,0:0:0:0:
256,192,125691,1,0,0:0:0:0:
256,192,125925,1,8,0:0:0:0:
256,192,126042,1,8,0:0:0:0:
256,192,126159,1,0,0:0:0:0:
256,192,126394,1,8,0:0:0:0:
256,192,126472,1,8,0:0:0:0:
256,192,126550,1,8,0:0:0:0:
256,192,126628,1,0,0:0:0:0:
256,192,126745,1,8,0:0:0:0:
256,192,126862,1,8,0:0:0:0:
256,192,126980,1,0,0:0:0:0:
256,192,127097,1,0,0:0:0:0:
256,192,127331,1,12,0:0:0:0:
256,192,127566,1,0,0:0:0:0:
256,192,128034,1,0,0:0:0:0:
256,192,128503,1,0,0:0:0:0:
256,192,128972,1,0,0:0:0:0:
256,192,129441,1,0,0:0:0:0:
256,192,129909,1,0,0:0:0:0:
256,192,130378,1,0,0:0:0:0:
256,192,130847,1,0,0:0:0:0:
256,192,131316,1,0,0:0:0:0:
256,192,131784,1,0,0:0:0:0:
256,192,132253,1,0,0:0:0:0:
256,192,132722,1,0,0:0:0:0:
256,192,133191,1,0,0:0:0:0:
256,192,134597,1,0,0:0:0:0:
256,192,134831,1,12,0:0:0:0:
256,192,135066,1,4,0:0:0:0:
256,192,135300,1,0,0:0:0:0:
256,192,135417,1,8,0:0:0:0:
256,192,135534,1,8,0:0:0:0:
256,192,135769,1,0,0:0:0:0:
256,192,135886,1,8,0:0:0:0:
256,192,136003,1,0,0:0:0:0:
256,192,136120,1,8,0:0:0:0:
256,192,136237,1,8,0:0:0:0:
256,192,136355,1,8,0:0:0:0:
256,192,136472,1,0,0:0:0:0:
256,192,136706,1,0,0:0:0:0:
256,192,136823,1,0,0:0:0:0:
256,192,136941,1,8,0:0:0:0:
256,192,137175,1,0,0:0:0:0:
256,192,137409,1,0,0:0:0:0:
256,192,137527,1,8,0:0:0:0:
256,192,137644,1,8,0:0:0:0:
256,192,137761,1,0,0:0:0:0:
256,192,137995,1,0,0:0:0:0:
256,192,138112,1,0,0:0:0:0:
256,192,138230,1,0,0:0:0:0:
256,192,138347,1,8,0:0:0:0:
256,192,138581,1,0,0:0:0:0:
256,192,138698,1,0,0:0:0:0:
256,192,138816,1,8,0:0:0:0:
256,192,139050,1,0,0:0:0:0:
256,192,139167,1,8,0:0:0:0:
256,192,139284,1,8,0:0:0:0:
256,192,139519,1,0,0:0:0:0:
256,192,139636,1,0,0:0:0:0:
256,192,139753,1,8,0:0:0:0:
256,192,139870,1,8,0:0:0:0:
256,192,139987,1,8,0:0:0:0:
256,192,140105,1,0,0:0:0:0:
256,192,140222,1,0,0:0:0:0:
256,192,140456,1,8,0:0:0:0:
256,192,140534,1,8,0:0:0:0:
256,192,140612,1,8,0:0:0:0:
256,192,140691,1,0,0:0:0:0:
256,192,140925,1,8,0:0:0:0:
256,192,141042,1,8,0:0:0:0:
256,192,141159,1,0,0:0:0:0:
256,192,141277,1,0,0:0:0:0:
256,192,141394,1,8,0:0:0:0:
256,192,141511,1,0,0:0:0:0:
256,192,141628,1,0,0:0:0:0:
256,192,141862,1,8,0:0:0:0:
256,192,141980,1,0,0:0:0:0:
256,192,142097,1,0,0:0:0:0:
256,192,142331,1,8,0:0:0:0:
256,192,142566,1,0,0:0:0:0:
256,192,142800,1,0,0:0:0:0:
256,192,142917,1,8,0:0:0:0:
256,192,143034,1,8,0:0:0:0:
256,192,143269,1,0,0:0:0:0:
256,192,143386,1,8,0:0:0:0:
256,192,143503,1,0,0:0:0:0:
256,192,143620,1,8,0:0:0:0:
256,192,143737,1,8,0:0:0:0:
256,192,143855,1,8,0:0:0:0:
256,192,143972,1,0,0:0:0:0:
256,192,144206,1,0,0:0:0:0:
256,192,144323,1,0,0:0:0:0:
256,192,144441,1,8,0:0:0:0:
256,192,144675,1,0,0:0:0:0:
256,192,144909,1,0,0:0:0:0:
256,192,145027,1,8,0:0:0:0:
256,192,145144,1,8,0:0:0:0:
256,192,145261,1,0,0:0:0:0:
256,192,145495,1,0,0:0:0:0:
256,192,145612,1,0,0:0:0:0:
256,192,145730,1,0,0:0:0:0:
256,192,145847,1,8,0:0:0:0:
256,192,146081,1,8,0:0:0:0:
256,192,146198,1,0,0:0:0:0:
256,192,146316,1,0,0:0:0:0:
256,192,146550,1,8,0:0:0:0:
256,192,146667,1,8,0:0:0:0:
256,192,146784,1,0,0:0:0:0:
256,192,147019,1,8,0:0:0:0:
256,192,147136,1,0,0:0:0:0:
256,192,147253,1,8,0:0:0:0:
256,192,147370,1,8,0:0:0:0:
256,192,147487,1,8,0:0:0:0:
256,192,147605,1,0,0:0:0:0:
256,192,147722,1,0,0:0:0:0:
256,192,147956,1,8,0:0:0:0:
256,192,148034,1,8,0:0:0:0:
256,192,148112,1,8,0:0:0:0:
256,192,148191,1,0,0:0:0:0:
256,192,148425,1,8,0:0:0:0:
256,192,148659,1,0,0:0:0:0:
256,192,148777,1,8,0:0:0:0:
256,192,148894,1,8,0:0:0:0:
256,192,149011,1,0,0:0:0:0:
256,192,149245,1,8,0:0:0:0:
256,192,149362,1,0,0:0:0:0:
256,192,149480,1,0,0:0:0:0:
256,192,149597,1,0,0:0:0:0:
256,192,149831,1,8,0:0:0:0:
256,192,149948,1,8,0:0:0:0:
256,192,150066,1,0,0:0:0:0:
256,192,150300,1,0,0:0:0:0:
256,192,150417,1,8,0:0:0:0:
256,192,150534,1,8,0:0:0:0:
256,192,150769,1,0,0:0:0:0:
256,192,150886,1,8,0:0:0:0:
256,192,151003,1,0,0:0:0:0:
256,192,151120,1,8,0:0:0:0:
256,192,151237,1,8,0:0:0:0:
256,192,151355,1,8,0:0:0:0:
256,192,151472,1,0,0:0:0:0:
256,192,151706,1,0,0:0:0:0:
256,192,151823,1,0,0:0:0:0:
256,192,151941,1,8,0:0:0:0:
256,192,152175,1,0,0:0:0:0:
256,192,152409,1,0,0:0:0:0:
256,192,152527,1,8,0:0:0:0:
256,192,152644,1,8,0:0:0:0:
256,192,152761,1,0,0:0:0:0:
256,192,152995,1,0,0:0:0:0:
256,192,153112,1,0,0:0:0:0:
256,192,153230,1,0,0:0:0:0:
256,192,153347,1,8,0:0:0:0:
256,192,153581,1,0,0:0:0:0:
256,192,153698,1,0,0:0:0:0:
256,192,153816,1,8,0:0:0:0:
256,192,154050,1,0,0:0:0:0:
256,192,154167,1,8,0:0:0:0:
256,192,154284,1,8,0:0:0:0:
256,192,154519,1,0,0:0:0:0:
256,192,154636,1,0,0:0:0:0:
256,192,154753,1,8,0:0:0:0:
256,192,154870,1,8,0:0:0:0:
256,192,154987,1,8,0:0:0:0:
256,192,155105,1,0,0:0:0:0:
256,192,155222,1,0,0:0:0:0:
256,192,155456,1,8,0:0:0:0:
256,192,155534,1,8,0:0:0:0:
256,192,155612,1,8,0:0:0:0:
256,192,155691,1,0,0:0:0:0:
256,192,155925,1,8,0:0:0:0:
256,192,156042,1,8,0:0:0:0:
256,192,156159,1,0,0:0:0:0:
256,192,156277,1,0,0:0:0:0:
256,192,156394,1,8,0:0:0:0:
256,192,156511,1,0,0:0:0:0:
256,192,156628,1,0,0:0:0:0:
256,192,156862,1,8,0:0:0:0:
256,192,156980,1,0,0:0:0:0:
256,192,157097,1,0,0:0:0:0:
256,192,157331,1,8,0:0:0:0:
256,192,157566,1,0,0:0:0:0:
256,192,157800,1,0,0:0:0:0:
256,192,157917,1,8,0:0:0:0:
256,192,158034,1,8,0:0:0:0:
256,192,158269,1,0,0:0:0:0:
256,192,158386,1,8,0:0:0:0:
256,192,158503,1,0,0:0:0:0:
256,192,158620,1,8,0:0:0:0:
256,192,158737,1,8,0:0:0:0:
256,192,158855,1,8,0:0:0:0:
256,192,158972,1,0,0:0:0:0:
256,192,159206,1,0,0:0:0:0:
256,192,159323,1,0,0:0:0:0:
256,192,159441,1,8,0:0:0:0:
256,192,159675,1,0,0:0:0:0:
256,192,159909,1,0,0:0:0:0:
256,192,160027,1,8,0:0:0:0:
256,192,160144,1,8,0:0:0:0:
256,192,160261,1,0,0:0:0:0:
256,192,160495,1,0,0:0:0:0:
256,192,160612,1,0,0:0:0:0:
256,192,160730,1,0,0:0:0:0:
256,192,160847,1,8,0:0:0:0:
256,192,161081,1,8,0:0:0:0:
256,192,161198,1,0,0:0:0:0:
256,192,161316,1,0,0:0:0:0:
256,192,161550,1,8,0:0:0:0:
256,192,161667,1,8,0:0:0:0:
256,192,161784,1,0,0:0:0:0:
256,192,162019,1,8,0:0:0:0:
256,192,162136,1,0,0:0:0:0:
256,192,162253,1,8,0:0:0:0:
256,192,162370,1,8,0:0:0:0:
256,192,162487,1,8,0:0:0:0:
256,192,162605,1,0,0:0:0:0:
256,192,162722,1,0,0:0:0:0:
256,192,162956,1,8,0:0:0:0:
256,192,163034,1,8,0:0:0:0:
256,192,163112,1,8,0:0:0:0:
256,192,163191,1,0,0:0:0:0:
256,192,163425,1,8,0:0:0:0:
256,192,163659,1,0,0:0:0:0:
256,192,163777,1,8,0:0:0:0:
256,192,163894,1,8,0:0:0:0:
256,192,164011,1,0,0:0:0:0:
256,192,164245,1,8,0:0:0:0:
256,192,164362,1,0,0:0:0:0:
256,192,164480,1,0,0:0:0:0:
256,192,164597,1,0,0:0:0:0:
256,192,164714,1,0,0:0:0:0:
256,192,164831,1,8,0:0:0:0:
256,192,164948,1,8,0:0:0:0:
256,192,165066,1,0,0:0:0:0:
256,192,165300,1,0,0:0:0:0:
256,192,165417,1,0,0:0:0:0:
256,192,165534,1,8,0:0:0:0:
256,192,165769,1,0,0:0:0:0:
256,192,165886,1,0,0:0:0:0:
256,192,166003,1,8,0:0:0:0:
256,192,166120,1,8,0:0:0:0:
256,192,166237,1,8,0:0:0:0:
256,192,166355,1,0,0:0:0:0:
256,192,166472,1,0,0:0:0:0:
256,192,166706,1,0,0:0:0:0:
256,192,166823,1,0,0:0:0:0:
256,192,166941,1,8,0:0:0:0:
256,192,167097,1,8,0:0:0:0:
256,192,167253,1,8,0:0:0:0:
256,192,167409,1,8,0:0:0:0:
256,192,167526,1,8,0:0:0:0:
256,192,167644,1,8,0:0:0:0:
256,192,167761,1,8,0:0:0:0:
256,192,167878,1,0,0:0:0:0:
256,192,168112,1,0,0:0:0:0:
256,192,168230,1,0,0:0:0:0:
256,192,168347,1,8,0:0:0:0:
256,192,168816,1,0,0:0:0:0:
256,192,168933,1,0,0:0:0:0:
256,192,169050,1,8,0:0:0:0:
256,192,169167,1,8,0:0:0:0:
256,192,169401,1,0,0:0:0:0:
256,192,169519,1,8,0:0:0:0:
256,192,169753,1,0,0:0:0:0:
256,192,169870,1,8,0:0:0:0:
256,192,169987,1,8,0:0:0:0:
256,192,170105,1,0,0:0:0:0:
256,192,170222,1,8,0:0:0:0:
256,192,170456,1,8,0:0:0:0:
256,192,170534,1,8,0:0:0:0:
256,192,170612,1,8,0:0:0:0:
256,192,170691,1,0,0:0:0:0:
256,192,170847,1,8,0:0:0:0:
256,192,171003,1,8,0:0:0:0:
256,192,171159,1,0,0:0:0:0:
256,192,171276,1,0,0:0:0:0:
256,192,171394,1,8,0:0:0:0:
256,192,171511,1,8,0:0:0:0:
256,192,171628,1,0,0:0:0:0:
256,192,171862,1,0,0:0:0:0:
256,192,171980,1,8,0:0:0:0:
256,192,172097,1,0,0:0:0:0:
256,192,172214,1,0,0:0:0:0:
256,192,172331,1,0,0:0:0:0:
256,192,172448,1,0,0:0:0:0:
256,192,172566,1,8,0:0:0:0:
256,192,172722,1,0,0:0:0:0:
256,192,172878,1,0,0:0:0:0:
256,192,173034,1,0,0:0:0:0:
256,192,173269,1,0,0:0:0:0:
256,192,173386,1,8,0:0:0:0:
256,192,173503,1,0,0:0:0:0:
256,192,173620,1,8,0:0:0:0:
256,192,173737,1,8,0:0:0:0:
256,192,173855,1,8,0:0:0:0:
256,192,173972,1,0,0:0:0:0:
256,192,174089,1,0,0:0:0:0:
256,192,174206,1,0,0:0:0:0:
256,192,174323,1,0,0:0:0:0:
256,192,174441,1,8,0:0:0:0:
256,192,174675,1,0,0:0:0:0:
256,192,174909,1,0,0:0:0:0:
256,192,175026,1,8,0:0:0:0:
256,192,175144,1,8,0:0:0:0:
256,192,175261,1,0,0:0:0:0:
256,192,175378,1,0,0:0:0:0:
256,192,175534,1,8,0:0:0:0:
256,192,175690,1,8,0:0:0:0:
256,192,175847,1,0,0:0:0:0:
256,192,176081,1,0,0:0:0:0:
256,192,176198,1,0,0:0:0:0:
256,192,176316,1,0,0:0:0:0:
256,192,176433,1,8,0:0:0:0:
256,192,176667,1,8,0:0:0:0:
256,192,176901,1,8,0:0:0:0:
256,192,177136,1,8,0:0:0:0:
256,192,177253,1,0,0:0:0:0:
256,192,177370,1,8,0:0:0:0:
256,192,177487,1,8,0:0:0:0:
256,192,177605,1,8,0:0:0:0:
256,192,177722,1,8,0:0:0:0:
256,192,177956,1,8,0:0:0:0:
256,192,178034,1,8,0:0:0:0:
256,192,178112,1,8,0:0:0:0:
256,192,178191,1,0,0:0:0:0:
256,192,178425,1,8,0:0:0:0:
256,192,178659,1,0,0:0:0:0:
256,192,178776,1,8,0:0:0:0:
256,192,178894,1,8,0:0:0:0:
256,192,179011,1,0,0:0:0:0:
256,192,179245,1,0,0:0:0:0:
256,192,179362,1,0,0:0:0:0:
256,192,179480,1,0,0:0:0:0:
256,192,179597,1,8,0:0:0:0:
256,192,179714,1,8,0:0:0:0:
256,192,179831,1,8,0:0:0:0:
256,192,179948,1,8,0:0:0:0:
256,192,180066,1,0,0:0:0:0:
256,192,180300,1,0,0:0:0:0:
256,192,180417,1,8,0:0:0:0:
256,192,180534,1,8,0:0:0:0:
256,192,180769,1,0,0:0:0:0:
256,192,180886,1,0,0:0:0:0:
256,192,181003,1,0,0:0:0:0:
256,192,181120,1,8,0:0:0:0:
256,192,181237,1,8,0:0:0:0:
256,192,181355,1,8,0:0:0:0:
256,192,181472,1,0,0:0:0:0:
256,192,181706,1,0,0:0:0:0:
256,192,181823,1,0,0:0:0:0:
256,192,181941,1,8,0:0:0:0:
256,192,182097,1,8,0:0:0:0:
256,192,182253,1,8,0:0:0:0:
256,192,182409,1,0,0:0:0:0:
256,192,182526,1,8,0:0:0:0:
256,192,182644,1,8,0:0:0:0:
256,192,182761,1,8,0:0:0:0:
256,192,182878,1,0,0:0:0:0:
256,192,183230,1,0,0:0:0:0:
256,192,183347,1,8,0:0:0:0:
256,192,183581,1,8,0:0:0:0:
256,192,183698,1,8,0:0:0:0:
256,192,183816,1,0,0:0:0:0:
256,192,184050,1,8,0:0:0:0:
256,192,184167,1,0,0:0:0:0:
256,192,184401,1,0,0:0:0:0:
256,192,184519,1,8,0:0:0:0:
256,192,184753,1,0,0:0:0:0:
256,192,184870,1,8,0:0:0:0:
256,192,184987,1,8,0:0:0:0:
256,192,185105,1,8,0:0:0:0:
256,192,185222,1,8,0:0:0:0:
256,192,185456,1,8,0:0:0:0:
256,192,185573,1,8,0:0:0:0:
256,192,185691,1,0,0:0:0:0:
256,192,185847,1,8,0:0:0:0:
256,192,186003,1,8,0:0:0:0:
256,192,186159,1,0,0:0:0:0:
256,192,186276,1,8,0:0:0:0:
256,192,186394,1,8,0:0:0:0:
256,192,186511,1,8,0:0:0:0:
256,192,186628,1,0,0:0:0:0:
256,192,186862,1,8,0:0:0:0:
256,192,186980,1,8,0:0:0:0:
256,192,187097,1,0,0:0:0:0:
256,192,187331,1,0,0:0:0:0:
256,192,187448,1,0,0:0:0:0:
256,192,187566,1,0,0:0:0:0:
256,192,187917,1,8,0:0:0:0:
256,192,188034,1,0,0:0:0:0:
256,192,188269,1,8,0:0:0:0:
256,192,188386,1,0,0:0:0:0:
256,192,188503,1,0,0:0:0:0:
256,192,188855,1,0,0:0:0:0:
256,192,188972,1,8,0:0:0:0:
256,192,189089,1,8,0:0:0:0:
256,192,189206,1,8,0:0:0:0:
256,192,189323,1,8,0:0:0:0:
256,192,189441,1,0,0:0:0:0:
256,192,189909,1,8,0:0:0:0:
256,192,190026,1,8,0:0:0:0:
256,192,190144,1,0,0:0:0:0:
256,192,190261,1,8,0:0:0:0:
256,192,190378,1,8,0:0:0:0:
256,192,190534,1,0,0:0:0:0:
256,192,190691,1,0,0:0:0:0:
256,192,190847,1,8,0:0:0:0:
256,192,191003,1,0,0:0:0:0:
256,192,191159,1,0,0:0:0:0:
256,192,191316,1,0,0:0:0:0:
256,192,191433,1,8,0:0:0:0:
256,192,191550,1,8,0:0:0:0:
256,192,191667,1,8,0:0:0:0:
256,192,191901,1,0,0:0:0:0:
256,192,192019,1,8,0:0:0:0:
256,192,192136,1,8,0:0:0:0:
256,192,192253,1,0,0:0:0:0:
256,192,192370,1,8,0:0:0:0:
256,192,192487,1,8,0:0:0:0:
256,192,192605,1,8,0:0:0:0:
256,192,192722,1,8,0:0:0:0:
256,192,192956,1,0,0:0:0:0:
256,192,193073,1,8,0:0:0:0:
256,192,193191,1,8,0:0:0:0:
256,192,193659,1,0,0:0:0:0:
256,192,193776,1,8,0:0:0:0:
256,192,193894,1,8,0:0:0:0:
256,192,194011,1,0,0:0:0:0:
256,192,194128,1,0,0:0:0:0:
256,192,194245,1,8,0:0:0:0:
256,192,194362,1,0,0:0:0:0:
256,192,194480,1,8,0:0:0:0:
256,192,194597,1,8,0:0:0:0:
256,192,194714,1,8,0:0:0:0:
256,192,194831,1,8,0:0:0:0:
256,192,194948,1,8,0:0:0:0:
256,192,195066,1,0,0:0:0:0:
256,192,195417,1,8,0:0:0:0:
256,192,195534,1,0,0:0:0:0:
256,192,195886,1,8,0:0:0:0:
256,192,196003,1,0,0:0:0:0:
256,192,196237,1,8,0:0:0:0:
256,192,196355,1,8,0:0:0:0:
256,192,196472,1,0,0:0:0:0:
256,192,196706,1,8,0:0:0:0:
256,192,196941,1,0,0:0:0:0:
256,192,197175,1,8,0:0:0:0:
256,192,197292,1,8,0:0:0:0:
256,192,197409,1,0,0:0:0:0:
256,192,197761,1,0,0:0:0:0:
256,192,197878,1,0,0:0:0:0:
256,192,198230,1,0,0:0:0:0:
256,192,198347,1,8,0:0:0:0:
256,192,198464,1,8,0:0:0:0:
256,192,198581,1,8,0:0:0:0:
256,192,198698,1,8,0:0:0:0:
256,192,198816,1,0,0:0:0:0:
256,192,198933,1,8,0:0:0:0:
256,192,199050,1,8,0:0:0:0:
256,192,199167,1,0,0:0:0:0:
256,192,199284,1,0,0:0:0:0:
256,192,199636,1,8,0:0:0:0:
256,192,199753,1,0,0:0:0:0:
256,192,199987,1,8,0:0:0:0:
256,192,200105,1,8,0:0:0:0:
256,192,200222,1,0,0:0:0:0:
256,192,200456,1,8,0:0:0:0:
256,192,200691,1,8,0:0:0:0:
256,192,201042,1,8,0:0:0:0:
256,192,201159,1,0,0:0:0:0:
256,192,201394,1,8,0:0:0:0:
256,192,201511,1,0,0:0:0:0:
256,192,201628,1,0,0:0:0:0:
256,192,201980,1,0,0:0:0:0:
256,192,202097,1,8,0:0:0:0:
256,192,202331,1,8,0:0:0:0:
256,192,202566,1,0,0:0:0:0:
256,192,202683,1,8,0:0:0:0:
256,192,202800,1,8,0:0:0:0:
256,192,202917,1,0,0:0:0:0:
256,192,203034,1,8,0:0:0:0:
256,192,203151,1,8,0:0:0:0:
256,192,203269,1,8,0:0:0:0:
256,192,203386,1,8,0:0:0:0:
256,192,203503,1,0,0:0:0:0:
256,192,203855,1,8,0:0:0:0:
256,192,203972,1,0,0:0:0:0:
256,192,204206,1,8,0:0:0:0:
256,192,204441,1,0,0:0:0:0:
256,192,204792,1,8,0:0:0:0:
256,192,204909,1,0,0:0:0:0:
256,192,205261,1,8,0:0:0:0:
256,192,205378,1,0,0:0:0:0:
256,192,205730,1,0,0:0:0:0:
256,192,205847,1,8,0:0:0:0:
256,192,205964,1,8,0:0:0:0:
256,192,206081,1,8,0:0:0:0:
256,192,206198,1,8,0:0:0:0:
256,192,206316,1,0,0:0:0:0:
256,192,206433,1,8,0:0:0:0:
256,192,206550,1,8,0:0:0:0:
256,192,206667,1,0,0:0:0:0:
256,192,206784,1,0,0:0:0:0:
256,192,206901,1,8,0:0:0:0:
256,192,207019,1,8,0:0:0:0:
256,192,207136,1,8,0:0:0:0:
256,192,207253,1,0,0:0:0:0:
256,192,207605,1,8,0:0:0:0:
256,192,207722,1,0,0:0:0:0:
256,192,207956,1,8,0:0:0:0:
256,192,208191,1,8,0:0:0:0:
256,192,208542,1,8,0:0:0:0:
256,192,208659,1,0,0:0:0:0:
256,192,208894,1,8,0:0:0:0:
256,192,209011,1,0,0:0:0:0:
256,192,209128,1,0,0:0:0:0:
256,192,209480,1,0,0:0:0:0:
256,192,209597,1,8,0:0:0:0:
256,192,210066,1,0,0:0:0:0:
256,192,210183,1,8,0:0:0:0:
256,192,210300,1,8,0:0:0:0:
256,192,210417,1,8,0:0:0:0:
256,192,210534,1,0,0:0:0:0:
256,192,210651,1,8,0:0:0:0:
256,192,210769,1,8,0:0:0:0:
256,192,210886,1,8,0:0:0:0:
256,192,211003,1,0,0:0:0:0:
256,192,211355,1,8,0:0:0:0:
256,192,211472,1,0,0:0:0:0:
256,192,211589,1,8,0:0:0:0:
256,192,211941,1,0,0:0:0:0:
256,192,212175,1,8,0:0:0:0:
256,192,212292,1,8,0:0:0:0:
256,192,212409,1,0,0:0:0:0:
256,192,212644,1,8,0:0:0:0:
256,192,212761,1,0,0:0:0:0:
256,192,212878,1,0,0:0:0:0:
256,192,213230,1,0,0:0:0:0:
256,192,213347,1,8,0:0:0:0:
256,192,213464,1,8,0:0:0:0:
256,192,213581,1,8,0:0:0:0:
256,192,213698,1,8,0:0:0:0:
256,192,213816,1,0,0:0:0:0:
256,192,213933,1,8,0:0:0:0:
256,192,214050,1,8,0:0:0:0:
256,192,214167,1,8,0:0:0:0:
256,192,214284,1,0,0:0:0:0:
256,192,214401,1,8,0:0:0:0:
256,192,214519,1,8,0:0:0:0:
256,192,214636,1,8,0:0:0:0:
256,192,214753,1,0,0:0:0:0:
256,192,214987,1,0,0:0:0:0:
256,192,215105,1,8,0:0:0:0:
256,192,215222,1,0,0:0:0:0:
256,192,215339,1,8,0:0:0:0:
256,192,215691,1,0,0:0:0:0:
256,192,215925,1,8,0:0:0:0:
256,192,216042,1,8,0:0:0:0:
256,192,216159,1,0,0:0:0:0:
256,192,216394,1,8,0:0:0:0:
256,192,216511,1,0,0:0:0:0:
256,192,216628,1,0,0:0:0:0:
256,192,216745,1,0,0:0:0:0:
256,192,216862,1,0,0:0:0:0:
256,192,216980,1,8,0:0:0:0:
256,192,217097,1,0,0:0:0:0:
256,192,217331,1,12,0:0:0:0:
256,192,217566,1,0,0:0:0:0:
256,192,217683,1,8,0:0:0:0:
256,192,217800,1,8,0:0:0:0:
256,192,217917,1,8,0:0:0:0:
256,192,218034,1,0,0:0:0:0:
256,192,218151,1,8,0:0:0:0:
256,192,218269,1,8,0:0:0:0:
256,192,218386,1,8,0:0:0:0:
256,192,218503,1,0,0:0:0:0:
256,192,218855,1,8,0:0:0:0:
256,192,218972,1,0,0:0:0:0:
256,192,219089,1,8,0:0:0:0:
256,192,219441,1,0,0:0:0:0:
256,192,219675,1,8,0:0:0:0:
256,192,219792,1,8,0:0:0:0:
256,192,219909,1,0,0:0:0:0:
256,192,220144,1,8,0:0:0:0:
256,192,220261,1,0,0:0:0:0:
256,192,220378,1,0,0:0:0:0:
256,192,220730,1,0,0:0:0:0:
256,192,220847,1,8,0:0:0:0:
256,192,220964,1,8,0:0:0:0:
256,192,221081,1,8,0:0:0:0:
256,192,221198,1,8,0:0:0:0:
256,192,221316,1,0,0:0:0:0:
256,192,221433,1,8,0:0:0:0:
256,192,221550,1,8,0:0:0:0:
256,192,221667,1,8,0:0:0:0:
256,192,221784,1,0,0:0:0:0:
256,192,221901,1,8,0:0:0:0:
256,192,222019,1,8,0:0:0:0:
256,192,222136,1,8,0:0:0:0:
256,192,222253,1,0,0:0:0:0:
256,192,222487,1,0,0:0:0:0:
256,192,222605,1,8,0:0:0:0:
256,192,222722,1,0,0:0:0:0:
256,192,222839,1,8,0:0:0:0:
256,192,223191,1,0,0:0:0:0:
256,192,223308,1,8,0:0:0:0:
256,192,223425,1,8,0:0:0:0:
256,192,223542,1,0,0:0:0:0:
256,192,223776,1,0,0:0:0:0:
256,192,223894,1,8,0:0:0:0:
256,192,224011,1,8,0:0:0:0:
256,192,224128,1,0,0:0:0:0:
256,192,224362,1,8,0:0:0:0:
256,192,224597,1,8,0:0:0:0:
256,192,224714,1,8,0:0:0:0:
256,192,224831,1,8,0:0:0:0:
256,192,224948,1,8,0:0:0:0:
256,192,225066,1,8,0:0:0:0:
