osu file format v14

[General]
AudioFilename: audio.mp3
AudioLeadIn: 0
PreviewTime: 39235
Countdown: 0
SampleSet: Soft
StackLeniency: 0.7
Mode: 0
LetterboxInBreaks: 0
WidescreenStoryboard: 0

[Editor]
Bookmarks: 1853,16853,31853,39353,54353,69353,84353,99353,103103,118103,133103,148103,163103,193103,208103,215603,221228
DistanceSpacing: 0.3
BeatDivisor: 16
GridSize: 32
TimelineZoom: 3.799998

[Metadata]
Title:The Ballad of a Mindless Girl
TitleUnicode:The Ballad of a Mindless Girl
Artist:cYsmix
ArtistUnicode:cYsmix
Creator:Mir
Version:Expert
Source:osu!
Tags:gero mao chaoslitz lasse featured artist spoopy stuff
BeatmapID:1662095
BeatmapSetID:792396

[Difficulty]
HPDrainRate:5
CircleSize:4
OverallDifficulty:8.5
ApproachRate:9
SliderMultiplier:2.8
SliderTickRate:1

[Events]
//Background and Video events
0,0,"ballad.jpg",0,0
//Break Periods
2,110802,111878
2,148224,162034
//Storyboard Layer 0 (Background)
//Storyboard Layer 1 (Fail)
//Storyboard Layer 2 (Pass)
//Storyboard Layer 3 (Foreground)
//Storyboard Sound Samples

[TimingPoints]
1853,468.75,4,2,0,50,1,0
1853,-125,4,2,0,50,0,0
16853,-166.666666666667,4,2,0,55,0,0
20603,-166.666666666667,4,2,0,60,0,0
24353,-166.666666666667,4,2,0,70,0,0
26228,-166.666666666667,4,2,0,75,0,0
28103,-166.666666666667,4,2,0,80,0,0
29978,-66.6666666666667,4,2,0,80,0,0
30212,-166.666666666667,4,2,0,80,0,0
30446,-66.6666666666667,4,2,0,80,0,0
30680,-166.666666666667,4,2,0,80,0,0
30915,-66.6666666666667,4,2,0,80,0,0
31149,-166.666666666667,4,2,0,80,0,0
31384,-100,4,2,0,80,0,0
38708,-100,4,2,0,5,0,0
38767,-100,4,2,0,80,0,0
38825,-100,4,2,0,5,0,0
38884,-50,4,2,0,50,0,0
39235,-50,4,2,0,80,0,0
39353,-76.9230769230769,4,2,0,80,0,0
40583,-76.9230769230769,4,2,0,5,0,0
40642,-50,4,2,0,80,0,0
40935,-76.9230769230769,4,2,0,5,0,0
40994,-76.9230769230769,4,2,0,80,0,0
42341,-76.9230769230769,4,2,0,5,0,0
42400,-76.9230769230769,4,2,0,80,0,0
42458,-76.9230769230769,4,2,0,5,0,0
42517,-76.9230769230769,4,2,0,80,0,0
44333,-76.9230769230769,4,2,0,5,0,0
44392,-50,4,2,0,80,0,0
44685,-76.9230769230769,4,2,0,5,0,0
44743,-76.9230769230769,4,2,0,80,0,0
48083,-76.9230769230769,4,2,0,5,0,0
48142,-50,4,2,0,80,0,0
48435,-76.9230769230769,4,2,0,5,0,0
48494,-76.9230769230769,4,2,0,80,0,0
51892,-50,4,2,0,80,0,0
52243,-76.9230769230769,4,2,0,80,0,0
54353,-125,4,2,0,70,0,0
61384,-200,4,2,0,70,0,0
61853,-125,4,2,0,70,0,0
69353,-76.9230769230769,4,2,0,80,0,0
70642,-50,4,2,0,80,0,0
70993,-76.9230769230769,4,2,0,80,0,0
72517,-50,4,2,0,80,0,0
72868,-76.9230769230769,4,2,0,80,0,0
74392,-50,4,2,0,80,0,0
74743,-76.9230769230769,4,2,0,80,0,0
78142,-50,4,2,0,80,0,0
78493,-76.9230769230769,4,2,0,80,0,0
81892,-50,4,2,0,80,0,0
82243,-76.9230769230769,4,2,0,80,0,0
82478,-100,4,2,0,80,0,0
83337,-100,4,2,0,5,0,0
83415,-100,4,2,0,80,0,0
84353,-100,4,2,0,90,0,1
85056,-66.6666666666667,4,2,0,90,0,1
85290,-100,4,2,0,90,0,1
91208,-100,4,2,0,5,0,1
91267,-100,4,2,0,90,0,1
91325,-100,4,2,0,5,0,1
91384,-100,4,2,0,90,0,1
91618,-200,4,2,0,90,0,0
91853,-100,4,2,0,90,0,1
92556,-66.6666666666667,4,2,0,90,0,1
92790,-100,4,2,0,90,0,1
98708,-100,4,2,0,5,0,1
98767,-100,4,2,0,90,0,1
98825,-100,4,2,0,5,0,1
98884,-50,4,2,0,50,0,1
99353,-133.333333333333,4,2,0,60,0,1
103103,-133.333333333333,4,2,0,60,0,0
112478,-399.999999999997,4,2,0,30,0,0
113415,-399.999999999997,4,2,0,40,0,0
114353,-200,4,2,0,50,0,0
116228,-133.333333333333,4,2,0,70,0,0
133103,-76.9230769230769,4,2,0,80,0,0
134392,-50,4,2,0,80,0,0
134743,-76.9230769230769,4,2,0,80,0,0
136267,-50,4,2,0,80,0,0
136618,-76.9230769230769,4,2,0,80,0,0
138142,-50,4,2,0,80,0,0
138493,-76.9230769230769,4,2,0,80,0,0
141892,-50,4,2,0,80,0,0
142243,-76.9230769230769,4,2,0,80,0,0
145642,-50,4,2,0,80,0,0
145993,-76.9230769230769,4,2,0,80,0,0
146228,-100,4,2,0,80,0,0
147048,-100,4,2,0,5,0,0
147106,-100,4,2,0,80,0,0
163103,-100,4,2,0,90,0,1
163806,-66.6666666666667,4,2,0,90,0,1
164040,-100,4,2,0,90,0,1
169958,-100,4,2,0,5,0,1
170017,-100,4,2,0,90,0,1
170075,-100,4,2,0,5,0,1
170134,-100,4,2,0,90,0,1
170368,-200,4,2,0,90,0,0
170603,-100,4,2,0,90,0,1
171306,-66.6666666666667,4,2,0,90,0,1
171540,-100,4,2,0,90,0,1
177458,-100,4,2,0,5,0,1
177517,-100,4,2,0,90,0,1
177575,-100,4,2,0,5,0,1
177634,-133.333333333333,4,2,0,90,0,0
178103,-100,4,2,0,90,0,1
178806,-66.6666666666667,4,2,0,90,0,1
179040,-100,4,2,0,90,0,1
184958,-100,4,2,0,5,0,1
185017,-100,4,2,0,90,0,1
185075,-100,4,2,0,5,0,1
185134,-100,4,2,0,90,0,1
185368,-200,4,2,0,90,0,0
185603,-100,4,2,0,90,0,1
186306,-66.6666666666667,4,2,0,90,0,1
186540,-100,4,2,0,90,0,1
191228,-200,4,2,0,60,0,1
192634,-100,4,2,0,90,0,1
193103,-133.333333333333,4,2,0,50,0,0
208103,-200,4,2,0,55,0,0
211853,-200,4,2,0,60,0,0
215603,-200,4,2,0,65,0,0
217478,-200,4,2,0,70,0,0
219353,-133.333333333333,4,2,0,70,0,0
221931,-133.333333333333,4,2,0,50,0,0
222985,-133.333333333333,4,2,0,40,0,0

[Colours]
Combo1 : 152,235,233
Combo2 : 243,224,156
Combo3 : 152,220,174

[HitObjects]
332,167,916,6,0,P|353:198|355:253,1,70,2|0,1:3|0:0,0:0:0:0:
273,236,1150,2,0,P|266:272|229:313,1,70,0|0,1:0|0:0,0:0:0:0:
175,241,1384,1,2,0:3:0:0:
175,241,1502,1,0,3:0:0:0:
175,241,1619,1,2,0:0:0:0:
175,241,1736,1,0,3:0:0:0:
247,299,1853,5,4,1:0:0:0:
247,299,2322,2,0,P|335:308|383:284,1,112,8|0,1:2|0:0,0:0:0:0:
474,353,2791,2,0,L|492:213,1,112,2|0,1:2|0:0,0:0:0:0:
427,165,3142,1,2,0:0:0:0:
427,165,3259,1,8,1:2:0:0:
490,79,3493,6,0,L|343:63,1,112,2|0,0:0|1:0,0:0:0:0:
378,66,3962,1,0,0:0:0:0:
221,123,4196,2,0,B|209:73|209:73|242:-8,1,112,8|0,1:2|0:0,0:0:0:0:
284,198,4665,2,0,P|213:223|165:201,1,112,2|0,1:2|0:0,0:0:0:0:
116,147,5017,1,2,0:0:0:0:
116,147,5134,1,8,1:2:0:0:
18,232,5368,6,0,L|29:365,1,112,2|0,0:0|1:0,0:0:0:0:
27,343,5837,1,0,0:0:0:0:
166,300,6071,2,0,P|238:300|292:314,1,112,8|0,1:2|0:0,0:0:0:0:
451,216,6540,2,0,P|379:216|325:230,1,112,2|0,1:2|0:0,0:0:0:0:
375,315,6892,1,2,0:0:0:0:
375,315,7009,1,8,1:2:0:0:
451,216,7243,6,0,L|460:104,1,112,2|0,0:0|1:0,0:0:0:0:
369,154,7595,2,0,L|349:43,1,112,2|0,0:0|0:0,0:0:0:0:
279,139,7946,2,0,L|231:37,1,112,8|0,1:2|0:0,0:0:0:0:
278,138,8415,2,0,P|253:127|225:123,1,56,0|0,1:0|0:0,0:0:0:0:
143,88,8649,2,0,P|115:92|89:103,1,56,2|0,0:3|0:0,0:0:0:0:
217,224,8884,2,0,P|156:186|84:211,1,112,8|0,1:2|0:0,0:0:0:0:
62,264,9235,1,0,0:0:0:0:
62,264,9353,5,0,1:0:0:0:
217,224,9587,1,0,0:0:0:0:
409,347,9821,2,0,P|422:282|401:229,1,112,8|0,1:2|0:0,0:0:0:0:
311,113,10290,2,0,L|455:110,1,112,2|0,1:2|0:0,0:0:0:0:
489,48,10642,1,2,0:0:0:0:
489,48,10759,1,8,1:2:0:0:
235,44,10993,6,0,P|209:102|222:171,1,112,2|0,0:0|1:0,0:0:0:0:
212,149,11462,1,0,0:0:0:0:
422,110,11696,2,0,L|311:113,1,112,8|0,1:2|0:0,0:0:0:0:
217,156,12165,2,0,L|105:153,1,112,0|0,1:0|0:0,0:0:0:0:
44,83,12517,1,2,0:0:0:0:
44,83,12634,1,8,1:2:0:0:
1,204,12868,6,0,B|-11:258|-11:258|15:328,1,112,2|0,0:0|1:0,0:0:0:0:
8,311,13337,1,0,0:0:0:0:
179,303,13571,2,0,L|319:292,1,112,8|0,1:2|0:0,0:0:0:0:
484,209,14040,2,0,L|372:217,1,112,2|0,1:2|0:0,0:0:0:0:
300,158,14392,1,2,0:0:0:0:
300,158,14509,1,8,1:2:0:0:
364,8,14743,6,0,P|388:68|385:132,1,112,2|0,0:0|0:0,0:0:0:0:
300,158,15095,2,0,P|249:149|197:183,1,112,2|0,0:0|0:0,0:0:0:0:
233,341,15446,2,0,P|266:301|262:239,1,112,2|0,0:0|0:0,0:0:0:0:
80,246,15915,5,2,0:0:0:0:
47,78,16149,2,0,L|38:17,1,56,2|0,0:3|0:0,0:0:0:0:
96,335,16384,1,2,0:3:0:0:
91,347,16853,5,4,1:2:0:0:
195,306,17204,1,0,0:0:0:0:
195,306,17321,2,0,P|270:313|291:323,1,83.9999974365235,8|0,1:2|0:0,0:0:0:0:
319,235,17790,2,0,P|349:263|370:300,1,83.9999974365235,2|0,1:2|0:0,0:0:0:0:
464,287,18142,1,2,0:0:0:0:
464,287,18259,2,0,P|465:328|454:369,1,83.9999974365235,8|0,1:2|0:0,0:0:0:0:
319,235,18728,6,0,L|306:125,1,83.9999974365235,8|0,1:2|0:0,0:0:0:0:
172,182,19196,2,0,L|185:72,1,83.9999974365235,8|0,1:2|0:0,0:0:0:0:
309,151,19665,2,0,L|296:41,1,83.9999974365235,10|0,1:2|0:0,0:0:0:0:
376,14,20017,1,2,0:0:0:0:
376,14,20134,2,0,P|430:18|477:37,1,83.9999974365235,8|0,1:2|0:0,0:0:0:0:
392,161,20603,6,0,L|279:147,1,83.9999974365235,8|0,1:2|0:0,0:0:0:0:
210,139,21071,2,0,L|97:125,1,83.9999974365235,8|0,1:2|0:0,0:0:0:0:
8,214,21540,2,0,L|91:224,1,83.9999974365235,10|0,1:2|0:0,0:0:0:0:
190,236,21892,1,2,0:0:0:0:
190,236,22008,2,0,L|273:246,1,83.9999974365235,8|0,1:2|0:0,0:0:0:0:
422,205,22478,6,0,P|425:137|403:95,1,83.9999974365235,8|0,1:2|0:0,0:0:0:0:
454,39,22946,2,0,P|386:36|344:58,1,83.9999974365235,8|0,1:2|0:0,0:0:0:0:
275,0,23415,2,0,P|272:68|294:110,1,83.9999974365235,8|0,1:2|0:0,0:0:0:0:
248,170,23767,1,2,0:0:0:0:
248,170,23884,2,0,P|316:173|358:151,1,83.9999974365235,8|0,1:2|0:0,0:0:0:0:
143,130,24353,5,8,1:2:0:0:
173,219,24587,1,0,1:0:0:0:
126,123,24821,1,8,1:2:0:0:
159,216,25056,1,0,1:0:0:0:
278,81,25290,5,8,1:2:0:0:
248,170,25524,1,0,1:0:0:0:
295,74,25758,1,8,1:2:0:0:
262,167,25993,1,0,1:0:0:0:
44,73,26228,5,8,1:2:0:0:
213,19,26462,1,0,1:0:0:0:
38,89,26696,1,8,1:2:0:0:
207,35,26930,1,0,1:0:0:0:
425,205,27165,5,8,1:2:0:0:
256,151,27399,1,0,1:0:0:0:
431,221,27633,1,8,1:2:0:0:
262,167,27867,1,0,1:0:0:0:
277,293,28103,6,0,P|216:297|198:293,1,55.9999982910157,0|0,1:0|0:0,0:0:0:0:
208,321,28337,6,0,P|180:321|152:316,1,55.9999982910157,4|0,3:0|0:0,0:0:0:0:
5,202,28571,6,0,P|66:206|84:202,1,55.9999982910157,0|0,1:0|0:0,0:0:0:0:
74,230,28805,6,0,P|101:230|129:225,1,55.9999982910157,4|0,3:0|0:0,0:0:0:0:
218,70,29040,6,0,L|207:137,1,55.9999982910157,0|0,1:0|0:0,0:0:0:0:
267,237,29274,6,0,L|277:293,1,55.9999982910157,4|0,3:0|0:0,0:0:0:0:
302,101,29509,6,0,L|291:168,1,55.9999982910157,0|0,1:0|0:0,0:0:0:0:
351,268,29743,6,0,L|360:323,1,55.9999982910157,4|0,3:0|0:0,0:0:0:0:
494,158,29978,6,2,B|381:97|413:222|251:138,1,210.000008010865,4|0,0:0|0:0,0:3:0:0:
209,134,30270,2,0,P|180:132|172:134,2,20.9999993591309,0|0|0,3:0|3:0|3:0,3:0:0:0:
294,158,30446,6,2,P|347:105|244:81,1,210.000008010865,2|8,0:0|0:3,0:3:0:0:
66,248,30798,1,4,0:3:0:0:
69,164,30915,6,0,B|98:161|132:176|149:217|149:217|157:173|173:152|214:130,1,210.000008010865,4|4,1:2|3:0,0:0:0:0:
127,86,31267,1,2,0:3:0:0:
149,217,31384,6,0,L|165:291,1,70,2|0,0:0|0:0,0:0:0:0:
256,384,31618,2,2,L|270:315,1,70,2|0,0:0|0:0,0:3:0:0:
256,179,31853,6,2,B|209:134|209:134|286:73|370:98|410:151,1,280,4|8,1:0|1:0,0:3:0:0:
402,141,32556,2,0,P|410:107|411:72,1,70,10|0,3:0|0:0,0:0:0:0:
189,190,32790,6,0,P|222:181|257:180,1,70,6|0,0:0|0:0,0:0:0:0:
79,95,33024,1,2,0:0:0:0:
89,106,33142,1,0,0:0:0:0:
98,118,33259,2,0,P|13:105|-30:81,1,70,8|0,1:0|0:0,0:0:0:0:
197,39,33493,1,0,0:0:0:0:
205,57,33611,1,0,0:0:0:0:
214,75,33728,6,2,B|225:152|225:152|206:199|206:199|218:279,1,210,4|0,0:0|0:0,0:3:0:0:
154,347,34196,2,0,B|114:353|114:353|87:341,1,70,8|0,1:0|0:0,0:0:0:0:
305,219,34431,1,0,0:0:0:0:
318,203,34548,1,0,0:0:0:0:
330,186,34665,6,0,L|319:255,1,70,4|0,0:0|0:0,0:0:0:0:
390,276,34899,2,0,L|379:345,1,70,2|0,0:1|0:0,0:0:0:0:
424,124,35134,2,2,L|413:193,1,70,8|0,1:0|0:0,0:3:0:0:
484,214,35368,2,0,L|473:283,1,70,2|0,0:1|0:0,0:0:0:0:
125,137,35603,6,2,B|200:138|200:138|254:100|254:100|342:101,1,210,4|0,1:0|0:0,0:3:0:0:
36,168,36071,2,0,P|43:90|75:56,1,70,8|0,1:0|0:0,0:0:0:0:
276,194,36306,2,0,P|283:228|278:262,1,70,2|0,0:0|0:0,0:0:0:0:
85,250,36540,6,2,B|188:237|188:237|165:293,1,140,4|0,0:0|0:0,0:3:0:0:
152,360,36892,1,2,0:1:0:0:
152,360,37009,2,0,P|231:341|248:321,1,70,8|0,1:0|0:0,0:0:0:0:
346,253,37243,2,2,P|267:272|250:292,1,70,0|0,0:0|0:0,0:3:0:0:
434,328,37478,6,2,L|456:96,1,210,4|0,1:0|0:0,0:3:0:0:
274,116,37946,2,0,P|376:132|397:124,1,70,8|0,1:0|0:0,0:0:0:0:
184,20,38181,1,2,0:0:0:0:
178,40,38298,1,0,0:0:0:0:
172,60,38415,6,0,P|70:76|49:68,1,70,4|0,1:3|0:0,0:0:0:0:
64,160,38649,1,0,0:0:0:0:
72,178,38767,1,0,0:0:0:0:
86,189,38884,6,2,L|132:192,12,35,2|2|2|2|2|2|2|2|2|2|2|2|2,3:0|3:0|3:0|3:0|3:0|3:0|3:0|3:0|3:0|3:0|3:0|3:0|3:0,3:0:0:0:
45,290,39353,5,4,1:0:0:0:
59,308,39587,5,0,0:0:0:0:
136,291,39704,1,0,0:0:0:0:
215,274,39821,2,2,L|344:248,1,90.9999958343508,8|0,1:0|0:0,0:3:0:0:
442,199,40056,5,0,3:0:0:0:
442,212,40114,1,0,3:0:0:0:
442,225,40173,2,0,L|385:239,2,45.4999979171754,0|0|0,3:0|3:0|3:0,3:0:0:0:
375,29,40524,6,0,P|356:21|309:17,1,45.4999979171754,2|0,0:0|0:0,0:0:0:0:
252,59,40642,2,0,P|190:86|107:25,1,140,6|10,0:3|1:0,0:0:0:0:
126,59,40993,2,0,L|120:164,1,90.9999958343508,2|0,0:0|0:0,0:0:0:0:
108,242,41228,5,4,1:2:0:0:
117,257,41462,5,2,0:0:0:0:
187,205,41579,1,0,0:0:0:0:
254,264,41696,2,0,P|262:309|241:367,1,90.9999958343508,8|0,1:0|0:0,0:0:0:0:
71,342,41931,5,0,3:0:0:0:
84,345,41989,1,0,3:0:0:0:
97,348,42048,1,0,3:0:0:0:
109,351,42106,1,0,3:0:0:0:
121,355,42165,6,2,B|244:340|244:340|296:381,1,181.999991668702,4|0,0:0|0:0,0:3:0:0:
369,341,42517,1,2,0:3:0:0:
297,228,42634,1,8,1:0:0:0:
283,247,42751,2,2,B|255:253|235:237|235:237|206:257|206:257|179:208|122:204,1,181.999991668702,0|0,0:3|0:3,0:3:0:0:
54,145,43103,5,4,1:0:0:0:
108,40,43220,1,0,0:0:0:0:
3,93,43337,1,2,0:1:0:0:
119,111,43454,1,0,0:0:0:0:
36,28,43571,1,10,1:0:0:0:
67,277,43806,5,0,3:0:0:0:
69,290,43864,1,0,3:0:0:0:
71,303,43923,2,0,L|16:314,2,45.4999979171754,0|0|0,3:0|3:0|3:0,3:0:0:0:
284,355,44274,6,0,L|277:292,1,45.4999979171754,2|0,0:0|0:0,0:0:0:0:
343,257,44392,2,0,P|398:234|471:281,1,140,6|10,0:3|1:0,0:0:0:0:
464,269,44743,2,0,L|470:364,1,90.9999958343508,2|0,0:0|0:0,0:0:0:0:
115,237,44978,6,0,P|204:250|220:246,1,90.9999958343508,6|0,1:0|0:0,0:0:0:0:
244,171,45212,1,2,0:0:0:0:
244,171,45329,1,0,0:0:0:0:
39,180,45446,2,0,P|18:246|92:335,1,181.999991668702,10|0,1:0|0:0,0:0:0:0:
438,214,45915,5,4,0:0:0:0:
100,95,46149,2,0,B|149:81|149:81|215:101,1,90.9999958343508,8|0,0:0|0:0,0:0:0:0:
331,173,46384,2,0,B|293:185|293:185|244:171,1,90.9999958343508,8|0,1:0|0:0,0:0:0:0:
407,112,46618,2,0,L|513:97,2,60.6666638895672,2|0|0,0:0|0:0|0:0,0:0:0:0:
291,89,46853,5,4,1:0:0:0:
281,74,47087,5,2,0:0:0:0:
244,170,47204,1,0,0:0:0:0:
293,264,47321,2,0,L|290:369,1,90.9999958343508,8|0,1:0|0:0,0:0:0:0:
119,346,47556,5,0,3:0:0:0:
129,337,47614,1,0,3:0:0:0:
139,328,47673,2,0,L|76:329,2,45.4999979171754,0|0|0,3:0|3:0|3:0,3:0:0:0:
293,264,48024,6,0,L|247:263,1,45.4999979171754,2|0,0:0|0:0,0:0:0:0:
393,335,48142,2,0,B|409:270|409:270|387:195,1,140,6|10,0:3|1:0,0:0:0:0:
388,199,48493,2,0,L|494:202,1,90.9999958343508,2|0,0:0|0:0,0:0:0:0:
293,264,48728,5,4,0:0:0:0:
304,248,48962,5,2,0:0:0:0:
210,234,49079,1,0,0:0:0:0:
119,220,49196,2,0,P|109:137|122:102,1,90.9999958343508,8|0,1:0|0:0,0:0:0:0:
238,26,49431,5,0,3:0:0:0:
236,39,49489,1,0,3:0:0:0:
234,52,49548,1,0,3:0:0:0:
232,65,49606,1,0,3:0:0:0:
230,78,49665,6,2,B|336:65|336:65|391:59|410:112,1,181.999991668702,6|0,0:0|0:0,0:3:0:0:
453,165,50017,1,2,0:0:0:0:
406,314,50134,1,10,1:0:0:0:
398,332,50251,2,2,B|350:324|328:280|328:280|296:322|233:315,1,181.999991668702,2|0,0:0|0:0,0:3:0:0:
143,260,50603,5,4,1:0:0:0:
89,155,50720,1,2,0:1:0:0:
194,208,50837,1,0,0:0:0:0:
78,226,50954,1,0,0:0:0:0:
161,143,51071,1,10,1:0:0:0:
76,330,51306,5,0,3:0:0:0:
65,321,51364,1,0,3:0:0:0:
53,313,51423,2,0,L|-2:327,2,45.4999979171754,0|0|0,3:0|3:0|3:0,3:0:0:0:
281,320,51774,6,0,L|226:334,1,45.4999979171754,2|0,0:0|0:0,0:0:0:0:
305,234,51892,2,0,B|351:233|351:233|397:252|397:252|494:245,1,140,6|10,0:3|1:0,0:0:0:0:
441,248,52243,2,0,P|456:282|445:336,1,90.9999958343508,2|0,0:0|0:0,0:0:0:0:
164,142,52478,6,2,B|251:102|250:191|352:132,1,181.999991668702,4|0,1:0|0:0,0:3:0:0:
287,68,52829,1,2,0:0:0:0:
199,230,52946,2,2,P|126:229|64:116,1,181.999991668702,8|0,1:0|0:0,0:3:0:0:
63,148,53415,5,6,0:3:0:0:
174,348,53649,1,2,3:0:0:0:
395,267,53884,5,2,3:0:0:0:
368,259,54001,1,0,3:0:0:0:
306,310,54118,5,0,3:0:0:0:
279,318,54235,1,0,3:0:0:0:
213,269,54353,5,4,0:0:0:0:
213,269,54587,1,0,0:0:0:0:
146,219,54704,2,0,L|87:228,1,56,2|0,0:0|0:0,0:0:0:0:
365,61,55056,2,0,L|408:68,3,28,0|0|0|0,3:0|3:0|3:0|3:0,3:0:0:0:
472,120,55290,6,0,B|485:172|485:172|451:294,2,168,2|2|2,3:0|0:0|3:0,0:0:0:0:
472,120,56228,1,0,0:0:0:0:
160,163,56462,5,0,0:0:0:0:
89,109,56579,2,0,B|77:81|77:81|81:43,1,56,2|0,0:0|0:0,0:0:0:0:
295,279,56931,2,0,B|297:299|297:299|292:318,3,28,0|0|0|0,3:0|3:0|3:0|3:0,3:0:0:0:
231,215,57165,6,0,P|271:193|380:254,2,168,2|2|2,3:0|0:0|3:0,0:0:0:0:
155,272,58103,6,0,P|137:226|136:201,1,56,2|0,0:0|0:0,0:0:0:0:
212,75,58337,1,0,0:0:0:0:
121,93,58454,2,0,L|62:103,1,56,2|0,0:0|0:0,0:0:0:0:
409,110,58806,2,0,L|436:114,3,28,0|0|0|0,3:0|3:0|3:0|3:0,3:0:0:0:
332,53,59040,6,0,B|294:23|294:23|324:161,2,168,2|2|2,3:0|0:0|3:0,0:0:0:0:
344,229,59978,6,0,L|278:221,1,56,6|0,0:0|0:0,0:0:0:0:
137,267,60212,1,0,0:0:0:0:
142,282,60329,1,0,0:0:0:0:
147,297,60446,2,2,L|320:315,1,168,2|0,0:0|0:0,0:3:0:0:
404,362,60915,6,2,B|417:312|417:312|392:249|392:249|326:216,1,168,6|0,3:0|0:0,0:3:0:0:
497,284,61384,2,0,L|474:219,1,70,0|0,3:0|3:0,3:0:0:0:
444,147,61677,2,0,L|438:130,2,17.5
474,219,61853,1,4,0:0:0:0:
152,151,62087,5,0,0:0:0:0:
204,75,62204,2,0,P|234:74|264:80,1,56,2|0,0:0|0:0,0:0:0:0:
74,283,62556,2,0,L|67:250,3,28,0|0|0|0,3:0|3:0|3:0|3:0,3:0:0:0:
157,334,62790,6,0,L|335:325,2,168,2|2|2,3:0|0:0|3:0,0:0:0:0:
157,334,63728,1,0,0:0:0:0:
337,148,63962,5,0,0:0:0:0:
297,73,64079,2,0,B|267:65|267:65|222:76,1,56,2|0,0:0|0:0,0:0:0:0:
419,296,64431,2,0,B|438:299|438:299|460:295,3,28,0|0|0|0,3:0|3:0|3:0|3:0,3:0:0:0:
368,225,64665,6,0,P|332:297|372:368,2,168,2|2|2,3:0|0:0|3:0,0:0:0:0:
78,170,65837,5,0,0:0:0:0:
74,254,65954,2,0,L|70:318,1,56,2|0,0:0|0:0,0:0:0:0:
237,74,66306,2,0,P|257:69|285:69,3,28,0|0|0|0,3:0|3:0|3:0|3:0,3:0:0:0:
180,139,66540,6,0,L|168:327,2,168,2|2|2,3:0|0:0|3:0,0:0:0:0:
255,217,67478,6,0,L|321:209,1,56,4|0,0:0|0:0,0:0:0:0:
467,257,67712,1,0,0:0:0:0:
462,272,67829,1,0,0:0:0:0:
457,287,67946,2,2,L|284:305,1,168,2|0,0:0|0:0,0:3:0:0:
200,352,68415,6,2,B|187:302|187:302|212:239|212:239|278:206,1,168,2|0,3:0|0:0,0:3:0:0:
457,202,68884,6,0,L|528:198,1,56,2|0,0:1|0:0,0:0:0:0:
95,327,69118,2,0,L|39:323,1,56,2|2,0:0|0:0,0:0:0:0:
255,217,69353,5,4,1:0:0:0:
255,217,69587,2,0,L|266:117,1,90.9999958343508,2|0,0:0|0:0,0:0:0:0:
277,12,69821,1,8,1:0:0:0:
66,128,70056,5,0,3:0:0:0:
69,141,70114,1,0,3:0:0:0:
72,154,70173,2,0,L|21:162,2,45.4999979171754,0|0|0,3:0|3:0|3:0,3:0:0:0:
399,89,70524,6,0,L|354:81,1,45.4999979171754,2|0,0:0|0:0,0:0:0:0:
444,169,70642,2,0,P|451:216|361:261,1,140,6|8,3:0|1:0,0:0:0:0:
383,266,70993,2,0,L|394:363,1,90.9999958343508,2|0,0:0|0:0,0:0:0:0:
216,330,71228,5,4,0:0:0:0:
216,330,71462,2,0,L|118:326,1,90.9999958343508,2|0,0:0|0:0,0:0:0:0:
33,326,71696,1,8,1:0:0:0:
126,110,71931,5,0,3:0:0:0:
128,123,71989,1,0,3:0:0:0:
129,136,72048,2,0,L|136:197,2,45.4999979171754,0|0|0,3:0|3:0|3:0,3:0:0:0:
433,114,72399,6,0,L|440:175,1,45.4999979171754,2|0,0:0|0:0,0:0:0:0:
372,53,72517,2,0,P|313:53|255:141,1,140,6|10,3:0|1:0,0:0:0:0:
259,108,72868,2,0,L|251:239,1,90.9999958343508,2|0,0:0|0:0,0:0:0:0:
447,310,73103,5,6,1:0:0:0:
447,310,73337,2,0,P|389:292|341:309,1,90.9999958343508,2|0,0:0|0:0,0:0:0:0:
232,369,73571,1,8,1:0:0:0:
73,163,73806,5,0,3:0:0:0:
71,176,73864,1,0,3:0:0:0:
70,189,73923,2,0,L|66:248,2,45.4999979171754,0|0|0,3:0|3:0|3:0,3:0:0:0:
265,60,74274,6,0,P|241:54|201:54,1,45.4999979171754,2|0,0:0|0:0,0:0:0:0:
360,92,74392,2,0,B|375:144|375:144|352:245,1,140,6|8,3:0|1:0,0:0:0:0:
355,227,74743,2,0,L|453:213,1,90.9999958343508,2|0,0:0|0:0,0:0:0:0:
240,211,74978,5,4,0:0:0:0:
247,237,75095,1,2,0:0:0:0:
300,299,75212,5,0,0:0:0:0:
293,325,75329,1,2,0:0:0:0:
200,318,75446,6,2,B|17:260|17:260|71:293|92:340,1,272.999987503052,4|0,1:2|0:0,0:3:0:0:
96,188,75915,2,0,P|88:123|77:86,1,90.9999958343508,10|0,1:1|0:0,0:0:0:0:
188,148,76149,2,0,P|213:87|222:50,1,90.9999958343508,2|0,0:1|0:0,0:0:0:0:
284,161,76384,6,2,B|320:154|338:124|338:124|387:176|453:154,1,181.999991668702,4|0,1:0|0:0,0:3:0:0:
416,70,76735,1,0,0:0:0:0:
342,234,76853,6,0,P|354:277|373:318,1,90.9999958343508,6|0,1:0|0:0,0:0:0:0:
455,365,77087,1,2,0:0:0:0:
457,281,77204,1,0,0:0:0:0:
297,365,77321,1,8,1:0:0:0:
221,145,77556,5,0,3:0:0:0:
223,158,77614,1,0,3:0:0:0:
225,171,77673,2,0,L|240:240,2,45.4999979171754,0|0|0,3:0|3:0|3:0,3:0:0:0:
57,45,78024,6,0,L|66:0,1,45.4999979171754,2|0,0:0|0:0,0:0:0:0:
40,130,78142,2,0,L|4:292,1,140,6|8,3:0|1:0,0:0:0:0:
10,266,78493,2,0,P|87:272|123:298,1,90.9999958343508,2|0,0:0|0:0,0:0:0:0:
180,352,78728,6,0,L|197:262,1,90.9999958343508,4|0,0:0|0:0,0:0:0:0:
280,365,78962,2,0,L|297:275,1,90.9999958343508,2|0,0:0|0:0,0:0:0:0:
244,103,79196,2,0,L|261:192,1,90.9999958343508,10|0,1:0|0:0,0:0:0:0:
489,193,79431,5,0,3:0:0:0:
476,188,79489,1,0,3:0:0:0:
462,184,79548,1,0,3:0:0:0:
449,180,79606,1,0,3:0:0:0:
435,176,79665,6,2,B|328:148|357:227|249:188,1,181.999991668702,4|6,0:0|3:0,0:3:0:0:
244,103,80017,1,0,0:0:0:0:
402,257,80134,2,2,P|411:325|316:314,1,181.999991668702,8|0,1:0|0:0,0:3:0:0:
31,115,80603,6,2,B|85:150|144:112|144:112|152:153|191:184,1,181.999991668702,4|0,0:0|0:0,0:3:0:0:
244,103,80954,1,0,0:0:0:0:
100,217,81071,2,0,L|115:326,1,90.9999958343508,10|0,1:0|0:0,0:0:0:0:
311,240,81306,5,0,3:0:0:0:
297,237,81364,1,0,3:0:0:0:
283,234,81423,2,0,L|229:226,2,45.4999979171754,0|0|0,3:0|3:0|3:0,3:0:0:0:
467,71,81774,6,0,L|512:64,1,45.4999979171754,2|0,0:0|0:0,0:0:0:0:
382,22,81892,2,0,B|367:69|367:69|395:183,1,140,6|10,3:0|1:0,0:0:0:0:
388,157,82243,2,0,L|269:139,1,90.9999958343508,2|0,0:0|0:0,0:0:0:0:
50,171,82478,6,0,P|104:160|165:231,1,140,4|0,0:0|0:0,0:0:0:0:
160,244,82770,2,0,L|149:287,2,35,0|0|0,3:0|3:0|3:0,3:0:0:0:
236,271,82946,2,0,P|290:282|352:234,1,93.3333333333333,2|0,0:0|0:0,0:0:0:0:
379,190,83259,2,0,L|390:142,1,46.6666666666667,10|0,3:0|0:0,0:0:0:0:
423,272,83415,1,12,0:0:0:0:
161,92,83649,5,10,3:0:0:0:
241,40,83767,1,4,0:3:0:0:
250,135,83884,2,0,B|261:172|261:172|246:251,1,70,2|0,0:1|0:0,0:0:0:0:
161,92,84118,5,4,3:0:0:0:
241,40,84235,1,2,3:0:0:0:
315,270,84353,6,2,P|193:276|162:184,1,210,4|0,1:0|0:0,0:3:0:0:
379,197,84821,1,8,1:0:0:0:
379,197,85056,2,0,P|422:202|497:271,1,105.000004005432,6|0,3:0|0:0,0:0:0:0:
251,206,85290,6,2,L|230:83,1,70,4|0,0:0|0:0,0:3:0:0:
222,24,85524,1,2,0:0:0:0:
212,42,85642,1,2,0:3:0:0:
307,69,85759,2,0,L|430:48,1,70,8|0,1:0|0:0,0:0:0:0:
222,24,85993,1,2,0:0:0:0:
212,42,86111,1,2,0:3:0:0:
476,100,86228,6,2,B|492:174|492:174|482:221|482:221|509:327,1,210,4|2,2:0|0:3,0:3:0:0:
336,214,86696,2,0,P|410:184|443:196,1,70,8|0,1:0|0:0,0:0:0:0:
231,169,86931,1,2,0:0:0:0:
239,188,87048,1,2,0:3:0:0:
269,274,87165,6,0,L|258:354,1,70,4|0,0:0|0:0,0:0:0:0:
176,267,87399,2,0,L|165:347,1,70,2|0,0:1|0:0,0:0:0:0:
248,118,87634,2,0,L|237:198,1,70,8|0,1:0|0:0,0:0:0:0:
155,111,87868,2,0,L|144:191,1,70,2|0,0:1|0:0,0:0:0:0:
391,269,88103,5,6,1:0:0:0:
391,269,88337,2,2,P|323:243|262:282,2,140,2|8|6,0:0|1:0|3:0,0:3:0:0:
81,305,89040,6,2,L|71:190,1,70,4|0,0:0|0:0,0:3:0:0:
64,138,89274,1,2,0:0:0:0:
62,116,89392,1,2,0:1:0:0:
227,175,89509,2,0,L|157:181,1,70,8|0,1:0|0:0,0:0:0:0:
60,93,89743,2,0,L|130:87,1,70,2|0,0:1|0:0,0:0:0:0:
274,92,89978,6,2,P|327:165|271:266,1,210,4|2,0:0|0:3,0:3:0:0:
277,262,90446,1,8,1:0:0:0:
274,92,90681,5,2,0:0:0:0:
329,23,90798,1,0,0:0:0:0:
186,70,90915,1,2,3:0:0:0:
186,70,91149,6,0,P|149:39|142:25,1,35,8|0,0:3|0:0,0:0:0:0:
116,124,91267,2,0,P|67:128|53:123,1,35,6|0,3:0|0:0,0:0:0:0:
101,215,91384,1,8,1:0:0:0:
101,215,91618,6,2,P|132:227|158:228,1,52.5,2|0,3:0|0:0,0:3:0:0:
206,173,91853,6,2,B|274:150|330:192|330:192|351:147|407:145,1,210,6|0,1:0|0:0,0:3:0:0:
251,259,92321,1,8,1:0:0:0:
251,259,92556,2,0,P|249:300|291:357,1,105.000004005432,6|0,0:3|0:0,0:0:0:0:
411,269,92790,6,2,L|315:285,1,70,4|0,0:0|0:0,0:3:0:0:
472,203,93024,1,2,0:0:0:0:
485,219,93142,1,2,0:3:0:0:
360,185,93259,2,0,P|361:132|374:109,1,70,8|0,1:0|0:0,0:0:0:0:
472,203,93493,1,2,0:0:0:0:
485,219,93611,1,2,0:3:0:0:
368,117,93728,6,2,P|304:142|199:52,1,210,4|2,0:0|0:3,0:3:0:0:
427,51,94196,2,0,P|452:86|455:138,1,70,8|0,1:0|0:0,0:0:0:0:
298,51,94431,1,0,0:0:0:0:
305,31,94548,1,0,0:0:0:0:
457,111,94665,6,0,L|446:192,1,70,4|0,0:0|0:0,0:0:0:0:
368,117,94899,2,0,L|357:198,1,70,2|0,0:1|0:0,0:0:0:0:
301,310,95134,2,0,L|290:229,1,70,8|0,1:0|0:0,0:0:0:0:
212,304,95368,2,0,L|201:223,1,70,2|0,0:1|0:0,0:0:0:0:
10,134,95603,6,2,B|59:109|120:114|99:160|173:159|223:118,1,210,4|2,1:0|0:3,0:3:0:0:
176,0,96071,2,0,P|152:36|159:73,1,70,8|0,0:1|0:0,0:0:0:0:
302,132,96306,2,0,P|299:97|278:69,1,70,2|0,0:0|0:0,0:0:0:0:
65,207,96540,6,2,L|69:288,1,70,4|0,0:0|0:0,0:3:0:0:
200,145,96774,1,2,0:0:0:0:
210,126,96892,1,2,0:1:0:0:
158,266,97009,2,0,L|162:347,1,70,8|0,1:0|0:0,0:0:0:0:
220,107,97243,2,0,L|216:37,1,70,2|0,0:1|0:0,0:0:0:0:
422,213,97478,6,2,P|290:263|248:217,1,210,4|2,1:2|0:3,0:3:0:0:
332,113,97946,2,0,L|336:194,1,70,8|0,1:0|0:0,0:0:0:0:
431,104,98181,5,2,0:0:0:0:
382,28,98298,1,2,0:3:0:0:
290,34,98415,1,4,3:0:0:0:
290,34,98649,6,0,P|260:10|235:2,1,35,8|0,0:3|0:0,0:0:0:0:
217,80,98767,2,0,P|178:84|155:96,1,35,6|0,3:0|0:0,0:0:0:0:
205,165,98884,6,2,L|212:225,12,35,2|2|2|2|2|2|2|2|2|2|2|2|2,3:0|3:0|3:0|3:0|3:0|3:0|3:0|3:0|3:0|3:0|3:0|3:0|3:0,3:0:0:0:
294,210,99353,6,2,P|349:189|415:254,1,157.500006008148,4|0,0:0|0:0,0:3:0:0:
377,338,99821,2,0,L|212:327,1,157.500006008148,2|0,0:0|0:0,0:0:0:0:
137,282,100290,2,0,P|82:261|16:326,2,157.500006008148,2|2|2,0:1|0:0|0:1,0:0:0:0:
219,327,101228,2,8,L|230:162,1,157.500006008148,4|0,0:0|0:0,0:3:0:0:
237,21,101931,5,2,0:0:0:0:
237,36,102048,1,0,0:0:0:0:
237,51,102165,1,0,1:0:0:0:
330,148,102399,5,0,1:0:0:0:
330,133,102516,1,0,0:0:0:0:
330,117,102634,2,0,L|403:109,3,52.5000020027161,0|0|0|0,1:0|1:0|1:0|1:0,1:0:0:0:
470,102,103103,5,4,1:0:0:0:
470,102,103571,2,0,B|486:158|486:158|462:223,1,105.000004005432,8|0,1:2|0:0,0:0:0:0:
438,283,104040,2,0,L|303:269,1,105.000004005432,2|0,1:2|0:0,0:0:0:0:
264,329,104392,1,2,0:0:0:0:
187,170,104509,2,2,P|236:210|167:263,1,157.500006008148,8|0,1:2|0:0,1:1:0:0:
111,219,104978,5,0,1:2:0:0:
111,219,105446,2,0,L|-10:207,1,105.000004005432,8|0,1:2|0:0,0:0:0:0:
187,170,105915,2,0,L|308:158,1,105.000004005432,2|0,1:2|0:0,0:0:0:0:
389,147,106267,1,2,0:0:0:0:
313,272,106384,2,2,B|346:231|346:231|336:353,1,157.500006008148,8|0,1:2|0:0,1:0:0:0:
257,369,106853,5,0,1:2:0:0:
257,369,107321,2,0,P|187:329|80:378,1,157.500006008148,8|0,1:2|0:0,0:0:0:0:
33,376,107790,2,0,L|23:254,1,105.000004005432,2|0,1:2|0:0,0:0:0:0:
20,182,108142,1,2,0:0:0:0:
20,182,108259,1,8,1:2:0:0:
114,213,108493,6,0,B|164:224|164:224|227:184,1,105.000004005432,2|0,0:0|1:2,0:0:0:0:
209,195,108962,1,0,0:0:0:0:
281,30,109196,2,0,P|255:93|281:134,1,105.000004005432,8|0,1:2|0:0,0:0:0:0:
382,137,109665,2,0,P|408:74|382:33,1,105.000004005432,2|0,1:2|0:0,0:0:0:0:
320,203,110017,1,2,0:0:0:0:
320,203,110134,1,8,1:2:0:0:
368,290,110368,6,0,L|488:284,1,105.000004005432,2|0,0:0|0:0,0:0:0:0:
165,377,112478,6,0,L|161:351,7,17.5,0|0|0|0|2|0|0|0,0:0|0:0|0:0|0:0|0:0|0:0|0:0|0:0,0:0:0:0:
240,330,113415,2,0,L|244:304,7,17.5,2|0|0|2|8|0|2|0,0:0|0:0|0:0|0:0|0:0|0:0|0:0|0:0,0:0:0:0:
149,275,114353,6,0,L|138:218,3,35
226,202,114821,2,0,L|237:145,3,35,2|0|0|0,0:0|0:0|0:0|0:0,0:0:0:0:
131,161,115290,2,0,L|120:104,3,35,2|0|0|0,0:0|0:0|0:0|0:0,0:0:0:0:
240,85,115759,2,0,L|251:28,3,35,8|0|0|0,0:0|0:0|3:0|3:0,0:0:0:0:
308,150,116228,6,0,P|387:148|397:142,1,52.5000020027161,4|0,0:0|0:0,0:0:0:0:
466,216,116462,1,2,0:0:0:0:
466,216,116579,2,0,P|387:214|377:208,1,52.5000020027161,0|0,1:0|0:0,0:0:0:0:
318,299,116813,1,2,0:0:0:0:
318,299,116930,2,0,P|397:297|407:291,1,52.5000020027161,0|0,1:0|0:0,0:0:0:0:
234,243,117165,1,2,0:0:0:0:
231,258,117282,6,0,L|220:319,1,52.5000020027161,0|0,1:0|0:0,0:0:0:0:
108,215,117517,1,2,0:0:0:0:
111,230,117634,6,0,L|126:304,1,70.0000026702882,4|0,1:2|0:0,0:0:0:0:
123,314,117868,1,0,1:0:0:0:
185,162,118103,5,4,0:0:0:0:
172,60,118337,1,0,0:0:0:0:
185,162,118571,6,0,L|272:155,1,52.5000020027161,2|0,3:3|0:0,0:0:0:0:
326,150,118806,2,0,L|413:143,1,52.5000020027161
473,138,119040,1,2,3:0:0:0:
269,57,119274,1,0,1:0:0:0:
289,241,119509,5,2,3:3:0:0:
326,150,119743,1,0,1:0:0:0:
289,241,119978,6,0,B|249:219|180:217|204:265|120:271|88:247,1,210.000008010865,4|2,0:0|3:3,0:0:0:0:
54,173,120681,1,0,0:0:0:0:
231,3,120915,6,0,L|215:132,1,105.000004005432,6|0,0:0|0:0,0:0:0:0:
455,244,121384,2,0,P|399:209|344:181,1,105.000004005432,6|0,0:3|0:0,0:0:0:0:
70,343,121853,6,2,P|104:296|231:201,1,210.000008010865,4|2,1:0|0:3,0:3:0:0:
231,217,122438,1,0,0:0:0:0:
238,230,122556,2,0,L|268:278,2,52.5000020027161,2|0|6,0:0|0:0|0:0,0:0:0:0:
70,343,123024,5,2,1:0:0:0:
21,261,123259,1,2,0:3:0:0:
367,345,123493,5,2,1:0:0:0:
416,263,123728,1,2,3:0:0:0:
359,186,123962,5,2,0:0:0:0:
416,263,124196,2,0,P|483:265|521:220,1,105.000004005432,2|0,3:0|0:0,0:0:0:0:
359,186,124665,2,0,P|292:184|254:229,1,105.000004005432,2|0,3:0|0:0,0:0:0:0:
249,290,125134,1,2,3:0:0:0:
311,81,125368,1,0,0:0:0:0:
6,158,125603,6,2,B|151:123|151:123|138:195,1,210.000008010865,4|2,1:0|0:0,0:3:0:0:
137,198,126188,1,0,0:0:0:0:
134,213,126306,2,0,L|121:286,1,52.5000020027161
106,359,126540,5,2,3:0:0:0:
340,323,126774,1,2,1:0:0:0:
247,286,127009,1,2,3:0:0:0:
475,217,127243,1,2,1:0:0:0:
374,236,127478,6,0,L|380:86,1,105.000004005432,4|0,0:0|0:0,0:0:0:0:
141,112,127946,2,2,B|286:93|286:93|238:50,1,210.000008010865,2|2,3:0|3:0,0:3:0:0:
102,196,128649,1,2,0:0:0:0:
99,211,128767,1,0,0:0:0:0:
96,226,128884,2,0,B|87:280|87:280|111:345,1,105.000004005432,2|0,3:0|0:0,0:0:0:0:
490,289,129353,6,2,P|430:266|366:258,1,105.000004005432,4|0,1:0|0:0,0:3:0:0:
271,348,129821,2,0,L|261:277,1,52.5000020027161,2|0,3:0|0:0,0:0:0:0:
319,168,130056,2,0,L|311:219,1,52.5000020027161,2|0,0:0|0:0,0:0:0:0:
224,218,130290,1,0,0:0:0:0:
448,53,130524,5,2,1:0:0:0:
350,80,130759,1,2,0:0:0:0:
36,177,130993,5,2,1:0:0:0:
224,218,131228,1,4,1:0:0:0:
224,218,131696,5,0,1:0:0:0:
224,218,132165,5,0,1:0:0:0:
32,308,132399,1,0,1:0:0:0:
176,130,132634,6,0,P|232:119|249:118,1,70.0000026702882,4|0,3:0|0:0,0:0:0:0:
256,127,132868,2,0,L|277:37,1,52.5000020027161,2|0,0:0|0:0,0:0:0:0:
226,307,133103,5,4,1:0:0:0:
216,331,133337,5,2,0:0:0:0:
311,326,133454,1,0,0:0:0:0:
406,321,133571,1,8,1:0:0:0:
72,220,133806,5,0,3:0:0:0:
70,233,133864,1,0,3:0:0:0:
68,246,133923,2,0,L|59:309,2,45.4999979171754,0|0|0,3:0|3:0|3:0,3:0:0:0:
131,57,134274,6,0,P|129:86|130:113,1,45.4999979171754,2|0,0:0|0:0,0:0:0:0:
176,187,134392,2,0,P|249:182|291:105,1,140,6|10,3:0|1:0,0:0:0:0:
287,132,134743,2,0,L|389:112,1,90.9999958343508,2|0,0:0|0:0,0:0:0:0:
162,278,134978,5,4,0:0:0:0:
166,300,135212,5,2,0:0:0:0:
254,330,135329,1,0,0:0:0:0:
342,360,135446,1,8,1:0:0:0:
453,87,135681,5,0,3:0:0:0:
455,100,135739,1,0,3:0:0:0:
457,113,135798,2,0,L|466:176,2,45.4999979171754,0|0|0,3:0|3:0|3:0,3:0:0:0:
211,53,136149,6,0,L|221:120,1,45.4999979171754,2|0,0:0|0:0,0:0:0:0:
232,181,136267,2,0,B|146:194|146:194|100:130,1,140,6|10,3:0|1:0,0:0:0:0:
115,150,136618,2,0,L|96:277,1,90.9999958343508,2|0,0:0|0:0,0:0:0:0:
78,370,136853,5,6,1:0:0:0:
63,336,137087,5,2,0:0:0:0:
159,322,137204,1,0,0:0:0:0:
255,308,137321,1,8,1:0:0:0:
366,54,137556,5,0,3:0:0:0:
353,47,137614,1,0,3:0:0:0:
340,40,137673,2,0,P|312:37|274:40,2,45.4999979171754,0|0|0,3:0|3:0|3:0,3:0:0:0:
433,195,138024,6,0,L|477:205,1,45.4999979171754
384,269,138142,2,0,P|347:205|369:135,1,140,6|10,3:0|1:0,0:0:0:0:
362,144,138493,2,0,L|273:164,1,90.9999958343508
47,158,138728,5,4,0:0:0:0:
54,184,138845,1,2,0:0:0:0:
138,236,138962,5,0,0:0:0:0:
145,210,139079,1,2,0:0:0:0:
170,119,139196,6,2,B|237:83|264:157|315:161|329:105|329:105|272:106|254:200,1,272.999987503052,8|0,1:0|0:0,1:0:0:0:
271,252,139665,2,0,P|328:276|386:258,1,90.9999958343508,10|0,1:2|0:0,0:0:0:0:
477,169,139899,2,0,P|420:193|362:175,1,90.9999958343508,10|0,1:0|0:0,0:0:0:0:
170,119,140134,6,2,B|288:78|288:78|246:111|218:171,1,181.999991668702,4|0,1:2|0:0,0:3:0:0:
197,201,140485,1,2,0:0:0:0:
120,43,140603,5,4,1:0:0:0:
106,30,140837,5,2,0:0:0:0:
79,121,140954,1,0,0:0:0:0:
106,212,141071,1,8,1:0:0:0:
397,234,141306,5,0,3:0:0:0:
384,227,141364,1,0,3:0:0:0:
371,220,141423,2,0,L|300:226,2,45.4999979171754,0|0|0,3:0|3:0|3:0,3:0:0:0:
106,212,141774,6,0,L|93:299,1,45.4999979171754,2|0,0:0|0:0,0:0:0:0:
25,305,141892,2,0,P|78:347|145:340,1,140,6|10,3:0|1:0,0:0:0:0:
145,340,142243,2,0,P|206:335|244:369,1,90.9999958343508,2|0,0:0|0:0,0:0:0:0:
324,322,142478,6,0,L|305:196,1,90.9999958343508,4|0,0:0|0:0,0:0:0:0:
402,239,142712,2,0,L|383:113,1,90.9999958343508,2|0,0:1|0:0,0:0:0:0:
213,210,142946,2,0,L|232:84,1,90.9999958343508,10|0,1:0|0:0,0:0:0:0:
407,39,143181,5,0,3:0:0:0:
393,40,143239,1,0,3:0:0:0:
379,41,143298,1,0,3:0:0:0:
365,42,143356,1,0,3:0:0:0:
351,43,143415,6,2,B|292:24|292:24|239:42|239:42|163:25,1,181.999991668702,6|0,1:0|0:0,0:3:0:0:
90,10,143767,1,2,0:0:0:0:
244,158,143884,1,8,1:0:0:0:
233,140,144001,2,2,P|176:147|122:273,1,181.999991668702,2|0,0:1|0:0,0:3:0:0:
292,339,144353,5,4,1:0:0:0:
222,243,144470,1,0,0:0:0:0:
334,280,144587,1,2,0:1:0:0:
222,316,144704,1,0,0:0:0:0:
292,221,144821,1,10,1:0:0:0:
26,263,145056,5,0,3:0:0:0:
26,276,145114,1,0,3:0:0:0:
27,289,145173,2,0,L|33:362,2,45.4999979171754,0|0|0,3:0|3:0|3:0,3:0:0:0:
292,221,145524,6,0,L|231:212,1,45.4999979171754,2|0,0:0|0:0,0:0:0:0:
379,215,145642,2,0,P|428:156|374:73,1,140,6|10,3:0|1:0,0:0:0:0:
413,99,145993,2,0,L|524:82,1,90.9999958343508,2|0,0:0|0:0,0:0:0:0:
297,85,146228,6,2,B|262:63|216:69|240:98|198:99|140:74,1,140,4|0,1:0|0:0,3:0:0:0:
95,21,146579,1,2,0:0:0:0:
21,131,146696,2,2,B|0:185|0:185|32:281,1,140,4|0,0:0|0:0,0:1:0:0:
308,245,147165,6,0,L|215:228,1,70,6|0,3:0|0:0,0:0:0:0:
110,321,147399,2,0,L|203:304,1,70,2|0,3:0|0:0,0:0:0:0:
264,365,147634,1,10,1:0:0:0:
140,218,147868,2,0,L|152:146,2,46.6666666666667,0|0|0,3:0|3:0|3:0,3:0:0:0:
114,118,162634,6,0,L|126:210,1,87.5,4|0,1:2|0:0,0:0:0:0:
121,227,162868,1,0,1:0:0:0:
483,152,163103,6,2,B|440:150|416:176|416:176|374:178|349:148|349:148|351:185|322:210,1,210,4|0,1:0|0:0,0:1:0:0:
254,277,163571,1,8,1:0:0:0:
254,277,163806,2,0,P|305:304|375:288,1,105.000004005432,2|0,0:0|0:0,0:0:0:0:
214,177,164040,6,2,L|103:192,1,70,4|0,0:0|0:0,0:3:0:0:
261,37,164274,1,2,0:0:0:0:
268,56,164392,1,2,0:3:0:0:
399,117,164509,2,0,L|414:228,1,70,8|0,1:0|0:0,0:0:0:0:
261,37,164743,1,2,0:0:0:0:
268,56,164861,1,2,0:3:0:0:
254,277,164978,6,2,P|184:283|112:146,1,210,4|2,0:0|0:3,0:3:0:0:
304,204,165446,2,0,P|346:215|383:237,1,70,8|0,1:0|0:0,0:0:0:0:
312,375,165681,1,2,0:0:0:0:
303,355,165798,1,2,0:3:0:0:
447,294,165915,6,0,L|469:187,1,70,4|0,0:0|0:0,0:0:0:0:
369,227,166149,2,0,L|391:120,1,70,2|0,0:1|0:0,0:0:0:0:
293,0,166384,2,0,L|315:107,1,70,8|0,1:0|0:0,0:0:0:0:
215,67,166618,2,0,L|237:174,1,70,2|0,0:1|0:0,0:0:0:0:
257,308,166853,5,6,1:0:0:0:
257,308,167087,2,2,B|219:273|186:274|186:274|161:304|105:294,2,140,2|8|2,0:0|1:0|3:0,0:1:0:0:
447,332,167790,6,2,P|455:296|423:212,1,70,4|0,0:0|0:0,0:3:0:0:
416,89,168024,1,2,0:0:0:0:
422,109,168142,1,2,0:1:0:0:
302,199,168259,2,0,L|178:185,1,70,8|0,1:0|0:0,0:0:0:0:
410,68,168493,2,0,L|479:75,1,70,2|0,0:1|0:0,0:0:0:0:
229,31,168728,6,2,B|79:12|79:12|151:85,1,210,4|2,0:0|0:3,0:3:0:0:
120,53,169196,1,8,1:0:0:0:
302,199,169431,5,2,0:0:0:0:
311,115,169548,1,0,0:0:0:0:
350,271,169665,1,6,3:0:0:0:
350,271,169899,6,0,P|335:286|305:301,1,35,2|0,0:3|0:0,0:0:0:0:
269,353,170017,2,0,P|247:353|215:342,1,35,6|0,3:0|0:0,0:0:0:0:
186,268,170134,1,8,1:0:0:0:
186,268,170368,6,2,P|151:260|124:259,1,52.5,2|0,0:0|0:0,0:3:0:0:
52,315,170603,6,2,B|12:290|16:250|16:250|65:195|37:100,1,210,4|0,1:0|0:0,0:3:0:0:
12,40,171071,1,8,1:0:0:0:
12,40,171306,2,0,L|131:27,1,105.000004005432,6|0,3:0|0:0,0:0:0:0:
277,13,171540,6,0,B|294:46|294:46|286:107,1,70,4|0,0:0|0:0,0:0:0:0:
267,186,171774,1,2,0:0:0:0:
263,206,171892,1,2,0:3:0:0:
399,101,172009,2,0,B|387:136|387:136|338:173,1,70,8|0,1:0|0:0,0:0:0:0:
267,186,172243,1,2,0:0:0:0:
263,206,172361,1,2,0:3:0:0:
465,212,172478,6,2,B|490:281|490:281|457:366|457:366|434:291,1,210,4|2,0:0|0:3,0:3:0:0:
343,299,172946,2,0,B|307:293|307:293|254:313,1,70,8|0,1:0|0:0,0:0:0:0:
124,339,173181,1,2,0:0:0:0:
144,334,173298,1,2,0:3:0:0:
201,259,173415,6,0,P|205:202|189:163,1,70,4|0,0:0|0:0,0:0:0:0:
281,154,173649,2,0,P|243:110|204:94,1,70,2|0,0:1|0:0,0:0:0:0:
121,168,173884,2,0,P|117:111|133:72,1,70,8|0,1:0|0:0,0:0:0:0:
41,63,174118,2,0,P|78:19|117:3,1,70,2|0,0:1|0:0,0:0:0:0:
306,33,174353,5,6,1:0:0:0:
306,33,174587,2,2,B|349:36|371:5|371:5|395:33|462:28,2,140,2|8|2,0:0|1:0|3:0,3:0:0:0:
41,63,175290,6,2,P|27:100|45:150,1,70,4|0,0:0|0:0,0:3:0:0:
138,231,175524,1,2,0:0:0:0:
137,209,175642,1,2,0:1:0:0:
219,54,175759,2,0,P|233:91|215:141,1,70,8|0,1:0|0:0,0:0:0:0:
139,249,175993,2,0,P|102:263|52:245,1,70,2|0,0:1|0:0,0:0:0:0:
299,263,176228,6,2,P|396:250|485:324,1,210,4|2,0:0|0:3,0:3:0:0:
480,315,176696,1,8,1:0:0:0:
334,86,176931,5,2,0:0:0:0:
413,44,177048,1,0,0:0:0:0:
256,33,177165,1,6,3:0:0:0:
256,33,177400,6,0,L|240:89,1,35,8|0,0:3|0:0,0:0:0:0:
169,93,177517,2,0,L|185:149,1,35,6|0,3:3|0:0,0:0:0:0:
200,220,177634,6,0,L|125:214,1,70.0000026702882,0|0,1:0|0:0,0:0:0:0:
120,220,177868,2,0,L|134:284,1,52.5000020027161,0|0,1:0|0:0,0:0:0:0:
395,219,178103,6,2,B|267:151|267:151|301:183|307:235,1,210,4|0,1:0|0:0,0:3:0:0:
415,313,178571,1,8,1:0:0:0:
415,313,178806,2,0,P|478:268|478:182,1,105.000004005432,6|0,3:0|0:0,0:0:0:0:
262,81,179040,6,2,L|268:177,1,70,4|0,0:0|0:0,0:3:0:0:
341,32,179274,1,2,0:0:0:0:
359,21,179392,1,2,3:0:0:0:
169,31,179509,2,0,L|175:127,1,70,8|0,1:0|0:0,0:0:0:0:
341,32,179743,1,2,0:0:0:0:
359,21,179861,1,2,3:0:0:0:
351,190,179978,6,2,P|278:243|173:171,1,210,4|2,0:0|0:3,0:3:0:0:
394,108,180446,2,0,P|446:160|445:220,1,70,8|0,1:0|0:0,0:0:0:0:
266,155,180681,1,2,0:0:0:0:
260,134,180798,1,2,0:3:0:0:
303,266,180915,6,0,L|295:365,1,70,4|0,0:0|0:0,0:0:0:0:
211,304,181149,2,0,L|203:403,1,70,2|0,0:1|0:0,0:0:0:0:
151,175,181384,2,0,L|143:274,1,70,8|0,1:0|0:0,0:0:0:0:
59,213,181618,2,0,L|51:312,1,70,2|0,0:1|0:0,0:0:0:0:
242,141,181853,5,6,1:0:0:0:
242,141,182087,2,2,B|296:139|321:103|321:103|344:127|386:129,2,140,2|8|2,0:0|1:0|3:0,0:3:0:0:
419,49,182790,6,0,P|457:128|455:164,1,70,4|0,0:0|0:0,0:0:0:0:
244,53,183024,1,2,0:0:0:0:
235,33,183142,1,2,0:1:0:0:
335,209,183259,2,0,P|306:291|279:315,1,70,8|0,1:0|0:0,0:0:0:0:
112,163,183493,2,0,P|140:80|167:56,1,70,2|0,0:1|0:0,0:0:0:0:
210,293,183728,6,2,B|52:270|52:270|114:335,1,210,4|2,0:0|0:3,0:1:0:0:
86,306,184196,1,8,1:0:0:0:
294,198,184431,5,2,0:0:0:0:
198,176,184548,1,0,0:0:0:0:
368,143,184665,1,6,3:0:0:0:
368,143,184899,6,0,P|378:167|382:194,1,35,8|0,0:3|0:0,0:0:0:0:
439,229,185017,2,0,P|429:253|412:274,1,35,6|0,3:0|0:0,0:0:0:0:
407,337,185134,1,8,1:0:0:0:
407,337,185368,6,2,P|377:339|343:329,1,52.5,2|0,3:0|0:0,0:3:0:0:
296,273,185603,6,2,B|264:255|213:259|234:293|185:306|154:290|154:290|144:248|96:227,1,210,4|0,1:0|0:0,0:3:0:0:
38,242,186071,1,8,1:0:0:0:
38,242,186306,2,0,P|15:289|40:360,1,105.000004005432,6|0,3:0|0:0,0:0:0:0:
170,161,186540,6,2,L|86:143,1,70,4|0,0:0|0:0,0:3:0:0:
266,65,186774,1,2,0:0:0:0:
258,84,186892,1,2,0:3:0:0:
372,13,187009,2,0,L|440:27,1,70,8|0,1:0|0:0,0:0:0:0:
266,65,187243,1,2,0:0:0:0:
258,84,187361,1,2,0:3:0:0:
343,230,187478,6,2,B|384:280|384:280|350:117,1,210,4|2,0:0|0:3,0:3:0:0:
254,248,187946,2,0,P|219:253|184:248,1,70,8|0,1:0|0:0,0:0:0:0:
111,88,188181,1,2,0:0:0:0:
115,68,188298,1,2,0:3:0:0:
88,232,188415,6,0,L|1:219,1,70,4|0,0:0|0:0,0:0:0:0:
102,320,188649,2,0,L|15:307,1,70,2|0,0:1|0:0,0:0:0:0:
240,160,188884,2,0,L|153:147,1,70,8|0,1:0|0:0,0:0:0:0:
254,248,189118,2,0,L|167:235,1,70,2|0,0:1|0:0,0:0:0:0:
406,351,189353,5,4,1:0:0:0:
406,351,189587,2,2,B|428:280|428:280|390:201,2,140,2|8|2,0:0|1:0|3:0,0:3:0:0:
390,124,190290,2,2,P|425:127|455:143,1,70,4|0,0:0|0:0,0:3:0:0:
195,152,190524,1,2,0:0:0:0:
188,131,190642,1,2,0:1:0:0:
399,220,190759,2,0,P|420:247|431:280,1,70,8|0,1:0|0:0,0:0:0:0:
182,108,190993,2,0,P|192:74|214:47,1,70,2|0,0:1|0:0,0:0:0:0:
307,17,191228,6,2,B|372:50|376:-14|444:13,1,140,4|2,0:0|3:0,0:3:0:0:
417,124,191931,1,2,0:0:0:0:
414,113,192048,1,0,0:0:0:0:
412,102,192165,6,0,L|401:152,2,43.75
366,247,192634,6,0,P|313:221|279:222,1,87.5,0|0,1:0|0:0,0:0:0:0:
269,228,192868,1,0,1:0:0:0:
269,228,193103,6,0,B|283:343|283:343|304:281,1,157.500006008148,4|0,1:2|0:0,0:0:0:0:
177,326,193571,2,0,L|56:339,1,105.000004005432,8|0,1:2|0:0,0:0:0:0:
0,210,194040,2,0,L|121:223,1,105.000004005432,2|0,1:2|0:0,0:0:0:0:
175,161,194392,1,2,0:0:0:0:
175,161,194509,1,8,1:2:0:0:
77,8,194743,2,0,P|61:63|106:132,1,105.000004005432,2|0,0:0|1:0,0:0:0:0:
374,55,195446,6,0,L|238:43,1,105.000004005432,8|0,1:2|0:0,0:0:0:0:
175,161,195915,2,0,L|311:149,1,105.000004005432,2|0,1:2|0:0,0:0:0:0:
357,216,196267,1,2,0:0:0:0:
357,216,196384,1,8,1:2:0:0:
271,352,196618,2,0,P|251:259|277:226,1,105.000004005432,2|0,0:0|1:0,0:0:0:0:
357,216,197087,1,0,0:0:0:0:
512,317,197321,6,0,L|370:300,1,105.000004005432,8|0,1:2|0:0,0:0:0:0:
357,216,197790,2,0,L|499:199,1,105.000004005432,2|0,1:2|0:0,0:0:0:0:
497,119,198142,1,2,0:0:0:0:
497,119,198259,1,8,1:2:0:0:
342,28,198493,6,0,P|291:17|216:44,1,105.000004005432,2|0,0:0|1:0,0:0:0:0:
161,8,198845,2,0,P|117:36|83:108,1,105.000004005432,2|0,0:0|0:0,0:0:0:0:
7,80,199196,2,0,P|-4:131|23:206,1,105.000004005432,10|0,1:2|0:0,0:0:0:0:
144,151,199665,2,0,P|118:157|95:173,1,52.5000020027161,2|0,1:2|0:0,0:0:0:0:
65,254,199899,2,0,P|51:276|46:303,1,52.5000020027161,2|0,3:0|0:0,0:0:0:0:
305,265,200134,2,0,B|215:284|167:260|167:260|215:284|231:352,1,210.000008010865,8|0,1:2|1:0,0:0:0:0:
215,308,201071,6,0,L|231:194,1,105.000004005432,8|0,1:2|0:0,0:0:0:0:
303,48,201540,2,0,L|317:151,1,105.000004005432,2|0,1:2|0:0,0:0:0:0:
396,203,201892,1,2,0:0:0:0:
396,203,202009,1,8,1:2:0:0:
512,104,202243,6,0,P|436:94|391:146,1,105.000004005432,2|0,0:0|1:0,0:0:0:0:
396,203,202712,1,0,0:0:0:0:
198,59,202946,2,0,L|348:42,1,105.000004005432,8|0,1:2|0:0,0:0:0:0:
173,167,203415,2,0,L|23:150,1,105.000004005432,2|0,1:2|0:0,0:0:0:0:
26,73,203767,1,2,0:0:0:0:
26,73,203884,1,8,1:2:0:0:
173,167,204118,6,0,P|182:246|149:291,1,105.000004005432,2|0,0:0|1:0,0:0:0:0:
83,297,204587,1,0,0:0:0:0:
273,271,204821,2,0,L|392:262,1,105.000004005432,8|0,1:2|0:0,0:0:0:0:
512,178,205290,2,0,L|393:169,1,105.000004005432,2|0,1:2|0:0,0:0:0:0:
356,94,205642,1,2,0:0:0:0:
356,94,205759,1,8,1:2:0:0:
243,42,205993,6,0,P|222:98|252:168,1,105.000004005432,2|0,0:0|0:0,0:0:0:0:
240,153,206345,1,2,0:0:0:0:
316,106,206696,1,2,0:0:0:0:
316,106,207165,5,2,0:0:0:0:
240,153,207399,1,0,0:0:0:0:
289,228,207634,1,8,1:2:0:0:
88,342,208103,5,4,1:0:0:0:
88,342,208571,2,0,P|146:330|179:349,1,70,8|0,1:2|0:0,0:0:0:0:
197,260,209040,2,0,P|231:256|263:269,1,70,10|0,1:2|0:0,0:0:0:0:
335,329,209392,1,2,0:0:0:0:
335,329,209509,2,0,L|436:317,1,70,8|0,1:2|0:0,0:0:0:0:
497,242,209978,6,0,L|396:230,1,70,8|0,1:2|0:0,0:0:0:0:
281,167,210446,2,0,P|315:163|347:176,1,70,8|0,1:2|0:0,0:0:0:0:
397,88,210915,2,0,P|424:109|437:141,1,70,10|0,1:2|0:0,0:0:0:0:
427,233,211267,1,2,0:0:0:0:
427,233,211384,2,0,L|418:325,1,70,8|0,1:2|0:0,0:0:0:0:
326,348,211853,6,0,L|225:341,1,70,8|0,1:2|0:0,0:0:0:0:
193,268,212321,2,0,L|123:272,1,70,8|0,1:2|0:0,0:0:0:0:
46,334,212790,2,0,P|26:284|33:247,1,70,10|0,1:2|0:0,0:0:0:0:
65,191,213142,1,2,0:0:0:0:
65,191,213259,2,0,P|85:141|78:104,1,70,8|0,1:2|0:0,0:0:0:0:
39,39,213728,6,0,P|75:26|128:41,1,70,8|0,1:2|0:0,0:0:0:0:
173,157,214196,2,0,P|207:160|239:147,1,70,8|0,1:2|0:0,0:0:0:0:
284,22,214665,2,0,P|318:18|350:31,1,70,10|0,1:2|0:0,0:0:0:0:
400,111,215017,1,2,0:0:0:0:
400,111,215134,2,0,L|405:197,1,70,8|0,1:2|0:0,0:0:0:0:
257,347,215603,5,4,1:0:0:0:
102,286,215837,1,0,1:0:0:0:
256,323,216071,1,8,1:2:0:0:
400,283,216306,1,0,1:0:0:0:
253,103,216540,6,0,P|246:179|247:197,1,70,10|0,1:2|1:0,0:0:0:0:
250,182,216892,1,2,0:0:0:0:
254,191,217009,1,8,1:2:0:0:
360,157,217243,1,0,1:0:0:0:
169,43,217478,6,0,P|142:114|138:132,1,70,8|0,1:2|1:0,0:0:0:0:
146,119,217830,1,2,0:0:0:0:
147,128,217947,1,8,1:2:0:0:
253,103,218181,1,0,1:0:0:0:
53,128,218415,6,0,P|65:203|71:220,1,70,8|0,1:2|1:0,0:0:0:0:
71,205,218767,1,2,0:0:0:0:
76,212,218884,1,8,1:2:0:0:
147,128,219118,1,0,1:0:0:0:
182,319,219353,6,0,P|217:308|267:308,1,70.0000026702882,0|0,1:0|0:0,0:0:0:0:
251,295,219587,6,0,P|285:297|319:307,1,70.0000026702882,4|0,3:0|0:0,0:0:0:0:
324,317,219821,6,0,L|337:236,1,70.0000026702882,0|0,1:0|0:0,0:0:0:0:
337,237,220056,6,0,L|350:156,1,70.0000026702882,4|0,3:0|0:0,0:0:0:0:
485,178,220290,6,0,P|450:167|400:167,1,70.0000026702882,0|0,1:0|0:0,0:0:0:0:
416,154,220524,6,0,P|381:156|347:166,1,70.0000026702882,4|0,3:0|0:0,0:0:0:0:
343,176,220758,6,0,L|330:95,1,70.0000026702882,0|0,1:0|0:0,0:0:0:0:
330,96,220993,6,0,L|317:15,1,70.0000026702882,4|0,3:0|0:0,0:0:0:0:
309,22,221228,5,4,0:1:0:0:
102,121,221931,5,0,0:0:0:0:
102,121,222048,1,0,0:0:0:0:
92,39,222165,1,0,1:0:0:0:
107,205,222399,6,0,L|182:214,1,52.5000020027161,0|0,1:0|0:0,0:0:0:0:
32,248,222634,1,0,0:0:0:0:
110,291,222751,2,0,L|185:300,2,52.5000020027161,0|8|12,1:0|1:2|1:2,0:0:0:0:
