osu file format v14

[General]
AudioFilename: audio.mp3
AudioLeadIn: 0
PreviewTime: 195964
Countdown: 0
SampleSet: Soft
StackLeniency: 0.7
Mode: 0
LetterboxInBreaks: 0
WidescreenStoryboard: 1

[Editor]
Bookmarks: 15964,45964,75964,105964,120964,128464,135964,165964,197839,227839,242839
DistanceSpacing: 0.9
BeatDivisor: 4
GridSize: 32
TimelineZoom: 1.7

[Metadata]
Title:Tear Rain feat. Emmy
TitleUnicode:Tear Rain feat. えみぃ
Artist:cYsmix
ArtistUnicode:cYsmix
Creator:AmeThysTas
Version:Aiman Joe's Normal
Source:東方紅魔郷 ~ the Embodiment of Scarlet Devil
Tags:electronic japanese dubstep video game videogame complextro female vocals vocalist house amateras records えみぃ Extra Stage 魔法少女達の百年祭 Centennial festival for magical girls 2hu touhou project 東方Project ZUN Team Shanghai Alice th06 1im19 rvmathew toro inoue indonesian btmc
BeatmapID:4436485
BeatmapSetID:2053246

[Difficulty]
HPDrainRate:3
CircleSize:3.2
OverallDifficulty:3.5
ApproachRate:5
SliderMultiplier:1.1
SliderTickRate:1

[Events]
//Background and Video events
0,0,"bg.jpg",0,0
//Break Periods
2,106130,119055
2,190505,194730
//Storyboard Layer 0 (Background)
//Storyboard Layer 1 (Fail)
//Storyboard Layer 2 (Pass)
//Storyboard Layer 3 (Foreground)
//Storyboard Layer 4 (Overlay)
//Storyboard Sound Samples

[TimingPoints]
930,468.75,4,2,1,70,1,0
930,-111.111111111111,4,2,1,70,0,0
8430,-100,4,2,1,70,0,0
12180,-100,4,2,1,80,0,0
12414,-100,4,2,1,80,0,0
15461,-100,4,2,1,80,0,0
15930,-111.111111111111,4,3,1,85,0,0
20500,-111.111111111111,4,3,2,85,0,0
20617,-111.111111111111,4,3,1,85,0,0
28000,-111.111111111111,4,3,2,85,0,0
28117,-111.111111111111,4,3,1,85,0,0
30930,-105.263157894737,4,3,1,85,0,0
35383,-105.263157894737,4,3,2,85,0,0
35617,-105.263157894737,4,3,1,85,0,0
43000,-105.263157894737,4,3,2,85,0,0
43117,-105.263157894737,4,3,1,85,0,0
45930,-111.111111111111,4,3,1,70,0,0
60461,-125,4,3,1,75,0,0
60695,-125,4,3,1,80,0,0
60930,-105.263157894737,4,3,1,85,0,0
68430,-100,4,3,1,85,0,0
72180,-100,4,3,1,90,0,0
76398,-100,4,3,1,80,0,0
77336,-100,4,3,1,100,0,0
77805,-95.2380952380952,4,3,1,100,0,1
83195,-95.2380952380952,4,1,1,100,0,1
83430,-95.2380952380952,4,3,1,100,0,1
88000,-95.2380952380952,4,3,2,100,0,1
88117,-95.2380952380952,4,3,1,100,0,1
97258,-100,4,3,1,100,0,0
98430,-95.2380952380952,4,3,1,100,0,1
103000,-95.2380952380952,4,3,2,100,0,1
103117,-95.2380952380952,4,3,1,100,0,1
105930,-100,4,3,1,100,0,0
120930,-111.111111111111,4,3,1,60,0,0
128430,-100,4,3,1,75,0,0
132180,-100,4,3,1,80,0,0
135930,-111.111111111111,4,3,1,85,0,0
140500,-111.111111111111,4,3,2,85,0,0
140617,-111.111111111111,4,3,1,85,0,0
148000,-111.111111111111,4,3,2,85,0,0
148117,-111.111111111111,4,3,1,85,0,0
150930,-105.263157894737,4,3,1,85,0,0
155383,-105.263157894737,4,3,2,85,0,0
155617,-105.263157894737,4,3,1,85,0,0
163000,-105.263157894737,4,3,2,85,0,0
163117,-105.263157894737,4,3,1,85,0,0
165930,-111.111111111111,4,3,1,70,0,0
173430,-111.111111111111,4,3,1,65,0,0
175305,-111.111111111111,4,3,1,60,0,0
176242,-111.111111111111,4,3,1,55,0,0
177180,-111.111111111111,4,3,1,50,0,0
178820,-111.111111111111,4,3,1,50,0,0
180930,-111.111111111111,4,3,2,50,0,0
195930,-100,4,3,1,80,0,0
197805,-95.2380952380952,4,3,1,90,0,1
224055,-100,4,3,1,80,0,0
224523,-100,4,3,1,75,0,0
224992,-100,4,3,1,70,0,0
225461,-100,4,3,1,65,0,0
225930,-100,4,3,1,60,0,0
227805,-111.111111111111,4,3,1,70,0,0
239055,-111.111111111111,4,3,1,70,0,0
242570,-111.111111111111,4,3,3,70,0,0

[Colours]
Combo1 : 228,220,120
Combo2 : 226,114,125
Combo3 : 69,140,218

[HitObjects]
192,288,930,6,0,P|144:301|88:299,2,98.9999969787599,2|2|2,3:2|3:2|3:2,0:0:0:0:
265,354,2336,1,2,3:2:0:0:
340,289,2805,2,0,L|334:185,1,98.9999969787598,2|0,3:2|3:2,0:0:0:0:
239,161,3742,2,0,L|245:57,1,98.9999969787598,2|0,3:2|3:0,0:0:0:0:
326,6,4680,6,0,P|376:3|435:21,2,98.9999969787598,2|2|2,3:2|3:2|3:2,0:0:0:0:
244,62,6086,1,2,3:2:0:0:
154,31,6555,2,0,P|105:23|52:39,1,98.9999969787598,2|2,3:2|3:2,0:0:0:0:
1,107,7492,2,0,L|8:210,1,98.9999969787598,0|2,3:2|3:2,0:0:0:0:
20,315,8430,6,0,B|75:300|75:300|136:311,1,110,4|8,3:0|0:1,0:0:0:0:
224,328,9367,2,0,L|220:385,2,55,4|2|8,3:0|0:0|0:1,0:0:0:0:
294,258,10305,1,4,3:0:0:0:
372,318,10773,1,8,0:1:0:0:
450,257,11242,2,0,L|441:201,1,55,4|2,3:0|0:0,0:0:0:0:
412,162,11711,2,0,L|420:107,1,55,8|2,0:1|0:0,0:0:0:0:
415,58,12180,6,0,B|363:67|363:67|307:55,1,110,4|8,3:0|0:1,0:0:0:0:
259,44,12883,1,2,0:0:0:0:
259,44,13117,2,0,P|214:57|152:52,1,110,8|8,0:1|0:1,0:0:0:0:
106,50,13820,1,2,0:0:0:0:
106,50,14055,1,8,0:1:0:0:
35,118,14523,1,8,0:1:0:0:
34,217,14992,1,8,0:1:0:0:
110,280,15461,2,0,L|170:272,1,55,8|4,1:2|3:0,0:0:0:0:
206,257,15930,6,0,B|253:270|253:270|303:256,1,98.9999969787598,0|8,1:3|1:1,0:2:0:0:
337,229,16633,1,0,0:2:0:0:
337,229,16867,2,0,L|439:238,1,98.9999969787598,0|8,1:0|1:1,0:2:0:0:
508,186,17805,2,0,P|519:132|511:87,2,98.9999969787598,0|8|0,1:0|1:1|1:0,0:2:0:0:
435,237,19211,1,8,1:1:0:0:
416,149,19680,6,0,L|424:48,1,98.9999969787598,0|8,1:0|1:1,0:2:0:0:
419,10,20383,1,0,0:0:0:0:
419,10,20617,2,0,P|370:21|319:18,1,98.9999969787598,0|8,1:0|1:1,0:2:0:0:
254,76,21555,2,0,P|262:120|252:175,1,98.9999969787598,0|8,1:0|1:1,0:2:0:0:
232,259,22492,2,0,L|181:264,1,49.4999984893799,0|8,1:0|0:0,0:2:0:0:
147,291,22961,2,0,L|96:285,1,49.4999984893799,8|8,1:1|0:0,0:0:0:0:
54,276,23430,6,2,L|62:176,1,98.9999969787598,2|8,1:2|1:1,0:3:0:0:
103,160,24133,2,2,L|98:60,1,98.9999969787598,2|2,0:2|0:2,0:0:0:0:
100,20,24836,1,8,1:1:0:0:
100,20,25070,2,0,P|144:29|199:23,1,98.9999969787598,2|0,0:0|0:0,0:0:0:0:
241,14,25773,1,8,1:1:0:0:
314,64,26242,1,0,1:0:0:0:
381,5,26711,2,2,P|404:2|433:2,1,49.4999984893799,8|0,1:1|0:0,0:3:0:0:
474,4,27180,6,0,P|486:48|478:106,1,98.9999969787598,0|8,1:0|1:1,0:2:0:0:
470,146,27883,1,0,0:0:0:0:
470,146,28117,2,0,P|424:131|373:134,1,98.9999969787598,0|8,1:0|1:1,0:0:0:0:
306,192,29055,2,0,L|313:294,2,98.9999969787598,0|8|0,1:0|1:1|1:0,0:0:0:0:
242,128,30461,1,8,1:1:0:0:
174,190,30930,6,2,B|127:199|127:199|71:186,1,104.499997209549,6|8,1:2|1:1,0:0:0:0:
28,185,31633,1,2,0:2:0:0:
28,185,31867,2,0,L|18:290,1,104.499997209549,0|8,1:0|1:1,0:0:0:0:
96,349,32805,2,0,P|146:337|202:349,2,104.499997209549,0|8|0,1:0|1:1|1:0,0:0:0:0:
27,283,34211,1,8,1:1:0:0:
112,243,34680,6,2,L|219:249,1,104.499997209549,2|8,1:2|1:1,0:0:0:0:
265,265,35383,1,2,0:1:0:0:
265,265,35617,2,0,P|311:250|368:255,1,104.499997209549,0|8,1:0|1:1,0:0:0:0:
460,255,36555,2,0,P|472:204|462:148,1,104.499997209549,0|8,1:0|1:1,0:0:0:0:
388,96,37492,2,0,L|333:100,1,52.2499986047745,0|8,1:0|0:0,0:0:0:0:
305,131,37961,2,0,L|248:127,1,52.2499986047745,8|8,1:1|0:0,0:0:0:0:
206,121,38430,6,2,P|162:133|102:133,1,104.499997209549,2|8,1:2|1:1,0:0:0:0:
57,141,39133,2,2,L|62:249,1,104.499997209549,2|2,0:2|0:2,0:0:0:0:
66,296,39836,1,8,1:1:0:0:
66,296,40070,2,0,P|111:285|170:289,1,104.499997209549,2|0,0:0|0:0,0:0:0:0:
215,291,40773,1,8,1:1:0:0:
299,252,41242,1,0,1:0:0:0:
382,295,41711,2,2,L|440:298,1,52.2499986047745,8|2,1:1|0:2,0:0:0:0:
481,296,42180,6,2,P|495:251|487:183,2,104.499997209549,2|8|0,1:2|1:1|1:0,0:0:0:0:
439,380,43586,1,8,1:1:0:0:
345,365,44055,2,0,P|299:352|241:357,1,104.499997209549,0|8,1:0|1:1,0:0:0:0:
189,279,44992,2,0,P|145:291|86:290,1,104.499997209549,0|4,1:0|0:2,0:0:0:0:
40,213,45930,6,0,B|25:167|25:167|41:113,2,98.9999969787598,4|2|2,0:1|0:2|0:2,0:0:0:0:
86,290,47336,1,2,0:2:0:0:
130,212,47805,2,0,B|144:164|144:164|129:112,2,98.9999969787599,2|2|2,0:2|0:2|0:2,0:0:0:0:
194,274,49211,1,2,0:2:0:0:
268,224,49680,6,0,L|371:230,1,98.9999969787598,2|2,0:2|0:2,0:0:0:0:
411,229,50383,2,0,P|420:189|411:130,1,98.9999969787598,2|0,0:2|0:0,0:0:0:0:
389,93,51086,1,2,0:2:0:0:
299,96,51555,2,0,P|300:54|315:-1,2,98.9999969787598,0|0|2,0:0|0:0|0:2,0:0:0:0:
227,149,52961,1,2,0:2:0:0:
183,74,53430,6,0,P|144:100|123:154,1,98.9999969787599,2|0,0:2|0:0,0:0:0:0:
38,128,54367,2,0,P|41:175|77:220,1,98.9999969787599,2|0,0:2|0:0,0:0:0:0:
14,279,55305,2,0,P|56:300|113:291,1,98.9999969787599,2|0,0:2|0:0,0:0:0:0:
133,379,56242,2,0,P|172:353|193:299,1,98.9999969787599,2|0,0:2|0:0,0:0:0:0:
279,288,57180,6,0,B|326:298|326:298|379:287,2,98.9999969787598,2|0|0,0:2|0:0|0:0,0:0:0:0:
299,204,58586,1,0,0:0:0:0:
299,204,58820,2,0,P|351:193|395:202,1,98.9999969787598,2|2,0:2|0:2,0:0:0:0:
443,206,59523,1,2,0:2:0:0:
443,206,59758,2,0,P|449:169|447:107,1,98.9999969787598,2|2,0:2|0:2,0:0:0:0:
444,68,60461,1,2,0:2:0:0:
364,18,60930,5,4,0:0:0:0:
288,73,61398,1,4,0:0:0:0:
203,31,61867,2,0,P|153:26|97:35,1,104.499997209549,4|4,0:0|0:0,0:0:0:0:
51,115,62805,2,0,L|-6:115,2,52.2499986047745,4|2|4,0:0|0:2|0:0,0:0:0:0:
107,190,63742,1,4,0:0:0:0:
188,142,64211,1,4,0:0:0:0:
264,196,64680,6,0,P|310:187|369:194,1,104.499997209549,4|4,0:0|0:0,0:2:0:0:
413,197,65383,2,0,L|406:306,1,104.499997209549,2|2,0:2|0:2,0:2:0:0:
402,348,66086,1,4,0:0:0:0:
310,368,66555,2,0,B|254:378|254:378|205:367,2,104.499997209549,4|4|4,0:0|0:0|0:0,0:0:0:0:
402,348,67961,1,4,0:0:0:0:
326,284,68430,6,0,P|269:273|215:287,1,110,0|8,1:0|0:1,0:0:0:0:
127,323,69367,2,0,L|130:380,2,55,0|2|8,1:0|0:2|0:1,0:0:0:0:
50,260,70305,2,0,P|39:209|58:152,1,110,0|8,1:0|0:1,0:0:0:0:
96,63,71242,2,0,L|93:8,2,55,0|2|8,1:0|0:2|0:1,0:0:0:0:
169,129,72180,6,0,P|221:122|280:125,1,110,0|8,1:0|1:1,0:0:0:0:
320,24,73117,2,0,P|372:31|433:30,1,110,0|8,1:2|1:1,0:0:0:0:
483,36,73820,1,2,1:2:0:0:
483,36,74055,1,8,0:1:0:0:
509,131,74523,1,8,0:1:0:0:
477,224,74992,2,0,L|419:219,1,55,6|6,0:0|0:0,0:0:0:0:
379,194,75461,2,0,L|324:199,1,55,8|8,0:2|0:2,0:0:0:0:
277,216,75930,2,0,B|273:257|273:257|282:284|282:284|277:329,2,110
193,162,77336,1,12,1:1:0:0:
271,93,77805,6,0,P|325:77|384:98,1,115.49999647522,0|8,1:0|1:1,0:0:0:0:
437,115,78508,1,8,0:0:0:0:
437,115,78742,2,0,P|439:64|455:-1,2,115.49999647522,0|8|0,1:0|1:1|1:0,0:0:0:0:
507,191,80148,2,0,L|498:252,1,57.7499982376099,8|4,1:1|0:0,0:0:0:0:
482,297,80617,2,0,P|430:282|369:283,1,115.49999647522,0|8,1:0|1:1,0:0:0:0:
314,193,81555,6,0,P|262:208|199:209,1,115.49999647522,0|8,1:0|1:1,0:0:0:0:
153,208,82258,1,4,0:0:0:0:
153,208,82492,2,2,L|146:328,1,115.49999647522,0|8,1:0|1:1,0:0:0:0:
154,379,83195,1,2,0:1:0:0:
154,379,83430,2,0,B|215:364|215:364|269:376,2,115.49999647522,0|8|0,1:0|1:1|1:0,0:0:0:0:
58,337,84836,1,8,1:1:0:0:
93,239,85305,6,0,P|150:252|207:241,1,115.49999647522,0|8,1:0|1:1,0:0:0:0:
258,229,86008,1,0,0:0:0:0:
258,229,86242,2,0,L|255:170,2,57.7499982376099,0|2|8,1:0|0:2|1:1,0:0:0:0:
319,313,87180,2,2,P|376:302|432:307,1,115.49999647522,4|8,1:3|1:1,0:0:0:0:
488,316,87883,1,0,0:0:0:0:
488,316,88117,2,0,P|499:261|486:203,1,115.49999647522,0|10,1:0|1:1,0:0:0:0:
445,171,88820,1,0,0:0:0:0:
445,171,89055,6,0,B|447:129|447:129|457:111|457:111|463:56,2,115.49999647522,0|8|2,1:0|1:1|1:2,0:0:0:0:
350,214,90461,1,8,1:1:0:0:
286,131,90930,2,2,P|233:122|167:127,1,115.49999647522,2|8,1:0|1:1,0:0:0:0:
123,135,91633,1,0,2:0:0:0:
123,135,91867,2,0,L|128:254,1,115.49999647522,0|12,1:0|1:1,0:0:0:0:
225,287,92805,6,0,P|284:289|341:271,1,115.49999647522,0|8,1:0|1:1,0:0:0:0:
392,268,93508,1,8,0:0:0:0:
392,268,93742,2,0,P|403:319|399:387,2,115.49999647522,0|8|0,1:0|1:1|1:0,0:0:0:0:
347,174,95148,1,8,1:1:0:0:
245,194,95617,2,0,L|129:188,1,115.49999647522,0|8,1:0|1:1,0:0:0:0:
26,170,96555,2,0,P|2:122|10:51,1,115.49999647522,0|8,1:0|1:1,0:0:0:0:
13,10,97258,2,0,B|56:18|78:3|78:3|105:24|105:24|132:7|174:18,1,165,8|8,0:0|0:0,0:0:0:0:
258,65,98430,6,0,P|269:120|258:181,1,115.49999647522,0|8,1:0|1:1,0:0:0:0:
167,227,99367,2,0,L|106:220,2,57.7499982376099,0|2|8,1:0|0:2|1:1,0:0:0:0:
256,287,100305,2,0,P|308:278|376:289,1,115.49999647522,0|8,1:0|1:1,0:0:0:0:
417,319,101008,1,0,0:0:0:0:
417,319,101242,2,0,L|411:382,2,57.7499982376099,0|2|8,1:0|0:2|1:1,0:0:0:0:
482,234,102180,6,0,P|496:182|484:120,1,115.49999647522,0|8,1:3|1:1,0:0:0:0:
461,83,102883,1,2,0:0:0:0:
461,83,103117,2,0,L|345:92,1,115.49999647522,0|10,1:0|1:1,0:0:0:0:
278,162,104055,1,0,1:0:0:0:
193,99,104523,1,8,1:1:0:0:
106,158,104992,2,0,L|111:217,1,57.7499982376099,0|2,1:0|0:0,0:0:0:0:
159,235,105461,2,0,L|152:292,1,57.7499982376099,8|2,1:1|2:0,0:0:0:0:
149,341,105930,5,4,1:1:0:0:
149,341,120930,6,0,P|101:328|42:338,2,98.9999969787599,0|2|2,0:2|0:2|0:2,0:0:0:0:
202,269,122336,1,2,0:2:0:0:
270,326,122805,2,0,L|368:321,1,98.9999969787599,0|2,0:2|0:2,0:0:0:0:
457,334,123742,2,0,L|453:388,2,49.4999984893799,2|0|2,0:2|0:2|0:2,0:2:0:0:
510,262,124680,6,0,P|521:216|512:166,1,98.9999969787599,2|2,0:2|0:2,0:0:0:0:
507,121,125383,2,0,P|459:135|405:131,1,98.9999969787599,2|0,0:2|0:2,0:2:0:0:
366,137,126086,1,2,0:2:0:0:
319,213,126555,2,0,B|308:259|308:259|326:315,2,98.9999969787599,2|0|0,0:2|0:2|0:2,0:2:0:0:
249,157,127961,1,2,0:2:0:0:
174,222,128430,6,0,P|122:212|63:212,1,110,2|8,1:2|0:1,0:0:0:0:
20,223,129133,1,2,2:0:0:0:
20,223,129367,2,0,P|8:172|21:114,1,110,0|8,1:0|0:1,0:0:0:0:
118,108,130305,2,0,B|131:57|131:57|109:-6,2,110,2|8|2,1:2|0:1|1:2,0:0:0:0:
174,189,131711,1,8,0:1:0:0:
228,106,132180,6,0,P|276:96|338:97,1,110,0|8,1:0|0:1,0:0:0:0:
382,74,132883,1,2,0:2:0:0:
382,74,133117,2,0,P|431:91|489:96,1,110,0|8,1:0|0:1,0:0:0:0:
510,192,134055,1,2,0:0:0:0:
454,274,134523,1,2,0:0:0:0:
354,271,134992,2,0,B|299:260|299:260|245:273,1,110,0|8,0:0|1:1,0:0:0:0:
173,324,135930,6,0,B|123:311|123:311|73:326,1,98.9999969787599,0|8,1:0|1:1,0:0:0:0:
37,334,136633,1,0,0:2:0:0:
37,334,136867,2,0,L|29:235,1,98.9999969787599,0|8,1:0|1:1,0:0:0:0:
8,148,137805,2,0,P|-5:103|6:51,2,98.9999969787599,0|8|0,1:0|1:1|1:0,0:0:0:0:
29,235,139211,1,8,1:1:0:0:
107,193,139680,6,0,P|151:185|208:192,1,98.9999969787599,0|8,1:0|1:1,0:0:0:0:
245,220,140383,1,2,0:0:0:0:
245,220,140617,2,0,L|348:214,1,98.9999969787599,0|8,1:0|1:1,0:0:0:0:
430,191,141555,2,0,P|450:149|448:90,1,98.9999969787599,0|8,1:0|1:1,0:0:0:0:
428,3,142492,2,0,L|375:8,1,49.4999984893799,0|8,1:0|0:0,0:0:0:0:
342,33,142961,2,0,L|290:29,1,49.4999984893799,8|8,1:1|0:0,0:0:0:0:
250,14,143430,6,2,P|205:24|153:14,1,98.9999969787599,2|8,1:2|1:1,0:3:0:0:
109,12,144133,2,2,L|104:116,1,98.9999969787599,2|2,0:2|0:2,0:0:0:0:
78,148,144836,1,8,1:1:0:0:
78,148,145070,2,0,L|81:248,1,98.9999969787599,2|0,0:0|0:0,0:0:0:0:
99,287,145773,1,8,1:1:0:0:
173,335,146242,1,0,1:0:0:0:
248,288,146711,2,0,L|298:287,1,49.4999984893799,8|0,1:1|0:2,0:0:0:0:
342,289,147180,6,0,P|350:244|343:190,1,98.9999969787599,0|8,1:0|1:1,0:2:0:0:
303,186,147883,1,2,0:0:0:0:
303,186,148117,2,0,P|294:139|302:88,1,98.9999969787599,0|8,1:0|1:1,0:0:0:0:
346,11,149055,1,0,1:0:0:0:
434,16,149523,1,8,1:1:0:0:
462,100,149992,2,0,L|515:102,2,49.4999984893799,0|2|2,1:0|2:0|2:2,0:0:0:0:
436,190,150930,6,2,L|439:295,1,104.499997209549,4|8,1:2|1:1,0:0:0:0:
440,345,151633,1,2,0:2:0:0:
440,345,151867,2,0,P|395:332|332:331,1,104.499997209549,0|8,1:0|1:1,0:0:0:0:
254,285,152805,1,0,1:0:0:0:
192,353,153273,2,2,L|138:347,1,52.2499986047745,10|2,1:1|0:1,0:0:0:0:
93,341,153742,1,0,1:0:0:0:
21,280,154211,1,8,1:1:0:0:
41,185,154680,6,0,P|90:175|146:186,1,104.499997209549,0|8,1:0|1:1,0:0:0:0:
184,217,155383,1,2,0:1:0:0:
184,217,155617,2,0,L|289:213,1,104.499997209549,0|8,1:1|1:1,0:0:0:0:
365,158,156555,2,0,P|382:118|377:55,1,104.499997209549,0|8,1:0|1:1,0:0:0:0:
302,1,157492,2,0,L|249:4,1,52.2499986047745,0|8,1:0|0:0,0:0:0:0:
219,39,157961,2,0,L|164:35,1,52.2499986047745,8|8,1:1|0:0,0:0:0:0:
123,17,158430,6,2,L|113:125,1,104.499997209549,2|8,1:2|1:1,0:0:0:0:
72,144,159133,2,2,L|80:252,1,104.499997209549,2|0,0:2|0:0,0:0:0:0:
94,298,159836,1,8,1:1:0:0:
94,298,160070,2,0,P|142:285|199:289,1,104.499997209549,2|0,0:0|0:0,0:0:0:0:
242,295,160773,1,8,1:1:0:0:
326,335,161242,1,0,1:0:0:0:
383,260,161711,2,0,L|388:204,1,52.2499986047745,8|2,1:1|0:2,0:0:0:0:
396,161,162180,6,2,P|448:155|502:173,2,104.499997209549,2|8|0,1:2|1:1|1:0,0:0:0:0:
325,98,163586,1,8,1:1:0:0:
250,161,164055,2,0,P|237:208|235:264,1,104.499997209549,0|8,1:0|1:1,0:0:0:0:
161,321,164992,2,0,P|113:313|49:323,1,104.499997209549,0|2,1:0|2:0,0:0:0:0:
3,249,165930,6,0,B|-12:202|-12:202|4:151,1,98.9999969787599,4|2,0:1|0:2,0:2:0:0:
67,93,166867,1,2,0:2:0:0:
156,93,167336,1,2,0:2:0:0:
190,175,167805,2,0,B|297:181,1,98.9999969787599,2|2,0:2|0:2,0:0:0:0:
326,261,168742,2,0,L|432:254,1,98.9999969787599,2|2,0:2|0:2,0:2:0:0:
489,192,169680,6,0,P|501:141|493:94,1,98.9999969787599,2|2,0:2|0:2,0:2:0:0:
475,54,170383,2,0,L|374:60,1,98.9999969787599,2|0,0:2|0:2,0:2:0:0:
331,64,171086,1,2,0:2:0:0:
262,6,171555,2,0,P|218:17|159:10,2,98.9999969787599,0|0|2,0:2|0:2|0:2,0:0:0:0:
331,63,172961,1,2,0:2:0:0:
260,116,173430,6,0,P|269:158|251:212,1,98.9999969787599,2|0,0:2|0:2,0:2:0:0:
331,251,174367,2,0,P|299:280|243:291,1,98.9999969787599,2|0,0:2|0:2,0:2:0:0:
240,380,175305,2,0,P|199:367|161:324,1,98.9999969787599,2|0,0:2|0:2,0:2:0:0:
83,367,176242,2,0,P|74:321|95:276,1,98.9999969787599,2|0,0:2|0:2,0:2:0:0:
96,184,177180,6,0,B|45:174|45:174|-2:187,2,98.9999969787599,2|0|0,0:2|0:2|0:2,0:2:0:0:
184,159,178586,1,0,0:2:0:0:
184,159,178820,2,0,P|233:167|285:157,1,98.9999969787599,2|2,0:2|0:2,0:2:0:0:
326,145,179523,1,2,0:2:0:0:
326,145,179758,2,0,P|376:132|429:139,1,98.9999969787599,2|2,0:2|0:2,0:2:0:0:
469,141,180461,1,2,0:2:0:0:
509,220,180930,6,0,B|526:269|526:269|511:320,2,98.9999969787599,2|2|2,2:2|2:2|2:2,0:0:0:0:
469,141,182336,1,2,2:0:0:0:
423,217,182805,2,0,B|406:266|406:266|421:317,2,98.9999969787599,2|2|2,2:0|2:0|2:0,0:0:0:0:
366,147,184211,1,2,2:0:0:0:
325,226,184680,6,0,P|279:215|219:216,1,98.9999969787599,2|0,2:0|2:0,0:0:0:0:
196,246,185383,2,0,P|156:258|94:259,1,98.9999969787599,2|0,2:0|2:0,0:0:0:0:
54,263,186086,1,2,2:0:0:0:
3,189,186555,2,0,P|-11:145|0:93,2,98.9999969787599,2|0|2,2:0|0:0|2:0,0:0:0:0:
54,263,187961,1,2,2:0:0:0:
256,192,188430,12,0,190305,0:0:0:0:
218,227,195930,6,2,B|269:212|269:212|327:228,1,110
401,290,196867,2,0,L|393:347,2,55,8|8|0,0:0|0:0|1:3,0:0:0:0:
439,258,197570,1,2,2:0:0:0:
439,258,197805,6,0,P|457:205|451:146,1,115.49999647522,4|8,1:0|1:1,0:0:0:0:
446,99,198508,1,2,0:2:0:0:
446,99,198742,1,0,1:0:0:0:
347,65,199211,1,8,1:1:0:0:
264,128,199680,2,0,L|206:127,2,57.7499982376099,0|2|8,1:0|0:2|1:1,0:0:0:0:
310,220,200617,2,0,P|320:276|305:335,1,115.49999647522,0|8,1:0|1:1,0:0:0:0:
294,384,201320,1,2,0:2:0:0:
294,384,201555,6,0,P|244:364|181:360,1,115.49999647522,0|8,1:0|1:1,0:0:0:0:
152,317,202258,2,0,P|104:336|39:336,1,115.49999647522,2|2,0:2|0:2,0:0:0:0:
2,301,202961,1,8,1:1:0:0:
0,194,203430,2,0,L|16:76,2,115.49999647522,0|8|0,1:0|1:1|1:0,0:0:0:0:
2,297,204836,1,8,1:1:0:0:
82,230,205305,6,0,P|142:214|195:238,1,115.49999647522,0|8,1:0|1:1,0:0:0:0:
217,133,206242,2,0,P|261:177|267:235,1,115.49999647522,0|8,1:0|1:1,0:0:0:0:
368,201,207180,2,0,P|352:261|305:295,1,115.49999647522,0|8,1:0|1:1,0:0:0:0:
384,366,208117,2,0,P|324:382|271:358,1,115.49999647522,0|8,1:0|1:1,0:0:0:0:
175,335,209055,6,0,B|116:321|116:321|62:336,2,115.49999647522,0|8|0,1:0|1:1|1:0,0:0:0:0:
244,256,210461,1,8,1:1:0:0:
244,256,210695,2,0,P|257:209|243:143,1,115.49999647522,2|2,0:2|0:2,0:0:0:0:
231,99,211398,1,8,1:1:0:0:
231,99,211633,2,0,L|115:110,1,115.49999647522,2|2,0:2|0:2,0:0:0:0:
64,114,212336,1,8,1:1:0:0:
6,200,212805,6,0,P|-12:252|-7:318,1,115.49999647522,0|8,1:0|1:1,0:0:0:0:
6,366,213508,1,2,0:2:0:0:
6,366,213742,1,0,1:0:0:0:
110,366,214211,1,8,1:1:0:0:
159,274,214680,2,0,L|159:210,2,57.7499982376099,0|2|8,1:0|0:2|1:1,0:0:0:0:
224,355,215617,2,0,L|286:351,1,57.7499982376099,0|2,1:0|0:2,0:0:0:0:
327,327,216086,2,0,L|386:331,1,57.7499982376099,8|2,1:1|0:2,0:0:0:0:
436,335,216555,6,0,P|449:284|437:220,1,115.49999647522,0|8,1:0|1:1,0:0:0:0:
412,177,217258,2,0,L|295:184,1,115.49999647522,2|2,0:2|0:2,0:0:0:0:
244,185,217961,1,8,1:1:0:0:
184,270,218430,2,0,P|173:327|197:389,2,115.49999647522,0|8|0,1:0|1:1|1:0,0:0:0:0:
94,217,219836,1,8,1:1:0:0:
128,118,220305,6,0,L|260:127,1,115.49999647522,0|8,1:0|1:1,0:0:0:0:
294,135,221008,2,0,P|343:126|412:140,1,115.49999647522,2|2,0:2|0:2,0:0:0:0:
456,154,221711,1,8,1:1:0:0:
507,244,222180,2,0,P|519:300|505:355,2,115.49999647522,0|8|0,1:0|1:1|1:0,0:0:0:0:
456,154,223586,1,8,1:1:0:0:
256,192,224055,12,2,225930,0:0:0:0:
352,224,227805,6,0,L|251:230,2,98.9999969787599,4|0|0,0:2|0:0|0:0,0:0:0:0:
411,156,229211,1,0,0:0:0:0:
347,93,229680,2,0,P|303:102|247:100,1,98.9999969787599
196,28,230617,2,0,P|152:19|96:19,1,98.9999969787599
28,74,231555,6,0,P|16:120|25:173,2,98.9999969787599,2|0|0,0:2|0:0|0:0,0:0:0:0:
98,18,232961,1,0,0:0:0:0:
149,103,233430,2,0,B|163:150|163:150|147:200,1,98.9999969787599
70,235,234367,2,0,B|54:284|54:284|70:334,1,98.9999969787599
140,381,235305,6,0,B|190:368|190:368|240:381,2,98.9999969787599,2|0|0,0:2|0:0|0:0,0:0:0:0:
68,329,236711,1,0,0:0:0:0:
141,279,237180,2,0,L|251:288,1,98.9999969787599
301,351,238117,2,0,L|401:346,1,98.9999969787599
256,192,239055,12,2,242570,2:0:0:0:
