osu file format v14

[General]
AudioFilename: audio.mp3
AudioLeadIn: 0
PreviewTime: -1
Countdown: 1
SampleSet: None
StackLeniency: 0.7
Mode: 3
LetterboxInBreaks: 0
SpecialStyle: 0
WidescreenStoryboard: 1

[Editor]
DistanceSpacing: 0.8
BeatDivisor: 8
GridSize: 32
TimelineZoom: 1

[Metadata]
Title:Peer Gynt
TitleUnicode:Peer Gynt
Artist:cYsmix
ArtistUnicode:cYsmix
Creator:Ribose5pi
Version:Hard
Source:
Tags:
BeatmapID:1788212
BeatmapSetID:833526

[Difficulty]
HPDrainRate:5
CircleSize:4
OverallDifficulty:5
ApproachRate:5
SliderMultiplier:1.4
SliderTickRate:1

[Events]
//Background and Video events
//Break Periods
//Storyboard Layer 0 (Background)
//Storyboard Layer 1 (Fail)
//Storyboard Layer 2 (Pass)
//Storyboard Layer 3 (Foreground)
//Storyboard Sound Samples

[TimingPoints]
32,428.571428571429,4,2,0,50,1,0

[HitObjects]
64,192,1317,5,2,0:0:0:0:
192,192,1371,1,2,0:0:0:0:
320,192,1424,1,2,0:0:0:0:
448,192,1478,1,2,0:0:0:0:
64,192,1532,5,2,0:0:0:0:
192,192,1585,1,2,0:0:0:0:
320,192,1639,1,2,0:0:0:0:
448,192,1692,1,2,0:0:0:0:
320,192,1746,1,0,0:0:0:0:
64,192,1746,128,0,1960:0:0:0:0:
192,192,1960,1,0,0:0:0:0:
192,192,2174,1,0,0:0:0:0:
320,192,2174,1,0,0:0:0:0:
448,192,2174,128,0,2389:0:0:0:0:
320,192,2389,1,0,0:0:0:0:
64,192,2389,1,0,0:0:0:0:
192,192,2603,1,0,0:0:0:0:
64,192,2603,1,0,0:0:0:0:
448,192,2603,1,0,0:0:0:0:
64,192,2817,1,0,0:0:0:0:
192,192,2817,1,0,0:0:0:0:
320,192,3032,1,0,0:0:0:0:
448,192,3032,1,0,0:0:0:0:
192,192,3032,128,0,3246:0:0:0:0:
448,192,3246,1,0,0:0:0:0:
64,192,3460,1,0,0:0:0:0:
320,192,3460,1,0,0:0:0:0:
448,192,3460,1,0,0:0:0:0:
320,192,3674,1,0,0:0:0:0:
192,192,3674,1,0,0:0:0:0:
448,192,3782,1,0,0:0:0:0:
64,192,3889,1,0,0:0:0:0:
192,192,3889,1,0,0:0:0:0:
320,192,3889,128,0,4103:0:0:0:0:
64,192,4103,1,0,0:0:0:0:
192,192,4317,1,0,0:0:0:0:
320,192,4317,1,0,0:0:0:0:
448,192,4317,1,0,0:0:0:0:
448,192,4532,1,0,0:0:0:0:
64,192,4532,1,0,0:0:0:0:
320,192,4639,1,0,0:0:0:0:
192,192,4746,1,0,0:0:0:0:
448,192,4746,1,0,0:0:0:0:
64,192,4746,128,0,4960:0:0:0:0:
192,192,4960,1,0,0:0:0:0:
64,192,5174,1,4,0:0:0:0:
448,192,5174,1,4,0:0:0:0:
320,192,5174,128,0,5389:0:0:0:0:
448,192,5389,1,0,0:0:0:0:
448,192,5603,1,0,0:0:0:0:
192,192,5603,1,0,0:0:0:0:
64,192,5603,128,0,5817:0:0:0:0:
320,192,5817,1,0,0:0:0:0:
192,192,6032,1,0,0:0:0:0:
320,192,6032,1,0,0:0:0:0:
448,192,6032,1,0,0:0:0:0:
64,192,6246,1,0,0:0:0:0:
320,192,6246,1,0,0:0:0:0:
64,192,6460,1,0,0:0:0:0:
320,192,6460,1,0,0:0:0:0:
448,192,6460,128,0,6674:0:0:0:0:
192,192,6674,1,0,0:0:0:0:
320,192,6889,1,0,0:0:0:0:
192,192,6889,1,0,0:0:0:0:
64,192,6889,1,0,0:0:0:0:
448,192,7103,1,0,0:0:0:0:
192,192,7103,1,0,0:0:0:0:
320,192,7210,1,0,0:0:0:0:
448,192,7317,1,0,0:0:0:0:
192,192,7317,1,0,0:0:0:0:
64,192,7317,128,0,7532:0:0:0:0:
192,192,7532,1,0,0:0:0:0:
64,192,7746,1,0,0:0:0:0:
320,192,7746,1,0,0:0:0:0:
448,192,7746,1,0,0:0:0:0:
192,192,7960,1,0,0:0:0:0:
64,192,7960,1,0,0:0:0:0:
320,192,8067,1,0,0:0:0:0:
64,192,8174,1,0,0:0:0:0:
448,192,8174,1,0,0:0:0:0:
192,192,8174,128,0,8389:0:0:0:0:
448,192,8389,1,0,0:0:0:0:
192,192,8603,1,4,0:0:0:0:
64,192,8603,1,4,0:0:0:0:
320,192,8603,128,0,8817:0:0:0:0:
448,192,8817,1,0,0:0:0:0:
320,192,9032,1,0,0:0:0:0:
64,192,9032,1,0,0:0:0:0:
192,192,9032,128,0,9246:0:0:0:0:
448,192,9246,1,0,0:0:0:0:
64,192,9460,1,0,0:0:0:0:
320,192,9460,1,0,0:0:0:0:
448,192,9460,1,0,0:0:0:0:
64,192,9674,1,0,0:0:0:0:
320,192,9674,1,0,0:0:0:0:
320,192,9889,1,0,0:0:0:0:
448,192,9889,1,0,0:0:0:0:
192,192,9889,128,0,10103:0:0:0:0:
320,192,10103,1,0,0:0:0:0:
192,192,10317,1,0,0:0:0:0:
64,192,10317,1,0,0:0:0:0:
448,192,10317,1,0,0:0:0:0:
320,192,10532,1,0,0:0:0:0:
448,192,10532,1,0,0:0:0:0:
192,192,10639,1,0,0:0:0:0:
448,192,10746,1,0,0:0:0:0:
64,192,10746,1,0,0:0:0:0:
320,192,10746,128,0,10960:0:0:0:0:
192,192,10960,1,0,0:0:0:0:
64,192,11174,1,0,0:0:0:0:
320,192,11174,1,0,0:0:0:0:
448,192,11174,1,0,0:0:0:0:
320,192,11389,1,0,0:0:0:0:
192,192,11389,1,0,0:0:0:0:
448,192,11496,1,0,0:0:0:0:
192,192,11603,1,0,0:0:0:0:
64,192,11603,128,0,11817:0:0:0:0:
320,192,11603,1,0,0:0:0:0:
192,192,11817,1,0,0:0:0:0:
64,192,12032,1,4,0:0:0:0:
448,192,12032,1,4,0:0:0:0:
320,192,12032,128,0,12246:0:0:0:0:
64,192,12460,1,0,0:0:0:0:
448,192,12460,1,4,0:0:0:0:
192,192,12460,128,0,12674:0:0:0:0:
192,192,12889,1,0,0:0:0:0:
320,192,12889,1,4,0:0:0:0:
448,192,12889,128,0,13103:0:0:0:0:
64,192,13317,1,0,0:0:0:0:
448,192,13317,1,0,0:0:0:0:
320,192,13317,128,4,13532:0:0:0:0:
192,192,13746,128,4,14174:0:0:0:0:
320,192,13746,128,4,14174:0:0:0:0:
64,192,14174,1,0,0:0:0:0:
448,192,14174,1,0,0:0:0:0:
448,192,14603,128,0,15032:0:0:0:0:
64,192,14603,1,0,0:0:0:0:
192,192,14657,1,0,0:0:0:0:
320,192,14710,1,0,0:0:0:0:
64,192,14817,1,0,0:0:0:0:
192,192,14871,1,0,0:0:0:0:
320,192,14924,1,0,0:0:0:0:
192,192,15032,1,2,0:0:0:0:
320,192,15139,1,2,0:0:0:0:
192,192,15246,1,2,0:0:0:0:
320,192,15353,1,2,0:0:0:0:
64,192,15460,128,0,15674:0:0:0:0:
448,192,15460,128,0,15674:0:0:0:0:
192,192,15460,1,4,0:0:0:0:
320,192,15460,1,0,0:0:0:0:
320,192,15674,1,0,0:0:0:0:
192,192,15889,128,0,16103:0:0:0:0:
448,192,15889,128,0,16103:0:0:0:0:
320,192,15889,1,4,0:0:0:0:
64,192,15889,1,0,0:0:0:0:
64,192,16103,1,0,0:0:0:0:
320,192,16317,128,0,16532:0:0:0:0:
64,192,16317,128,0,16532:0:0:0:0:
448,192,16317,1,4,0:0:0:0:
192,192,16317,1,0,0:0:0:0:
192,192,16532,1,0,0:0:0:0:
192,192,16746,128,0,16853:0:0:0:0:
448,192,16746,128,0,16853:0:0:0:0:
64,192,16853,128,0,16960:0:0:0:0:
320,192,16853,128,0,16960:0:0:0:0:
192,192,17174,128,0,17389:0:0:0:0:
64,192,17174,1,4,0:0:0:0:
448,192,17174,1,0,0:0:0:0:
320,192,17174,1,0,0:0:0:0:
320,192,17389,1,0,0:0:0:0:
320,192,17603,128,0,17817:0:0:0:0:
448,192,17603,1,4,0:0:0:0:
192,192,17603,1,0,0:0:0:0:
64,192,17603,1,0,0:0:0:0:
64,192,17817,1,0,0:0:0:0:
64,192,18032,1,2,0:0:0:0:
192,192,18032,1,0,0:0:0:0:
320,192,18139,1,2,0:0:0:0:
448,192,18139,1,0,0:0:0:0:
64,192,18246,1,2,0:0:0:0:
192,192,18246,1,0,0:0:0:0:
320,192,18353,1,2,0:0:0:0:
448,192,18353,1,0,0:0:0:0:
192,192,18460,1,2,0:0:0:0:
448,192,18460,1,2,0:0:0:0:
64,192,18567,1,2,0:0:0:0:
320,192,18567,1,2,0:0:0:0:
192,192,18674,1,2,0:0:0:0:
448,192,18674,1,2,0:0:0:0:
64,192,18782,1,2,0:0:0:0:
320,192,18782,1,2,0:0:0:0:
448,192,18889,1,0,0:0:0:0:
192,192,18889,1,0,0:0:0:0:
320,192,19103,128,0,19317:0:0:0:0:
448,192,19103,1,0,0:0:0:0:
192,192,19103,1,0,0:0:0:0:
448,192,19317,1,0,0:0:0:0:
64,192,19317,1,0,0:0:0:0:
192,192,19424,128,0,19639:0:0:0:0:
448,192,19532,1,0,0:0:0:0:
64,192,19532,1,0,0:0:0:0:
448,192,19746,128,0,19960:0:0:0:0:
320,192,19746,1,0,0:0:0:0:
192,192,19746,1,0,0:0:0:0:
320,192,19960,1,0,0:0:0:0:
192,192,19960,1,0,0:0:0:0:
64,192,20067,128,0,20282:0:0:0:0:
448,192,20174,1,0,0:0:0:0:
192,192,20174,1,0,0:0:0:0:
320,192,20389,128,0,20603:0:0:0:0:
448,192,20389,1,0,0:0:0:0:
192,192,20389,1,0,0:0:0:0:
64,192,20603,128,0,21032:0:0:0:0:
192,192,21032,1,0,0:0:0:0:
320,192,21032,1,0,0:0:0:0:
448,192,21032,1,0,0:0:0:0:
64,192,21246,1,0,0:0:0:0:
192,192,21246,1,0,0:0:0:0:
320,192,21246,1,0,0:0:0:0:
192,192,21460,1,0,0:0:0:0:
64,192,21460,1,0,0:0:0:0:
448,192,21674,128,4,22317:0:0:0:0:
64,192,21674,1,0,0:0:0:0:
320,192,21889,128,4,22317:0:0:0:0:
192,192,22103,128,4,22317:0:0:0:0:
64,192,22317,128,0,22532:0:0:0:0:
192,192,22532,1,0,0:0:0:0:
192,192,22746,128,0,22960:0:0:0:0:
448,192,22746,1,4,0:0:0:0:
64,192,22746,1,0,0:0:0:0:
320,192,22746,1,0,0:0:0:0:
64,192,22960,1,0,0:0:0:0:
320,192,23174,128,0,23389:0:0:0:0:
448,192,23174,1,0,0:0:0:0:
192,192,23174,1,4,0:0:0:0:
64,192,23174,1,0,0:0:0:0:
448,192,23389,1,0,0:0:0:0:
192,192,23603,128,0,23710:0:0:0:0:
320,192,23603,128,0,23710:0:0:0:0:
64,192,23710,128,0,23817:0:0:0:0:
448,192,23710,128,0,23817:0:0:0:0:
448,192,24032,128,0,24246:0:0:0:0:
320,192,24032,1,4,0:0:0:0:
64,192,24032,1,0,0:0:0:0:
192,192,24032,1,0,0:0:0:0:
192,192,24246,1,0,0:0:0:0:
320,192,24460,128,0,24674:0:0:0:0:
192,192,24460,1,0,0:0:0:0:
64,192,24460,1,4,0:0:0:0:
448,192,24460,1,0,0:0:0:0:
192,192,24674,1,0,0:0:0:0:
64,192,24889,128,0,25317:0:0:0:0:
192,192,24889,1,2,0:0:0:0:
448,192,24889,1,4,0:0:0:0:
320,192,24889,1,0,0:0:0:0:
320,192,24996,1,2,0:0:0:0:
192,192,25103,1,2,0:0:0:0:
448,192,25103,1,0,0:0:0:0:
320,192,25210,1,2,0:0:0:0:
192,192,25317,128,0,25746:0:0:0:0:
448,192,25317,1,2,0:0:0:0:
320,192,25424,1,2,0:0:0:0:
448,192,25532,1,2,0:0:0:0:
64,192,25532,1,0,0:0:0:0:
320,192,25639,1,2,0:0:0:0:
64,192,25746,1,0,0:0:0:0:
448,192,25746,1,0,0:0:0:0:
192,192,25960,128,0,26174:0:0:0:0:
64,192,25960,1,4,0:0:0:0:
448,192,25960,1,0,0:0:0:0:
320,192,26174,1,0,0:0:0:0:
448,192,26174,1,0,0:0:0:0:
64,192,26282,128,0,26496:0:0:0:0:
320,192,26389,1,0,0:0:0:0:
448,192,26389,1,0,0:0:0:0:
448,192,26603,128,0,26817:0:0:0:0:
192,192,26603,1,0,0:0:0:0:
320,192,26603,1,0,0:0:0:0:
192,192,26817,1,0,0:0:0:0:
320,192,26817,1,0,0:0:0:0:
192,192,26924,128,0,27139:0:0:0:0:
448,192,27032,1,0,0:0:0:0:
64,192,27032,1,0,0:0:0:0:
320,192,27246,128,0,27460:0:0:0:0:
448,192,27246,1,0,0:0:0:0:
64,192,27246,1,0,0:0:0:0:
64,192,27460,128,0,28264:0:0:0:0:
448,192,27460,128,0,28264:0:0:0:0:
192,192,27889,128,0,28639:0:0:0:0:
320,192,27889,128,0,28639:0:0:0:0:
64,192,28317,128,0,28639:0:0:0:0:
448,192,28317,128,0,28639:0:0:0:0:
64,192,28746,1,4,0:0:0:0:
448,192,28746,1,4,0:0:0:0:
192,192,28746,128,0,29174:0:0:0:0:
320,192,28746,128,0,29174:0:0:0:0:
64,192,29174,1,0,0:0:0:0:
448,192,29174,1,0,0:0:0:0:
448,192,29603,1,0,0:0:0:0:
320,192,29603,1,0,0:0:0:0:
64,192,29603,1,4,0:0:0:0:
192,192,29603,128,0,29817:0:0:0:0:
320,192,29817,1,0,0:0:0:0:
64,192,29817,128,0,30032:0:0:0:0:
192,192,30032,1,0,0:0:0:0:
448,192,30032,128,0,30246:0:0:0:0:
64,192,30246,1,4,0:0:0:0:
320,192,30246,128,0,30460:0:0:0:0:
192,192,30460,1,0,0:0:0:0:
64,192,30460,1,4,0:0:0:0:
64,192,30674,128,4,30889:0:0:0:0:
192,192,30674,128,0,30889:0:0:0:0:
320,192,30674,1,0,0:0:0:0:
320,192,30889,128,0,31103:0:0:0:0:
448,192,30889,128,0,31103:0:0:0:0:
192,192,31317,1,0,0:0:0:0:
320,192,31317,1,4,0:0:0:0:
448,192,31317,128,0,31532:0:0:0:0:
320,192,31532,1,4,0:0:0:0:
64,192,31532,128,0,31746:0:0:0:0:
448,192,31746,1,4,0:0:0:0:
192,192,31746,128,0,31960:0:0:0:0:
320,192,31960,1,4,0:0:0:0:
64,192,31960,128,0,32174:0:0:0:0:
448,192,32174,1,4,0:0:0:0:
192,192,32174,1,0,0:0:0:0:
320,192,32389,128,0,32496:0:0:0:0:
64,192,32389,128,0,32496:0:0:0:0:
192,192,32496,128,0,32603:0:0:0:0:
448,192,32496,128,0,32603:0:0:0:0:
320,192,32603,128,0,32817:0:0:0:0:
64,192,32603,128,0,32817:0:0:0:0:
64,192,33032,1,4,0:0:0:0:
320,192,33032,128,0,33139:0:0:0:0:
192,192,33139,1,0,0:0:0:0:
448,192,33139,1,0,0:0:0:0:
64,192,33246,1,0,0:0:0:0:
320,192,33353,1,4,0:0:0:0:
448,192,33353,128,0,33460:0:0:0:0:
192,192,33460,1,0,0:0:0:0:
64,192,33460,1,0,0:0:0:0:
448,192,33567,1,0,0:0:0:0:
320,192,33674,1,4,0:0:0:0:
64,192,33674,128,0,33782:0:0:0:0:
448,192,33782,1,0,0:0:0:0:
192,192,33782,1,0,0:0:0:0:
64,192,33889,1,0,0:0:0:0:
320,192,33996,1,4,0:0:0:0:
192,192,33996,128,0,34103:0:0:0:0:
64,192,34103,1,0,0:0:0:0:
448,192,34103,1,0,0:0:0:0:
320,192,34210,1,0,0:0:0:0:
192,192,34317,1,4,0:0:0:0:
64,192,34317,1,0,0:0:0:0:
64,192,34532,128,0,34960:0:0:0:0:
320,192,34532,1,0,0:0:0:0:
448,192,34532,1,0,0:0:0:0:
192,192,34746,1,0,0:0:0:0:
192,192,34960,128,0,35174:0:0:0:0:
448,192,34960,1,0,0:0:0:0:
320,192,34960,1,0,0:0:0:0:
448,192,35174,1,0,0:0:0:0:
320,192,35174,1,0,0:0:0:0:
320,192,35389,1,0,0:0:0:0:
64,192,35389,1,0,0:0:0:0:
64,192,35603,1,2,0:0:0:0:
192,192,35657,1,2,0:0:0:0:
320,192,35710,1,2,0:0:0:0:
448,192,35764,1,2,0:0:0:0:
448,192,36032,1,2,0:0:0:0:
320,192,36085,1,2,0:0:0:0:
192,192,36139,1,2,0:0:0:0:
64,192,36192,1,2,0:0:0:0:
448,192,36246,1,2,0:0:0:0:
320,192,36299,1,2,0:0:0:0:
192,192,36353,1,2,0:0:0:0:
64,192,36407,1,2,0:0:0:0:
192,192,36460,1,0,0:0:0:0:
320,192,36460,1,0,0:0:0:0:
448,192,36460,128,0,36674:0:0:0:0:
320,192,36674,1,4,0:0:0:0:
64,192,36674,128,0,36889:0:0:0:0:
448,192,36889,1,4,0:0:0:0:
192,192,36889,128,0,37103:0:0:0:0:
320,192,37103,1,4,0:0:0:0:
64,192,37103,128,0,37317:0:0:0:0:
192,192,37317,1,0,0:0:0:0:
448,192,37317,1,4,0:0:0:0:
320,192,37532,128,4,37746:0:0:0:0:
192,192,37532,128,0,37746:0:0:0:0:
448,192,37746,128,0,37960:0:0:0:0:
64,192,37746,128,0,37960:0:0:0:0:
448,192,38174,1,4,0:0:0:0:
192,192,38174,1,0,0:0:0:0:
64,192,38174,1,0,0:0:0:0:
320,192,38174,128,0,38389:0:0:0:0:
192,192,38389,1,4,0:0:0:0:
448,192,38389,128,0,38603:0:0:0:0:
320,192,38603,1,4,0:0:0:0:
64,192,38603,128,0,38817:0:0:0:0:
448,192,38817,128,0,39032:0:0:0:0:
192,192,38817,1,4,0:0:0:0:
320,192,39032,1,4,0:0:0:0:
64,192,39246,1,0,0:0:0:0:
320,192,39246,1,0,0:0:0:0:
192,192,39353,1,0,0:0:0:0:
448,192,39353,1,0,0:0:0:0:
64,192,39460,128,0,39674:0:0:0:0:
320,192,39460,128,0,39674:0:0:0:0:
448,192,39782,1,0,0:0:0:0:
192,192,39889,1,4,0:0:0:0:
320,192,39889,128,0,39996:0:0:0:0:
448,192,39996,1,0,0:0:0:0:
64,192,39996,1,0,0:0:0:0:
192,192,40103,1,0,0:0:0:0:
320,192,40210,1,4,0:0:0:0:
448,192,40210,128,0,40317:0:0:0:0:
64,192,40317,1,0,0:0:0:0:
192,192,40317,1,0,0:0:0:0:
320,192,40424,1,0,0:0:0:0:
448,192,40532,1,4,0:0:0:0:
64,192,40532,128,0,40639:0:0:0:0:
320,192,40639,1,0,0:0:0:0:
192,192,40639,1,0,0:0:0:0:
64,192,40746,1,0,0:0:0:0:
448,192,40853,1,4,0:0:0:0:
320,192,40853,128,0,40960:0:0:0:0:
192,192,40960,1,0,0:0:0:0:
64,192,40960,1,0,0:0:0:0:
448,192,41067,1,0,0:0:0:0:
192,192,41174,1,4,0:0:0:0:
320,192,41174,1,4,0:0:0:0:
64,192,41389,128,0,41817:0:0:0:0:
448,192,41389,128,0,41817:0:0:0:0:
320,192,41817,128,0,42032:0:0:0:0:
192,192,41817,128,0,42032:0:0:0:0:
448,192,42032,1,0,0:0:0:0:
64,192,42032,1,0,0:0:0:0:
320,192,42567,1,2,0:0:0:0:
64,192,42567,1,2,0:0:0:0:
448,192,42621,1,2,0:0:0:0:
192,192,42621,1,2,0:0:0:0:
320,192,42674,1,2,0:0:0:0:
64,192,42674,1,2,0:0:0:0:
448,192,42728,1,2,0:0:0:0:
192,192,42728,1,2,0:0:0:0:
64,192,42782,1,2,0:0:0:0:
320,192,42782,1,2,0:0:0:0:
448,192,42889,128,0,43317:0:0:0:0:
192,192,42889,1,0,0:0:0:0:
192,192,43103,1,0,0:0:0:0:
320,192,43317,1,0,0:0:0:0:
192,192,43317,128,0,43532:0:0:0:0:
64,192,43317,1,4,0:0:0:0:
320,192,43532,128,0,44174:0:0:0:0:
64,192,43532,1,0,0:0:0:0:
192,192,43746,128,4,43960:0:0:0:0:
448,192,43746,1,0,0:0:0:0:
448,192,43960,128,0,44174:0:0:0:0:
64,192,44174,1,4,0:0:0:0:
192,192,44174,128,0,44603:0:0:0:0:
320,192,44389,128,0,44603:0:0:0:0:
64,192,44389,1,0,0:0:0:0:
448,192,44603,1,4,0:0:0:0:
64,192,44603,128,0,44817:0:0:0:0:
192,192,44817,128,0,45032:0:0:0:0:
448,192,44817,128,0,45032:0:0:0:0:
320,192,45032,128,0,45460:0:0:0:0:
64,192,45032,1,4,0:0:0:0:
192,192,45246,128,0,45889:0:0:0:0:
64,192,45246,1,0,0:0:0:0:
64,192,45460,128,0,46103:0:0:0:0:
448,192,45460,1,4,0:0:0:0:
320,192,45674,128,0,45889:0:0:0:0:
448,192,45674,1,0,0:0:0:0:
448,192,45889,128,4,46103:0:0:0:0:
192,192,46103,128,0,46317:0:0:0:0:
320,192,46103,1,0,0:0:0:0:
64,192,46317,128,0,46746:0:0:0:0:
320,192,46317,1,4,0:0:0:0:
448,192,46317,1,4,0:0:0:0:
192,192,46746,128,0,47603:0:0:0:0:
320,192,46746,1,0,0:0:0:0:
448,192,46746,1,4,0:0:0:0:
320,192,47067,128,0,47389:0:0:0:0:
448,192,47174,1,0,0:0:0:0:
64,192,47174,1,4,0:0:0:0:
448,192,47389,128,0,47603:0:0:0:0:
320,192,47603,128,0,47817:0:0:0:0:
64,192,47603,1,4,0:0:0:0:
192,192,47817,128,0,48032:0:0:0:0:
448,192,47817,1,0,0:0:0:0:
64,192,47817,1,0,0:0:0:0:
64,192,48032,128,0,48460:0:0:0:0:
320,192,48032,128,0,48460:0:0:0:0:
448,192,48032,1,4,0:0:0:0:
192,192,48460,128,0,48674:0:0:0:0:
448,192,48460,128,0,48674:0:0:0:0:
64,192,48674,128,0,48889:0:0:0:0:
320,192,48674,128,0,48889:0:0:0:0:
192,192,48889,128,0,49317:0:0:0:0:
448,192,48889,1,0,0:0:0:0:
448,192,49103,1,0,0:0:0:0:
64,192,49103,1,0,0:0:0:0:
64,192,49317,1,0,0:0:0:0:
448,192,49317,1,0,0:0:0:0:
64,192,49424,128,0,49746:0:0:0:0:
448,192,49424,128,0,49746:0:0:0:0:
192,192,49746,1,4,0:0:0:0:
320,192,49853,1,0,0:0:0:0:
448,192,49960,1,0,0:0:0:0:
64,192,49960,1,0,0:0:0:0:
192,192,50067,1,0,0:0:0:0:
448,192,50174,128,0,50603:0:0:0:0:
64,192,50174,1,0,0:0:0:0:
320,192,50174,1,4,0:0:0:0:
192,192,50389,128,0,50817:0:0:0:0:
320,192,50389,1,0,0:0:0:0:
64,192,50603,128,0,51460:0:0:0:0:
320,192,50603,1,4,0:0:0:0:
448,192,50817,128,0,51032:0:0:0:0:
320,192,50817,1,0,0:0:0:0:
192,192,51032,128,0,51460:0:0:0:0:
320,192,51032,1,4,0:0:0:0:
320,192,51246,128,0,51460:0:0:0:0:
448,192,51246,1,0,0:0:0:0:
448,192,51460,128,0,51889:0:0:0:0:
320,192,51674,128,0,51889:0:0:0:0:
64,192,51674,1,0,0:0:0:0:
192,192,51889,128,0,52532:0:0:0:0:
64,192,51889,1,4,0:0:0:0:
64,192,52103,128,0,52317:0:0:0:0:
448,192,52103,1,0,0:0:0:0:
320,192,52317,128,0,53174:0:0:0:0:
448,192,52317,1,4,0:0:0:0:
448,192,52532,128,0,53174:0:0:0:0:
64,192,52746,128,4,52960:0:0:0:0:
192,192,52746,1,0,0:0:0:0:
192,192,52960,128,0,53174:0:0:0:0:
64,192,53174,128,4,53603:0:0:0:0:
320,192,53389,1,0,0:0:0:0:
192,192,53603,128,0,53924:0:0:0:0:
448,192,53603,128,0,53924:0:0:0:0:
320,192,53603,1,4,0:0:0:0:
320,192,53924,128,4,54246:0:0:0:0:
64,192,53924,128,0,54246:0:0:0:0:
192,192,54246,128,0,54460:0:0:0:0:
448,192,54246,1,4,0:0:0:0:
448,192,54460,128,0,54674:0:0:0:0:
320,192,54460,1,4,0:0:0:0:
64,192,54460,1,0,0:0:0:0:
320,192,54674,128,0,54889:0:0:0:0:
192,192,54674,1,4,0:0:0:0:
64,192,54674,1,0,0:0:0:0:
448,192,54889,128,0,55317:0:0:0:0:
64,192,54889,128,0,55317:0:0:0:0:
192,192,54889,1,4,0:0:0:0:
192,192,55317,1,0,0:0:0:0:
64,192,55532,1,0,0:0:0:0:
320,192,55532,1,0,0:0:0:0:
64,192,55746,128,0,56121:0:0:0:0:
448,192,55746,128,0,56121:0:0:0:0:
192,192,55746,1,0,0:0:0:0:
320,192,55960,1,0,0:0:0:0:
192,192,56067,1,0,0:0:0:0:
320,192,56174,1,0,0:0:0:0:
64,192,56174,128,0,56603:0:0:0:0:
448,192,56174,128,0,56603:0:0:0:0:
192,192,56603,1,2,0:0:0:0:
320,192,56603,128,0,57032:0:0:0:0:
192,192,57032,1,2,0:0:0:0:
448,192,57032,1,2,0:0:0:0:
64,192,57032,128,0,57246:0:0:0:0:
448,192,57246,128,0,57460:0:0:0:0:
320,192,57460,1,2,0:0:0:0:
192,192,57460,1,2,0:0:0:0:
64,192,57460,128,0,57674:0:0:0:0:
448,192,57674,128,0,57889:0:0:0:0:
320,192,57889,1,2,0:0:0:0:
192,192,57889,1,2,0:0:0:0:
64,192,57889,128,0,58103:0:0:0:0:
192,192,58103,128,0,58317:0:0:0:0:
448,192,58317,1,2,0:0:0:0:
64,192,58317,1,2,0:0:0:0:
448,192,58746,1,2,0:0:0:0:
64,192,58746,1,2,0:0:0:0:
192,192,58746,128,0,58960:0:0:0:0:
320,192,58960,128,0,59174:0:0:0:0:
192,192,59174,1,2,0:0:0:0:
448,192,59174,1,2,0:0:0:0:
64,192,59174,128,0,59389:0:0:0:0:
448,192,59389,1,2,0:0:0:0:
320,192,59389,128,2,59603:0:0:0:0:
448,192,59603,1,2,0:0:0:0:
192,192,59603,128,2,59817:0:0:0:0:
448,192,59817,1,2,0:0:0:0:
64,192,59817,128,2,60032:0:0:0:0:
192,192,60032,1,2,0:0:0:0:
320,192,60032,1,2,0:0:0:0:
448,192,60032,128,0,60460:0:0:0:0:
192,192,60460,1,2,0:0:0:0:
320,192,60460,1,2,0:0:0:0:
64,192,60460,128,0,60782:0:0:0:0:
448,192,60782,128,0,61103:0:0:0:0:
64,192,60889,1,2,0:0:0:0:
320,192,60889,1,2,0:0:0:0:
192,192,61103,128,0,61317:0:0:0:0:
64,192,61317,1,2,0:0:0:0:
320,192,61317,1,2,0:0:0:0:
448,192,61317,128,0,61532:0:0:0:0:
320,192,61532,128,0,61746:0:0:0:0:
192,192,61746,1,2,0:0:0:0:
448,192,61746,1,2,0:0:0:0:
64,192,61746,128,0,61960:0:0:0:0:
192,192,62174,1,2,0:0:0:0:
448,192,62174,1,2,0:0:0:0:
320,192,62174,128,0,62389:0:0:0:0:
64,192,62389,128,0,62603:0:0:0:0:
448,192,62603,1,2,0:0:0:0:
192,192,62603,1,2,0:0:0:0:
320,192,62603,128,0,62817:0:0:0:0:
64,192,63032,1,2,0:0:0:0:
192,192,63085,1,2,0:0:0:0:
320,192,63139,1,2,0:0:0:0:
448,192,63192,1,2,0:0:0:0:
64,192,63246,1,2,0:0:0:0:
192,192,63299,1,2,0:0:0:0:
320,192,63353,1,2,0:0:0:0:
64,192,63460,1,0,0:0:0:0:
192,192,63460,1,0,0:0:0:0:
448,192,63460,1,0,0:0:0:0:
320,192,63460,1,0,0:0:0:0:
64,192,63889,1,8,0:0:0:0:
448,192,63889,1,0,0:0:0:0:
192,192,63889,128,0,64103:0:0:0:0:
320,192,63889,1,0,0:0:0:0:
320,192,64103,128,0,64317:0:0:0:0:
64,192,64317,1,8,0:0:0:0:
448,192,64317,128,0,64532:0:0:0:0:
192,192,64317,1,0,0:0:0:0:
320,192,64532,128,0,64746:0:0:0:0:
64,192,64746,1,8,0:0:0:0:
192,192,64746,128,0,64960:0:0:0:0:
448,192,64746,1,0,0:0:0:0:
320,192,64960,128,0,65174:0:0:0:0:
192,192,65174,1,0,0:0:0:0:
448,192,65174,128,0,65282:0:0:0:0:
64,192,65174,1,8,0:0:0:0:
320,192,65603,1,0,0:0:0:0:
448,192,65603,1,0,0:0:0:0:
192,192,65603,128,0,65817:0:0:0:0:
64,192,65603,1,8,0:0:0:0:
320,192,65817,128,0,66032:0:0:0:0:
64,192,66032,1,8,0:0:0:0:
448,192,66032,128,0,66246:0:0:0:0:
192,192,66032,1,0,0:0:0:0:
64,192,66246,1,8,0:0:0:0:
192,192,66246,1,0,0:0:0:0:
320,192,66246,128,0,66460:0:0:0:0:
64,192,66460,1,8,0:0:0:0:
192,192,66460,128,0,66674:0:0:0:0:
448,192,66460,1,0,0:0:0:0:
64,192,66674,1,8,0:0:0:0:
448,192,66674,1,0,0:0:0:0:
320,192,66674,128,0,66889:0:0:0:0:
192,192,66889,1,8,0:0:0:0:
64,192,66889,128,0,66996:0:0:0:0:
448,192,66889,128,0,66996:0:0:0:0:
192,192,67317,1,0,0:0:0:0:
320,192,67317,1,0,0:0:0:0:
448,192,67317,128,0,67532:0:0:0:0:
64,192,67317,1,8,0:0:0:0:
192,192,67639,128,0,67960:0:0:0:0:
448,192,67746,1,0,0:0:0:0:
64,192,67746,1,8,0:0:0:0:
320,192,67746,1,0,0:0:0:0:
320,192,67960,128,0,68174:0:0:0:0:
64,192,68174,1,8,0:0:0:0:
448,192,68174,128,0,68389:0:0:0:0:
192,192,68174,1,0,0:0:0:0:
320,192,68389,128,0,68603:0:0:0:0:
192,192,68603,128,0,68817:0:0:0:0:
448,192,68603,1,0,0:0:0:0:
64,192,68603,1,8,0:0:0:0:
64,192,69032,128,0,69782:0:0:0:0:
192,192,69246,128,0,69782:0:0:0:0:
320,192,69460,128,0,69782:0:0:0:0:
448,192,69889,1,2,0:0:0:0:
320,192,69942,1,2,0:0:0:0:
192,192,69996,1,2,0:0:0:0:
64,192,70049,1,2,0:0:0:0:
448,192,70103,1,2,0:0:0:0:
320,192,70157,1,2,0:0:0:0:
192,192,70210,1,2,0:0:0:0:
64,192,70264,1,2,0:0:0:0:
192,192,70317,1,4,0:0:0:0:
320,192,70317,1,4,0:0:0:0:
448,192,70317,128,0,72032:0:0:0:0:
192,192,70532,1,0,0:0:0:0:
64,192,70746,1,0,0:0:0:0:
320,192,70960,1,0,0:0:0:0:
192,192,71174,1,0,0:0:0:0:
64,192,71389,1,0,0:0:0:0:
192,192,71603,1,0,0:0:0:0:
64,192,71817,1,0,0:0:0:0:
192,192,72032,1,4,0:0:0:0:
64,192,72032,1,4,0:0:0:0:
320,192,72032,128,0,73746:0:0:0:0:
192,192,72246,1,0,0:0:0:0:
448,192,72460,1,0,0:0:0:0:
192,192,72674,1,0,0:0:0:0:
64,192,72889,1,0,0:0:0:0:
192,192,73103,1,0,0:0:0:0:
448,192,73317,1,0,0:0:0:0:
64,192,73532,1,0,0:0:0:0:
448,192,73746,1,4,0:0:0:0:
64,192,73746,1,4,0:0:0:0:
192,192,73746,128,0,75460:0:0:0:0:
320,192,73960,1,0,0:0:0:0:
448,192,74174,1,0,0:0:0:0:
320,192,74389,1,0,0:0:0:0:
64,192,74603,1,0,0:0:0:0:
320,192,74817,1,0,0:0:0:0:
448,192,75032,1,0,0:0:0:0:
64,192,75246,1,0,0:0:0:0:
320,192,75460,1,4,0:0:0:0:
448,192,75460,1,4,0:0:0:0:
64,192,75460,128,0,77174:0:0:0:0:
320,192,75674,1,0,0:0:0:0:
192,192,75889,1,0,0:0:0:0:
448,192,76103,1,0,0:0:0:0:
320,192,76317,1,0,0:0:0:0:
192,192,76532,1,0,0:0:0:0:
448,192,76746,1,0,0:0:0:0:
320,192,76960,1,0,0:0:0:0:
192,192,77174,1,4,0:0:0:0:
320,192,77174,1,4,0:0:0:0:
448,192,77174,128,0,78889:0:0:0:0:
192,192,77389,1,0,0:0:0:0:
64,192,77603,1,4,0:0:0:0:
320,192,77603,1,4,0:0:0:0:
192,192,77817,1,0,0:0:0:0:
192,192,78032,1,4,0:0:0:0:
64,192,78032,1,4,0:0:0:0:
320,192,78246,1,0,0:0:0:0:
320,192,78460,1,4,0:0:0:0:
192,192,78460,1,4,0:0:0:0:
64,192,78674,1,0,0:0:0:0:
64,192,78889,1,4,0:0:0:0:
192,192,78889,1,4,0:0:0:0:
320,192,78889,128,0,80603:0:0:0:0:
192,192,79103,1,0,0:0:0:0:
448,192,79317,1,4,0:0:0:0:
64,192,79317,1,4,0:0:0:0:
64,192,79532,1,0,0:0:0:0:
192,192,79746,1,4,0:0:0:0:
448,192,79746,1,4,0:0:0:0:
64,192,79960,1,0,0:0:0:0:
192,192,80174,1,4,0:0:0:0:
448,192,80174,1,4,0:0:0:0:
448,192,80389,1,0,0:0:0:0:
192,192,80603,1,4,0:0:0:0:
448,192,80603,1,4,0:0:0:0:
64,192,80603,128,0,82264:0:0:0:0:
320,192,80817,1,0,0:0:0:0:
320,192,81032,1,4,0:0:0:0:
448,192,81032,1,4,0:0:0:0:
448,192,81246,1,0,0:0:0:0:
320,192,81460,1,4,0:0:0:0:
192,192,81460,1,4,0:0:0:0:
192,192,81674,1,0,0:0:0:0:
320,192,81889,1,4,0:0:0:0:
192,192,81889,1,4,0:0:0:0:
448,192,82103,1,0,0:0:0:0:
320,192,82317,128,0,82532:0:0:0:0:
192,192,82317,1,0,0:0:0:0:
192,192,82532,1,0,0:0:0:0:
192,192,82746,128,0,82960:0:0:0:0:
320,192,82746,1,0,0:0:0:0:
320,192,82960,1,0,0:0:0:0:
448,192,83174,128,0,83389:0:0:0:0:
64,192,83174,1,0,0:0:0:0:
64,192,83389,1,0,0:0:0:0:
64,192,83603,128,0,83817:0:0:0:0:
448,192,83603,1,0,0:0:0:0:
448,192,83817,1,0,0:0:0:0:
64,192,84032,128,0,84460:0:0:0:0:
192,192,84032,1,2,0:0:0:0:
320,192,84085,1,2,0:0:0:0:
448,192,84139,1,2,0:0:0:0:
192,192,84192,1,2,0:0:0:0:
320,192,84246,1,2,0:0:0:0:
448,192,84299,1,2,0:0:0:0:
192,192,84353,1,2,0:0:0:0:
320,192,84407,1,2,0:0:0:0:
192,192,84460,1,0,0:0:0:0:
448,192,84460,128,0,84674:0:0:0:0:
320,192,84674,1,0,0:0:0:0:
64,192,84674,128,0,84889:0:0:0:0:
448,192,84889,1,0,0:0:0:0:
192,192,84889,128,0,85103:0:0:0:0:
320,192,85103,1,0,0:0:0:0:
64,192,85103,128,0,85317:0:0:0:0:
192,192,85317,1,0,0:0:0:0:
448,192,85317,128,0,85532:0:0:0:0:
64,192,85532,1,0,0:0:0:0:
320,192,85532,1,0,0:0:0:0:
64,192,85746,128,0,86174:0:0:0:0:
192,192,85746,1,2,0:0:0:0:
320,192,85799,1,2,0:0:0:0:
448,192,85853,1,2,0:0:0:0:
192,192,85853,1,2,0:0:0:0:
320,192,85907,1,2,0:0:0:0:
448,192,85960,1,2,0:0:0:0:
320,192,86014,1,2,0:0:0:0:
192,192,86067,1,2,0:0:0:0:
448,192,86121,1,2,0:0:0:0:
320,192,86174,1,0,0:0:0:0:
192,192,86174,128,0,86389:0:0:0:0:
64,192,86389,128,0,86603:0:0:0:0:
320,192,86389,1,0,0:0:0:0:
448,192,86603,128,0,86817:0:0:0:0:
192,192,86603,1,0,0:0:0:0:
192,192,86817,1,0,0:0:0:0:
64,192,86817,128,0,87032:0:0:0:0:
320,192,87032,1,0,0:0:0:0:
192,192,87032,1,0,0:0:0:0:
64,192,87246,1,2,0:0:0:0:
320,192,87246,1,2,0:0:0:0:
192,192,87353,1,2,0:0:0:0:
448,192,87353,1,2,0:0:0:0:
64,192,87460,128,0,87782:0:0:0:0:
320,192,87460,1,2,0:0:0:0:
192,192,87514,1,2,0:0:0:0:
448,192,87514,1,2,0:0:0:0:
320,192,87567,1,2,0:0:0:0:
192,192,87621,1,2,0:0:0:0:
448,192,87621,1,2,0:0:0:0:
320,192,87674,1,2,0:0:0:0:
448,192,87728,1,2,0:0:0:0:
192,192,87728,1,2,0:0:0:0:
320,192,87782,1,2,0:0:0:0:
64,192,87889,1,4,0:0:0:0:
320,192,87889,128,0,87996:0:0:0:0:
192,192,87996,1,0,0:0:0:0:
448,192,87996,1,0,0:0:0:0:
64,192,88103,1,0,0:0:0:0:
448,192,88210,1,4,0:0:0:0:
192,192,88210,128,0,88317:0:0:0:0:
320,192,88317,1,0,0:0:0:0:
64,192,88317,1,0,0:0:0:0:
192,192,88424,1,0,0:0:0:0:
64,192,88532,1,4,0:0:0:0:
448,192,88532,128,0,88639:0:0:0:0:
192,192,88639,1,0,0:0:0:0:
320,192,88639,1,0,0:0:0:0:
448,192,88746,1,0,0:0:0:0:
192,192,88853,1,4,0:0:0:0:
320,192,88853,128,0,88960:0:0:0:0:
64,192,88960,1,0,0:0:0:0:
448,192,88960,1,0,0:0:0:0:
192,192,89067,1,0,0:0:0:0:
64,192,89282,1,0,0:0:0:0:
448,192,89282,128,0,89603:0:0:0:0:
192,192,89335,1,0,0:0:0:0:
320,192,89389,1,0,0:0:0:0:
192,192,89603,1,0,0:0:0:0:
320,192,89603,128,0,89817:0:0:0:0:
192,192,89817,1,0,0:0:0:0:
64,192,89817,128,0,90032:0:0:0:0:
320,192,90032,1,4,0:0:0:0:
448,192,90032,128,0,90460:0:0:0:0:
192,192,90353,1,8,0:0:0:0:
320,192,90460,1,8,0:0:0:0:
320,192,90889,128,0,91317:0:0:0:0:
64,192,90889,1,2,0:0:0:0:
192,192,90942,1,2,0:0:0:0:
448,192,90996,1,2,0:0:0:0:
192,192,91049,1,0,0:0:0:0:
64,192,91103,1,2,0:0:0:0:
192,192,91157,1,2,0:0:0:0:
448,192,91210,1,2,0:0:0:0:
192,192,91264,1,0,0:0:0:0:
448,192,91317,1,8,0:0:0:0:
64,192,91317,1,8,0:0:0:0:
320,192,91532,1,0,0:0:0:0:
192,192,91532,128,0,91746:0:0:0:0:
448,192,91746,1,0,0:0:0:0:
64,192,91746,128,0,91960:0:0:0:0:
192,192,91960,1,0,0:0:0:0:
320,192,91960,1,0,0:0:0:0:
448,192,91960,128,0,92174:0:0:0:0:
64,192,92174,1,8,0:0:0:0:
320,192,92174,128,0,92389:0:0:0:0:
192,192,92389,1,0,0:0:0:0:
448,192,92389,128,0,92603:0:0:0:0:
192,192,92603,1,2,0:0:0:0:
64,192,92603,128,0,93032:0:0:0:0:
320,192,92657,1,2,0:0:0:0:
448,192,92710,1,2,0:0:0:0:
192,192,92764,1,2,0:0:0:0:
320,192,92817,1,2,0:0:0:0:
448,192,92871,1,2,0:0:0:0:
192,192,92924,1,2,0:0:0:0:
320,192,92978,1,2,0:0:0:0:
192,192,93032,1,8,0:0:0:0:
448,192,93032,1,8,0:0:0:0:
192,192,93246,1,0,0:0:0:0:
448,192,93246,1,0,0:0:0:0:
320,192,93246,128,0,93460:0:0:0:0:
64,192,93460,1,8,0:0:0:0:
192,192,93460,128,0,93674:0:0:0:0:
448,192,93567,1,8,0:0:0:0:
64,192,93674,128,0,93889:0:0:0:0:
320,192,93782,1,8,0:0:0:0:
448,192,93889,1,8,0:0:0:0:
64,192,94103,1,2,0:0:0:0:
320,192,94103,1,2,0:0:0:0:
192,192,94210,1,2,0:0:0:0:
448,192,94210,1,2,0:0:0:0:
320,192,94317,1,2,0:0:0:0:
64,192,94317,128,0,94746:0:0:0:0:
192,192,94371,1,2,0:0:0:0:
320,192,94424,1,2,0:0:0:0:
448,192,94478,1,2,0:0:0:0:
320,192,94532,1,2,0:0:0:0:
192,192,94585,1,2,0:0:0:0:
320,192,94639,1,0,0:0:0:0:
192,192,94746,1,0,0:0:0:0:
320,192,94853,1,0,0:0:0:0:
448,192,94853,1,0,0:0:0:0:
192,192,94960,1,0,0:0:0:0:
448,192,95067,1,0,0:0:0:0:
320,192,95067,1,0,0:0:0:0:
192,192,95174,1,0,0:0:0:0:
64,192,95174,1,0,0:0:0:0:
448,192,95282,1,0,0:0:0:0:
64,192,95389,1,0,0:0:0:0:
320,192,95389,1,0,0:0:0:0:
192,192,95496,1,0,0:0:0:0:
448,192,95496,1,0,0:0:0:0:
64,192,95603,1,0,0:0:0:0:
320,192,95710,1,0,0:0:0:0:
192,192,95710,1,0,0:0:0:0:
64,192,95817,1,0,0:0:0:0:
448,192,95817,1,0,0:0:0:0:
320,192,95924,1,0,0:0:0:0:
64,192,96032,128,0,96246:0:0:0:0:
192,192,96032,1,0,0:0:0:0:
192,192,96246,128,0,96460:0:0:0:0:
320,192,96246,1,0,0:0:0:0:
320,192,96460,128,0,96674:0:0:0:0:
448,192,96460,1,0,0:0:0:0:
448,192,96674,128,0,96889:0:0:0:0:
64,192,96674,128,0,96889:0:0:0:0:
192,192,96674,1,0,0:0:0:0:
192,192,96889,1,2,0:0:0:0:
320,192,96996,1,2,0:0:0:0:
448,192,96996,1,0,0:0:0:0:
192,192,97103,1,2,0:0:0:0:
64,192,97103,1,0,0:0:0:0:
320,192,97210,1,2,0:0:0:0:
448,192,97210,1,0,0:0:0:0:
192,192,97317,1,0,0:0:0:0:
320,192,97317,1,0,0:0:0:0:
64,192,97424,1,0,0:0:0:0:
448,192,97424,1,0,0:0:0:0:
192,192,97532,1,0,0:0:0:0:
320,192,97532,1,0,0:0:0:0:
64,192,97639,1,0,0:0:0:0:
448,192,97639,1,0,0:0:0:0:
64,192,97746,128,0,97960:0:0:0:0:
448,192,97746,128,0,97960:0:0:0:0:
64,192,98174,1,4,0:0:0:0:
448,192,98174,128,0,98389:0:0:0:0:
192,192,98389,1,0,0:0:0:0:
320,192,98389,128,0,98603:0:0:0:0:
64,192,98603,1,4,0:0:0:0:
192,192,98603,128,0,98817:0:0:0:0:
320,192,98817,1,4,0:0:0:0:
448,192,98817,1,0,0:0:0:0:
64,192,98817,128,0,99032:0:0:0:0:
448,192,99032,1,0,0:0:0:0:
192,192,99032,128,0,99246:0:0:0:0:
64,192,99246,1,4,0:0:0:0:
320,192,99246,1,0,0:0:0:0:
448,192,99246,128,0,99460:0:0:0:0:
64,192,99460,128,0,99674:0:0:0:0:
320,192,99460,128,0,99674:0:0:0:0:
192,192,99674,128,0,99889:0:0:0:0:
448,192,99674,128,0,99889:0:0:0:0:
64,192,99889,1,4,0:0:0:0:
320,192,99889,128,0,100103:0:0:0:0:
192,192,100103,128,0,100317:0:0:0:0:
320,192,100317,1,4,0:0:0:0:
64,192,100317,128,0,100532:0:0:0:0:
320,192,100532,1,4,0:0:0:0:
448,192,100532,128,0,100746:0:0:0:0:
64,192,100746,1,0,0:0:0:0:
192,192,100746,128,0,100853:0:0:0:0:
320,192,100853,128,0,100960:0:0:0:0:
448,192,100853,1,0,0:0:0:0:
192,192,100960,128,0,101067:0:0:0:0:
64,192,100960,1,0,0:0:0:0:
320,192,101067,128,0,101174:0:0:0:0:
448,192,101067,1,0,0:0:0:0:
64,192,101174,128,0,101389:0:0:0:0:
192,192,101174,1,0,0:0:0:0:
192,192,101389,1,0,0:0:0:0:
192,192,101603,1,0,0:0:0:0:
64,192,101603,128,0,102032:0:0:0:0:
320,192,101603,128,0,101710:0:0:0:0:
448,192,101924,1,0,0:0:0:0:
192,192,101924,128,0,102032:0:0:0:0:
320,192,102032,1,0,0:0:0:0:
448,192,102246,128,0,102674:0:0:0:0:
64,192,102246,128,0,102353:0:0:0:0:
192,192,102353,1,0,0:0:0:0:
320,192,102567,1,0,0:0:0:0:
192,192,102567,128,0,102674:0:0:0:0:
64,192,102674,1,0,0:0:0:0:
192,192,102889,1,0,0:0:0:0:
320,192,102889,1,0,0:0:0:0:
448,192,102889,1,0,0:0:0:0:
64,192,102889,1,0,0:0:0:0:
64,192,103103,128,0,104067:0:0:0:0:
448,192,103317,128,0,104067:0:0:0:0:
192,192,103532,128,0,104067:0:0:0:0:
320,192,103746,128,0,104067:0:0:0:0:
64,192,104174,1,2,0:0:0:0:
448,192,104174,1,2,0:0:0:0:
448,192,104282,1,2,0:0:0:0:
64,192,104282,1,2,0:0:0:0:
320,192,104603,128,0,105032:0:0:0:0:
192,192,104603,1,0,0:0:0:0:
64,192,104603,1,2,0:0:0:0:
448,192,104603,1,0,0:0:0:0:
448,192,105032,128,0,105889:0:0:0:0:
192,192,105032,1,0,0:0:0:0:
64,192,105032,1,2,0:0:0:0:
320,192,105246,128,0,105674:0:0:0:0:
192,192,105460,128,0,105674:0:0:0:0:
64,192,105460,1,2,0:0:0:0:
64,192,105674,128,0,106317:0:0:0:0:
192,192,105889,128,0,106103:0:0:0:0:
320,192,105889,1,0,0:0:0:0:
320,192,106103,128,0,106317:0:0:0:0:
192,192,106317,128,0,106532:0:0:0:0:
448,192,106317,128,2,106532:0:0:0:0:
64,192,106532,128,0,106639:0:0:0:0:
320,192,106532,128,0,106639:0:0:0:0:
192,192,106746,1,0,0:0:0:0:
448,192,106746,128,2,107389:0:0:0:0:
192,192,106960,128,0,107603:0:0:0:0:
64,192,107174,128,0,107817:0:0:0:0:
320,192,107174,1,0,0:0:0:0:
320,192,107389,128,0,108032:0:0:0:0:
448,192,107603,128,0,107978:0:0:0:0:
192,192,107817,128,0,108032:0:0:0:0:
64,192,108032,128,0,108246:0:0:0:0:
448,192,108032,128,0,108246:0:0:0:0:
192,192,108460,128,0,108782:0:0:0:0:
320,192,108460,1,0,0:0:0:0:
448,192,108460,1,0,0:0:0:0:
64,192,108460,1,2,0:0:0:0:
320,192,108782,128,0,109103:0:0:0:0:
448,192,108889,1,0,0:0:0:0:
64,192,108889,1,2,0:0:0:0:
448,192,109103,128,0,109317:0:0:0:0:
320,192,109317,128,0,109532:0:0:0:0:
192,192,109317,1,0,0:0:0:0:
64,192,109317,1,2,0:0:0:0:
192,192,109532,128,0,109746:0:0:0:0:
64,192,109746,128,0,110174:0:0:0:0:
320,192,109746,128,0,110174:0:0:0:0:
448,192,109746,1,2,0:0:0:0:
192,192,110174,128,0,110389:0:0:0:0:
448,192,110174,128,0,110389:0:0:0:0:
64,192,110389,128,0,110603:0:0:0:0:
320,192,110389,128,0,110603:0:0:0:0:
192,192,110603,128,2,110924:0:0:0:0:
448,192,110603,1,0,0:0:0:0:
64,192,111032,1,0,0:0:0:0:
448,192,111032,1,0,0:0:0:0:
64,192,111139,128,0,111460:0:0:0:0:
448,192,111139,128,0,111460:0:0:0:0:
192,192,111460,128,0,112746:0:0:0:0:
320,192,111460,1,0,0:0:0:0:
320,192,111889,1,0,0:0:0:0:
64,192,111889,128,0,111996:0:0:0:0:
320,192,112103,128,0,112210:0:0:0:0:
320,192,112317,1,0,0:0:0:0:
448,192,112317,128,0,112424:0:0:0:0:
320,192,112532,128,0,112639:0:0:0:0:
320,192,112746,128,0,112960:0:0:0:0:
64,192,112746,1,0,0:0:0:0:
448,192,112746,128,0,112853:0:0:0:0:
64,192,112960,128,0,113174:0:0:0:0:
192,192,112960,128,0,113067:0:0:0:0:
448,192,113174,128,0,114032:0:0:0:0:
192,192,113174,1,0,0:0:0:0:
320,192,113174,128,0,113282:0:0:0:0:
320,192,113603,1,0,0:0:0:0:
64,192,113603,128,0,113710:0:0:0:0:
192,192,113817,128,0,113924:0:0:0:0:
192,192,114032,1,0,0:0:0:0:
320,192,114032,128,0,114139:0:0:0:0:
192,192,114246,128,0,114460:0:0:0:0:
64,192,114246,128,0,114353:0:0:0:0:
64,192,114460,128,0,114674:0:0:0:0:
448,192,114460,1,0,0:0:0:0:
320,192,114460,128,0,114567:0:0:0:0:
448,192,114674,128,0,114889:0:0:0:0:
320,192,114674,1,0,0:0:0:0:
320,192,114889,128,0,115746:0:0:0:0:
64,192,114889,1,0,0:0:0:0:
192,192,114889,128,0,114996:0:0:0:0:
192,192,115317,1,0,0:0:0:0:
64,192,115317,128,0,115424:0:0:0:0:
448,192,115639,128,0,115746:0:0:0:0:
192,192,115746,128,0,116174:0:0:0:0:
64,192,115746,1,0,0:0:0:0:
64,192,115960,128,0,116067:0:0:0:0:
320,192,116174,128,0,116389:0:0:0:0:
64,192,116174,1,2,0:0:0:0:
448,192,116282,128,0,116389:0:0:0:0:
64,192,116389,128,0,116603:0:0:0:0:
192,192,116389,1,0,0:0:0:0:
192,192,116603,128,0,116924:0:0:0:0:
320,192,116603,128,0,117139:0:0:0:0:
448,192,116603,128,0,117353:0:0:0:0:
192,192,117032,1,0,0:0:0:0:
320,192,117246,1,0,0:0:0:0:
192,192,117246,1,0,0:0:0:0:
64,192,117353,1,0,0:0:0:0:
448,192,117460,1,0,0:0:0:0:
192,192,117460,1,0,0:0:0:0:
320,192,117674,1,0,0:0:0:0:
448,192,117782,1,0,0:0:0:0:
192,192,117889,128,0,118103:0:0:0:0:
320,192,117889,1,2,0:0:0:0:
64,192,117889,1,2,0:0:0:0:
448,192,118103,128,0,118317:0:0:0:0:
320,192,118103,1,2,0:0:0:0:
64,192,118103,1,2,0:0:0:0:
320,192,118317,128,0,119174:0:0:0:0:
64,192,118746,1,2,0:0:0:0:
448,192,118746,128,0,118853:0:0:0:0:
448,192,118960,1,0,0:0:0:0:
192,192,118960,128,0,119067:0:0:0:0:
192,192,119174,128,0,119603:0:0:0:0:
448,192,119174,1,2,0:0:0:0:
64,192,119174,128,0,119282:0:0:0:0:
64,192,119389,1,0,0:0:0:0:
448,192,119389,128,0,119496:0:0:0:0:
320,192,119603,128,0,119817:0:0:0:0:
64,192,119603,128,0,119710:0:0:0:0:
192,192,119817,128,0,120032:0:0:0:0:
448,192,119817,128,0,119924:0:0:0:0:
64,192,120032,128,2,120353:0:0:0:0:
448,192,120032,128,0,120353:0:0:0:0:
320,192,120032,128,0,120139:0:0:0:0:
64,192,120460,128,0,121317:0:0:0:0:
448,192,120460,128,0,121317:0:0:0:0:
320,192,120460,1,0,0:0:0:0:
192,192,120460,128,0,120567:0:0:0:0:
320,192,120674,128,0,120782:0:0:0:0:
320,192,120889,1,0,0:0:0:0:
192,192,120889,128,0,120996:0:0:0:0:
192,192,121103,1,0,0:0:0:0:
320,192,121103,128,0,121210:0:0:0:0:
192,192,121317,128,0,121746:0:0:0:0:
320,192,121317,128,0,121424:0:0:0:0:
448,192,121532,128,0,121639:0:0:0:0:
64,192,121746,128,0,122496:0:0:0:0:
448,192,121746,1,0,0:0:0:0:
320,192,121746,128,0,121853:0:0:0:0:
320,192,122174,1,0,0:0:0:0:
448,192,122174,1,0,0:0:0:0:
192,192,122174,128,0,122282:0:0:0:0:
320,192,122496,128,0,122603:0:0:0:0:
192,192,122603,128,0,123246:0:0:0:0:
448,192,122603,1,0,0:0:0:0:
448,192,122817,128,0,122924:0:0:0:0:
64,192,123032,1,0,0:0:0:0:
320,192,123032,1,0,0:0:0:0:
448,192,123032,1,0,0:0:0:0:
320,192,123139,128,0,123246:0:0:0:0:
320,192,123353,1,0,0:0:0:0:
64,192,123460,128,0,124639:0:0:0:0:
448,192,123460,128,0,124639:0:0:0:0:
192,192,123674,128,0,124049:0:0:0:0:
320,192,123889,128,0,124264:0:0:0:0:
192,192,124103,128,0,124210:0:0:0:0:
320,192,124317,128,0,124424:0:0:0:0:
64,192,124746,1,0,0:0:0:0:
448,192,124746,1,0,0:0:0:0:
64,192,124853,1,0,0:0:0:0:
448,192,124853,1,0,0:0:0:0:
64,192,125603,1,0,0:0:0:0:
448,192,125817,1,0,0:0:0:0:
320,192,126032,1,0,0:0:0:0:
448,192,126246,1,0,0:0:0:0:
192,192,126460,1,0,0:0:0:0:
320,192,126674,1,0,0:0:0:0:
320,192,127317,1,0,0:0:0:0:
448,192,127532,1,0,0:0:0:0:
64,192,127746,1,0,0:0:0:0:
320,192,127960,1,0,0:0:0:0:
448,192,128174,1,2,0:0:0:0:
192,192,128174,1,2,0:0:0:0:
320,192,128282,1,2,0:0:0:0:
64,192,128282,1,2,0:0:0:0:
448,192,128389,1,2,0:0:0:0:
192,192,128389,1,2,0:0:0:0:
64,192,128496,1,2,0:0:0:0:
320,192,128496,1,2,0:0:0:0:
320,192,128603,1,4,0:0:0:0:
64,192,128603,1,0,0:0:0:0:
192,192,128603,1,4,0:0:0:0:
448,192,128603,1,0,0:0:0:0:
64,192,129032,128,0,129353:0:0:0:0:
192,192,129139,1,0,0:0:0:0:
192,192,129353,128,0,129674:0:0:0:0:
320,192,129460,1,0,0:0:0:0:
448,192,129674,128,0,129996:0:0:0:0:
320,192,129782,1,0,0:0:0:0:
192,192,129996,128,0,130317:0:0:0:0:
64,192,130103,1,0,0:0:0:0:
64,192,130317,1,0,0:0:0:0:
448,192,130317,1,0,0:0:0:0:
320,192,130317,1,4,0:0:0:0:
64,192,130532,1,0,0:0:0:0:
320,192,130746,1,0,0:0:0:0:
192,192,130960,1,0,0:0:0:0:
448,192,131174,1,0,0:0:0:0:
448,192,131389,1,0,0:0:0:0:
64,192,131389,1,0,0:0:0:0:
64,192,131603,1,2,0:0:0:0:
448,192,131603,1,2,0:0:0:0:
64,192,131710,1,2,0:0:0:0:
448,192,131710,1,2,0:0:0:0:
192,192,131924,1,0,0:0:0:0:
320,192,131924,1,0,0:0:0:0:
192,192,132032,128,4,132246:0:0:0:0:
320,192,132032,128,4,132246:0:0:0:0:
64,192,132460,1,0,0:0:0:0:
320,192,132674,1,0,0:0:0:0:
192,192,132889,1,0,0:0:0:0:
64,192,133103,1,0,0:0:0:0:
320,192,133317,1,0,0:0:0:0:
192,192,133532,1,0,0:0:0:0:
320,192,134174,1,0,0:0:0:0:
192,192,134389,1,0,0:0:0:0:
64,192,134603,1,0,0:0:0:0:
192,192,134817,1,0,0:0:0:0:
320,192,135032,1,2,0:0:0:0:
192,192,135032,1,2,0:0:0:0:
64,192,135139,1,2,0:0:0:0:
448,192,135139,1,2,0:0:0:0:
192,192,135246,1,2,0:0:0:0:
320,192,135246,1,2,0:0:0:0:
64,192,135353,1,2,0:0:0:0:
448,192,135353,1,2,0:0:0:0:
448,192,135460,1,0,0:0:0:0:
320,192,135460,1,4,0:0:0:0:
192,192,135460,1,4,0:0:0:0:
64,192,135460,1,0,0:0:0:0:
320,192,135889,128,0,136210:0:0:0:0:
192,192,135996,1,0,0:0:0:0:
64,192,136210,128,0,136532:0:0:0:0:
192,192,136317,1,0,0:0:0:0:
448,192,136532,128,0,136853:0:0:0:0:
320,192,136639,1,0,0:0:0:0:
192,192,136853,128,0,137174:0:0:0:0:
320,192,136960,1,0,0:0:0:0:
64,192,137174,1,0,0:0:0:0:
320,192,137174,1,0,0:0:0:0:
448,192,137174,1,4,0:0:0:0:
448,192,137389,1,4,0:0:0:0:
64,192,137389,128,0,137924:0:0:0:0:
192,192,137389,128,0,137710:0:0:0:0:
320,192,137389,128,0,137496:0:0:0:0:
320,192,137603,1,4,0:0:0:0:
448,192,137603,1,0,0:0:0:0:
192,192,137817,1,4,0:0:0:0:
320,192,137817,1,0,0:0:0:0:
448,192,137817,1,0,0:0:0:0:
64,192,138032,1,4,0:0:0:0:
192,192,138032,1,0,0:0:0:0:
320,192,138032,1,0,0:0:0:0:
448,192,138032,1,0,0:0:0:0:
