osu file format v14

[General]
AudioFilename: cYsmix - Moonlight Sonata.mp3
AudioLeadIn: 0
PreviewTime: -1
Countdown: 1
SampleSet: Normal
StackLeniency: 0.7
Mode: 0
LetterboxInBreaks: 0
WidescreenStoryboard: 1

[Editor]
DistanceSpacing: 1
BeatDivisor: 2
GridSize: 4
TimelineZoom: 1

[Metadata]
Title:Moonlight Sonata
TitleUnicode:Moonlight Sonata
Artist:cYsmix
ArtistUnicode:cYsmix
Creator:mishada
Version:Noob
Source:
Tags:
BeatmapID:1918306
BeatmapSetID:833289

[Difficulty]
HPDrainRate:0
CircleSize:2
OverallDifficulty:4
ApproachRate:5
SliderMultiplier:1.4
SliderTickRate:1

[Events]
//Background and Video events
0,0,"osu!cysmix-bg-2.jpg",0,0
//Break Periods
2,125406,133850
//Storyboard Layer 0 (Background)
//Storyboard Layer 1 (Fail)
//Storyboard Layer 2 (Pass)
//Storyboard Layer 3 (Foreground)
//Storyboard Sound Samples

[TimingPoints]
1925,468.75,4,1,0,100,1,0

[HitObjects]
258,140,1925,5,0,0:0:0:0:
403,89,3800,1,0,0:0:0:0:
96,199,5675,1,0,0:0:0:0:
257,192,7550,1,0,0:0:0:0:
200,270,9425,6,0,P|424:145|251:32,1,560
359,95,13175,2,0,L|100:239,2,280
254,189,16456,5,0,0:0:0:0:
123,99,17862,5,0,0:0:0:0:
245,107,18800,1,0,0:0:0:0:
153,223,20206,2,0,B|307:256|291:247|322:200,1,140
256,192,21612,5,0,0:0:0:0:
328,83,22550,1,0,0:0:0:0:
141,222,23956,2,0,L|226:307,2,70
232,181,25362,5,0,0:0:0:0:
293,138,26300,1,0,0:0:0:0:
203,108,27706,2,0,L|119:83,2,70
291,227,29112,5,0,0:0:0:0:
284,106,30050,2,0,P|347:64|356:78,5,70
208,302,31925,6,0,P|239:225|417:248,2,280
168,125,34737,1,0,0:0:0:0:
107,154,35675,2,0,P|123:235|304:320,2,280
295,79,38487,5,0,0:0:0:0:
158,68,39425,2,0,L|136:356,1,280
254,226,41300,2,0,P|376:206|384:227,2,140
73,181,43175,6,0,P|112:71|259:112,1,280
64,182,45050,2,0,L|358:191,1,280
120,172,46925,6,0,P|191:123|224:158,1,140
246,182,48331,2,0,P|284:250|342:237,1,140
426,130,49737,2,0,P|369:44|356:61,1,140
203,121,50675,5,0,0:0:0:0:
218,239,51612,1,0,0:0:0:0:
394,220,52550,2,0,L|279:307,1,140
95,114,54425,6,0,B|162:55|206:78|236:127|358:32,1,280
365,161,56300,2,0,B|311:206|276:206|231:182|174:164|149:173|127:192|116:241,1,280
192,133,58175,5,0,0:0:0:0:
304,242,59112,1,0,0:0:0:0:
112,232,60050,2,0,B|157:150|190:124|250:106|298:110|345:121|386:137|430:151|479:174,1,420
338,243,61925,5,0,0:0:0:0:
180,138,63331,1,0,0:0:0:0:
360,161,65206,1,0,0:0:0:0:
254,143,66378,2,0,L|211:79,1,70
104,203,67550,6,0,P|178:205|178:200,8,70
254,192,70362,5,0,0:0:0:0:
254,99,71300,1,0,0:0:0:0:
376,96,72003,2,0,L|411:162,1,70
287,194,73175,1,0,0:0:0:0:
156,181,73878,2,0,L|85:202,1,70
196,90,75050,2,0,L|279:71,6,70
258,190,76925,5,0,0:0:0:0:
151,215,77862,1,0,0:0:0:0:
337,241,78800,1,0,0:0:0:0:
363,133,79737,1,0,0:0:0:0:
207,104,80675,1,0,0:0:0:0:
155,232,81612,1,0,0:0:0:0:
46,180,82550,2,0,L|26:248,8,70
194,192,85362,5,0,0:0:0:0:
261,96,86300,1,0,0:0:0:0:
101,91,87237,1,0,0:0:0:0:
191,206,88175,1,0,0:0:0:0:
232,96,89112,2,0,P|131:70|126:98,2,140
157,197,90987,1,0,0:0:0:0:
297,167,91925,5,0,0:0:0:0:
144,160,92862,1,0,0:0:0:0:
201,235,93800,1,0,0:0:0:0:
307,278,94268,1,0,0:0:0:0:
331,220,95206,2,0,P|295:156|330:98,1,140
124,138,97081,6,0,P|182:90|254:103,1,140
342,70,98956,2,0,L|320:213,1,140
190,236,100831,2,0,P|228:156|199:116,1,140
80,85,102706,2,0,P|150:88|217:50,1,140
169,297,104581,2,0,P|320:298|326:305,1,140
385,225,106456,2,0,P|426:159|432:93,1,140
261,104,107393,5,0,0:0:0:0:
183,118,108331,1,0,0:0:0:0:
254,192,109737,1,0,0:0:0:0:
232,280,110675,6,0,P|321:213|125:127,1,420
202,216,112550,2,0,P|267:241|272:232,8,70
126,123,115128,6,0,P|273:61|378:75,1,210
299,117,116300,2,0,L|278:197,8,70
371,220,118878,2,0,P|286:273|153:255,1,210
172,169,120050,2,0,P|232:123|238:129,8,70
256,190,125206,5,0,0:0:0:0:
307,285,135050,6,0,P|148:220|373:151,3,560
417,226,141612,6,0,P|343:143|154:168,1,280
196,215,143487,1,0,0:0:0:0:
184,83,144425,2,0,P|101:185|224:280,2,280
252,79,147237,1,0,0:0:0:0:
133,137,148175,2,0,P|131:259|411:165,1,560
243,181,150987,1,0,0:0:0:0:
143,216,151925,5,0,0:0:0:0:
253,116,152862,1,0,0:0:0:0:
343,263,153800,2,0,P|386:195|242:108,1,280
256,192,155206,5,0,0:0:0:0:
371,225,155675,2,0,P|374:120|221:69,1,280
142,62,157550,2,0,B|112:136|95:158|139:183|146:214|132:230|83:254|154:335,1,280
69,247,159425,6,0,B|169:286|263:298|342:248,1,280
189,161,161300,1,0,0:0:0:0:
238,73,162237,1,0,0:0:0:0:
222,191,163175,2,0,B|173:255|261:290|216:329|139:326|53:217,2,280
254,191,165987,1,0,0:0:0:0:
418,174,166925,6,0,B|319:53|278:120|221:227|139:220,2,280
256,191,170206,5,0,0:0:0:0:
148,177,170675,2,0,P|198:73|334:296,1,560
198,194,173487,1,0,0:0:0:0:
231,173,174425,2,0,B|299:210|342:167|354:192|356:228|377:260|427:233|456:139,1,280
346,61,176300,2,0,B|289:144|272:217|107:285,1,280
256,191,178175,5,0,0:0:0:0:
112,161,179112,2,0,P|265:88|396:100,1,280
264,226,180987,1,0,0:0:0:0:
223,280,181925,2,0,B|378:207|323:136|479:159,2,280
294,142,185206,5,0,0:0:0:0:
245,131,185675,1,0,0:0:0:0:
246,207,186612,1,0,0:0:0:0:
344,137,187550,1,0,0:0:0:0:
279,95,188487,1,0,0:0:0:0:
