osu file format v14

[General]
AudioFilename: cYsmix - Moonlight Sonata.mp3
AudioLeadIn: 0
PreviewTime: 61452
Countdown: 0
SampleSet: Soft
StackLeniency: 0.6
Mode: 0
LetterboxInBreaks: 0
WidescreenStoryboard: 1

[Editor]
Bookmarks: 15050,16925,30050,31925,36968,46925,60050,61925,75050,76925,90050,91925,95675,110675,125675,140675,140679,155675,189307
DistanceSpacing: 1
BeatDivisor: 4
GridSize: 32
TimelineZoom: 1.3

[Metadata]
Title:Moonlight Sonata
TitleUnicode:Moonlight Sonata
Artist:cYsmix
ArtistUnicode:cYsmix
Creator:Okorin
Version:Normal
Source:osu!
Tags:Okoratu beethoven ludwig van mapping with rewards electro trance classical mwr
BeatmapID:1145134
BeatmapSetID:486535

[Difficulty]
HPDrainRate:4
CircleSize:3.5
OverallDifficulty:5
ApproachRate:5.5
SliderMultiplier:1.5
SliderTickRate:1

[Events]
//Background and Video events
0,0,"osu!cysmix-bg-2.jpg",0,0
//Break Periods
2,125879,133929
//Storyboard Layer 0 (Background)
//Storyboard Layer 1 (Fail)
//Storyboard Layer 2 (Pass)
//Storyboard Layer 3 (Foreground)
//Storyboard Sound Samples

[TimingPoints]
1929,468.75,4,2,0,60,1,0
1929,-125,4,2,0,60,0,0
3804,-125,4,2,0,60,0,0
5679,-125,4,2,0,60,0,0
7554,-125,4,2,0,60,0,0
9429,-111.111111111111,4,2,0,60,0,0
11304,-111.111111111111,4,2,0,60,0,0
13179,-100,4,2,0,60,0,0
14116,-100,4,2,0,60,0,0
15070,468.75,4,2,0,50,1,0
15522,-100,4,2,0,50,0,0
15991,-100,4,2,0,50,0,0
16460,-100,4,2,0,50,0,0
16929,468.75,4,2,0,85,1,0
20210,-100,4,2,0,85,0,0
20327,-100,4,2,0,55,0,0
20444,-100,4,2,0,85,0,0
20561,-100,4,2,0,55,0,0
20679,-100,4,2,0,85,0,0
23960,-100,4,2,0,85,0,0
24077,-100,4,2,0,55,0,0
24194,-100,4,2,0,85,0,0
24311,-100,4,2,0,55,0,0
24429,-100,4,2,0,90,0,0
27710,-90.9090909090909,4,2,0,90,0,0
27827,-90.9090909090909,4,2,0,65,0,0
27944,-90.9090909090909,4,2,0,90,0,0
28061,-90.9090909090909,4,2,0,65,0,0
28179,-90.9090909090909,4,2,0,90,0,0
30054,-90.9090909090909,4,2,0,90,0,0
30171,-90.9090909090909,4,2,0,70,0,0
30288,-90.9090909090909,4,2,0,90,0,0
30405,-90.9090909090909,4,2,0,70,0,0
30522,-90.9090909090909,4,2,0,90,0,0
30991,-142.857142857143,4,2,0,85,0,0
31929,-125,4,2,0,55,0,0
39429,-111.111111111111,4,2,0,75,0,0
39546,-111.111111111111,4,2,0,55,0,0
43647,-100,4,2,0,45,0,0
43764,-100,4,2,0,55,0,0
44116,-100,4,2,0,55,0,0
44233,-100,4,2,0,65,0,0
44585,-100,4,2,0,55,0,0
44702,-100,4,2,0,75,0,0
45171,-100,4,2,0,35,0,0
45639,-100,4,2,0,45,0,0
45874,-100,4,2,0,45,0,0
46108,-100,4,2,0,60,0,0
46343,-100,4,2,0,60,0,0
46577,-100,4,2,0,75,0,0
46929,-117.647058823529,4,2,0,70,0,0
58764,-117.647058823529,4,2,0,50,0,0
59233,-100,4,2,0,60,0,0
59702,-100,4,2,0,70,0,0
60076,468.75,4,2,0,70,1,0
60544,-100,4,2,0,70,0,0
61013,-82.6446280991736,4,2,0,70,0,0
61473,468.75,4,2,0,70,1,0
61929,468.75,4,2,0,70,1,1
61929,-90.9090909090909,4,2,0,70,0,1
62046,-90.9090909090909,4,2,0,70,0,0
62749,-90.9090909090909,4,2,0,70,0,0
65210,-90.9090909090909,4,2,0,90,0,0
65327,-100,4,2,0,75,0,0
65444,-100,4,2,0,90,0,0
65561,-100,4,2,0,75,0,0
65679,-90.9090909090909,4,2,0,70,0,0
68960,-90.9090909090909,4,2,0,90,0,0
69077,-100,4,2,0,75,0,0
69194,-100,4,2,0,90,0,0
69311,-100,4,2,0,75,0,0
69429,-90.9090909090909,4,2,0,70,0,0
72710,-90.9090909090909,4,2,0,90,0,0
72827,-100,4,2,0,75,0,0
72944,-100,4,2,0,90,0,0
73061,-100,4,2,0,75,0,0
73179,-90.9090909090909,4,2,0,70,0,0
75288,-100,4,2,0,70,0,0
75405,-100,4,2,0,50,0,0
75522,-90.9090909090909,4,2,0,70,0,0
75639,-100,4,2,0,50,0,0
75757,-100,4,2,0,70,0,0
75874,-90.9090909090909,4,2,0,50,0,0
75991,-100,4,2,0,70,0,0
76108,-100,4,2,0,50,0,0
76225,-100,4,2,0,70,0,0
76343,-90.9090909090909,4,2,0,50,0,0
76460,-100,4,2,0,70,0,0
76577,-100,4,2,0,50,0,0
76694,-90.9090909090909,4,2,0,70,0,0
76811,-100,4,2,0,50,0,0
76929,-86.9565217391304,4,2,0,70,0,1
77046,-86.9565217391304,4,2,0,70,0,0
80210,-100,4,2,0,90,0,0
80679,-86.9565217391304,4,2,0,70,0,0
83960,-86.9565217391304,4,2,0,90,0,0
84429,-86.9565217391304,4,2,0,70,0,0
87710,-100,4,2,0,90,0,0
88179,-86.9565217391304,4,2,0,70,0,0
90288,-100,4,2,0,70,0,0
90405,-100,4,2,0,40,0,0
90522,-83.3333333333333,4,2,0,70,0,0
90757,-100,4,2,0,70,0,0
90874,-100,4,2,0,40,0,0
90991,-86.9565217391304,4,2,0,70,0,0
91225,-100,4,2,0,70,0,0
91343,-100,4,2,0,40,0,0
91460,-90.9090909090909,4,2,0,70,0,0
91694,-100,4,2,0,70,0,0
92866,-100,4,2,0,70,0,0
93804,-100,4,2,0,70,0,0
95679,-90.9090909090909,4,2,0,70,0,0
96030,-90.9090909090909,4,2,0,70,0,0
96264,-90.9090909090909,4,2,0,70,0,0
96499,-90.9090909090909,4,2,0,70,0,0
97554,-83.3333333333333,4,2,0,70,0,1
97905,-83.3333333333333,4,2,0,70,0,1
98139,-83.3333333333333,4,2,0,60,0,1
98374,-83.3333333333333,4,2,0,70,0,1
99429,-90.9090909090909,4,2,0,70,0,0
99780,-90.9090909090909,4,2,0,70,0,0
100014,-90.9090909090909,4,2,0,70,0,0
100249,-90.9090909090909,4,2,0,70,0,0
101304,-83.3333333333333,4,2,0,70,0,1
101655,-83.3333333333333,4,2,0,70,0,1
101889,-83.3333333333333,4,2,0,60,0,1
102124,-83.3333333333333,4,2,0,70,0,1
103179,-90.9090909090909,4,2,0,70,0,0
103530,-90.9090909090909,4,2,0,70,0,0
103764,-90.9090909090909,4,2,0,70,0,0
103999,-90.9090909090909,4,2,0,70,0,0
105054,-83.3333333333333,4,2,0,70,0,1
105405,-83.3333333333333,4,2,0,70,0,1
105639,-83.3333333333333,4,2,0,60,0,1
105874,-83.3333333333333,4,2,0,70,0,1
106929,-90.9090909090909,4,2,0,70,0,0
108804,-90.9090909090909,4,2,0,70,0,0
109741,-90.9090909090909,4,2,0,70,0,0
110679,-100,4,2,0,70,0,0
112554,-100,4,2,0,70,0,0
113843,-100,4,2,0,50,0,0
113960,-100,4,2,0,80,0,0
114429,-100,4,2,0,70,0,0
116304,-100,4,2,0,70,0,0
117593,-100,4,2,0,50,0,0
117710,-100,4,2,0,80,0,0
118179,-100,4,2,0,70,0,0
120054,-100,4,2,0,70,0,0
121343,-100,4,2,0,50,0,0
121460,-100,4,2,0,80,0,0
121929,-100,4,2,0,70,0,0
123335,-100,4,2,0,70,0,0
123814,468.75,4,2,0,70,1,0
124985,-100,4,2,0,70,0,0
125444,468.75,4,2,0,70,1,0
125679,468.75,4,2,0,70,1,0
139741,-100,4,2,0,40,0,0
140679,-125,4,2,0,55,0,0
152514,-125,4,2,0,45,0,0
152983,-111.111111111111,4,2,0,55,0,0
153452,-100,4,2,0,65,0,0
153804,-100,4,2,0,75,0,0
153921,-100,4,2,0,45,0,0
155210,-100,4,2,0,70,0,0
155691,468.75,4,2,0,70,1,1
155691,-86.9565217391304,4,2,0,70,0,1
170222,-100,4,2,0,70,0,0
170691,-86.9565217391304,4,2,0,80,0,1
173972,-100,4,2,0,90,0,1
174441,-86.9565217391304,4,2,0,80,0,1
177722,-100,4,2,0,90,0,1
178191,-86.9565217391304,4,2,0,80,0,1
181472,-100,4,2,0,90,0,1
181941,-86.9565217391304,4,2,0,80,0,1
185222,-100,4,2,0,90,0,1
185691,-100,4,2,0,70,0,0
186042,-100,4,2,0,40,0,0
186159,-100,4,2,0,70,0,0
186511,-100,4,2,0,40,0,0
186628,-100,4,2,0,70,0,0
186980,-100,4,2,0,40,0,0
187097,-100,4,2,0,70,0,0
187448,-100,4,2,0,40,0,0
187566,-100,4,2,0,70,0,0
187917,-100,4,2,0,40,0,0
188034,-100,4,2,0,70,0,0
188386,-100,4,2,0,40,0,0
188503,-100,4,2,0,70,0,0
188855,-100,4,2,0,40,0,0
188972,-100,4,2,0,70,0,0

[Colours]
Combo1 : 120,182,52
Combo2 : 249,136,102
Combo3 : 220,98,63
Combo4 : 81,145,179
Combo5 : 43,101,132
Combo6 : 217,89,136
Combo7 : 182,52,101
Combo8 : 161,225,92

[HitObjects]
137,84,1929,6,0,P|155:152|134:223,1,120,4|0,3:0|1:0,0:0:0:0:
105,273,2632,2,0,B|58:261|58:261|10:267,2,90,2|2|2,0:0|0:0|1:2,0:0:0:0:
268,311,3804,6,0,P|333:327|403:300,1,120,4|0,3:0|1:0,0:0:0:0:
432,245,4507,2,0,L|427:130,2,90,2|2|2,0:0|0:0|1:2,0:0:0:0:
265,223,5679,101,4,3:0:0:0:
336,71,6147,1,0,1:0:0:0:
336,71,6382,2,0,L|234:72,2,90,2|2|2,0:0|0:0|1:2,0:0:0:0:
209,181,7554,5,4,3:0:0:0:
102,51,8022,1,0,1:0:0:0:
102,51,8257,2,0,P|107:112|105:153,2,90,2|2|2,0:0|0:0|1:2,0:0:0:0:
257,158,9429,102,0,P|239:227|252:304,1,134.999995880127,4|0,3:0|1:0,0:0:0:0:
332,330,10132,2,0,B|447:327|446:327,2,101.249996910095,2|2|2,0:0|0:0|1:2,0:0:0:0:
142,332,11304,5,4,3:0:0:0:
238,169,11772,1,0,1:0:0:0:
238,169,12007,2,0,B|243:128|243:128|232:47,2,101.249996910095,2|2|2,0:0|0:0|1:2,0:0:0:0:
84,289,13179,101,4,3:0:0:0:
50,97,13647,1,0,1:0:0:0:
50,97,13882,2,0,L|186:88,2,112.5,2|2|2,0:0|0:0|1:2,0:0:0:0:
185,200,15070,54,0,L|279:194,1,75,4|2,3:0|0:0,3:3:0:0:
282,115,15538,2,0,L|376:109,1,75,4|2,3:0|2:0,3:3:0:0:
389,34,16007,2,0,L|483:28,1,75,4|2,3:0|0:2,3:3:0:0:
500,103,16476,1,2,0:0:0:0:
458,272,16929,86,0,L|276:265,1,150,6|2,0:0|1:2,0:0:0:0:
225,260,17632,1,2,0:0:0:0:
246,180,17866,2,0,P|261:134|256:20,1,150,4|0,3:0|1:0,0:0:0:0:
102,84,18804,6,0,B|131:172|52:153|92:258,1,150,6|0,3:0|1:0,0:0:0:0:
132,293,19507,1,2,0:0:0:0:
195,240,19741,1,4,3:0:0:0:
346,305,20210,2,0,P|395:315|435:311,1,75,2|2,1:2|0:0,0:0:0:0:
459,241,20679,102,0,L|449:73,1,150,6|0,3:0|1:0,0:0:0:0:
389,34,21382,1,2,0:0:0:0:
314,68,21616,2,0,P|277:91|157:71,1,150,4|0,3:0|1:0,0:0:0:0:
84,222,22554,6,0,P|121:199|241:219,1,150,6|0,3:0|1:0,0:0:0:0:
281,266,23257,1,2,0:0:0:0:
281,348,23491,1,4,3:3:0:0:
400,234,23960,2,0,L|391:148,1,75,2|2,1:2|0:0,0:0:0:0:
426,84,24429,101,10,1:2:0:0:
267,40,24897,1,10,1:2:0:0:
258,122,25132,1,2,0:0:0:0:
247,203,25366,1,10,1:2:0:0:
117,100,25835,1,10,1:2:0:0:
92,263,26304,5,10,1:2:0:0:
251,307,26772,1,10,1:2:0:0:
260,225,27007,1,2,0:0:0:0:
271,144,27241,1,10,1:2:0:0:
401,247,27710,2,0,L|396:342,1,82.5000025177003,10|2,1:2|0:0,0:0:0:0:
481,297,28179,102,0,L|490:110,1,165.000005035401,10|10,1:2|1:2,0:0:0:0:
427,64,28882,1,2,0:0:0:0:
343,98,29116,2,0,P|301:108|242:94,1,82.5000025177003,10|2,1:2|0:0,0:0:0:0:
183,56,29585,2,0,P|130:44|74:60,1,82.5000025177003,10|2,1:2|0:0,0:0:0:0:
39,113,30054,22,2,B|94:235|-30:208|5:329|111:373|187:293|144:225,1,330.000010070801,2|2,1:2|0:0,0:0:0:0:
298,39,31929,54,0,P|343:79|283:175,1,180,2|2,0:0|0:0,0:0:0:0:
214,172,32866,2,0,P|163:106|214:39,1,180,2|2,0:1|0:0,0:0:0:0:
298,39,33804,2,0,L|480:42,1,180,2|2,0:1|0:0,0:0:0:0:
464,124,34741,2,0,B|444:171|444:171|454:267,1,120,2|2,0:1|0:0,0:0:0:0:
298,345,35679,6,0,P|343:305|283:209,1,180,2|2,0:1|0:0,0:0:0:0:
214,212,36616,2,0,P|163:278|214:345,1,180,2|2,0:1|0:0,0:0:0:0:
298,345,37554,2,0,L|480:342,1,180,2|2,0:1|0:0,0:0:0:0:
504,261,38491,1,0,0:0:0:0:
471,95,38960,1,2,0:0:0:0:
285,121,39429,102,0,L|128:109,1,134.999995880127,6|10,3:0|1:2,0:0:0:0:
52,272,40366,2,0,L|209:284,1,134.999995880127,2|10,1:0|1:2,0:0:0:0:
280,291,41069,1,2,0:0:0:0:
280,291,41304,6,0,P|283:233|355:178,1,134.999995880127,2|8,1:0|1:2,0:0:0:0:
449,30,42241,2,0,P|498:73|500:152,1,134.999995880127,8|8,1:2|1:2,0:0:0:0:
412,118,42944,1,2,0:0:0:0:
412,118,43179,102,0,B|355:101|355:101|272:104,1,134.999995880127,8|8,1:2|1:2,0:0:0:0:
133,261,44116,2,0,L|135:362,1,75,8|2,1:2|1:3,0:0:0:0:
218,304,44585,2,0,L|343:293,1,112.5,8|2,1:2|1:0,0:0:0:0:
418,278,45171,5,6,1:3:0:0:
496,133,45639,1,6,1:3:0:0:
376,18,46108,1,6,1:3:0:0:
215,58,46577,2,0,L|223:197,1,112.5,6|2,1:3|1:2,0:0:0:0:
182,336,47397,6,0,P|132:351|46:317,1,127.50000243187,2|2,1:2|1:2,0:0:0:0:
21,257,48100,1,0,0:0:0:0:
67,188,48335,2,0,P|84:127|82:103,1,63.7500012159348,2|2,1:2|0:0,0:0:0:0:
67,45,48804,6,0,L|208:40,1,127.50000243187,2|2,1:2|1:2,0:0:0:0:
341,116,49741,2,0,L|482:111,1,127.50000243187,2|2,1:2|1:2,0:0:0:0:
500,187,50444,1,2,0:0:0:0:
500,187,50679,102,0,P|469:219|463:309,1,127.50000243187,2|2,1:2|1:2,0:0:0:0:
309,368,51616,2,0,P|321:301|277:236,1,127.50000243187,2|2,1:2|1:2,0:0:0:0:
213,268,52319,1,2,0:0:0:0:
213,268,52554,6,0,P|145:282|90:223,1,127.50000243187,2|2,1:2|1:2,0:0:0:0:
63,88,53491,2,0,P|131:74|186:133,1,127.50000243187,2|2,1:2|1:2,0:0:0:0:
254,254,54429,101,2,1:2:0:0:
334,109,54897,2,0,P|386:75|445:91,1,127.50000243187,2|2,1:2|1:2,0:0:0:0:
505,148,55600,1,2,0:0:0:0:
461,218,55835,2,0,P|443:250|443:301,1,63.7500012159348,2|2,1:2|0:0,0:0:0:0:
364,312,56304,6,0,L|356:158,1,127.50000243187,2|2,1:2|1:2,0:0:0:0:
209,109,57241,2,0,L|217:263,1,127.50000243187,2|2,1:2|1:2,0:0:0:0:
179,310,57944,1,2,0:0:0:0:
179,310,58179,102,0,B|115:283|100:322|28:302,1,127.50000243187,2|2,1:2|1:2,0:0:0:0:
44,141,59116,2,0,P|53:78|122:52,1,127.50000243187,2|2,1:2|0:2,0:0:0:0:
299,79,60076,6,0,L|296:242,2,150,2|2|2,0:0|0:0|0:0,0:0:0:0:
482,25,61473,37,4,1:0:0:0:
439,112,61707,1,6,1:1:0:0:
475,206,61929,86,2,B|487:264|487:264|474:376,1,165.000005035401,4|10,1:2|1:2,0:0:0:0:
314,284,62866,2,0,L|218:288,1,82.5000025177003,0|0,1:0|0:0,0:0:0:0:
153,334,63335,1,8,1:2:0:0:
38,192,63804,6,2,P|30:133|132:63,1,165.000005035401,2|8,1:0|1:2,0:0:0:0:
281,55,64741,1,0,1:2:0:0:
273,236,65210,2,0,L|268:341,1,82.5000025177003,10|2,1:2|0:0,0:0:0:0:
348,362,65679,102,0,L|355:170,1,165.000005035401,2|8,1:0|1:2,0:0:0:0:
319,18,66616,2,0,L|203:41,1,82.5000025177003,0|0,1:0|0:0,0:0:0:0:
148,49,67085,1,8,1:2:0:0:
118,228,67554,6,0,P|142:286|96:371,1,165.000005035401,0|8,1:0|1:2,0:0:0:0:
11,337,68257,1,2,0:0:0:0:
28,248,68491,2,0,L|43:150,1,82.5000025177003,0|2,1:0|0:0,0:0:0:0:
95,94,68960,2,0,L|179:107,1,82.5000025177003,10|2,1:2|0:0,0:0:0:0:
232,183,69429,102,0,B|302:191|302:191|324:175|324:175|425:182,1,165.000005035401,2|8,1:0|1:2,0:0:0:0:
460,347,70366,2,0,P|407:367|358:355,1,82.5000025177003,0|0,1:0|0:0,0:0:0:0:
300,324,70835,1,8,1:2:0:0:
457,232,71304,6,0,B|488:188|488:188|474:62,1,165.000005035401,2|8,1:0|1:2,0:0:0:0:
303,18,72241,1,0,1:0:0:0:
192,161,72710,2,0,P|156:184|90:192,1,82.5000025177003,10|2,1:2|0:0,0:0:0:0:
53,128,73179,102,2,P|90:92|208:75,1,165.000005035401,2|8,1:0|1:2,0:0:0:0:
365,143,74116,2,0,P|416:156|472:148,1,82.5000025177003,0|0,1:0|0:0,0:0:0:0:
509,89,74585,1,8,1:2:0:0:
336,33,75054,6,0,L|172:41,2,165.000005035401,0|8|0,1:0|1:2|1:0,0:0:0:0:
431,187,76460,1,8,1:0:0:0:
298,323,76929,70,0,P|248:347|130:305,1,172.500003290176,0|8,1:0|1:2,0:0:0:0:
109,128,77866,2,0,L|143:22,1,86.2500016450882,2|0,1:0|0:0,0:0:0:0:
230,46,78335,2,2,L|256:128,1,86.2500016450882,10|2,1:2|0:0,0:0:0:0:
333,183,78804,6,0,P|314:266|340:375,1,172.500003290176,2|8,1:0|1:2,0:0:0:0:
491,252,79741,1,2,1:0:0:0:
393,89,80210,1,10,1:2:0:0:
302,117,80444,1,2,0:0:0:0:
223,62,80679,102,0,P|125:33|59:87,1,172.500003290176,2|8,1:0|1:2,0:0:0:0:
58,257,81616,2,0,L|161:247,1,86.2500016450882,2|2,1:1|0:0,0:0:0:0:
233,281,82085,2,0,L|249:394,1,86.2500016450882,10|2,1:2|0:0,0:0:0:0:
340,371,82554,6,0,L|316:201,1,172.500003290176,2|8,1:0|1:2,0:0:0:0:
426,45,83491,1,2,1:0:0:0:
490,223,83960,1,10,1:2:0:0:
431,297,84194,1,2,0:0:0:0:
392,210,84429,102,0,B|355:118|429:136|380:26,1,172.500003290176,2|8,1:0|1:2,0:0:0:0:
216,207,85366,2,0,P|268:186|329:206,1,86.2500016450882,2|2,1:1|0:0,0:0:0:0:
392,210,85835,2,0,P|445:232|500:219,1,86.2500016450882,10|2,1:2|0:0,0:0:0:0:
494,137,86304,6,0,B|435:73|435:73|346:123,1,172.500003290176,2|8,1:0|1:2,0:0:0:0:
236,258,87241,1,2,1:0:0:0:
159,84,87710,1,10,1:2:0:0:
74,41,87944,1,2,0:0:0:0:
47,132,88179,102,0,L|57:304,1,172.500003290176,2|8,1:0|1:2,0:0:0:0:
173,154,89116,2,0,P|220:114|337:123,1,172.500003290176,2|10,1:0|1:2,0:0:0:0:
491,211,90054,6,0,B|446:273|446:273|451:376,2,172.500003290176,2|8|0,1:0|1:2|1:0,0:0:0:0:
498,51,91460,1,0,1:0:0:0:
350,99,91929,70,0,L|185:93,1,150,2|2,0:0|0:0,0:0:0:0:
76,178,92866,2,0,P|92:239|88:352,1,150,2|2,0:0|0:0,0:0:0:0:
240,355,93804,5,2,0:0:0:0:
278,210,94272,1,2,0:0:0:0:
316,65,94741,1,2,0:0:0:0:
184,137,95210,69,8,1:0:0:0:
348,155,95679,102,0,B|428:165|428:165|468:262,1,165.000005035401,6|8,1:2|1:0,0:0:0:0:
314,350,96616,1,0,1:0:0:0:
132,359,97085,2,0,P|119:291|130:221,1,123.75000377655,8|0,1:0|0:0,0:0:0:0:
164,207,97554,22,0,B|193:164|193:164|184:31,1,179.999994506836,2|8,1:2|1:0,0:0:0:0:
381,16,98491,1,0,1:0:0:0:
343,210,98960,1,8,1:0:0:0:
389,296,99194,1,2,0:0:0:0:
309,340,99429,54,0,P|259:324|136:328,1,165.000005035401,2|8,1:2|1:0,0:0:0:0:
32,184,100366,1,0,1:0:0:0:
134,34,100835,2,0,L|268:43,1,123.75000377655,8|0,1:0|0:0,0:0:0:0:
291,78,101304,38,0,B|268:122|268:122|282:275,1,179.999994506836,2|8,1:2|1:0,0:0:0:0:
451,351,102241,1,0,1:0:0:0:
496,158,102710,1,8,1:0:0:0:
462,64,102944,1,2,0:0:0:0:
375,92,103179,38,0,B|314:110|314:110|201:91,1,165.000005035401,0|8,1:0|1:0,0:0:0:0:
52,175,104116,1,0,1:0:0:0:
182,301,104585,2,0,P|235:320|310:303,1,123.75000377655,8|0,1:0|0:0,0:0:0:0:
339,277,105054,86,0,L|333:77,1,179.999994506836,2|8,1:2|1:0,0:0:0:0:
147,30,105991,1,0,1:0:0:0:
32,191,106460,1,8,1:0:0:0:
59,285,106694,1,2,0:0:0:0:
134,234,106929,102,0,B|175:213|175:213|291:237,1,165.000005035401,0|8,1:0|1:0,0:0:0:0:
464,291,107866,1,0,1:0:0:0:
434,111,108335,2,0,P|402:58|323:43,1,123.75000377655,8|2,1:0|0:0,0:0:0:0:
301,49,108804,53,2,1:0:0:0:
317,229,109272,1,10,1:0:0:0:
179,109,109741,1,2,1:0:0:0:
186,290,110210,1,10,1:0:0:0:
90,155,110679,6,0,P|75:90|152:19,1,150,10|8,1:2|1:0,0:0:0:0:
286,47,111616,2,0,L|294:213,1,150,8|8,1:2|1:0,0:0:0:0:
394,327,112554,6,0,P|430:275|414:202,1,112.5,10|2,1:2|0:0,0:0:0:0:
443,190,113022,2,0,L|288:197,1,150,10|8,1:0|1:2,0:0:0:0:
187,69,113960,2,0,P|142:52|88:63,1,75,8|2,1:0|0:0,0:0:0:0:
41,92,114429,86,0,L|49:269,1,150,10|8,1:2|1:0,0:0:0:0:
173,348,115366,1,8,1:2:0:0:
320,274,115835,1,8,1:0:0:0:
474,338,116304,38,0,B|454:296|454:296|466:207,1,112.5,10|2,1:2|0:0,0:0:0:0:
468,189,116772,2,0,L|312:176,1,150,10|8,1:0|1:2,0:0:0:0:
179,266,117710,2,0,P|139:278|82:261,1,75,8|2,1:0|0:0,0:0:0:0:
84,196,118179,86,0,L|95:31,1,150,10|8,1:2|1:0,0:0:0:0:
256,15,119116,2,0,L|269:190,1,150,8|8,1:2|1:0,0:0:0:0:
376,40,120054,6,0,P|420:27|497:42,1,112.5,10|2,1:2|0:0,0:0:0:0:
503,72,120522,2,0,B|485:113|485:113|491:240,1,150,10|8,1:0|1:2,0:0:0:0:
328,180,121460,2,0,P|287:173|234:188,1,75,8|2,1:0|0:0,0:0:0:0:
171,181,121929,6,0,L|180:343,1,150,10|8,1:2|1:0,0:0:0:0:
332,270,122866,1,8,1:2:0:0:
310,106,123335,1,8,1:0:0:0:
145,67,123814,102,0,B|106:85|106:85|-10:64,2,150,0|8|0,1:2|1:2|1:0,0:0:0:0:
219,32,124985,1,2,1:0:0:0:
217,114,125220,1,12,1:0:0:0:
362,47,125679,101,2,1:2:0:0:
256,192,135054,12,2,139741,0:0:0:0:
298,345,140679,70,0,P|343:305|283:209,1,180,2|2,0:0|0:0,0:0:0:0:
214,212,141616,2,0,P|163:278|214:345,1,180,2|2,0:1|0:0,0:0:0:0:
298,345,142554,2,0,L|480:342,1,180,2|2,0:1|0:0,0:0:0:0:
464,260,143491,2,0,B|444:213|444:213|454:117,1,120,2|2,0:1|0:0,0:0:0:0:
298,39,144429,6,0,P|343:79|283:175,1,180,2|2,0:1|0:0,0:0:0:0:
214,172,145366,2,0,P|163:106|214:39,1,180,2|2,0:1|0:0,0:0:0:0:
298,39,146304,2,0,L|480:42,1,180,2|2,0:1|0:0,0:0:0:0:
504,123,147241,1,0,0:0:0:0:
408,267,147710,1,2,0:0:0:0:
259,190,148179,102,0,P|225:159|99:189,1,180,6|2,3:0|0:0,0:0:0:0:
87,264,149116,2,0,L|284:274,1,180,2|2,1:0|0:0,0:0:0:0:
344,240,150054,2,0,L|354:121,1,120,2|8,1:0|1:2,0:0:0:0:
208,38,150991,2,0,L|198:157,1,120,8|8,1:2|1:2,0:0:0:0:
183,326,151929,6,0,P|123:356|41:274,1,180,8|2,1:2|1:3,0:0:0:0:
70,213,152866,2,0,B|101:119|36:132|72:24,1,180,8|2,1:2|1:3,0:0:0:0:
154,75,153804,102,0,B|334:123|247:-3|457:49,1,300,2|0,0:1|0:0,0:0:0:0:
407,262,155210,85,4,1:0:0:0:
318,223,155444,1,6,1:1:0:0:
259,299,155691,102,0,P|203:336|104:309,1,172.500003290176,6|10,1:0|1:2,0:0:0:0:
75,230,156394,1,2,0:0:0:0:
137,170,156628,2,0,B|159:131|159:131|142:-3,1,172.500003290176,2|10,1:2|1:2,0:0:0:0:
312,38,157566,85,2,1:0:0:0:
397,44,157800,1,2,0:0:0:0:
453,108,158034,2,0,L|439:204,1,86.2500016450882,10|2,1:2|0:0,0:0:0:0:
398,268,158503,2,0,B|290:233|328:300|212:272,1,172.500003290176,0|10,1:0|1:2,0:0:0:0:
117,145,159441,22,0,B|225:180|187:113|303:141,1,172.500003290176,2|10,1:0|1:2,0:0:0:0:
363,171,160144,1,2,0:0:0:0:
435,124,160378,2,0,P|456:65|368:1,1,172.500003290176,2|10,1:2|1:2,0:0:0:0:
363,171,161316,86,0,L|375:358,1,172.500003290176,2|8,1:0|1:2,0:0:0:0:
287,348,162019,1,2,0:0:0:0:
234,279,162253,2,0,P|191:230|71:329,1,258.750004935265,2|2,1:2|0:0,0:0:0:0:
154,306,163191,22,0,B|164:210|164:210|133:121,1,172.500003290176,2|10,1:0|1:2,0:0:0:0:
106,58,163894,1,2,0:0:0:0:
192,54,164128,2,0,L|388:52,1,172.500003290176,2|8,1:2|1:2,0:0:0:0:
470,189,165066,86,0,L|274:191,1,172.500003290176,2|10,1:0|1:2,0:0:0:0:
211,194,165769,1,2,0:0:0:0:
152,256,166003,2,0,P|76:247|106:96,1,258.750004935265,2|0,1:2|0:0,0:0:0:0:
172,73,166941,22,0,B|234:79|234:79|266:66|266:66|351:73,1,172.500003290176,2|8,1:0|1:2,0:0:0:0:
427,71,167644,1,2,0:0:0:0:
390,148,167878,2,0,P|362:220|382:336,1,172.500003290176,2|8,1:2|1:2,0:0:0:0:
493,190,168816,85,2,1:0:0:0:
492,103,169050,1,2,0:0:0:0:
429,44,169284,2,0,L|314:50,1,86.2500016450882,10|2,1:2|0:0,0:0:0:0:
266,88,169753,2,0,P|292:148|221:250,1,172.500003290176,0|12,1:0|1:0,0:0:0:0:
103,334,170691,85,2,1:0:0:0:
101,161,171159,1,10,1:2:0:0:
247,70,171628,2,0,B|279:165|210:143|252:256,1,172.500003290176,2|10,1:2|1:2,0:0:0:0:
399,316,172566,54,0,L|487:295,1,86.2500016450882,2|2,1:0|0:0,0:0:0:0:
449,216,173034,2,0,L|433:98,1,86.2500016450882,10|2,1:2|0:0,0:0:0:0:
391,57,173503,2,0,B|305:93|305:18|201:62,1,172.500003290176,0|10,1:0|1:2,0:0:0:0:
140,79,174206,1,2,0:0:0:0:
182,154,174441,54,0,P|199:213|145:305,1,172.500003290176,2|10,1:0|1:2,0:0:0:0:
60,311,175144,1,2,0:0:0:0:
46,226,175378,2,0,L|61:43,1,172.500003290176,2|8,1:2|1:2,0:0:0:0:
229,19,176316,53,2,1:0:0:0:
395,61,176784,1,8,1:2:0:0:
282,191,177253,2,0,P|248:255|290:361,1,172.500003290176,2|10,1:2|1:2,0:0:0:0:
359,363,177956,1,2,0:0:0:0:
418,299,178191,54,0,B|401:206|463:233|441:118,1,172.500003290176,2|10,1:0|1:2,0:0:0:0:
424,48,178894,1,2,0:0:0:0:
339,62,179128,2,0,B|244:81|276:19|166:35,1,172.500003290176,2|8,1:2|1:2,0:0:0:0:
36,138,180066,53,2,1:0:0:0:
56,309,180534,1,10,1:2:0:0:
179,188,181003,2,0,P|232:169|337:219,1,172.500003290176,2|10,1:2|1:2,0:0:0:0:
387,281,181706,1,2,0:0:0:0:
449,220,181941,53,2,1:0:0:0:
466,48,182409,1,8,1:2:0:0:
297,85,182878,2,0,B|204:105|222:47|106:80,1,172.500003290176,2|8,1:2|1:2,0:0:0:0:
13,204,183816,54,0,P|33:261|32:307,1,86.2500016450882,2|2,1:0|0:0,0:0:0:0:
31,372,184284,2,0,L|137:356,1,86.2500016450882,10|2,1:2|0:0,0:0:0:0:
179,300,184753,2,2,B|275:315|242:259|372:286,1,172.500003290176,2|4,1:2|1:0,0:0:0:0:
423,321,185456,1,6,1:1:0:0:
454,240,185691,37,2,0:0:0:0:
415,97,186159,1,2,0:0:0:0:
294,159,186628,1,2,0:0:0:0:
217,47,187097,1,2,0:0:0:0:
113,134,187566,6,0,L|118:300,1,150,2|2,0:0|0:0,0:0:0:0:
240,338,188503,2,0,L|235:172,1,150,2|2,0:0|0:0,0:0:0:0:
