osu file format v14

[General]
AudioFilename: cYsmix - Moonlight Sonata.mp3
AudioLeadIn: 0
PreviewTime: 61452
Countdown: 0
SampleSet: Soft
StackLeniency: 0.6
Mode: 0
LetterboxInBreaks: 0
WidescreenStoryboard: 1

[Editor]
Bookmarks: 15050,16925,30050,31925,36968,46925,60050,61925,75050,76925,90050,91925,95675,110675,125675,140675,155675,189307
DistanceSpacing: 1.2
BeatDivisor: 4
GridSize: 32
TimelineZoom: 1.3

[Metadata]
Title:Moonlight Sonata
TitleUnicode:Moonlight Sonata
Artist:cYsmix
ArtistUnicode:cYsmix
Creator:Okorin
Version:Intermediate
Source:osu!
Tags:Okoratu beethoven ludwig van mapping with rewards electro trance classical mwr
BeatmapID:1143704
BeatmapSetID:486535

[Difficulty]
HPDrainRate:4
CircleSize:3.7
OverallDifficulty:5.5
ApproachRate:7
SliderMultiplier:1.8
SliderTickRate:1

[Events]
//Background and Video events
0,0,"osu!cysmix-bg-2.jpg",0,0
//Break Periods
2,125878,134154
//Storyboard Layer 0 (Background)
//Storyboard Layer 1 (Fail)
//Storyboard Layer 2 (Pass)
//Storyboard Layer 3 (Foreground)
//Storyboard Sound Samples

[TimingPoints]
1929,468.75,4,2,0,60,1,0
1929,-166.666666666667,4,2,0,60,0,0
3804,-153.846153846154,4,2,0,60,0,0
5679,-142.857142857143,4,2,0,60,0,0
7554,-133.333333333333,4,2,0,60,0,0
9429,-125,4,2,0,60,0,0
11304,-117.647058823529,4,2,0,60,0,0
13179,-111.111111111111,4,2,0,60,0,0
14585,-105.263157894737,4,2,0,60,0,0
15070,468.75,4,2,0,50,1,0
15070,-142.857142857143,4,2,0,50,0,0
15522,-125,4,2,0,50,0,0
15991,-111.111111111111,4,2,0,50,0,0
16460,-142.857142857143,4,2,0,50,0,0
16929,468.75,4,2,0,85,1,0
20210,-90.9090909090909,4,2,0,85,0,0
20327,-90.9090909090909,4,2,0,55,0,0
20444,-90.9090909090909,4,2,0,85,0,0
20561,-90.9090909090909,4,2,0,55,0,0
20679,-100,4,2,0,85,0,0
23960,-90.9090909090909,4,2,0,85,0,0
24077,-90.9090909090909,4,2,0,55,0,0
24194,-90.9090909090909,4,2,0,85,0,0
24311,-90.9090909090909,4,2,0,55,0,0
24429,-90.9090909090909,4,2,0,90,0,0
27710,-82.6446280991736,4,2,0,90,0,0
27827,-82.6446280991736,4,2,0,65,0,0
27944,-82.6446280991736,4,2,0,90,0,0
28061,-82.6446280991736,4,2,0,65,0,0
28179,-90.9090909090909,4,2,0,90,0,0
30054,-90.9090909090909,4,2,0,90,0,0
30171,-90.9090909090909,4,2,0,70,0,0
30288,-90.9090909090909,4,2,0,90,0,0
30405,-90.9090909090909,4,2,0,70,0,0
30522,-90.9090909090909,4,2,0,90,0,0
30991,-142.857142857143,4,2,0,85,0,0
31929,-166.666666666667,4,2,0,55,0,0
39429,-142.857142857143,4,2,0,75,0,0
39546,-142.857142857143,4,2,0,55,0,0
43647,-125,4,2,0,45,0,0
43764,-100,4,2,0,55,0,0
44116,-111.111111111111,4,2,0,55,0,0
44233,-100,4,2,0,65,0,0
44585,-100,4,2,0,55,0,0
44702,-100,4,2,0,75,0,0
45171,-100,4,2,0,35,0,0
45639,-100,4,2,0,45,0,0
45874,-95.2380952380952,4,2,0,45,0,0
46108,-95.2380952380952,4,2,0,60,0,0
46343,-90.9090909090909,4,2,0,60,0,0
46577,-90.9090909090909,4,2,0,75,0,0
46929,-117.647058823529,4,2,0,70,0,0
58764,-117.647058823529,4,2,0,50,0,0
59233,-100,4,2,0,60,0,0
59702,-90.9090909090909,4,2,0,70,0,0
60076,468.75,4,2,0,70,1,0
60544,-90.9090909090909,4,2,0,70,0,0
61013,-82.6446280991736,4,2,0,70,0,0
61473,468.75,4,2,0,70,1,0
61473,-62.5,4,2,0,70,0,0
61929,468.75,4,2,0,70,1,1
61929,-90.9090909090909,4,2,0,70,0,1
62046,-90.9090909090909,4,2,0,70,0,0
62749,-90.9090909090909,4,2,0,70,0,0
65210,-76.9230769230769,4,2,0,90,0,0
65327,-100,4,2,0,75,0,0
65444,-100,4,2,0,90,0,0
65561,-100,4,2,0,75,0,0
65679,-90.9090909090909,4,2,0,70,0,0
68960,-76.9230769230769,4,2,0,90,0,0
69077,-100,4,2,0,75,0,0
69194,-100,4,2,0,90,0,0
69311,-100,4,2,0,75,0,0
69429,-86.9565217391304,4,2,0,70,0,0
72710,-76.9230769230769,4,2,0,90,0,0
72827,-100,4,2,0,75,0,0
72944,-100,4,2,0,90,0,0
73061,-100,4,2,0,75,0,0
73179,-86.9565217391304,4,2,0,70,0,0
75288,-100,4,2,0,70,0,0
75405,-100,4,2,0,50,0,0
75522,-86.9565217391304,4,2,0,70,0,0
75639,-100,4,2,0,50,0,0
75757,-100,4,2,0,70,0,0
75874,-86.9565217391304,4,2,0,50,0,0
75991,-86.9565217391304,4,2,0,70,0,0
76108,-100,4,2,0,50,0,0
76225,-100,4,2,0,70,0,0
76343,-76.9230769230769,4,2,0,50,0,0
76460,-100,4,2,0,70,0,0
76577,-100,4,2,0,50,0,0
76694,-62.5,4,2,0,70,0,0
76811,-100,4,2,0,50,0,0
76929,-83.3333333333333,4,2,0,70,0,1
77046,-83.3333333333333,4,2,0,70,0,0
80210,-83.3333333333333,4,2,0,90,0,0
80679,-83.3333333333333,4,2,0,70,0,0
83960,-76.9230769230769,4,2,0,90,0,0
84429,-80,4,2,0,70,0,0
87710,-80,4,2,0,90,0,0
88179,-80,4,2,0,70,0,0
90288,-100,4,2,0,70,0,0
90405,-100,4,2,0,40,0,0
90522,-80,4,2,0,70,0,0
90757,-100,4,2,0,70,0,0
90874,-100,4,2,0,40,0,0
90991,-86.9565217391304,4,2,0,70,0,0
91225,-100,4,2,0,70,0,0
91343,-100,4,2,0,40,0,0
91460,-90.9090909090909,4,2,0,70,0,0
91694,-133.333333333333,4,2,0,70,0,0
92866,-114.942528735632,4,2,0,70,0,0
93804,-100,4,2,0,70,0,0
95679,-90.9090909090909,4,2,0,70,0,0
96030,-100,4,2,0,70,0,0
96264,-90.9090909090909,4,2,0,70,0,0
96499,-83.3333333333333,4,2,0,70,0,0
97554,-83.3333333333333,4,2,0,70,0,1
97905,-90.9090909090909,4,2,0,70,0,1
98139,-83.3333333333333,4,2,0,60,0,1
98374,-62.5,4,2,0,70,0,1
99429,-90.9090909090909,4,2,0,70,0,0
99780,-100,4,2,0,70,0,0
100014,-90.9090909090909,4,2,0,70,0,0
100249,-83.3333333333333,4,2,0,70,0,0
101304,-83.3333333333333,4,2,0,70,0,1
101655,-90.9090909090909,4,2,0,70,0,1
101889,-83.3333333333333,4,2,0,60,0,1
102124,-62.5,4,2,0,70,0,1
103179,-90.9090909090909,4,2,0,70,0,0
103530,-100,4,2,0,70,0,0
103764,-90.9090909090909,4,2,0,70,0,0
103999,-83.3333333333333,4,2,0,70,0,0
105054,-83.3333333333333,4,2,0,70,0,1
105405,-90.9090909090909,4,2,0,70,0,1
105639,-83.3333333333333,4,2,0,60,0,1
105874,-62.5,4,2,0,70,0,1
106929,-90.9090909090909,4,2,0,70,0,0
108804,-83.3333333333333,4,2,0,70,0,0
109741,-90.9090909090909,4,2,0,70,0,0
110679,-86.9565217391304,4,2,0,70,0,0
111968,-86.9565217391304,4,2,0,90,0,0
112085,-86.9565217391304,4,2,0,70,0,0
112554,-90.9090909090909,4,2,0,70,0,0
113843,-100,4,2,0,50,0,0
113960,-76.9230769230769,4,2,0,80,0,0
114429,-86.9565217391304,4,2,0,70,0,0
115718,-86.9565217391304,4,2,0,90,0,0
115835,-86.9565217391304,4,2,0,70,0,0
116304,-90.9090909090909,4,2,0,70,0,0
117593,-100,4,2,0,50,0,0
117710,-76.9230769230769,4,2,0,80,0,0
118179,-86.9565217391304,4,2,0,70,0,0
119468,-86.9565217391304,4,2,0,90,0,0
119585,-86.9565217391304,4,2,0,70,0,0
120054,-90.9090909090909,4,2,0,70,0,0
121343,-100,4,2,0,50,0,0
121460,-76.9230769230769,4,2,0,80,0,0
121929,-90.9090909090909,4,2,0,70,0,0
123335,-100,4,2,0,70,0,0
123814,468.75,4,2,0,70,1,0
124985,-83.3333333333333,4,2,0,70,0,0
125444,468.75,4,2,0,70,1,0
125444,-133.333333333333,4,2,0,70,0,0
125679,468.75,4,2,0,70,1,0
139741,-100,4,2,0,40,0,0
140679,-142.857142857143,4,2,0,55,0,0
152514,-125,4,2,0,45,0,0
152983,-111.111111111111,4,2,0,55,0,0
153452,-100,4,2,0,65,0,0
153804,-100,4,2,0,75,0,0
153921,-100,4,2,0,45,0,0
155210,-62.5,4,2,0,70,0,0
155691,468.75,4,2,0,70,1,1
155691,-86.9565217391304,4,2,0,70,0,1
170222,-100,4,2,0,70,0,0
170691,-86.9565217391304,4,2,0,80,0,1
173972,-76.9230769230769,4,2,0,90,0,1
174441,-86.9565217391304,4,2,0,80,0,1
177722,-76.9230769230769,4,2,0,90,0,1
178191,-86.9565217391304,4,2,0,80,0,1
181472,-76.9230769230769,4,2,0,90,0,1
181941,-86.9565217391304,4,2,0,80,0,1
185222,-62.5,4,2,0,90,0,1
185691,-100,4,2,0,70,0,0
186042,-100,4,2,0,40,0,0
186159,-105.263157894737,4,2,0,70,0,0
186511,-100,4,2,0,40,0,0
186628,-111.111111111111,4,2,0,70,0,0
186980,-100,4,2,0,40,0,0
187097,-117.647058823529,4,2,0,70,0,0
187448,-100,4,2,0,40,0,0
187566,-125,4,2,0,70,0,0
187917,-100,4,2,0,40,0,0
188034,-133.333333333333,4,2,0,70,0,0
188386,-100,4,2,0,40,0,0
188503,-142.857142857143,4,2,0,70,0,0
188855,-100,4,2,0,40,0,0
188972,-153.846153846154,4,2,0,70,0,0

[Colours]
Combo1 : 120,182,52
Combo2 : 249,136,102
Combo3 : 220,98,63
Combo4 : 81,145,179
Combo5 : 43,101,132
Combo6 : 217,89,136
Combo7 : 182,52,101
Combo8 : 161,225,92

[HitObjects]
168,233,1929,6,0,P|138:177|148:117,1,107.999996704102,4|0,3:0|1:0,0:0:0:0:
178,53,2632,2,0,L|251:57,1,53.9999983520508,2|4,0:0|3:0,0:0:0:0:
266,62,2983,2,0,L|264:122,1,53.9999983520508,2|0,0:0|0:0,0:0:0:0:
296,131,3335,2,0,L|294:191,1,53.9999983520508,2|2,1:2|0:0,0:0:0:0:
378,230,3804,6,0,P|380:148|421:113,1,116.999994644165,4|0,3:0|1:0,0:0:0:0:
457,197,4507,2,0,L|453:271,1,58.4999973220826,2|4,0:0|3:0,0:0:0:0:
478,285,4858,2,0,L|474:359,1,58.4999973220826,2|0,0:0|0:0,0:0:0:0:
442,363,5210,2,0,L|371:350,1,58.4999973220826,2|2,1:2|0:0,0:0:0:0:
295,297,5679,102,0,P|256:326|169:302,1,125.999996154785,4|0,3:0|1:0,0:0:0:0:
105,255,6382,2,0,L|112:176,1,62.9999980773926,2|4,0:0|3:0,0:0:0:0:
158,177,6733,2,0,L|153:104,1,62.9999980773926,2|0,0:0|0:0,0:0:0:0:
110,87,7085,2,0,L|117:8,1,62.9999980773926,2|2,1:2|0:0,0:0:0:0:
238,52,7554,6,0,B|296:55|296:55|316:73|316:73|379:76,1,135.000005149842,4|0,3:0|1:0,0:0:0:0:
474,118,8257,2,0,P|452:146|452:197,1,67.5000025749208,2|4,0:0|3:0,0:0:0:0:
476,213,8608,2,0,P|470:245|449:271,1,67.5000025749208,2|0,0:0|0:0,0:0:0:0:
402,285,8960,2,0,B|370:273|370:273|319:272,1,67.5000025749208,2|2,1:2|0:0,0:0:0:0:
240,319,9429,102,0,L|245:158,1,144,4|0,3:0|1:0,0:0:0:0:
195,89,10132,2,0,P|165:113|111:120,1,72,2|4,0:0|3:0,0:0:0:0:
83,109,10483,2,0,L|92:7,1,72,2|0,0:0|0:0,0:0:0:0:
132,10,10835,2,0,L|212:13,1,72,2|2,1:2|0:0,0:0:0:0:
296,90,11304,6,0,B|267:146|267:146|279:246,1,153.000002918243,4|0,3:0|1:0,0:0:0:0:
386,298,12007,2,0,P|416:270|464:263,1,76.5000014591217,2|4,0:0|3:0,0:0:0:0:
493,275,12358,2,0,L|485:167,1,76.5000014591217,2|0,0:0|0:0,0:0:0:0:
452,168,12710,2,0,L|459:77,1,76.5000014591217,2|2,1:2|0:0,0:0:0:0:
366,17,13179,102,0,P|331:66|219:51,1,161.999995056153,4|0,3:0|1:0,0:0:0:0:
114,19,13882,2,0,L|136:110,1,80.9999975280763,2|4,0:0|3:3,0:0:0:0:
93,126,14233,2,0,L|71:217,1,80.9999975280763,2|0,0:0|0:0,0:0:0:0:
109,242,14585,2,0,P|147:222|208:232,1,85.4999977169037,2|2,1:2|0:0,0:0:0:0:
319,292,15070,54,0,L|317:353,3,31.4999990386963,4|4|2|4,3:0|3:0|0:0|3:0,3:3:0:0:
369,233,15538,2,0,L|366:182,3,36,4|4|2|4,3:0|3:0|2:0|3:0,3:3:0:0:
451,267,16007,2,0,L|465:325,3,40.4999987640381,4|4|2|4,3:0|3:0|0:2|3:0,3:3:0:0:
457,225,16476,6,0,L|463:134,1,62.9999980773926,2|0,0:0|0:0,0:0:0:0:
409,62,16929,70,0,P|369:110|260:94,1,180,6|2,0:0|1:2,0:0:0:0:
151,53,17632,1,2,0:0:0:0:
151,53,17749,1,2,3:0:0:0:
151,53,17866,2,0,P|163:103|142:166,1,90,4|2,3:0|0:0,0:0:0:0:
112,249,18335,1,0,1:0:0:0:
68,141,18569,1,2,3:0:0:0:
201,213,18804,6,2,B|268:230|276:185|359:214,1,135,6|0,3:0|0:0,0:0:0:0:
388,227,19272,2,0,L|381:338,1,90,0|2,1:0|0:0,0:0:0:0:
484,258,19741,2,0,L|477:162,1,90,4|2,3:0|0:0,0:0:0:0:
426,57,20210,2,0,L|361:68,3,49.5000015106202,2|2|2|2,1:2|0:0|0:0|0:0,0:0:0:0:
334,42,20679,102,0,P|229:20|163:94,1,180,6|0,3:0|1:0,0:0:0:0:
271,130,21382,1,2,0:0:0:0:
271,130,21499,1,2,3:0:0:0:
271,130,21616,2,0,P|282:188|269:236,1,90,4|2,3:0|0:0,0:0:0:0:
169,170,22085,2,0,B|124:156|124:156|58:172,1,90,0|2,1:0|3:0,0:0:0:0:
58,271,22554,6,2,P|121:246|201:295,1,135,6|2,3:0|0:0,0:0:0:0:
231,286,23022,2,0,B|221:322|221:322|229:382,1,90,0|2,1:0|0:0,0:0:0:0:
319,285,23491,1,4,3:3:0:0:
379,381,23725,1,2,0:0:0:0:
337,200,23960,2,0,L|318:135,3,49.5000015106202,2|2|2|2,1:2|0:0|0:0|0:0,0:0:0:0:
337,104,24429,102,2,L|475:119,1,99.0000030212403,10|0,1:2|0:0,0:0:0:0:
312,6,24897,2,0,L|450:21,1,99.0000030212403,10|2,1:2|0:0,0:0:0:0:
197,95,25366,2,2,L|220:215,1,99.0000030212403,10|0,1:2|0:0,0:0:0:0:
81,127,25835,2,0,L|104:247,1,99.0000030212403,10|2,1:2|0:0,0:0:0:0:
186,327,26304,6,0,P|217:272|315:278,1,148.50000453186,10|2,1:2|0:0,0:0:0:0:
339,286,26772,2,0,L|328:386,1,99.0000030212403,10|2,1:2|0:0,0:0:0:0:
448,320,27241,2,2,L|433:190,1,99.0000030212403,10|0,1:2|0:0,0:0:0:0:
350,138,27710,2,0,L|361:62,3,54.4499984629441,10|2|2|2,1:2|0:0|0:0|0:0,0:0:0:0:
349,29,28179,6,0,P|282:63|223:55,1,99.0000030212403,10|2,1:2|0:0,0:0:0:0:
226,38,28530,1,2,0:0:0:0:
226,38,28647,2,0,P|162:32|110:57,1,99.0000030212403,10|2,1:2|0:0,0:0:0:0:
92,71,28999,1,2,0:0:0:0:
92,71,29116,2,0,L|98:197,1,99.0000030212403,10|2,1:2|0:0,0:0:0:0:
145,198,29468,1,2,0:0:0:0:
145,198,29585,2,0,L|139:324,1,99.0000030212403,10|2,1:2|0:0,0:0:0:0:
172,321,29936,1,2,0:0:0:0:
172,321,30054,6,0,L|229:308,3,49.5000015106202,2|2|2|2,1:2|0:0|0:0|0:0,0:0:0:0:
231,225,30522,2,0,L|300:239,3,49.5000015106202,2|2|2|2,0:0|0:0|0:0|0:0,0:0:0:0:
314,310,30991,1,2,0:0:0:0:
314,310,31929,38,0,L|327:127,1,161.999995056153,2|2,0:0|0:0,0:0:0:0:
287,76,32866,2,0,P|251:107|133:93,1,161.999995056153,2|2,0:1|0:0,0:0:0:0:
96,33,33804,2,0,L|103:211,1,161.999995056153,2|2,0:1|0:0,0:0:0:0:
158,252,34741,2,0,L|224:240,1,53.9999983520508,2|2,0:1|0:0,0:0:0:0:
258,176,35210,2,0,L|328:186,1,53.9999983520508,2|2,0:0|0:0,0:0:0:0:
354,252,35679,6,0,P|418:258|448:171,1,161.999995056153,2|2,0:1|0:0,0:0:0:0:
426,101,36616,2,0,L|260:108,1,161.999995056153,2|2,0:1|0:0,0:0:0:0:
189,75,37554,2,0,P|229:137|208:244,1,161.999995056153,2|2,0:1|0:0,0:0:0:0:
160,275,38491,2,0,L|92:264,1,53.9999983520508,0|2,0:0|0:0,0:0:0:0:
107,185,38960,2,0,L|36:192,1,53.9999983520508,2|2,0:0|0:0,0:0:0:0:
35,97,39429,102,0,P|62:55|150:52,1,125.999996154785,6|10,3:0|1:2,0:0:0:0:
219,82,40132,1,2,0:0:0:0:
219,82,40366,2,0,L|212:293,1,188.999994232178,2|2,1:0|0:0,0:0:0:0:
295,224,41304,2,0,P|347:191|457:250,1,188.999994232178,2|2,1:0|0:0,0:0:0:0:
368,281,42241,2,0,L|376:81,1,188.999994232178,8|2,1:2|0:0,0:0:0:0:
313,38,43179,6,0,L|228:42,1,62.9999980773926,8|2,1:2|1:3,0:0:0:0:
189,95,43647,2,0,L|194:193,1,72,8|2,1:2|1:3,0:0:0:0:
103,223,44116,2,0,L|105:128,1,80.9999975280763,8|2,1:2|1:3,0:0:0:0:
23,57,44585,2,0,L|20:152,1,90,8|2,1:2|1:3,0:0:0:0:
32,263,45054,101,0,0:0:0:0:
32,263,45171,2,2,L|29:314,2,45,6|6|4,1:3|1:3|1:3,0:0:0:0:
141,303,45639,2,2,L|148:358,2,45,6|6|4,1:3|1:3|1:3,1:1:0:0:
264,298,46108,2,2,L|292:353,2,47.2499985580445,6|6|4,1:3|1:3|1:3,1:1:0:0:
363,216,46577,2,0,L|412:253,2,49.5000015106202,6|6|4,1:3|1:3|1:3,0:0:0:0:
331,177,46929,22,0,P|343:106|333:38,1,114.750002188683,2|2,1:2|0:1,0:0:0:0:
319,18,47397,2,0,L|231:28,1,76.5000014591217,2|0,1:2|0:0,0:0:0:0:
189,110,47866,2,0,L|197:212,1,76.5000014591217,2|0,1:2|0:0,0:0:0:0:
135,266,48335,1,2,1:2:0:0:
69,191,48569,1,2,0:0:0:0:
69,191,48686,1,2,0:1:0:0:
69,191,48804,6,0,L|79:64,1,114.750002188683,2|2,1:2|0:1,0:0:0:0:
117,46,49272,2,0,P|155:70|195:70,1,76.5000014591217,2|2,1:2|0:0,0:0:0:0:
315,85,49741,2,0,P|276:116|265:163,1,76.5000014591217,2|2,1:2|0:0,0:0:0:0:
361,169,50210,1,2,1:2:0:0:
430,98,50444,1,2,0:0:0:0:
430,98,50561,1,2,0:1:0:0:
430,98,50679,102,0,P|455:157|437:234,1,114.750002188683,2|2,1:2|0:1,0:0:0:0:
436,254,51147,2,0,L|344:241,1,76.5000014591217,2|2,1:2|0:0,0:0:0:0:
276,296,51616,2,0,L|188:298,1,76.5000014591217,2|2,1:2|0:0,0:0:0:0:
163,263,51968,1,2,0:1:0:0:
163,263,52085,2,0,B|169:227|169:227|171:168,1,76.5000014591217,2|2,1:2|0:0,0:0:0:0:
168,137,52436,1,2,0:1:0:0:
168,137,52554,6,0,L|63:140,1,76.5000014591217,2|2,1:2|0:0,0:0:0:0:
61,99,52905,1,2,0:1:0:0:
61,99,53022,2,0,L|71:10,1,76.5000014591217,2|2,1:2|0:0,0:0:0:0:
168,31,53491,2,0,L|258:35,1,76.5000014591217,2|2,1:2|0:0,0:0:0:0:
305,113,53960,2,0,P|281:162|283:204,1,76.5000014591217,2|2,1:2|0:0,0:0:0:0:
313,277,54429,102,0,B|360:273|360:273|378:282|378:282|448:276,1,114.750002188683,2|2,1:2|0:1,0:0:0:0:
463,246,54897,2,0,P|450:207|458:156,1,76.5000014591217,2|2,1:2|0:0,0:0:0:0:
429,75,55366,2,0,P|398:104|355:109,1,76.5000014591217,2|2,1:2|0:0,0:0:0:0:
277,62,55835,1,2,1:2:0:0:
216,140,56069,1,2,0:0:0:0:
216,140,56186,1,2,0:1:0:0:
216,140,56304,6,0,B|180:160|180:160|82:151,1,114.750002188683,2|2,1:2|0:1,0:0:0:0:
76,114,56772,2,0,L|89:13,1,76.5000014591217,2|2,1:2|0:0,0:0:0:0:
1,159,57241,2,0,L|12:263,1,76.5000014591217,2|2,1:2|0:0,0:0:0:0:
51,261,57593,1,2,0:1:0:0:
51,261,57710,2,0,B|85:243|85:243|136:255,1,76.5000014591217,2|2,1:2|0:0,0:0:0:0:
214,289,58179,101,2,1:2:0:0:
214,289,58296,2,0,L|207:343,2,38.2500007295609,0|2|2,0:0|0:0|0:1,0:0:0:0:
303,246,58764,2,0,L|321:298,2,38.2500007295609,6|4|2,0:3|3:3|0:1,0:0:0:0:
387,164,59233,2,0,L|426:205,2,45,4|4|2,3:3|3:3|1:1,0:0:0:0:
407,36,59702,2,0,L|472:56,2,49.5000015106202,4|4|2,3:3|3:3|1:1,0:0:0:0:
353,35,60076,6,0,B|290:57|290:57|199:17,1,135,2|2,0:0|0:1,0:0:0:0:
173,12,60544,2,0,B|195:77|195:77|154:170,1,148.50000453186,2|2,0:0|0:1,0:0:0:0:
157,200,61013,2,0,B|231:174|231:174|338:221,1,163.349995388832,2|0,0:0|0:1,0:0:0:0:
356,229,61473,37,4,1:0:0:0:
228,315,61707,1,6,1:1:0:0:
378,314,61929,86,0,P|441:329|492:312,1,99.0000030212403,4|2,1:2|0:2,0:0:0:0:
484,269,62280,1,2,0:3:0:0:
484,269,62397,2,2,L|477:161,1,99.0000030212403,10|2,1:2|0:0,0:0:0:0:
412,53,62866,2,0,B|344:79|334:27|243:62,1,148.50000453186,0|2,1:0|0:0,0:0:0:0:
216,78,63335,2,2,P|235:131|229:198,1,99.0000030212403,8|2,1:2|0:0,0:0:0:0:
147,283,63804,6,0,L|29:274,1,99.0000030212403,2|2,1:0|0:0,0:0:0:0:
14,226,64155,1,2,0:3:0:0:
14,226,64272,2,2,P|36:176|33:118,1,99.0000030212403,8|2,1:2|0:0,0:0:0:0:
147,34,64741,2,0,P|120:91|133:186,1,148.50000453186,0|2,1:2|0:0,0:0:0:0:
177,194,65210,2,0,L|247:183,3,58.4999973220826,10|2|2|2,1:2|0:0|0:0|0:0,0:0:0:0:
286,196,65679,102,0,P|270:256|289:309,1,99.0000030212403,2|0,1:0|0:0,0:0:0:0:
328,322,66030,1,0,0:0:0:0:
328,322,66147,2,0,L|431:319,1,99.0000030212403,8|2,1:2|0:0,0:0:0:0:
378,210,66616,2,0,B|368:168|368:168|375:96,1,99.0000030212403,0|0,1:0|0:0,0:0:0:0:
381,53,66968,1,2,0:0:0:0:
381,53,67085,2,0,L|246:44,1,99.0000030212403,8|2,1:2|0:0,0:0:0:0:
240,88,67436,1,2,0:2:0:0:
240,88,67554,6,0,L|105:79,1,99.0000030212403,0|2,1:0|0:0,0:0:0:0:
81,80,67905,1,2,0:1:0:0:
81,80,68022,2,0,L|91:215,1,99.0000030212403,8|2,1:2|0:0,0:0:0:0:
150,280,68491,2,0,L|176:171,1,99.0000030212403,0|2,1:0|0:0,0:0:0:0:
295,147,68960,2,0,L|309:217,3,58.4999973220826,10|2|2|2,1:2|0:0|0:0|0:0,0:0:0:0:
272,247,69429,102,0,P|268:318|294:361,1,103.500001974106,2|2,1:0|0:0,0:0:0:0:
340,365,69780,1,2,0:3:0:0:
340,365,69897,2,0,L|447:358,1,103.500001974106,8|2,1:2|0:0,0:0:0:0:
407,238,70366,2,0,B|391:188|391:188|415:41,1,155.250002961159,0|2,1:0|0:0,0:0:0:0:
406,24,70835,2,0,P|346:44|266:30,1,103.500001974106,8|2,1:2|0:0,0:0:0:0:
183,21,71304,6,0,P|126:13|65:27,1,103.500001974106,2|2,1:0|0:0,0:0:0:0:
30,57,71655,1,2,0:3:0:0:
30,57,71772,2,0,L|37:184,1,103.500001974106,8|2,1:2|0:0,0:0:0:0:
120,251,72241,2,0,P|143:190|250:182,1,155.250002961159,0|2,1:0|0:0,0:0:0:0:
274,189,72710,2,0,L|271:263,3,58.4999973220826,10|2|2|2,1:2|0:0|0:0|0:0,0:0:0:0:
306,298,73179,102,0,P|333:246|391:220,1,103.500001974106,2|2,1:0|0:0,0:0:0:0:
426,217,73530,1,2,0:3:0:0:
426,217,73647,2,2,L|428:338,1,103.500001974106,8|2,1:2|0:0,0:0:0:0:
506,193,74116,2,0,L|495:64,1,103.500001974106,0|0,1:0|0:0,0:0:0:0:
451,47,74468,1,2,0:0:0:0:
451,47,74585,2,0,P|384:57|320:34,1,103.500001974106,8|2,1:2|0:0,0:0:0:0:
227,28,75054,6,0,B|238:80|238:80|227:213,1,155.250002961159,0|2,1:0|0:1,0:0:0:0:
173,208,75522,2,0,B|225:197|225:197|358:208,1,155.250002961159,8|2,1:2|0:1,0:0:0:0:
341,144,75991,2,0,B|352:196|352:196|341:329,1,155.250002961159,0|2,1:0|0:1,0:0:0:0:
302,332,76460,1,8,1:0:0:0:
454,122,76929,70,0,B|431:75|431:75|334:65,1,107.999996704102,0|2,1:0|0:0,0:0:0:0:
319,57,77280,1,2,0:3:0:0:
319,57,77397,2,0,P|266:96|184:81,1,107.999996704102,8|2,1:2|0:0,0:0:0:0:
95,100,77866,1,2,1:0:0:0:
95,100,77983,2,0,B|107:165|107:165|93:243,1,107.999996704102,0|0,0:0|0:0,0:0:0:0:
73,265,78335,2,2,P|135:221|221:268,1,161.999995056153,10|0,1:2|0:0,0:0:0:0:
248,302,78804,6,0,P|319:326|379:299,1,107.999996704102,2|2,1:0|0:0,0:0:0:0:
400,279,79155,1,2,0:3:0:0:
400,279,79272,2,0,L|389:157,1,107.999996704102,8|2,1:2|0:0,0:0:0:0:
295,82,79741,2,0,L|285:189,1,107.999996704102,2|2,1:0|0:0,0:0:0:0:
389,71,80210,2,0,L|448:55,3,53.9999983520508,10|2|2|2,1:2|0:0|0:0|0:0,0:0:0:0:
490,99,80679,102,0,L|481:216,1,107.999996704102,2|2,1:0|0:0,0:0:0:0:
465,269,81030,1,2,0:3:0:0:
465,269,81147,2,0,B|421:243|421:243|333:256,1,107.999996704102,8|2,1:2|0:0,0:0:0:0:
242,296,81616,1,2,1:1:0:0:
242,296,81733,2,0,B|198:322|198:322|110:309,1,107.999996704102,0|2,0:0|0:3,0:0:0:0:
82,285,82085,2,0,L|98:80,1,161.999995056153,10|0,1:2|0:0,0:0:0:0:
104,59,82554,6,0,B|166:75|166:75|234:64,1,107.999996704102,2|2,1:0|0:0,0:0:0:0:
337,52,83022,1,8,1:2:0:0:
273,165,83257,1,2,0:0:0:0:
273,165,83374,1,2,0:0:0:0:
273,165,83491,2,0,B|247:220|247:220|256:300,1,107.999996704102,2|2,1:0|0:0,0:0:0:0:
383,293,83960,2,0,L|415:218,3,58.4999973220826,10|2|2|2,1:2|0:0|0:0|0:0,0:0:0:0:
406,171,84429,102,0,P|365:114|389:52,1,112.5,2|2,1:0|0:0,0:0:0:0:
400,15,84780,1,2,0:3:0:0:
400,15,84897,2,0,L|520:22,1,112.5,8|2,1:2|0:0,0:0:0:0:
504,156,85366,1,2,1:1:0:0:
504,156,85483,2,0,B|481:204|481:204|491:295,1,112.5,0|2,0:0|0:3,0:0:0:0:
464,326,85835,2,0,P|396:256|296:273,1,168.75,10|0,1:2|0:0,0:0:0:0:
270,288,86304,6,0,P|209:314|146:294,1,112.5,2|2,1:0|0:0,0:0:0:0:
108,268,86655,1,2,0:3:0:0:
108,268,86772,2,0,L|123:154,1,112.5,8|2,1:2|0:0,0:0:0:0:
220,63,87241,2,0,L|235:181,1,112.5,2|2,1:0|0:0,0:0:0:0:
128,53,87710,2,0,L|51:59,3,56.25,10|2|2|2,1:2|0:0|0:0|0:0,0:0:0:0:
17,98,88179,102,0,B|36:154|36:154|23:261|26:256,1,112.5,2|2,1:0|0:0,0:0:0:0:
19,273,88530,1,2,0:3:0:0:
19,273,88647,2,0,L|150:262,1,112.5,8|2,1:2|0:0,0:0:0:0:
264,240,89116,1,2,1:0:0:0:
264,240,89233,2,0,L|258:364,1,112.5,0|2,0:0|0:3,0:0:0:0:
309,368,89585,2,0,P|334:286|449:293,1,168.75,10|0,1:2|0:0,0:0:0:0:
472,288,90054,6,0,B|453:203|453:203|470:94,1,168.75,2|2,1:0|0:1,0:0:0:0:
504,70,90522,2,0,B|419:89|419:89|310:72,1,168.75,8|0,1:2|0:0,0:0:0:0:
285,62,90991,2,0,L|296:249,1,155.250002961159,0|2,1:0|0:1,0:0:0:0:
338,256,91460,2,0,L|151:267,1,148.50000453186,0|2,1:0|0:0,0:0:0:0:
151,250,91929,69,2,0:0:0:0:
140,107,92397,1,2,0:0:0:0:
15,174,92866,1,2,0:0:0:0:
26,317,93335,1,2,0:0:0:0:
151,250,93804,5,2,0:0:0:0:
140,107,94272,1,2,0:0:0:0:
15,174,94741,1,2,0:0:0:0:
250,178,95210,69,8,1:0:0:0:
250,178,95679,102,0,B|259:231|259:231|249:308,1,99.0000030212403,6|2,1:2|0:0,0:0:0:0:
229,314,96030,2,0,L|115:306,1,90,2|2,0:0|0:0,0:0:0:0:
98,207,96499,2,0,L|108:81,1,107.999996704102,2|2,0:0|0:0,0:0:0:0:
195,37,96968,1,2,0:0:0:0:
221,141,97202,1,2,0:0:0:0:
221,141,97319,1,2,0:0:0:0:
300,67,97554,22,0,B|348:48|348:48|421:63,1,107.999996704102,2|2,1:2|0:2,0:0:0:0:
461,72,97905,2,0,L|454:200,1,99.0000030212403,2|2,0:0|0:1,0:0:0:0:
438,314,98374,1,2,0:1:0:0:
308,251,98608,1,2,0:1:0:0:
192,338,98843,1,2,0:1:0:0:
77,250,99077,1,2,0:0:0:0:
77,250,99194,1,2,0:0:0:0:
196,199,99429,54,0,P|210:153|201:74,1,99.0000030212403,2|2,1:2|0:0,0:0:0:0:
191,61,99780,2,0,L|84:64,1,90,2|2,0:0|0:0,0:0:0:0:
257,8,100249,2,0,L|376:17,1,107.999996704102,2|2,0:0|0:0,0:0:0:0:
452,79,100718,1,2,0:0:0:0:
367,145,100952,1,2,0:0:0:0:
367,145,101069,1,2,0:0:0:0:
441,223,101304,38,0,B|456:269|456:269|439:362,1,107.999996704102,2|2,1:2|0:0,0:0:0:0:
409,361,101655,2,0,L|285:346,1,99.0000030212403,2|2,0:0|0:1,0:0:0:0:
170,314,102124,1,2,0:1:0:0:
259,201,102358,1,2,0:1:0:0:
115,183,102593,1,2,0:1:0:0:
198,65,102827,1,2,0:0:0:0:
198,65,102944,1,2,0:0:0:0:
348,88,103179,38,0,B|339:153|339:153|346:217,1,99.0000030212403,0|2,1:0|0:0,0:0:0:0:
382,207,103530,2,0,L|489:202,1,90,2|2,0:0|0:0,0:0:0:0:
414,294,103999,2,0,L|290:297,1,107.999996704102,2|2,0:0|0:0,0:0:0:0:
197,293,104468,1,2,0:0:0:0:
250,199,104702,1,2,0:0:0:0:
250,199,104819,1,2,0:0:0:0:
148,160,105054,86,0,P|114:111|132:38,1,107.999996704102,2|2,1:2|0:0,0:0:0:0:
149,28,105405,2,0,L|261:33,1,99.0000030212403,2|2,0:0|0:1,0:0:0:0:
392,36,105874,1,2,0:1:0:0:
325,163,106108,1,2,0:1:0:0:
402,284,106343,1,2,0:1:0:0:
468,156,106577,1,2,0:0:0:0:
468,156,106694,1,2,0:0:0:0:
325,163,106929,102,0,L|194:167,1,99.0000030212403,0|2,1:0|0:0,0:0:0:0:
179,183,107280,2,0,B|191:226|191:226|182:303,1,99.0000030212403,2|2,0:0|0:1,0:0:0:0:
95,235,107749,2,0,L|103:103,1,99.0000030212403,2|2,0:1|0:1,0:0:0:0:
164,59,108218,1,2,0:1:0:0:
164,59,108335,2,2,L|267:57,1,99.0000030212403,8|2,1:0|0:0,0:0:0:0:
314,152,108804,54,0,B|294:193|294:193|304:278,1,107.999996704102,2|2,1:0|0:0,0:0:0:0:
409,256,109272,2,0,B|416:194|416:194|396:153,1,107.999996704102,10|2,1:0|0:0,0:0:0:0:
350,65,109741,2,0,L|236:68,1,99.0000030212403,2|0,1:0|0:0,0:0:0:0:
163,21,110210,2,0,L|49:24,1,99.0000030212403,10|2,1:0|0:0,0:0:0:0:
100,120,110679,6,0,B|116:201|72:197|97:303,1,155.250002961159,10|2,1:2|0:0,0:0:0:0:
135,300,111147,2,0,B|177:279|177:279|243:284,1,103.500001974106,8|2,1:0|0:3,0:0:0:0:
328,324,111616,2,0,B|377:337|377:337|434:321,1,103.500001974106,8|0,1:2|0:0,0:0:0:0:
473,298,111968,1,2,0:0:0:0:
390,235,112202,1,2,0:0:0:0:
390,235,112319,1,2,0:0:0:0:
463,167,112554,6,0,P|472:103|399:36,1,148.50000453186,10|2,1:2|0:0,0:0:0:0:
376,64,113022,2,0,L|254:63,1,99.0000030212403,10|2,1:0|0:0,0:0:0:0:
177,60,113491,1,8,1:2:0:0:
177,60,113608,2,0,P|191:117|172:171,1,99.0000030212403,0|2,0:0|0:1,0:0:0:0:
130,184,113960,2,0,L|57:173,3,58.4999973220826,8|2|2|2,1:0|0:0|0:0|0:0,0:0:0:0:
36,210,114429,86,0,L|47:373,1,155.250002961159,10|2,1:2|0:0,0:0:0:0:
97,372,114897,2,0,B|136:349|136:349|201:357,1,103.500001974106,8|2,1:0|0:3,0:0:0:0:
246,266,115366,2,0,L|366:283,1,103.500001974106,8|0,1:2|0:0,0:0:0:0:
400,285,115718,1,2,0:0:0:0:
343,198,115952,1,2,0:0:0:0:
343,198,116069,1,2,0:0:0:0:
480,200,116304,38,0,L|472:356,1,148.50000453186,10|2,1:2|0:0,0:0:0:0:
426,367,116772,2,0,P|376:339|306:350,1,99.0000030212403,10|2,1:0|0:0,0:0:0:0:
237,353,117241,2,0,P|187:362|112:333,1,99.0000030212403,8|2,1:2|0:0,0:0:0:0:
192,246,117710,2,0,L|206:178,3,58.4999973220826,8|2|2|2,1:0|0:0|0:0|0:0,0:0:0:0:
203,136,118179,86,0,L|20:145,1,155.250002961159,10|2,1:2|0:0,0:0:0:0:
4,114,118647,2,0,P|47:60|49:17,1,103.500001974106,8|2,1:0|0:3,0:0:0:0:
154,27,119116,2,0,B|208:51|208:51|293:43,1,103.500001974106,8|0,1:2|0:0,0:0:0:0:
303,36,119468,1,2,0:0:0:0:
319,137,119702,1,2,0:0:0:0:
319,137,119819,1,2,0:0:0:0:
403,44,120054,6,0,P|467:35|501:101,1,148.50000453186,10|2,1:2|0:0,0:0:0:0:
469,139,120522,2,0,L|465:274,1,99.0000030212403,10|2,1:0|0:0,0:0:0:0:
337,305,120991,2,0,L|351:190,1,99.0000030212403,8|2,1:2|0:0,0:0:0:0:
262,110,121460,2,0,L|178:135,3,58.4999973220826,8|2|2|2,1:0|0:0|0:0|0:0,0:0:0:0:
167,166,121929,6,0,P|187:221|172:288,1,99.0000030212403,10|2,1:2|0:0,0:0:0:0:
145,291,122280,1,2,0:0:0:0:
145,291,122397,2,0,L|28:289,1,99.0000030212403,8|2,1:0|0:3,0:0:0:0:
32,177,122866,1,8,1:2:0:0:
32,177,122983,2,0,L|44:67,1,99.0000030212403,2|2,0:0|0:0,0:0:0:0:
76,48,123335,2,0,B|117:65|117:65|182:52,1,90,8|2,1:0|0:0,0:0:0:0:
254,43,123814,102,0,L|270:206,1,135,0|2,1:2|0:0,0:0:0:0:
311,171,124282,2,0,L|298:323,1,135,8|2,1:2|0:0,0:0:0:0:
288,349,124751,1,0,1:0:0:0:
141,229,124985,21,2,1:0:0:0:
157,348,125220,1,12,1:0:0:0:
217,273,125444,70,0,L|229:211,2,33.7500012874604,2|0|2,0:2|0:3|1:2,0:0:0:0:
256,192,135054,12,2,139741,0:0:0:0:
151,69,140679,70,0,L|139:258,1,188.999994232178,2|2,0:0|0:0,0:0:0:0:
188,337,141616,2,0,P|195:280|310:234,1,188.999994232178,2|2,0:1|0:0,0:0:0:0:
375,294,142554,2,0,P|435:261|415:130,1,188.999994232178,2|2,0:1|0:0,0:0:0:0:
362,92,143491,2,0,L|273:99,1,62.9999980773926,2|2,0:1|0:0,0:0:0:0:
228,33,143960,2,0,L|193:108,1,62.9999980773926,2|2,0:0|0:0,0:0:0:0:
142,164,144429,6,0,P|143:94|24:42,1,188.999994232178,2|2,0:1|0:0,0:0:0:0:
53,130,145366,2,0,L|59:319,1,188.999994232178,2|2,0:1|0:0,0:0:0:0:
143,275,146304,2,0,B|195:260|264:280|215:305|292:333|347:321,1,188.999994232178,2|2,0:1|0:0,0:0:0:0:
399,275,147241,2,0,L|388:195,1,62.9999980773926,0|2,0:0|0:0,0:0:0:0:
308,164,147710,2,0,L|336:76,1,62.9999980773926,2|2,0:0|0:0,0:0:0:0:
336,9,148179,102,0,P|303:52|158:37,1,188.999994232178,6|2,3:0|0:0,0:0:0:0:
84,38,149116,2,0,P|122:55|137:195,1,188.999994232178,2|2,1:0|0:0,0:0:0:0:
76,252,150054,2,0,B|133:206|133:206|273:245,1,188.999994232178,2|2,1:0|0:0,0:0:0:0:
325,285,150991,2,0,L|322:372,1,62.9999980773926,8|2,1:2|0:0,0:0:0:0:
417,338,151460,2,0,L|416:264,1,62.9999980773926,8|2,1:2|0:0,0:0:0:0:
370,192,151929,1,8,0:0:0:0:
370,192,152046,2,0,L|346:142,2,31.4999990386963,2|2|2,1:3|1:3|1:0,0:0:0:0:
459,131,152514,2,0,L|468:82,2,36,2|2|2,1:3|1:3|1:0,1:1:0:0:
353,70,152983,2,0,L|340:11,2,40.4999987640381,2|2|2,1:3|1:3|1:0,1:1:0:0:
217,72,153452,2,0,L|185:33,2,45,2|2|2,1:3|1:3|1:0,1:1:0:0:
241,126,153804,6,0,B|255:251|138:275|44:238|98:104|172:157,1,315,2|2,0:1|0:0,0:0:0:0:
376,282,155210,69,4,1:0:0:0:
420,147,155444,1,6,1:1:0:0:
288,227,155691,70,0,B|242:243|242:243|148:227,1,103.500001974106,6|2,1:0|0:0,0:0:0:0:
128,215,156042,1,0,0:0:0:0:
128,215,156159,2,0,L|143:98,1,103.500001974106,10|2,1:2|0:0,0:0:0:0:
31,53,156628,2,0,B|54:122|54:122|33:287,1,207.000003948212,2|10,1:2|1:2,0:0:0:0:
127,340,157331,1,0,0:0:0:0:
127,340,157448,1,2,0:0:0:0:
127,340,157566,22,0,B|171:314|171:314|241:318,1,103.500001974106,2|2,1:0|0:0,0:0:0:0:
345,335,158034,1,10,1:2:0:0:
304,217,158269,1,2,0:0:0:0:
304,217,158386,1,2,0:1:0:0:
304,217,158503,2,0,P|286:131|361:77,1,155.250002961159,0|2,1:0|0:0,0:0:0:0:
386,65,158972,2,0,L|511:72,1,103.500001974106,10|2,1:2|0:0,0:0:0:0:
297,10,159441,86,0,L|161:17,1,103.500001974106,2|2,1:0|0:0,0:0:0:0:
145,54,159792,1,0,0:0:0:0:
145,54,159909,2,0,P|162:109|155:172,1,103.500001974106,10|2,1:2|0:0,0:0:0:0:
90,257,160378,2,0,P|104:205|248:223,1,207.000003948212,2|10,1:2|1:2,0:0:0:0:
316,293,161081,1,2,0:0:0:0:
316,293,161198,1,0,0:0:0:0:
316,293,161316,22,0,B|365:304|365:304|441:286,1,103.500001974106,2|2,1:0|0:0,0:0:0:0:
472,264,161667,2,0,L|466:136,1,103.500001974106,2|0,0:2|0:0,0:0:0:0:
411,133,162019,2,0,B|359:120|359:120|310:131,1,103.500001974106,2|2,0:0|1:2,0:0:0:0:
212,208,162487,1,2,0:0:0:0:
212,208,162605,1,2,0:2:0:0:
185,86,162839,1,2,0:0:0:0:
185,86,162956,1,2,0:0:0:0:
73,140,163191,86,0,L|77:273,1,103.500001974106,2|2,1:0|0:0,0:0:0:0:
36,291,163542,1,0,0:0:0:0:
36,291,163659,2,0,B|94:276|94:276|177:307,1,103.500001974106,10|2,1:2|0:0,0:0:0:0:
250,337,164128,2,0,B|269:277|249:217|209:254|188:165|232:128,1,207.000003948212,2|8,1:2|1:2,0:0:0:0:
318,67,164831,1,2,0:0:0:0:
318,67,164948,1,0,0:0:0:0:
318,67,165066,22,0,L|444:74,1,103.500001974106,2|2,1:0|0:0,0:0:0:0:
468,187,165534,2,0,B|441:214|441:214|450:309,1,103.500001974106,10|2,1:2|0:0,0:0:0:0:
345,351,166003,2,0,P|357:279|317:169,1,155.250002961159,2|2,1:2|0:0,0:0:0:0:
280,173,166472,2,0,B|231:182|231:182|167:179,1,103.500001974106,8|0,1:2|0:0,0:0:0:0:
234,68,166941,86,0,B|289:54|289:54|356:73,1,103.500001974106,2|2,1:0|0:0,0:0:0:0:
393,84,167292,1,2,0:0:0:0:
393,84,167409,2,0,L|389:201,1,103.500001974106,8|2,1:2|0:0,0:0:0:0:
318,289,167878,2,0,B|223:235|216:310|115:282,1,207.000003948212,2|8,1:2|1:2,0:0:0:0:
39,185,168581,1,2,0:0:0:0:
39,185,168698,1,2,0:0:0:0:
39,185,168816,22,0,L|50:75,1,103.500001974106,2|2,1:0|0:0,0:0:0:0:
100,47,169167,1,0,0:0:0:0:
100,47,169284,2,0,P|155:62|214:45,1,103.500001974106,10|2,1:2|0:0,0:0:0:0:
320,24,169753,2,0,P|283:75|290:184,1,155.250002961159,0|2,1:0|0:0,0:0:0:0:
336,177,170222,1,12,1:0:0:0:
411,104,170456,1,2,1:2:0:0:
353,259,170691,54,0,B|346:296|346:296|356:378,1,103.500001974106,2|2,1:0|0:0,0:0:0:0:
409,379,171042,1,0,0:0:0:0:
409,379,171159,2,0,L|532:378,1,103.500001974106,10|2,1:2|0:0,0:0:0:0:
463,263,171628,2,0,B|444:198|482:185|460:73,1,155.250002961159,2|2,1:2|0:0,0:0:0:0:
443,50,172097,2,0,P|396:89|316:82,1,103.500001974106,10|0,1:2|0:0,0:0:0:0:
237,54,172566,54,0,P|187:36|114:53,1,103.500001974106,2|2,1:0|0:0,0:0:0:0:
17,72,173034,1,10,1:2:0:0:
105,159,173269,1,2,0:0:0:0:
105,159,173386,1,2,0:1:0:0:
105,159,173503,2,0,P|137:222|105:334,1,155.250002961159,0|2,1:0|0:0,0:0:0:0:
116,353,173972,2,0,L|-12:342,1,116.999994644165,2|2,1:2|0:0,0:0:0:0:
206,310,174441,54,0,P|264:353|340:352,1,103.500001974106,2|2,1:0|0:0,0:0:0:0:
353,342,174792,1,0,0:0:0:0:
353,342,174909,2,0,L|350:207,1,103.500001974106,10|2,1:2|0:0,0:0:0:0:
419,134,175378,2,0,L|432:295,1,155.250002961159,2|2,1:2|0:0,0:0:0:0:
457,345,175847,2,0,P|477:293|525:266,1,103.500001974106,8|2,1:2|0:0,0:0:0:0:
353,342,176316,54,0,P|280:354|224:320,1,103.500001974106,2|2,1:0|0:0,0:0:0:0:
204,307,176667,2,0,L|217:183,1,103.500001974106,2|0,0:0|0:0,0:0:0:0:
205,142,177019,2,0,P|132:130|76:164,1,103.500001974106,2|2,0:0|1:2,0:0:0:0:
23,232,177487,1,2,0:0:0:0:
23,232,177605,1,2,0:0:0:0:
23,232,177722,2,0,L|27:309,3,58.4999973220826,2|2|2|2,1:2|0:0|0:0|0:0,0:0:0:0:
74,329,178191,54,0,B|96:305|96:305|189:303,1,103.500001974106,2|2,1:0|1:2,0:0:0:0:
204,254,178542,1,0,0:0:0:0:
204,254,178659,2,0,L|322:264,1,103.500001974106,10|2,1:2|0:0,0:0:0:0:
425,300,179128,2,0,P|408:215|457:127,1,155.250002961159,2|2,1:2|0:0,0:0:0:0:
460,97,179597,2,0,L|321:82,1,103.500001974106,8|2,1:2|0:0,0:0:0:0:
238,47,180066,54,0,P|264:103|253:155,1,103.500001974106,2|2,1:0|0:0,0:0:0:0:
224,194,180417,1,0,0:0:0:0:
224,194,180534,2,0,L|92:182,1,103.500001974106,10|2,1:2|0:0,0:0:0:0:
6,135,181003,2,0,P|11:54|110:30,1,155.250002961159,2|2,1:2|0:0,0:0:0:0:
120,36,181472,2,0,L|131:111,3,58.4999973220826,2|2|2|2,1:2|0:0|0:0|0:0,0:0:0:0:
189,106,181941,54,0,L|281:42,1,103.500001974106,2|2,1:0|1:2,0:0:0:0:
279,170,182409,2,0,L|408:146,1,103.500001974106,8|2,1:2|0:0,0:0:0:0:
443,157,182761,1,2,0:0:0:0:
443,157,182878,2,0,P|401:219|415:328,1,155.250002961159,2|2,1:2|0:0,0:0:0:0:
433,350,183347,2,0,P|466:318|520:301,1,103.500001974106,8|2,1:2|0:0,0:0:0:0:
338,337,183816,54,0,B|296:358|296:358|212:343,1,103.500001974106,2|2,1:0|0:0,0:0:0:0:
131,288,184284,1,10,1:2:0:0:
226,208,184519,1,2,0:0:0:0:
226,208,184636,1,2,0:1:0:0:
226,208,184753,2,0,P|245:148|205:36,1,155.250002961159,2|2,1:2|0:0,0:0:0:0:
177,24,185222,5,4,1:0:0:0:
150,159,185456,1,6,1:1:0:0:
66,54,185691,21,2,0:0:0:0:
291,21,186159,1,2,0:0:0:0:
324,229,186628,1,2,0:0:0:0:
99,262,187096,1,2,0:0:0:0:
310,113,187566,5,2,0:0:0:0:
251,257,188034,1,2,0:0:0:0:
364,292,188503,1,2,0:0:0:0:
325,203,188972,1,2,0:0:0:0:
