osu file format v14

[General]
AudioFilename: cYsmix - Moonlight Sonata.mp3
AudioLeadIn: 0
PreviewTime: 155687
Countdown: 0
SampleSet: Normal
StackLeniency: 0.7
Mode: 0
LetterboxInBreaks: 0
EpilepsyWarning: 1
WidescreenStoryboard: 1

[Editor]
Bookmarks: 28169,61919,76919,95669,110669,125669,136919,155669,185669,191294
DistanceSpacing: 1.2
BeatDivisor: 4
GridSize: 4
TimelineZoom: 2.6

[Metadata]
Title:Moonlight Sonata
TitleUnicode:Moonlight Sonata
Artist:cYsmix
ArtistUnicode:cYsmix
Creator:Bakari
Version:Hard
Source:osu!
Tags:Beethoven Ludwig van Mapping With Rewards Electro Trance Classical MWR #2
BeatmapID:1045888
BeatmapSetID:489524

[Difficulty]
HPDrainRate:5
CircleSize:4
OverallDifficulty:6
ApproachRate:7.4
SliderMultiplier:1.5
SliderTickRate:2

[Events]
//Background and Video events
0,0,"osu!cysmix-bg-2.jpg",0,0
//Break Periods
2,125687,136098
//Storyboard Layer 0 (Background)
//Storyboard Layer 1 (Fail)
//Storyboard Layer 2 (Pass)
//Storyboard Layer 3 (Foreground)
//Storyboard Sound Samples

[TimingPoints]
1937,468.75,4,2,1,59,1,0
15062,-100,4,2,1,34,0,0
15530,-100,4,2,1,44,0,0
15999,-100,4,2,1,50,0,0
16468,-133.333333333333,4,2,1,59,0,0
16937,-100,4,3,1,59,0,0
17407,-100,4,3,1,12,0,0
17640,-100,4,3,1,59,0,0
17876,-100,4,3,1,24,0,0
18108,-100,4,3,1,59,0,0
18814,-100,4,3,1,40,0,0
19163,-100,4,3,1,59,0,0
19282,-100,4,3,1,24,0,0
19515,-100,4,3,1,59,0,0
20689,-100,4,3,1,20,0,0
20921,-100,4,3,1,59,0,0
21157,-100,4,3,1,34,0,0
21507,-100,4,3,1,59,0,0
21626,-100,4,3,1,24,0,0
21858,-100,4,3,1,59,0,0
22095,-100,4,3,1,24,0,0
22327,-100,4,3,1,59,0,0
22564,-100,4,3,1,19,0,0
22913,-100,4,3,1,59,0,0
23970,-100,4,3,1,20,0,0
24202,-100,4,3,1,59,0,0
24437,-100,4,1,1,44,0,0
30062,-133.333333333333,4,3,1,59,0,0
31233,-133.333333333333,4,2,1,43,0,0
31937,-133.333333333333,4,3,1,45,0,0
44710,-133.333333333333,4,3,1,55,0,0
46937,-100,4,3,1,65,0,0
64751,-100,4,3,1,34,0,0
65101,-100,4,3,1,65,0,0
68501,-100,4,3,1,24,0,0
68851,-100,4,3,1,65,0,0
76937,-100,4,3,1,65,0,1
77054,-100,4,3,1,65,0,0
95687,-80,4,1,1,65,0,1
108812,-86.9565217391304,4,1,1,65,0,1
109280,-95.2380952380952,4,1,1,65,0,1
109749,-105.263157894737,4,1,1,65,0,1
110218,-117.647058823529,4,1,1,65,0,1
110452,-80,4,1,1,65,0,0
110687,-80,4,1,1,65,0,1
122875,-80,4,1,1,25,0,1
122876,-80,4,1,1,39,0,1
123108,-80,4,1,1,65,0,1
123345,-80,4,1,1,12,0,1
123577,-80,4,1,1,65,0,1
125687,-133.333333333333,4,1,1,65,0,0
136937,-133.333333333333,4,1,1,35,0,0
137874,-133.333333333333,4,1,1,42,0,0
138812,-133.333333333333,4,1,1,50,0,0
139749,-133.333333333333,4,1,1,59,0,0
155687,-79.9999999999999,4,1,1,65,0,1
183814,-79.9999999999999,4,1,1,40,0,1
184046,-79.9999999999999,4,1,1,65,0,1
184282,-79.9999999999999,4,1,1,33,0,1
184515,-79.9999999999999,4,1,1,65,0,1
184751,-79.9999999999999,4,1,1,15,0,1
184983,-79.9999999999999,4,1,1,65,0,1
185687,-100,4,2,1,5,0,0

[Colours]
Combo1 : 152,133,167
Combo2 : 189,134,125
Combo3 : 112,95,48
SliderTrackOverride : 76,22,23
SliderBorder : 196,122,133

[HitObjects]
208,280,1937,5,4,0:3:0:0:
176,148,2405,1,8,0:0:0:0:
308,124,2874,1,4,0:3:0:0:
336,256,3343,1,8,0:0:0:0:
136,236,3812,5,4,0:3:0:0:
232,84,4280,1,8,0:0:0:0:
384,180,4749,1,4,0:3:0:0:
284,328,5218,1,8,0:0:0:0:
76,240,5687,6,0,L|160:248,1,75,4|0,0:3|0:0,0:0:0:0:
211,314,6155,1,8,0:0:0:0:
443,268,6624,2,0,L|359:260,1,75,4|0,0:3|0:0,0:0:0:0:
299,206,7093,1,8,0:0:0:0:
179,68,7562,6,0,L|191:156,1,75,4|0,0:3|0:0,0:0:0:0:
139,218,8030,1,8,0:0:0:0:
255,354,8499,2,0,L|243:266,1,75,4|0,0:3|0:0,0:0:0:0:
299,206,8968,1,8,0:0:0:0:
476,240,9437,6,0,P|492:276|464:352,1,112.5,4|2,0:3|0:0,0:0:0:0:
432,364,9905,2,0,L|328:356,1,75,8|0,0:0|0:0,0:0:0:0:
276,320,10374,2,0,L|156:308,1,112.5,4|0,0:3|0:0,0:0:0:0:
128,336,10843,1,8,0:0:0:0:
28,188,11312,6,0,L|20:72,1,112.5,4|2,0:3|0:0,0:0:0:0:
40,36,11780,2,0,P|80:16|124:12,1,75,8|0,0:0|0:0,0:0:0:0:
176,72,12249,2,0,P|136:92|92:96,1,75,4|0,0:3|0:0,0:0:0:0:
116,188,12718,2,0,P|160:192|199:212,1,75,8|2,0:0|0:0,0:0:0:0:
260,256,13187,6,0,L|384:236,2,112.5,4|2|2,0:3|0:0|0:0,0:0:0:0:
184,304,14124,2,0,P|212:324|236:360,1,75,4|0,0:2|0:0,0:0:0:0:
148,384,14593,2,0,P|120:364|96:328,1,75,8|0,0:0|0:0,0:0:0:0:
116,244,15062,6,0,L|120:188,3,37.5,0|0|0|0,1:0|1:0|1:0|1:0,0:0:0:0:
100,168,15530,2,0,L|104:108,3,37.5,0|0|0|0,1:0|1:0|1:0|1:0,0:0:0:0:
76,92,15999,2,0,L|80:40,3,37.5,0|0|0|0,1:0|1:0|1:0|1:0,0:0:0:0:
60,28,16468,1,0,0:0:0:0:
192,148,16937,6,0,L|200:56,1,75,4|0,0:0|0:0,0:0:0:0:
275,32,17405,2,0,P|301:52|351:64,1,75,8|0,0:0|0:0,0:0:0:0:
344,156,17874,2,0,P|305:166|267:204,1,75
264,276,18343,2,0,L|400:284,1,112.5,8|0,0:0|0:0,0:0:0:0:
420,296,18812,6,0,P|432:328|432:380,1,75,4|0,0:0|0:0,0:0:0:0:
393,199,19280,2,0,P|390:164|404:114,1,75,8|0,0:0|0:0,0:0:0:0:
486,231,19749,1,0,0:0:0:0:
420,296,19983,1,0,0:0:0:0:
352,356,20218,2,0,L|260:352,1,75,8|0,0:0|0:0,0:0:0:0:
220,280,20687,5,4,0:0:0:0:
414,142,21155,2,0,L|400:16,1,112.5,8|0,0:0|0:0,0:0:0:0:
360,12,21624,2,0,P|336:36|312:80,1,75
224,84,22093,2,0,P|196:72|140:64,1,75,8|0,0:0|0:0,0:0:0:0:
76,112,22562,6,0,L|91:245,1,112.5
68,264,23030,1,8,0:0:0:0:
32,348,23265,1,0,0:0:0:0:
120,324,23499,1,0,0:0:0:0:
208,300,23733,1,0,0:0:0:0:
296,284,23968,2,0,P|326:311|346:347,1,75
432,328,24437,6,0,P|436:272|491:179,1,150,8|8,0:1|0:0,0:0:0:0:
408,136,25140,1,0,0:0:0:0:
452,60,25374,2,0,P|420:44|384:12,1,75,8|0,0:0|0:0,0:0:0:0:
300,24,25843,2,8,P|280:40|224:60,1,75,8|0,0:0|0:0,0:0:0:0:
284,217,26312,6,0,P|324:174|344:70,1,150,8|8,0:0|0:0,0:0:0:0:
235,141,27015,1,0,0:0:0:0:
156,185,27249,2,0,L|164:273,1,75,8|0,0:0|0:0,0:0:0:0:
80,292,27718,2,0,L|68:160,1,112.5,8|0,0:0|0:0,0:0:0:0:
88,140,28187,6,0,P|96:104|96:52,1,75,4|0,0:0|0:0,0:0:0:0:
184,48,28655,2,0,P|204:72|252:96,1,75,8|2,0:0|0:0,0:0:0:0:
332,88,29124,2,0,L|412:76,1,75,2|0,0:0|0:0,0:0:0:0:
456,152,29593,2,0,L|372:164,1,75,8|2,0:0|0:0,0:0:0:0:
313,226,30062,6,0,B|276:258|284:351|368:365|416:332|416:332|446:346|477:334,1,281.250010728836,0|0,1:0|0:0,0:0:0:0:
259,377,31937,6,0,P|235:342|223:253,1,112.500004291535,4|0,0:0|0:0,0:0:0:0:
316,180,32874,2,0,P|340:215|352:304,1,112.500004291535,2|0,0:0|0:0,0:0:0:0:
220,274,33812,6,0,L|92:262,1,112.500004291535,4|0,0:0|0:0,0:0:0:0:
204,172,34749,2,0,L|332:184,1,112.500004291535,2|0,0:0|0:0,0:0:0:0:
408,280,35687,6,0,P|448:240|432:116,1,168.750006437302,4|0,0:0|0:0,0:0:0:0:
384,92,36624,2,0,L|256:80,1,112.500004291535,2|0,0:0|0:0,0:0:0:0:
147,133,37562,6,0,P|107:173|123:297,1,168.750006437302,4|0,0:0|0:0,0:0:0:0:
164,328,38499,1,2,0:2:0:0:
256,212,38968,1,2,0:2:0:0:
348,328,39437,5,4,0:0:0:0:
468,264,39905,2,0,L|476:192,1,56.2500021457673,8|0,0:3|0:0,0:0:0:0:
458,136,40374,2,0,P|443:114|343:90,1,112.500004291535,8|8,0:3|0:3,0:0:0:0:
228,136,41312,6,0,L|148:128,1,56.2500021457673,8|0,0:3|0:0,0:0:0:0:
116,84,41780,1,8,0:3:0:0:
52,216,42249,1,8,0:3:0:0:
188,264,42718,1,8,0:3:0:0:
324,208,43187,6,0,L|332:112,1,84.3750032186509,12|8,0:2|0:2,0:0:0:0:
340,117,43655,2,0,L|345:47,1,56.2500021457673,0|8,0:0|0:2,0:0:0:0:
432,111,44124,2,0,L|424:219,1,84.3750032186509,8|0,0:2|0:0,0:0:0:0:
480,260,44710,2,8,L|476:308,2,28.1250010728836,0|0|0,0:0|0:0|0:0,0:0:0:0:
384,284,45179,6,8,L|360:324,2,28.1250010728836,0|0|0,0:0|0:0|0:0,0:0:0:0:
285,249,45647,2,8,L|232:256,2,28.1250010728836,0|0|0,0:0|0:0|0:0,0:0:0:0:
249,158,46116,1,8,0:0:0:0:
220,136,46233,1,8,0:0:0:0:
188,116,46351,1,8,0:0:0:0:
306,88,46585,1,8,0:0:0:0:
296,52,46702,1,8,0:0:0:0:
288,16,46819,1,8,0:0:0:0:
332,36,46937,6,0,L|408:40,1,75,6|0,0:0|0:0,0:0:0:0:
456,124,47405,2,0,L|368:136,1,75,0|0,0:0|0:0,0:0:0:0:
336,220,47874,1,0,0:0:0:0:
468,364,48343,1,0,0:0:0:0:
272,344,48812,6,0,L|172:340,1,75,2|0,0:0|0:0,0:0:0:0:
160,252,49280,2,0,L|244:248,1,75,0|0,0:0|0:0,0:0:0:0:
296,172,49749,1,0,0:0:0:0:
408,332,50218,1,0,0:0:0:0:
496,160,50687,6,0,L|484:64,1,75,2|0,0:0|0:0,0:0:0:0:
396,52,51155,2,0,L|408:148,1,75,2|0,0:0|0:0,0:0:0:0:
440,216,51624,1,2,0:0:0:0:
284,336,52093,1,2,0:0:0:0:
156,188,52562,6,0,P|120:192|72:224,1,75,2|0,0:0|0:0,0:0:0:0:
152,280,53030,2,0,P|188:276|236:244,1,75,2|0,0:0|0:0,0:0:0:0:
244,164,53499,1,2,0:0:0:0:
68,298,53968,1,2,0:0:0:0:
56,92,54437,6,0,L|116:160,1,75,2|0,0:0|0:0,0:0:0:0:
168,224,54905,2,0,L|224:288,1,75,2|0,0:0|0:0,0:0:0:0:
208,148,55374,1,2,0:0:0:0:
32,236,55843,2,0,P|28:276|40:332,1,75,2|0,0:0|0:0,0:0:0:0:
108,376,56312,6,0,P|168:356|200:352,1,75,10|0,0:0|0:0,0:0:0:0:
272,384,56780,1,2,0:0:0:0:
184,204,57249,1,2,0:0:0:0:
380,220,57718,1,2,0:0:0:0:
272,384,58187,5,10,0:0:0:0:
159,180,58655,1,2,0:0:0:0:
437,187,59124,1,2,0:0:0:0:
264,280,59593,2,0,L|272:184,1,75,2|0,0:0|0:0,0:0:0:0:
335,326,60062,6,0,P|303:354|232:352,1,112.5
192,360,60530,2,0,P|160:366|129:380,2,56.25,8|0|0,0:0|0:0|0:0,0:0:0:0:
160,328,60999,2,0,P|129:306|96:296,2,56.25,8|0|0,0:0|0:0|0:0,0:0:0:0:
192,296,61468,1,12,0:1:0:0:
117,192,61702,1,12,0:1:0:0:
152,108,61937,6,0,L|256:96,1,75,2|0,0:0|0:0,0:0:0:0:
308,152,62405,2,0,L|388:140,1,75,8|0,0:0|0:0,0:0:0:0:
460,80,62874,1,0,0:0:0:0:
468,176,63108,1,0,0:0:0:0:
472,272,63343,1,8,0:0:0:0:
296,352,63812,6,0,P|248:312|140:312,1,150,0|8,0:0|0:0,0:0:0:0:
76,364,64515,1,0,0:0:0:0:
20,284,64749,2,0,L|4:164,1,112.5
36,136,65218,2,0,P|76:148|136:148,1,75,8|2,0:0|0:0,0:0:0:0:
224,84,65687,6,0,P|260:64|308:56,1,75,4|0,0:0|0:0,0:0:0:0:
364,120,66155,2,0,P|328:140|280:148,1,75,8|0,0:0|0:0,0:0:0:0:
204,180,66624,2,0,P|236:260|244:352,1,150,0|8,0:0|0:0,0:0:0:0:
52,368,67562,6,0,P|72:340|112:308,1,75,4|0,0:0|0:0,0:0:0:0:
48,232,68030,2,0,P|88:220|128:220,1,75,8|0,0:0|0:0,0:0:0:0:
112,120,68499,2,0,P|152:128|220:196,1,112.5,4|0,0:0|0:0,0:0:0:0:
208,220,68968,1,8,0:0:0:0:
160,304,69202,1,0,0:0:0:0:
48,232,69437,6,0,L|27:108,1,112.5,4|0,0:0|0:0,0:0:0:0:
45,116,69905,2,0,L|33:38,1,75,8|0,0:0|0:0,0:0:0:0:
149,131,70374,2,0,L|121:55,1,75
272,160,70843,2,0,L|206:59,1,112.5,8|0,0:0|0:0,0:0:0:0:
260,16,71312,6,0,P|297:7|336:12,1,75,4|0,0:0|0:0,0:0:0:0:
400,84,71780,1,8,0:0:0:0:
360,172,72015,1,0,0:0:0:0:
440,228,72249,1,0,0:0:0:0:
484,316,72483,1,0,0:0:0:0:
364,318,72718,2,0,P|348:342|328:390,1,75,8|2,0:0|0:0,0:0:0:0:
240,352,73187,6,0,L|112:344,1,112.5,4|0,0:0|0:0,0:0:0:0:
108,300,73655,2,0,L|188:288,1,75,8|0,0:0|0:0,0:0:0:0:
66,214,74124,2,0,L|140:200,1,75
21,122,74593,2,0,L|94:107,1,75,8|0,0:0|0:0,0:0:0:0:
181,32,75062,6,0,P|220:56|312:48,1,112.5,4|0,0:0|0:0,0:0:0:0:
316,88,75530,2,0,P|314:127|320:168,1,75,10|8,0:0|0:0,0:0:0:0:
360,244,75999,2,0,L|300:256,2,56.25
388,280,76468,2,0,L|444:272,2,56.25,8|0|0,0:0|0:0|0:0,0:0:0:0:
384,324,76937,6,0,L|292:340,1,75,4|0,0:0|0:0,0:0:0:0:
308,240,77405,2,0,L|229:254,1,75,8|0,0:0|0:0,0:0:0:0:
232,152,77874,2,0,L|135:171,1,75
156,68,78343,2,0,L|78:82,1,75,8|0,0:0|0:0,0:0:0:0:
17,194,78812,6,0,P|6:242|26:330,1,112.5,4|0,0:0|0:0,0:0:0:0:
50,338,79280,2,0,L|130:330,1,75,8|0,0:0|0:0,0:0:0:0:
193,261,79749,2,0,L|273:253,1,75,2|0,0:0|0:0,0:0:0:0:
336,184,80218,2,0,L|424:176,1,75,8|0,0:0|0:0,0:0:0:0:
479,108,80687,5,4,0:0:0:0:
386,82,80921,1,0,0:0:0:0:
410,177,81155,1,8,0:0:0:0:
464,12,81624,1,4,0:0:0:0:
376,4,81858,1,0,0:0:0:0:
296,44,82093,1,8,0:0:0:0:
120,16,82562,6,0,P|104:44|92:104,1,75,4|0,0:0|0:0,0:0:0:0:
132,168,83030,2,0,L|120:248,2,75,8|0|4,0:0|0:0|0:0,0:0:0:0:
208,120,83733,2,0,L|220:212,2,75,0|8|2,0:0|0:0|0:0,0:0:0:0:
232,32,84437,6,0,P|285:42|387:19,1,150,4|8,0:0|0:0,0:0:0:0:
396,116,85140,1,0,0:0:0:0:
488,144,85374,2,0,P|476:184|472:240,1,75,4|0,0:0|0:0,0:0:0:0:
504,308,85843,1,8,0:0:0:0:
316,364,86312,6,0,L|144:352,1,150,4|8,0:0|0:0,0:0:0:0:
108,276,87015,1,0,0:0:0:0:
240,200,87249,2,0,P|248:236|244:280,1,75,4|0,0:0|0:0,0:0:0:0:
140,152,87718,2,0,P|136:112|144:72,1,75,8|0,0:0|0:0,0:0:0:0:
220,16,88187,6,0,L|316:4,1,75,4|0,0:0|0:0,0:0:0:0:
292,104,88655,2,0,L|380:112,1,75,8|0,0:0|0:0,0:0:0:0:
480,180,89124,2,0,P|472:140|492:16,1,150,4|8,0:0|0:0,0:0:0:0:
384,256,90062,6,0,L|396:352,1,75,12|0,0:0|0:0,0:0:0:0:
289,232,90530,2,0,L|301:324,1,75,8|0,0:0|0:0,0:0:0:0:
200,204,90999,2,0,L|212:300,1,75,4|0,0:0|0:0,0:0:0:0:
105,180,91468,2,0,L|117:272,1,75,8|0,0:0|0:0,0:0:0:0:
240,356,91937,5,2,0:2:0:0:
356,216,92405,1,2,0:2:0:0:
220,100,92874,1,2,0:2:0:0:
114,254,93343,1,2,0:2:0:0:
300,286,93812,5,0,1:2:0:0:
284,168,94280,1,0,1:2:0:0:
164,184,94749,1,0,1:2:0:0:
176,304,95218,1,0,1:2:0:0:
388,224,95687,6,0,L|436:232,2,46.875,6|0|0,0:0|0:0|0:0,0:0:0:0:
312,308,96155,2,0,L|416:324,1,93.75
436,368,96507,1,0,0:0:0:0:
512,288,96741,1,2,0:0:0:0:
504,176,96976,1,2,0:0:0:0:
428,96,97210,1,0,0:0:0:0:
427,83,97327,1,0,0:0:0:0:
426,69,97444,1,0,0:0:0:0:
426,55,97562,6,0,L|490:23,2,46.875,6|0|0,0:0|0:0|0:0,0:0:0:0:
376,32,97913,2,0,L|316:60,2,46.875,0|8|2,0:0|0:0|0:0,0:0:0:0:
348,208,98382,1,0,0:0:0:0:
252,120,98616,1,2,0:0:0:0:
228,232,98851,2,0,P|188:240|108:228,1,93.75,2|0,0:0|0:0,0:0:0:0:
88,204,99202,2,0,L|72:152,1,46.875,0|0,0:0|0:0,0:0:0:0:
96,108,99437,5,6,0:0:0:0:
4,232,99671,2,0,L|20:288,1,46.875,0|0,0:0|0:0,0:0:0:0:
128,336,100022,1,0,0:0:0:0:
124,349,100140,1,0,0:0:0:0:
119,363,100257,1,0,0:0:0:0:
112,228,100491,1,2,0:0:0:0:
252,352,100726,1,2,0:0:0:0:
360,256,100960,1,0,0:0:0:0:
372,266,101077,1,0,0:0:0:0:
384,276,101194,1,0,0:0:0:0:
399,288,101312,6,0,L|496:280,1,93.75,6|0,0:0|0:0,0:0:0:0:
512,176,101780,2,0,L|411:187,1,93.75
372,156,102132,1,2,0:0:0:0:
264,260,102366,1,0,0:0:0:0:
224,124,102601,1,0,0:0:0:0:
364,250,102835,1,0,0:0:0:0:
362,266,102952,1,0,0:0:0:0:
360,282,103069,1,0,0:0:0:0:
359,299,103187,6,0,L|366:356,2,46.875,6|0|0,0:0|0:0|0:0,0:0:0:0:
308,280,103538,1,0,0:0:0:0:
456,305,103772,1,2,0:0:0:0:
356,156,104007,2,0,L|350:106,2,46.875,0|0|2,0:0|0:0|0:0,0:0:0:0:
424,44,104476,1,2,0:0:0:0:
262,77,104710,1,0,0:0:0:0:
244,75,104827,1,0,0:0:0:0:
225,73,104944,1,0,0:0:0:0:
208,71,105062,6,0,L|198:17,2,46.875,6|0|0,0:0|0:0|0:0,0:0:0:0:
180,120,105413,1,0,0:0:0:0:
80,72,105647,1,2,0:0:0:0:
32,172,105882,1,2,0:0:0:0:
132,220,106116,1,2,0:0:0:0:
236,260,106351,1,2,0:0:0:0:
296,356,106585,2,0,L|368:344,2,46.875
252,384,106937,6,0,P|199:375|143:379,1,93.75,6|0,0:0|0:0,0:0:0:0:
48,384,107405,2,0,L|56:272,1,93.75,8|2,0:0|0:0,0:0:0:0:
92,248,107757,1,0,0:0:0:0:
108,136,107991,2,0,L|112:80,2,46.875,2|0|2,0:0|0:0|0:0,0:0:0:0:
156,164,108343,2,0,P|192:143|230:97,1,93.75
365,48,108812,6,2,P|410:73|471:145,1,129.375002467632,4|0,0:0|0:0,0:0:0:0:
455,177,109280,2,2,P|408:174|326:190,1,118.124996395111,4|0,0:0|0:0,0:0:0:0:
344,232,109749,2,2,P|376:259|421:317,1,106.87499714613,4|0,0:0|0:0,0:0:0:0:
391,338,110218,2,2,P|351:322|304:320,1,63.7500012159348,4|0,0:0|0:0,0:0:0:0:
166,344,110687,5,6,0:0:0:0:
188,232,110921,1,0,0:0:0:0:
184,211,111038,1,0,0:0:0:0:
245,107,111272,1,2,0:0:0:0:
359,194,111507,1,0,0:0:0:0:
348,84,111741,1,2,0:0:0:0:
268,217,111976,1,2,0:0:0:0:
429,136,112210,1,0,0:0:0:0:
448,140,112327,1,0,0:0:0:0:
464,144,112444,1,0,0:0:0:0:
481,147,112562,6,0,L|478:87,2,46.875,6|0|0,0:0|0:0|0:0,0:0:0:0:
392,216,113030,2,0,L|392:284,2,46.875,8|0|0,0:0|0:0|0:0,0:0:0:0:
300,152,113499,1,4,0:0:0:0:
299,134,113616,1,0,0:0:0:0:
298,115,113733,1,0,0:0:0:0:
208,180,113968,1,8,0:0:0:0:
207,200,114085,1,0,0:0:0:0:
207,222,114202,1,0,0:0:0:0:
80,168,114437,6,0,L|64:68,1,93.75,4|0,0:0|0:0,0:0:0:0:
56,68,114788,1,0,0:0:0:0:
156,116,115022,1,0,0:0:0:0:
16,244,115257,1,0,0:0:0:0:
136,336,115491,1,2,0:0:0:0:
208,248,115726,2,0,P|248:232|324:228,1,93.75,2|0,0:0|0:0,0:0:0:0:
348,248,116077,2,0,L|408:236,1,46.875
432,196,116312,6,0,P|448:156|452:88,1,93.75,4|0,0:0|0:0,0:0:0:0:
340,28,116780,2,0,P|322:71|316:117,1,93.75,8|0,0:0|0:0,0:0:0:0:
203,189,117249,2,0,P|163:185|91:193,1,93.75,2|0,0:0|0:0,0:0:0:0:
71,319,117718,2,2,P|111:323|183:315,1,93.75,8|0,0:0|0:0,0:0:0:0:
288,268,118187,6,0,L|336:272,1,46.875,4|0,0:0|0:0,0:0:0:0:
348,266,118421,1,0,0:0:0:0:
361,260,118538,1,2,0:0:0:0:
288,348,118772,1,0,0:0:0:0:
220,200,119007,1,0,0:0:0:0:
149,300,119241,2,0,L|44:292,1,93.75,2|2,0:0|0:0,0:0:0:0:
28,244,119593,1,0,0:0:0:0:
208,363,119827,1,0,0:0:0:0:
221,351,119944,1,0,0:0:0:0:
234,339,120062,6,0,L|220:233,1,93.75,4|0,0:0|0:0,0:0:0:0:
310,348,120530,2,0,L|296:244,1,93.75,8|0,0:0|0:0,0:0:0:0:
388,359,120999,2,0,L|374:253,1,93.75,2|0,0:0|0:0,0:0:0:0:
465,370,121468,2,0,L|450:267,1,93.75,8|0,0:0|0:0,0:0:0:0:
396,140,121937,6,0,P|428:116|488:96,2,93.75,4|0|8,0:0|0:0|0:0,0:0:0:0:
292,184,122640,2,0,L|292:56,2,93.75,0|4|0,0:0|0:0|0:0,0:0:0:0:
204,256,123343,2,2,P|184:228|132:192,1,93.75,8|0,0:0|0:0,0:0:0:0:
256,192,123812,12,12,125218,0:0:0:0:
131,260,136937,5,2,1:2:0:0:
175,252,137874,1,2,2:0:0:0:
219,244,138812,1,2,2:0:0:0:
263,236,139749,1,2,2:0:0:0:
300,227,140687,6,0,L|304:111,1,112.500004291535,12|8,0:0|0:0,0:0:0:0:
428,63,141624,2,0,L|424:187,1,112.500004291535,8|8,0:0|0:0,0:0:0:0:
300,227,142562,6,0,L|187:223,1,112.500004291535,8|8,0:0|0:0,0:0:0:0:
239,347,143499,2,0,L|351:350,1,112.500004291535,8|8,0:0|1:0,0:0:0:0:
468,284,144437,5,12,0:0:0:0:
436,152,144905,1,8,0:0:0:0:
304,180,145374,1,4,0:0:0:0:
336,312,145843,1,8,0:0:0:0:
212,260,146312,5,8,0:0:0:0:
140,144,146780,1,8,0:0:0:0:
23,211,147249,1,4,0:0:0:0:
95,327,147718,1,8,0:0:0:0:
216,264,148187,6,0,L|288:268,1,56.2500021457673,12|0,0:0|0:0,0:0:0:0:
328,220,148655,1,8,0:0:0:0:
384,356,149124,2,0,P|412:324|496:304,1,112.500004291535,8|8,0:0|0:0,0:0:0:0:
464,232,149827,1,0,0:0:0:0:
512,176,150062,6,0,P|478:149|454:66,1,112.500004291535,12|8,0:0|0:0,0:0:0:0:
316,36,150999,2,0,P|288:56|260:140,1,112.500004291535,8|8,0:0|0:0,0:0:0:0:
292,192,151702,1,0,0:0:0:0:
236,240,151937,6,0,L|164:232,1,56.2500021457673,12|0,0:0|0:0,0:0:0:0:
191,155,152405,2,0,L|124:163,1,56.2500021457673,8|0,0:0|0:0,0:0:0:0:
139,75,152874,2,0,L|76:100,1,56.2500021457673,4|0,0:0|0:0,0:0:0:0:
50,14,153343,2,0,L|4:58,1,56.2500021457673,8|0,0:0|0:0,0:0:0:0:
154,40,153812,6,0,P|192:68|372:52,1,225.000008583069,4|2,0:0|2:2,0:0:0:0:
368,52,155218,5,12,1:0:0:0:
348,184,155452,1,12,1:0:0:0:
328,304,155687,6,0,P|376:288|476:372,1,187.5,4|8,0:0|0:0,0:0:0:0:
290,375,156390,1,0,0:0:0:0:
188,324,156624,2,0,L|88:332,1,93.75
44,232,157093,2,0,L|148:224,1,93.75,8|0,0:0|0:0,0:0:0:0:
274,151,157562,6,0,P|282:91|194:11,1,187.5,4|8,0:0|0:0,0:0:0:0:
96,68,158265,1,0,0:0:0:0:
210,208,158499,2,0,L|204:311,1,93.75
318,169,158968,2,0,L|310:272,1,93.75,8|0,0:0|0:0,0:0:0:0:
412,358,159437,6,0,P|460:334|480:198,1,187.5,4|8,0:0|0:0,0:0:0:0:
432,112,160140,1,0,0:0:0:0:
296,247,160374,2,0,L|390:255,1,93.75
228,347,160843,2,0,L|332:336,1,93.75,8|0,0:0|0:0,0:0:0:0:
183,265,161312,6,0,P|124:252|32:336,1,187.5,4|8,0:0|0:0,0:0:0:0:
247,192,162015,1,0,0:0:0:0:
341,301,162249,2,0,L|445:289,1,93.75,4|0,0:0|0:0,0:0:0:0:
469,181,162718,2,0,L|373:193,1,93.75,8|0,0:0|0:0,0:0:0:0:
268,70,163187,6,0,P|324:32|460:40,1,187.5,4|8,0:0|0:0,0:0:0:0:
504,124,163890,1,0,0:0:0:0:
368,208,164124,2,0,L|272:192,1,93.75,4|0,0:0|0:0,0:0:0:0:
399,313,164593,2,0,L|294:294,1,93.75,8|0,0:0|0:0,0:0:0:0:
200,264,165062,5,4,0:0:0:0:
446,238,165530,1,8,0:0:0:0:
276,47,165999,1,4,0:0:0:0:
344,280,166468,2,0,L|332:376,1,93.75,8|0,0:0|0:0,0:0:0:0:
294,179,166937,6,0,P|384:171|446:238,1,187.5,4|8,0:0|0:0,0:0:0:0:
396,348,167640,1,0,0:0:0:0:
242,351,167874,2,0,L|138:359,1,93.75,4|0,0:0|0:0,0:0:0:0:
282,251,168343,2,0,L|165:261,1,93.75,8|0,0:0|0:0,0:0:0:0:
74,167,168812,6,0,P|100:124|20:4,1,187.5,4|8,0:0|0:0,0:0:0:0:
14,220,169515,1,0,0:0:0:0:
168,224,169749,2,0,P|180:268|184:324,1,93.75,4|0,0:0|0:0,0:0:0:0:
90,172,170218,1,12,0:0:0:0:
255,202,170452,1,12,0:0:0:0:
176,108,170687,6,0,L|168:8,1,93.75,4|0,0:0|0:0,0:0:0:0:
280,32,171155,2,0,L|288:144,1,93.75,8|0,0:0|0:0,0:0:0:0:
412,172,171624,2,0,P|436:196|424:352,1,187.5,4|8,0:0|0:0,0:0:0:0:
328,308,172327,1,0,0:0:0:0:
173,362,172562,6,0,L|69:354,1,93.75,4|0,0:0|0:0,0:0:0:0:
32,244,173030,2,0,L|132:237,1,93.75,8|0,0:0|0:0,0:0:0:0:
180,125,173499,2,0,L|80:116,1,93.75,4|0,0:0|0:0,0:0:0:0:
39,22,173968,1,8,0:0:0:0:
152,8,174202,1,0,0:0:0:0:
282,68,174437,6,0,P|296:132|195:238,1,187.5,4|8,0:0|0:0,0:0:0:0:
128,180,175140,1,0,0:0:0:0:
165,341,175374,2,0,P|212:348|264:336,1,93.75,4|0,0:0|0:0,0:0:0:0:
415,281,175843,2,0,P|384:272|332:232,1,93.75,8|0,0:0|0:0,0:0:0:0:
431,67,176312,6,0,P|476:140|480:256,1,187.5,4|8,0:0|0:0,0:0:0:0:
379,335,177015,1,0,0:0:0:0:
256,263,177249,2,0,P|236:291|220:351,1,93.75,4|0,0:0|0:0,0:0:0:0:
371,157,177718,2,0,P|362:206|333:242,1,93.75,8|0,0:0|0:0,0:0:0:0:
277,117,178187,5,4,0:0:0:0:
200,196,178421,1,0,0:0:0:0:
120,276,178655,2,0,L|13:271,1,93.75,8|0,0:0|0:0,0:0:0:0:
0,160,179124,2,0,L|100:164,1,93.75,4|0,0:0|0:0,0:0:0:0:
200,196,179593,1,8,0:0:0:0:
404,292,180062,6,0,L|388:84,1,187.5,4|8,0:0|0:0,0:0:0:0:
480,172,180765,1,0,0:0:0:0:
303,141,180999,2,0,P|299:105|319:49,1,93.75,4|0,0:0|0:0,0:0:0:0:
270,237,181468,2,0,P|224:248|176:244,1,93.75,8|0,0:0|0:0,0:0:0:0:
82,176,181937,6,0,L|90:320,1,140.625,4|0,0:0|0:0,0:0:0:0:
64,368,182405,1,8,0:0:0:0:
176,344,182640,1,0,0:0:0:0:
284,376,182874,1,4,0:0:0:0:
372,308,183108,1,0,0:0:0:0:
260,284,183343,1,8,0:0:0:0:
152,248,183577,1,0,0:0:0:0:
236,172,183812,6,0,P|227:132|238:75,1,93.75,4|0,0:0|0:0,0:0:0:0:
338,137,184280,2,0,P|346:176|335:233,1,93.75,8|0,0:0|0:0,0:0:0:0:
236,284,184749,2,0,L|120:264,1,93.75,4|0,0:0|0:0,0:0:0:0:
44,324,185218,1,12,0:0:0:0:
20,160,185452,1,12,0:0:0:0:
256,192,185687,12,0,189437,0:0:0:0:
