osu file format v14

[General]
AudioFilename: cYsmix - Manic 224.mp3
AudioLeadIn: 0
PreviewTime: -1
Countdown: 1
SampleSet: None
StackLeniency: 0.7
Mode: 0
LetterboxInBreaks: 0
WidescreenStoryboard: 0

[Editor]
DistanceSpacing: 1.2
BeatDivisor: 4
GridSize: 4
TimelineZoom: 1

[Metadata]
Title:Manic
TitleUnicode:Manic
Artist:cYsmix
ArtistUnicode:cYsmix
Creator:YamiHikari
Version:idk
Source:osu!
Tags:cysmix, osu
BeatmapID:852010
BeatmapSetID:391048

[Difficulty]
HPDrainRate:6
CircleSize:4
OverallDifficulty:7
ApproachRate:9
SliderMultiplier:1.10000000596046
SliderTickRate:2

[Events]
//Background and Video events
//Break Periods
//Storyboard Layer 0 (Background)
//Storyboard Layer 1 (Fail)
//Storyboard Layer 2 (Pass)
//Storyboard Layer 3 (Foreground)
//Storyboard Sound Samples

[TimingPoints]
9.90584701708819,399.996862745099,4,2,0,100,1,0
14009,-200,4,2,0,100,0,0

[HitObjects]
256,296,1609,5,0,0:0:0:0:
316,132,1809,2,0,P|352:139|396:132,1,82.5000004470345
248,304,2209,1,0,0:0:0:0:
304,128,2409,2,0,P|364:160|376:156,1,82.5000004470345
344,272,2809,1,0,0:0:0:0:
160,272,3009,1,0,0:0:0:0:
156,112,3409,2,0,P|144:192|152:196,1,110.000000596046
360,168,4009,6,0,L|368:236,2,55.000000298023
352,148,4509,1,0,0:0:0:0:
344,116,4609,1,0,0:0:0:0:
168,164,4809,1,0,0:0:0:0:
336,64,5209,1,0,0:0:0:0:
160,292,5409,1,0,0:0:0:0:
160,92,5809,1,0,0:0:0:0:
332,288,6009,1,0,0:0:0:0:
144,112,6409,2,0,L|192:112,1,27.5000001490115
216,104,6609,1,0,0:0:0:0:
392,224,7009,2,0,L|276:224,1,110.000000596046
400,312,7609,2,0,L|320:304,1,55.000000298023
296,296,7909,1,0,0:0:0:0:
264,268,8009,1,0,0:0:0:0:
136,104,8209,1,0,0:0:0:0:
396,72,8409,1,0,0:0:0:0:
144,284,8809,5,0,0:0:0:0:
156,172,9109,1,0,0:0:0:0:
140,132,9209,1,0,0:0:0:0:
152,96,9309,1,0,0:0:0:0:
280,68,9509,1,0,0:0:0:0:
388,144,9709,1,0,0:0:0:0:
132,296,10009,1,0,0:0:0:0:
408,208,10409,1,0,0:0:0:0:
176,200,10609,5,0,0:0:0:0:
168,240,10709,1,0,0:0:0:0:
176,280,10809,1,0,0:0:0:0:
368,324,11009,1,0,0:0:0:0:
172,96,11209,1,0,0:0:0:0:
324,312,11409,1,0,0:0:0:0:
116,156,11609,1,0,0:0:0:0:
392,148,11809,1,0,0:0:0:0:
168,340,12009,1,0,0:0:0:0:
264,120,12209,1,0,0:0:0:0:
360,332,12409,1,0,0:0:0:0:
136,216,12609,1,0,0:0:0:0:
352,116,12809,5,0,0:0:0:0:
328,144,12909,1,0,0:0:0:0:
296,168,13009,1,0,0:0:0:0:
256,184,13109,1,0,0:0:0:0:
204,192,13209,1,0,0:0:0:0:
160,176,13309,1,0,0:0:0:0:
128,152,13409,1,0,0:0:0:0:
120,116,13509,1,0,0:0:0:0:
136,76,13609,1,0,0:0:0:0:
168,48,13709,1,0,0:0:0:0:
208,36,13809,1,0,0:0:0:0:
248,44,13909,1,0,0:0:0:0:
256,84,14009,2,0,P|260:120|256:152,1,55.000000298023
184,212,14409,5,0,0:0:0:0:
216,236,14509,1,0,0:0:0:0:
256,240,14609,1,0,0:0:0:0:
296,232,14709,1,0,0:0:0:0:
324,220,14809,1,0,0:0:0:0:
344,184,14909,1,0,0:0:0:0:
352,148,15009,1,0,0:0:0:0:
160,88,15209,1,0,0:0:0:0:
144,120,15309,1,0,0:0:0:0:
136,160,15409,1,0,0:0:0:0:
144,204,15509,1,0,0:0:0:0:
156,236,15609,1,0,0:0:0:0:
180,276,15709,1,0,0:0:0:0:
212,304,15809,1,0,0:0:0:0:
